  0
SECTION
  2
HEADER
  9
$ACADVER
  1
AC1015
  9
$ACADMAINTVER
 70
     6
  9
$DWGCODEPAGE
  3
DOS932
  9
$INSBASE
 10
0.0
 20
0.0
 30
0.0
  9
$EXTMIN
 10
0.0
 20
0.0
 30
0.0
  9
$EXTMAX
 10
420.0
 20
297.0
 30
0.0
  9
$LIMMIN
 10
0.0
 20
0.0
  9
$LIMMAX
 10
420.0
 20
297.0
  9
$ORTHOMODE
 70
     0
  9
$REGENMODE
 70
     1
  9
$FILLMODE
 70
     1
  9
$QTEXTMODE
 70
     0
  9
$MIRRTEXT
 70
     1
  9
$LTSCALE
 40
1.0
  9
$ATTMODE
 70
     1
  9
$TEXTSIZE
 40
3.5
  9
$TRACEWID
 40
1.0
  9
$TEXTSTYLE
  7
Standard
  9
$CLAYER
  8
0
  9
$CELTYPE
  6
ByLayer
  9
$CECOLOR
 62
   256
  9
$CELTSCALE
 40
1.0
  9
$DISPSILH
 70
     0
  9
$DIMSCALE
 40
1.0
  9
$DIMASZ
 40
3.0
  9
$DIMEXO
 40
1.0
  9
$DIMDLI
 40
3.75
  9
$DIMRND
 40
0.0
  9
$DIMDLE
 40
0.0
  9
$DIMEXE
 40
1.0
  9
$DIMTP
 40
0.0
  9
$DIMTM
 40
0.0
  9
$DIMTXT
 40
3.5
  9
$DIMCEN
 40
2.5
  9
$DIMTSZ
 40
0.0
  9
$DIMTOL
 70
     0
  9
$DIMLIM
 70
     0
  9
$DIMTIH
 70
     1
  9
$DIMTOH
 70
     1
  9
$DIMSE1
 70
     0
  9
$DIMSE2
 70
     0
  9
$DIMTAD
 70
     1
  9
$DIMZIN
 70
     1
  9
$DIMBLK
  1

  9
$DIMASO
 70
     1
  9
$DIMSHO
 70
     1
  9
$DIMPOST
  1

  9
$DIMAPOST
  1

  9
$DIMALT
 70
     0
  9
$DIMALTD
 70
     3
  9
$DIMALTF
 40
0.0393700787
  9
$DIMLFAC
 40
1.0
  9
$DIMTOFL
 70
     1
  9
$DIMTVP
 40
0.0
  9
$DIMTIX
 70
     0
  9
$DIMSOXD
 70
     0
  9
$DIMSAH
 70
     0
  9
$DIMBLK1
  1

  9
$DIMBLK2
  1

  9
$DIMSTYLE
  2
ISO-25
  9
$DIMCLRD
 70
     0
  9
$DIMCLRE
 70
     0
  9
$DIMCLRT
 70
     0
  9
$DIMTFAC
 40
1.0
  9
$DIMGAP
 40
1.524
  9
$DIMJUST
 70
     0
  9
$DIMSD1
 70
     0
  9
$DIMSD2
 70
     0
  9
$DIMTOLJ
 70
     0
  9
$DIMTZIN
 70
     1
  9
$DIMALTZ
 70
     0
  9
$DIMALTTZ
 70
     0
  9
$DIMUPT
 70
     0
  9
$DIMDEC
 70
     2
  9
$DIMTDEC
 70
     2
  9
$DIMALTU
 70
     2
  9
$DIMALTTD
 70
     3
  9
$DIMTXSTY
  7
Standard
  9
$DIMAUNIT
 70
     0
  9
$DIMADEC
 70
     0
  9
$DIMALTRND
 40
0.0
  9
$DIMAZIN
 70
     0
  9
$DIMDSEP
 70
    44
  9
$DIMATFIT
 70
     3
  9
$DIMFRAC
 70
     0
  9
$DIMLDRBLK
  1

  9
$DIMLUNIT
 70
     2
  9
$DIMLWD
 70
    -2
  9
$DIMLWE
 70
    -2
  9
$DIMTMOVE
 70
     0
  9
$LUNITS
 70
     2
  9
$LUPREC
 70
     4
  9
$SKETCHINC
 40
1.0
  9
$FILLETRAD
 40
10.0
  9
$AUNITS
 70
     0
  9
$AUPREC
 70
     0
  9
$MENU
  1
.
  9
$ELEVATION
 40
0.0
  9
$PELEVATION
 40
0.0
  9
$THICKNESS
 40
0.0
  9
$LIMCHECK
 70
     0
  9
$CHAMFERA
 40
10.0
  9
$CHAMFERB
 40
10.0
  9
$CHAMFERC
 40
20.0
  9
$CHAMFERD
 40
0.0
  9
$SKPOLY
 70
     0
  9
$TDCREATE
 40
2455049.570926944
  9
$TDUCREATE
 40
2455049.195926944
  9
$TDUPDATE
 40
2455049.570926956
  9
$TDUUPDATE
 40
2455049.195926956
  9
$TDINDWG
 40
0.0000000116
  9
$TDUSRTIMER
 40
0.0000000116
  9
$USRTIMER
 70
     1
  9
$ANGBASE
 50
0.0
  9
$ANGDIR
 70
     0
  9
$PDMODE
 70
     0
  9
$PDSIZE
 40
-1.0
  9
$PLINEWID
 40
0.0
  9
$SPLFRAME
 70
     0
  9
$SPLINETYPE
 70
     6
  9
$SPLINESEGS
 70
     8
  9
$HANDSEED
  5
4F6
  9
$SURFTAB1
 70
     6
  9
$SURFTAB2
 70
     6
  9
$SURFTYPE
 70
     6
  9
$SURFU
 70
     6
  9
$SURFV
 70
     6
  9
$UCSBASE
  2

  9
$UCSNAME
  2

  9
$UCSORG
 10
0.0
 20
0.0
 30
0.0
  9
$UCSXDIR
 10
1.0
 20
0.0
 30
0.0
  9
$UCSYDIR
 10
0.0
 20
1.0
 30
0.0
  9
$UCSORTHOREF
  2

  9
$UCSORTHOVIEW
 70
     0
  9
$UCSORGTOP
 10
0.0
 20
0.0
 30
0.0
  9
$UCSORGBOTTOM
 10
0.0
 20
0.0
 30
0.0
  9
$UCSORGLEFT
 10
0.0
 20
0.0
 30
0.0
  9
$UCSORGRIGHT
 10
0.0
 20
0.0
 30
0.0
  9
$UCSORGFRONT
 10
0.0
 20
0.0
 30
0.0
  9
$UCSORGBACK
 10
0.0
 20
0.0
 30
0.0
  9
$PUCSBASE
  2

  9
$PUCSNAME
  2

  9
$PUCSORG
 10
0.0
 20
0.0
 30
0.0
  9
$PUCSXDIR
 10
1.0
 20
0.0
 30
0.0
  9
$PUCSYDIR
 10
0.0
 20
1.0
 30
0.0
  9
$PUCSORTHOREF
  2

  9
$PUCSORTHOVIEW
 70
     0
  9
$PUCSORGTOP
 10
0.0
 20
0.0
 30
0.0
  9
$PUCSORGBOTTOM
 10
0.0
 20
0.0
 30
0.0
  9
$PUCSORGLEFT
 10
0.0
 20
0.0
 30
0.0
  9
$PUCSORGRIGHT
 10
0.0
 20
0.0
 30
0.0
  9
$PUCSORGFRONT
 10
0.0
 20
0.0
 30
0.0
  9
$PUCSORGBACK
 10
0.0
 20
0.0
 30
0.0
  9
$USERI1
 70
     0
  9
$USERI2
 70
     0
  9
$USERI3
 70
     0
  9
$USERI4
 70
     0
  9
$USERI5
 70
     0
  9
$USERR1
 40
0.0
  9
$USERR2
 40
0.0
  9
$USERR3
 40
0.0
  9
$USERR4
 40
0.0
  9
$USERR5
 40
0.0
  9
$WORLDVIEW
 70
     1
  9
$SHADEDGE
 70
     3
  9
$SHADEDIF
 70
    70
  9
$TILEMODE
 70
     1
  9
$MAXACTVP
 70
    64
  9
$PINSBASE
 10
0.0
 20
0.0
 30
0.0
  9
$PLIMCHECK
 70
     0
  9
$PEXTMIN
 10
1.0000000000E+20
 20
1.0000000000E+20
 30
1.0000000000E+20
  9
$PEXTMAX
 10
-1.0000000000E+20
 20
-1.0000000000E+20
 30
-1.0000000000E+20
  9
$PLIMMIN
 10
0.0
 20
0.0
  9
$PLIMMAX
 10
420.0
 20
297.0
  9
$UNITMODE
 70
     0
  9
$VISRETAIN
 70
     1
  9
$PLINEGEN
 70
     0
  9
$PSLTSCALE
 70
     1
  9
$TREEDEPTH
 70
  3020
  9
$CMLSTYLE
  2
Standard
  9
$CMLJUST
 70
     0
  9
$CMLSCALE
 40
20.0
  9
$PROXYGRAPHICS
 70
     1
  9
$MEASUREMENT
 70
     1
  9
$CELWEIGHT
370
    -1
  9
$ENDCAPS
280
     0
  9
$JOINSTYLE
280
     0
  9
$LWDISPLAY
290
     1
  9
$INSUNITS
 70
     4
  9
$HYPERLINKBASE
  1

  9
$STYLESHEET
  1

  9
$XEDIT
290
     1
  9
$CEPSNTYPE
380
     0
  9
$PSTYLEMODE
290
     1
  9
$FINGERPRINTGUID
  2
{91493B06-B631-437F-8375-1BB9DD25CE9D}
  9
$VERSIONGUID
  2
{FAEB1C32-E019-11D5-929B-00C0DF256EC4}
  9
$EXTNAMES
290
     1
  9
$PSVPSCALE
 40
0.0
  9
$OLESTARTUP
290
     0
  0
ENDSEC
  0
SECTION
  2
CLASSES
  0
CLASS
  1
ACDBDICTIONARYWDFLT
  2
AcDbDictionaryWithDefault
  3
ObjectDBX Classes
 90
        0
280
     0
281
     0
  0
CLASS
  1
VISUALSTYLE
  2
AcDbVisualStyle
  3
ObjectDBX Classes
 90
     4095
280
     0
281
     0
  0
CLASS
  1
DICTIONARYVAR
  2
AcDbDictionaryVar
  3
ObjectDBX Classes
 90
        0
280
     0
281
     0
  0
CLASS
  1
ACDBPLACEHOLDER
  2
AcDbPlaceHolder
  3
ObjectDBX Classes
 90
        0
280
     0
281
     0
  0
CLASS
  1
LAYOUT
  2
AcDbLayout
  3
ObjectDBX Classes
 90
        0
280
     0
281
     0
  0
ENDSEC
  0
SECTION
  2
TABLES
  0
TABLE
  2
VPORT
  5
8
330
0
100
AcDbSymbolTable
 70
     1
  0
VPORT
  5
29
330
8
100
AcDbSymbolTableRecord
100
AcDbViewportTableRecord
  2
*Active
 70
     0
 10
0.0
 20
0.0
 11
1.0
 21
1.0
 12
210.0
 22
148.5
 13
0.0
 23
0.0
 14
10.0
 24
10.0
 15
10.0
 25
10.0
 16
0.0
 26
0.0
 36
1.0
 17
0.0
 27
0.0
 37
0.0
 40
297.0
 41
1.4141414141
 42
50.0
 43
0.0
 44
0.0
 50
0.0
 51
0.0
 71
     0
 72
  2000
 73
     1
 74
     3
 75
     0
 76
     0
 77
     0
 78
     0
281
     0
 65
     1
110
0.0
120
0.0
130
0.0
111
1.0
121
0.0
131
0.0
112
0.0
122
1.0
132
0.0
 79
     0
146
0.0
  0
ENDTAB
  0
TABLE
  2
LTYPE
  5
5
330
0
100
AcDbSymbolTable
 70
     6
  0
LTYPE
  5
14
330
5
100
AcDbSymbolTableRecord
100
AcDbLinetypeTableRecord
  2
ByBlock
 70
     0
  3

 72
    65
 73
     0
 40
0.0
  0
LTYPE
  5
15
330
5
100
AcDbSymbolTableRecord
100
AcDbLinetypeTableRecord
  2
ByLayer
 70
     0
  3

 72
    65
 73
     0
 40
0.0
  0
LTYPE
  5
16
330
5
100
AcDbSymbolTableRecord
100
AcDbLinetypeTableRecord
  2
Continuous
 70
     0
  3
Solid line
 72
    65
 73
     0
 40
0.0
  0
LTYPE
  5
3B
330
5
100
AcDbSymbolTableRecord
100
AcDbLinetypeTableRecord
  2
HIDDEN
 70
     0
  3
Hidden __ __ __ __ __ __ __ __ __ __ __ __ __ __
 72
    65
 73
     2
 40
1.905
 49
1.27
 74
     0
 49
-0.635
 74
     0
  0
LTYPE
  5
3C
330
5
100
AcDbSymbolTableRecord
100
AcDbLinetypeTableRecord
  2
PHANTOM
 70
     0
  3
Phantom ______  __  __  ______  __  __  ______
 72
    65
 73
     6
 40
12.7
 49
6.35
 74
     0
 49
-1.27
 74
     0
 49
1.27
 74
     0
 49
-1.27
 74
     0
 49
1.27
 74
     0
 49
-1.27
 74
     0
  0
LTYPE
  5
3D
330
5
100
AcDbSymbolTableRecord
100
AcDbLinetypeTableRecord
  2
CENTER
 70
     0
  3
Center ____ _ ____ _ ____ _ ____ _ ____ _ ____
 72
    65
 73
     4
 40
10.16
 49
6.35
 74
     0
 49
-1.27
 74
     0
 49
1.27
 74
     0
 49
-1.27
 74
     0
  0
LTYPE
  5
3E
330
5
100
AcDbSymbolTableRecord
100
AcDbLinetypeTableRecord
  2
CENTERX2
 70
     0
  3
Center (2x) ________  __  ________  __  _____
 72
    65
 73
     4
 40
20.32
 49
12.7
 74
     0
 49
-2.54
 74
     0
 49
2.54
 74
     0
 49
-2.54
 74
     0
  0
LTYPE
  5
3F
330
5
100
AcDbSymbolTableRecord
100
AcDbLinetypeTableRecord
  2
DOT2
 70
     0
  3
Dot (.5x) ........................................
 72
    65
 73
     2
 40
0.635
 49
0.0
 74
     0
 49
-0.635
 74
     0
  0
ENDTAB
  0
TABLE
  2
LAYER
  5
2
330
0
100
AcDbSymbolTable
 70
     7
  0
LAYER
  5
10
330
2
100
AcDbSymbolTableRecord
100
AcDbLayerTableRecord
  2
0
 70
     0
 62
     7
  6
Continuous
370
    -3
390
F
  0
LAYER
  5
40
330
2
100
AcDbSymbolTableRecord
100
AcDbLayerTableRecord
  2
SLD-0
 70
     0
 62
   179
  6
Continuous
370
    -3
390
F
  0
LAYER
  5
41
330
2
100
AcDbSymbolTableRecord
100
AcDbLayerTableRecord
  2
WORKLAYER
 70
     0
 62
   179
  6
Continuous
370
    -3
390
F
  0
LAYER
  5
42
330
2
100
AcDbSymbolTableRecord
100
AcDbLayerTableRecord
  2
SNOTE
 70
     0
 62
   179
  6
Continuous
370
    -3
390
F
  0
LAYER
  5
43
330
2
100
AcDbSymbolTableRecord
100
AcDbLayerTableRecord
  2
VIEW
 70
     0
 62
   179
  6
Continuous
370
    -3
390
F
  0
LAYER
  5
44
330
2
100
AcDbSymbolTableRecord
100
AcDbLayerTableRecord
  2
SDIM
 70
     0
 62
   179
  6
Continuous
370
    -3
390
F
  0
LAYER
  5
45
330
2
100
AcDbSymbolTableRecord
100
AcDbLayerTableRecord
  2
FORMAT
 70
     0
 62
     7
  6
Continuous
370
    -3
390
F
  0
ENDTAB
  0
TABLE
  2
STYLE
  5
3
330
0
100
AcDbSymbolTable
 70
     2
  0
STYLE
  5
11
330
3
100
AcDbSymbolTableRecord
100
AcDbTextStyleTableRecord
  2
Standard
 70
     0
 40
0.0
 41
1.0
 50
0.0
 71
     0
 42
2.5
  3
txt
  4
bigfont
  0
STYLE
  5
4A9
330
3
100
AcDbSymbolTableRecord
100
AcDbTextStyleTableRecord
  2
SLDTEXTSTYLE0
 70
     0
 40
0.0
 41
0.7
 50
0.0
 71
     0
 42
0.2
  3
TXT
  4
bigfont
  0
ENDTAB
  0
TABLE
  2
VIEW
  5
6
330
0
100
AcDbSymbolTable
 70
     0
  0
ENDTAB
  0
TABLE
  2
UCS
  5
7
330
0
100
AcDbSymbolTable
 70
     0
  0
ENDTAB
  0
TABLE
  2
APPID
  5
9
330
0
100
AcDbSymbolTable
 70
     1
  0
APPID
  5
12
330
9
100
AcDbSymbolTableRecord
100
AcDbRegAppTableRecord
  2
ACAD
 70
     0
  0
ENDTAB
  0
TABLE
  2
DIMSTYLE
  5
A
330
0
100
AcDbSymbolTable
 70
     4
100
AcDbDimStyleTable
  0
DIMSTYLE
105
27
330
A
100
AcDbSymbolTableRecord
100
AcDbDimStyleTableRecord
  2
ISO-25
 70
     0
 41
2.5
 42
0.625
 43
3.75
 44
1.25
 73
     0
 74
     0
 77
     1
 78
     8
140
2.5
141
2.5
143
0.0393700787
147
0.625
171
     3
172
     1
271
     2
272
     2
274
     3
278
    44
283
     0
284
     8
340
11
  0
DIMSTYLE
105
49A
102
{ACAD_REACTORS
330
499
330
4CD
330
4D7
102
}
330
A
100
AcDbSymbolTableRecord
100
AcDbDimStyleTableRecord
  2
SLDDIMSTYLE0
 70
     0
 41
3.0
 44
0.0
 73
     0
 77
     1
 78
    12
140
3.5
147
0.875
173
     1
271
     0
272
     0
284
    12
340
11
341
49B
343
49B
344
49B
  0
DIMSTYLE
105
4AC
102
{ACAD_REACTORS
330
4AB
330
4E1
102
}
330
A
100
AcDbSymbolTableRecord
100
AcDbDimStyleTableRecord
  2
SLDDIMSTYLE1
 70
     0
 41
3.0
 44
0.0
 73
     0
 77
     1
 78
    12
140
3.5
147
0.875
173
     1
271
     0
272
     0
284
    12
340
11
341
49B
343
49B
344
49B
  0
DIMSTYLE
105
4B9
102
{ACAD_REACTORS
330
4B8
330
4C3
102
}
330
A
100
AcDbSymbolTableRecord
100
AcDbDimStyleTableRecord
  2
SLDDIMSTYLE2
 70
     0
 41
3.0
 44
0.0
 73
     0
 77
     1
 78
    12
140
3.5
147
0.875
173
     1
271
     1
272
     1
284
    12
340
11
341
49B
343
49B
344
49B
  0
ENDTAB
  0
TABLE
  2
BLOCK_RECORD
  5
1
330
0
100
AcDbSymbolTable
 70
    12
  0
BLOCK_RECORD
  5
1F
330
1
100
AcDbSymbolTableRecord
100
AcDbBlockTableRecord
  2
*Model_Space
340
22
  0
BLOCK_RECORD
  5
1B
330
1
100
AcDbSymbolTableRecord
100
AcDbBlockTableRecord
  2
*Paper_Space
340
1E
  0
BLOCK_RECORD
  5
23
330
1
100
AcDbSymbolTableRecord
100
AcDbBlockTableRecord
  2
*Paper_Space0
340
26
  0
BLOCK_RECORD
  5
46
330
1
100
AcDbSymbolTableRecord
100
AcDbBlockTableRecord
  2
ﾌﾞﾛｯｸ96
340
0
102
{BLKREFS
331
4EF
102
}
  0
BLOCK_RECORD
  5
20B
330
1
100
AcDbSymbolTableRecord
100
AcDbBlockTableRecord
  2
ﾌﾞﾛｯｸ97
340
0
102
{BLKREFS
331
4F0
102
}
  0
BLOCK_RECORD
  5
354
330
1
100
AcDbSymbolTableRecord
100
AcDbBlockTableRecord
  2
ﾌﾞﾛｯｸ98
340
0
102
{BLKREFS
331
4F1
102
}
  0
BLOCK_RECORD
  5
49B
330
1
100
AcDbSymbolTableRecord
100
AcDbBlockTableRecord
  2
_OPEN30
340
0
102
{BLKREFS
331
4A4
331
4A5
331
4B0
331
4B1
331
4BD
331
4BE
331
4C7
331
4C8
331
4D1
331
4D2
331
4DB
331
4DC
331
4E5
331
4E6
102
}
  0
BLOCK_RECORD
  5
4A1
330
1
100
AcDbSymbolTableRecord
100
AcDbBlockTableRecord
  2
*D5
340
0
  0
BLOCK_RECORD
  5
4AD
330
1
100
AcDbSymbolTableRecord
100
AcDbBlockTableRecord
  2
*D6
340
0
  0
BLOCK_RECORD
  5
4BA
330
1
100
AcDbSymbolTableRecord
100
AcDbBlockTableRecord
  2
*D7
340
0
  0
BLOCK_RECORD
  5
4C4
330
1
100
AcDbSymbolTableRecord
100
AcDbBlockTableRecord
  2
*D8
340
0
  0
BLOCK_RECORD
  5
4CE
330
1
100
AcDbSymbolTableRecord
100
AcDbBlockTableRecord
  2
*D9
340
0
  0
BLOCK_RECORD
  5
4D8
330
1
100
AcDbSymbolTableRecord
100
AcDbBlockTableRecord
  2
*D10
340
0
  0
BLOCK_RECORD
  5
4E2
330
1
100
AcDbSymbolTableRecord
100
AcDbBlockTableRecord
  2
*D11
340
0
  0
ENDTAB
  0
ENDSEC
  0
SECTION
  2
BLOCKS
  0
BLOCK
  5
20
330
1F
100
AcDbEntity
  8
0
100
AcDbBlockBegin
  2
*Model_Space
 70
     0
 71
     0
 10
0.0
 20
0.0
 30
0.0
  3
*Model_Space
  1

  0
ENDBLK
  5
21
330
1F
100
AcDbEntity
  8
0
100
AcDbBlockEnd
  0
BLOCK
  5
1C
330
1B
100
AcDbEntity
 67
     1
  8
0
100
AcDbBlockBegin
  2
*Paper_Space
 70
     0
 71
     0
 10
0.0
 20
0.0
 30
0.0
  3
*Paper_Space
  1

  0
ENDBLK
  5
1D
330
1B
100
AcDbEntity
 67
     1
  8
0
100
AcDbBlockEnd
  0
BLOCK
  5
24
330
23
100
AcDbEntity
  8
0
100
AcDbBlockBegin
  2
*Paper_Space0
 70
     0
 71
     0
 10
0.0
 20
0.0
 30
0.0
  3
*Paper_Space0
  1

  0
ENDBLK
  5
25
330
23
100
AcDbEntity
  8
0
100
AcDbBlockEnd
  0
BLOCK
  5
47
330
46
100
AcDbEntity
  8
0
100
AcDbBlockBegin
  2
ﾌﾞﾛｯｸ96
 70
     0
 71
     0
 10
0.0
 20
0.0
 30
0.0
  3
ﾌﾞﾛｯｸ96
  1

  0
ARC
  5
49
330
46
100
AcDbEntity
  8
VIEW
  6
Continuous
 62
     7
100
AcDbCircle
 10
4.9001022354
 20
0.5
 30
0.0
 40
0.4999999999999449
100
AcDbArc
 50
270.0
 51
0.0
  0
ARC
  5
4A
330
46
100
AcDbEntity
  8
VIEW
  6
Continuous
 62
     7
100
AcDbCircle
 10
3.1000991836
 20
0.5
 30
0.0
 40
0.5000000000000004
100
AcDbArc
 50
180.0
 51
270.0
  0
ARC
  5
4B
330
46
100
AcDbEntity
  8
WORKLAYER
  6
Continuous
 62
     7
100
AcDbCircle
 10
28.9877029434
 20
25.0003967285
 30
0.0
 40
10.7137098312378
100
AcDbArc
 50
2.6727910042
 51
15.7059001923
  0
ARC
  5
4C
330
46
100
AcDbEntity
  8
WORKLAYER
  6
Continuous
 62
     7
100
AcDbCircle
 10
28.9877029434
 20
25.0003967285
 30
0.0
 40
10.71370983123781
100
AcDbArc
 50
344.2934875488
 51
357.3233947754
  0
ARC
  5
4D
330
46
100
AcDbEntity
  8
WORKLAYER
  6
Continuous
 62
     7
100
AcDbCircle
 10
27.9877029434
 20
25.0003967285
 30
0.0
 40
10.71370983123776
100
AcDbArc
 50
3.7445979118
 51
15.7059001923
  0
ARC
  5
4E
330
46
100
AcDbEntity
  8
WORKLAYER
  6
Continuous
 62
     7
100
AcDbCircle
 10
27.9877029434
 20
25.0003967285
 30
0.0
 40
10.71370983123778
100
AcDbArc
 50
344.2934875488
 51
356.2522888184
  0
ARC
  5
4F
330
46
100
AcDbEntity
  8
WORKLAYER
  6
Continuous
 62
     7
100
AcDbCircle
 10
34.7377029434
 20
25.0003967285
 30
0.0
 40
7.000000000000028
100
AcDbArc
 50
344.037109375
 51
15.961400032
  0
ARC
  5
50
330
46
100
AcDbEntity
  8
WORKLAYER
  6
Continuous
 62
     7
100
AcDbCircle
 10
40.5063034073
 20
26.6504211426
 30
0.0
 40
1.000000000000014
100
AcDbArc
 50
15.961400032
 51
90.02784729
  0
ARC
  5
51
330
46
100
AcDbEntity
  8
WORKLAYER
  6
Continuous
 62
     7
100
AcDbCircle
 10
40.5061965957
 20
23.3502197266
 30
0.0
 40
1.000000000000007
100
AcDbArc
 50
269.9784851074
 51
344.037109375
  0
ARC
  5
52
330
46
100
AcDbEntity
  8
WORKLAYER
  6
Continuous
 62
     7
100
AcDbCircle
 10
37.9877029434
 20
21.5003967285
 30
0.0
 40
10.71370983123777
100
AcDbArc
 50
2.6727910042
 51
15.7059001923
  0
ARC
  5
53
330
46
100
AcDbEntity
  8
WORKLAYER
  6
Continuous
 62
     7
100
AcDbCircle
 10
37.9877029434
 20
21.5003967285
 30
0.0
 40
10.71370983123777
100
AcDbArc
 50
344.2934875488
 51
357.3233947754
  0
ARC
  5
54
330
46
100
AcDbEntity
  8
WORKLAYER
  6
Continuous
 62
     7
100
AcDbCircle
 10
36.9877029434
 20
21.5003967285
 30
0.0
 40
10.71370983123779
100
AcDbArc
 50
3.7445979118
 51
15.7059001923
  0
ARC
  5
55
330
46
100
AcDbEntity
  8
WORKLAYER
  6
Continuous
 62
     7
100
AcDbCircle
 10
36.9877029434
 20
21.5003967285
 30
0.0
 40
10.71370983123777
100
AcDbArc
 50
344.2934875488
 51
356.2522888184
  0
ARC
  5
56
330
46
100
AcDbEntity
  8
WORKLAYER
  6
Continuous
 62
     7
100
AcDbCircle
 10
43.7377029434
 20
21.5003967285
 30
0.0
 40
6.999999999999991
100
AcDbArc
 50
344.037109375
 51
15.961400032
  0
ARC
  5
57
330
46
100
AcDbEntity
  8
WORKLAYER
  6
Continuous
 62
     7
100
AcDbCircle
 10
49.5063034073
 20
23.1504211426
 30
0.0
 40
0.9999999999999979
100
AcDbArc
 50
15.961400032
 51
90.02784729
  0
ARC
  5
58
330
46
100
AcDbEntity
  8
WORKLAYER
  6
Continuous
 62
     7
100
AcDbCircle
 10
49.5061965957
 20
19.8502197266
 30
0.0
 40
0.9999999999999503
100
AcDbArc
 50
269.9784851074
 51
344.037109375
  0
ARC
  5
59
330
46
100
AcDbEntity
  8
WORKLAYER
  6
Continuous
 62
     7
100
AcDbCircle
 10
43.7377029434
 20
14.5003967285
 30
0.0
 40
6.999999999999991
100
AcDbArc
 50
344.037109375
 51
15.961400032
  0
ARC
  5
5A
330
46
100
AcDbEntity
  8
WORKLAYER
  6
Continuous
 62
     7
100
AcDbCircle
 10
49.5063034073
 20
16.1504211426
 30
0.0
 40
0.9999999999999969
100
AcDbArc
 50
15.961400032
 51
90.02784729
  0
ARC
  5
5B
330
46
100
AcDbEntity
  8
WORKLAYER
  6
Continuous
 62
     7
100
AcDbCircle
 10
49.5061965957
 20
12.8502197266
 30
0.0
 40
0.9999999999999439
100
AcDbArc
 50
269.9784851074
 51
344.037109375
  0
ARC
  5
5C
330
46
100
AcDbEntity
  8
WORKLAYER
  6
Continuous
 62
     7
100
AcDbCircle
 10
28.9877029434
 20
18.0003967285
 30
0.0
 40
10.71370983123781
100
AcDbArc
 50
2.6727910042
 51
15.7059001923
  0
ARC
  5
5D
330
46
100
AcDbEntity
  8
WORKLAYER
  6
Continuous
 62
     7
100
AcDbCircle
 10
28.9877029434
 20
18.0003967285
 30
0.0
 40
10.7137098312378
100
AcDbArc
 50
344.2934875488
 51
357.3233947754
  0
ARC
  5
5E
330
46
100
AcDbEntity
  8
WORKLAYER
  6
Continuous
 62
     7
100
AcDbCircle
 10
27.9877029434
 20
18.0003967285
 30
0.0
 40
10.71370983123776
100
AcDbArc
 50
3.7445979118
 51
15.7059001923
  0
ARC
  5
5F
330
46
100
AcDbEntity
  8
WORKLAYER
  6
Continuous
 62
     7
100
AcDbCircle
 10
27.9877029434
 20
18.0003967285
 30
0.0
 40
10.71370983123777
100
AcDbArc
 50
344.2934875488
 51
356.2522888184
  0
ARC
  5
60
330
46
100
AcDbEntity
  8
WORKLAYER
  6
Continuous
 62
     7
100
AcDbCircle
 10
34.7377029434
 20
18.0003967285
 30
0.0
 40
7.000000000000013
100
AcDbArc
 50
344.037109375
 51
15.961400032
  0
ARC
  5
61
330
46
100
AcDbEntity
  8
WORKLAYER
  6
Continuous
 62
     7
100
AcDbCircle
 10
40.5063034073
 20
19.6504211426
 30
0.0
 40
1.000000000000013
100
AcDbArc
 50
15.961400032
 51
90.02784729
  0
ARC
  5
62
330
46
100
AcDbEntity
  8
WORKLAYER
  6
Continuous
 62
     7
100
AcDbCircle
 10
40.5061965957
 20
16.3502197266
 30
0.0
 40
0.9999999999999457
100
AcDbArc
 50
269.9784851074
 51
344.037109375
  0
ARC
  5
63
330
46
100
AcDbEntity
  8
WORKLAYER
  6
Continuous
 62
     7
100
AcDbCircle
 10
28.9877029434
 20
11.0003967285
 30
0.0
 40
10.71370983123781
100
AcDbArc
 50
2.6727910042
 51
15.7059001923
  0
ARC
  5
64
330
46
100
AcDbEntity
  8
WORKLAYER
  6
Continuous
 62
     7
100
AcDbCircle
 10
28.9877029434
 20
11.0003967285
 30
0.0
 40
10.71370983123783
100
AcDbArc
 50
344.2934875488
 51
357.3233947754
  0
ARC
  5
65
330
46
100
AcDbEntity
  8
WORKLAYER
  6
Continuous
 62
     7
100
AcDbCircle
 10
27.9877029434
 20
11.0003967285
 30
0.0
 40
10.71370983123776
100
AcDbArc
 50
3.7445979118
 51
15.7059001923
  0
ARC
  5
66
330
46
100
AcDbEntity
  8
WORKLAYER
  6
Continuous
 62
     7
100
AcDbCircle
 10
27.9877029434
 20
11.0003967285
 30
0.0
 40
10.7137098312378
100
AcDbArc
 50
344.2934875488
 51
356.2522888184
  0
ARC
  5
67
330
46
100
AcDbEntity
  8
WORKLAYER
  6
Continuous
 62
     7
100
AcDbCircle
 10
37.9877029434
 20
7.5003967285
 30
0.0
 40
10.71370983123777
100
AcDbArc
 50
2.6727910042
 51
15.7059001923
  0
ARC
  5
68
330
46
100
AcDbEntity
  8
WORKLAYER
  6
Continuous
 62
     7
100
AcDbCircle
 10
37.9877029434
 20
7.5003967285
 30
0.0
 40
10.71370983123778
100
AcDbArc
 50
346.5043029785
 51
357.3233947754
  0
ARC
  5
69
330
46
100
AcDbEntity
  8
WORKLAYER
  6
Continuous
 62
     7
100
AcDbCircle
 10
36.9877029434
 20
7.5003967285
 30
0.0
 40
10.71370983123779
100
AcDbArc
 50
3.7445979118
 51
15.7059001923
  0
ARC
  5
6A
330
46
100
AcDbEntity
  8
WORKLAYER
  6
Continuous
 62
     7
100
AcDbCircle
 10
36.9877029434
 20
7.5003967285
 30
0.0
 40
10.71370983123778
100
AcDbArc
 50
346.5043029785
 51
356.2522888184
  0
ARC
  5
6B
330
46
100
AcDbEntity
  8
WORKLAYER
  6
Continuous
 62
     7
100
AcDbCircle
 10
34.7377029434
 20
11.0003967285
 30
0.0
 40
7.000000000000013
100
AcDbArc
 50
344.037109375
 51
15.961400032
  0
ARC
  5
6C
330
46
100
AcDbEntity
  8
WORKLAYER
  6
Continuous
 62
     7
100
AcDbCircle
 10
40.5063034073
 20
12.6504211426
 30
0.0
 40
0.9999999999999974
100
AcDbArc
 50
15.961400032
 51
90.02784729
  0
ARC
  5
6D
330
46
100
AcDbEntity
  8
WORKLAYER
  6
Continuous
 62
     7
100
AcDbCircle
 10
40.5061965957
 20
9.3502197266
 30
0.0
 40
0.9999999999999439
100
AcDbArc
 50
269.9784851074
 51
344.037109375
  0
ARC
  5
6E
330
46
100
AcDbEntity
  8
WORKLAYER
  6
Continuous
 62
     7
100
AcDbCircle
 10
37.9877029434
 20
14.5003967285
 30
0.0
 40
10.71370983123777
100
AcDbArc
 50
2.6727910042
 51
15.7059001923
  0
ARC
  5
6F
330
46
100
AcDbEntity
  8
WORKLAYER
  6
Continuous
 62
     7
100
AcDbCircle
 10
37.9877029434
 20
14.5003967285
 30
0.0
 40
10.71370983123779
100
AcDbArc
 50
344.2934875488
 51
357.3233947754
  0
ARC
  5
70
330
46
100
AcDbEntity
  8
WORKLAYER
  6
Continuous
 62
     7
100
AcDbCircle
 10
36.9877029434
 20
14.5003967285
 30
0.0
 40
10.71370983123779
100
AcDbArc
 50
3.7445979118
 51
15.7059001923
  0
ARC
  5
71
330
46
100
AcDbEntity
  8
WORKLAYER
  6
Continuous
 62
     7
100
AcDbCircle
 10
36.9877029434
 20
14.5003967285
 30
0.0
 40
10.71370983123779
100
AcDbArc
 50
344.2934875488
 51
356.2522888184
  0
ARC
  5
72
330
46
100
AcDbEntity
  8
WORKLAYER
  6
Continuous
 62
     7
100
AcDbCircle
 10
37.9877029434
 20
28.5003967285
 30
0.0
 40
10.71370983123778
100
AcDbArc
 50
2.6727910042
 51
13.4925403595
  0
ARC
  5
73
330
46
100
AcDbEntity
  8
WORKLAYER
  6
Continuous
 62
     7
100
AcDbCircle
 10
37.9877029434
 20
28.5003967285
 30
0.0
 40
10.71370983123779
100
AcDbArc
 50
344.2934875488
 51
357.3233947754
  0
ARC
  5
74
330
46
100
AcDbEntity
  8
WORKLAYER
  6
Continuous
 62
     7
100
AcDbCircle
 10
36.9877029434
 20
28.5003967285
 30
0.0
 40
10.71370983123779
100
AcDbArc
 50
3.7445979118
 51
13.4925403595
  0
ARC
  5
75
330
46
100
AcDbEntity
  8
WORKLAYER
  6
Continuous
 62
     7
100
AcDbCircle
 10
36.9877029434
 20
28.5003967285
 30
0.0
 40
10.71370983123779
100
AcDbArc
 50
344.2934875488
 51
356.2522888184
  0
ARC
  5
76
330
46
100
AcDbEntity
  8
WORKLAYER
  6
Continuous
 62
     7
100
AcDbCircle
 10
43.7377029434
 20
28.5003967285
 30
0.0
 40
7.000000000000005
100
AcDbArc
 50
344.037109375
 51
15.961400032
  0
ARC
  5
77
330
46
100
AcDbEntity
  8
WORKLAYER
  6
Continuous
 62
     7
100
AcDbCircle
 10
49.5063034073
 20
30.1504211426
 30
0.0
 40
1.000000000000011
100
AcDbArc
 50
15.961400032
 51
58.1692085266
  0
ARC
  5
78
330
46
100
AcDbEntity
  8
WORKLAYER
  6
Continuous
 62
     7
100
AcDbCircle
 10
49.5061965957
 20
26.8502197266
 30
0.0
 40
0.9999999999999503
100
AcDbArc
 50
269.9784851074
 51
344.037109375
  0
ARC
  5
79
330
46
100
AcDbEntity
  8
WORKLAYER
  6
Continuous
 62
     7
100
AcDbCircle
 10
43.7377029434
 20
7.5003967285
 30
0.0
 40
7.000000000000006
100
AcDbArc
 50
344.037109375
 51
15.961400032
  0
ARC
  5
7A
330
46
100
AcDbEntity
  8
WORKLAYER
  6
Continuous
 62
     7
100
AcDbCircle
 10
49.5063034073
 20
9.1504211426
 30
0.0
 40
0.9999999999999974
100
AcDbArc
 50
15.961400032
 51
90.02784729
  0
ARC
  5
7B
330
46
100
AcDbEntity
  8
WORKLAYER
  6
Continuous
 62
     7
100
AcDbCircle
 10
49.5061965957
 20
5.8502197266
 30
0.0
 40
0.9999999999999788
100
AcDbArc
 50
301.7677001953
 51
344.037109375
  0
ARC
  5
7C
330
46
100
AcDbEntity
  8
WORKLAYER
  6
Continuous
 62
     7
100
AcDbCircle
 10
108.5000930801
 20
3.700012207
 30
0.0
 40
0.699999988079071
100
AcDbArc
 50
270.0
 51
0.0
  0
ARC
  5
7D
330
46
100
AcDbEntity
  8
VIEW
  6
Continuous
 62
     7
100
AcDbCircle
 10
58.1422897354
 20
32.8000183105
 30
0.0
 40
0.2000000029802607
100
AcDbArc
 50
359.9941101074
 51
90.0
  0
ARC
  5
7E
330
46
100
AcDbEntity
  8
VIEW
  6
Continuous
 62
     7
100
AcDbCircle
 10
58.1422897354
 20
3.200012207
 30
0.0
 40
0.2000000029802051
100
AcDbArc
 50
270.0
 51
0.0059257378
  0
ARC
  5
7F
330
46
100
AcDbEntity
  8
VIEW
  6
Continuous
 62
     7
100
AcDbCircle
 10
59.4743972793
 20
32.8000183105
 30
0.0
 40
0.2000000029802607
100
AcDbArc
 50
359.9997863769
 51
90.0
  0
ARC
  5
80
330
46
100
AcDbEntity
  8
VIEW
  6
Continuous
 62
     7
100
AcDbCircle
 10
59.5455947891
 20
3.200012207
 30
0.0
 40
0.1999984756111961
100
AcDbArc
 50
270.0
 51
0.0
  0
ARC
  5
81
330
46
100
AcDbEntity
  8
VIEW
  6
Continuous
 62
     7
100
AcDbCircle
 10
59.5455947891
 20
32.8000183105
 30
0.0
 40
0.1999984756111957
100
AcDbArc
 50
0.0
 51
90.0
  0
ARC
  5
82
330
46
100
AcDbEntity
  8
VIEW
  6
Continuous
 62
     7
100
AcDbCircle
 10
0.1999984756
 20
23.3003234863
 30
0.0
 40
0.1999984756111831
100
AcDbArc
 50
89.9995269775
 51
180.0
  0
ARC
  5
83
330
46
100
AcDbEntity
  8
VIEW
  6
Continuous
 62
     7
100
AcDbCircle
 10
0.1999984756
 20
12.699798584
 30
0.0
 40
0.1999984756112239
100
AcDbArc
 50
180.0
 51
270.0004882812
  0
ARC
  5
84
330
46
100
AcDbEntity
  8
VIEW
  6
Continuous
 62
     7
100
AcDbCircle
 10
108.5000930801
 20
32.3000183105
 30
0.0
 40
0.699999988079071
100
AcDbArc
 50
0.0
 51
90.0
  0
LINE
  5
85
330
46
100
AcDbEntity
  8
VIEW
  6
Continuous
 62
     7
100
AcDbLine
 10
0.0000930801
 20
33.0
 30
0.0
 11
24.7000900283
 21
33.0
 31
0.0
  0
LINE
  5
86
330
46
100
AcDbEntity
  8
VIEW
  6
Continuous
 62
     7
100
AcDbLine
 10
2.6000991836
 20
3.0
 30
0.0
 11
2.6000991836
 21
0.5
 31
0.0
  0
LINE
  5
87
330
46
100
AcDbEntity
  8
VIEW
  6
Continuous
 62
     7
100
AcDbLine
 10
5.4001022354
 20
0.5
 30
0.0
 11
5.4001022354
 21
3.0
 31
0.0
  0
LINE
  5
88
330
46
100
AcDbEntity
  8
VIEW
  6
Continuous
 62
     7
100
AcDbLine
 10
10.7000900283
 20
32.8000183105
 30
0.0
 11
10.7000900283
 21
33.0
 31
0.0
  0
LINE
  5
89
330
46
100
AcDbEntity
  8
VIEW
  6
Continuous
 62
     7
100
AcDbLine
 10
0.0000930801
 20
32.8000183105
 30
0.0
 11
0.0000930801
 21
33.0
 31
0.0
  0
LINE
  5
8A
330
46
100
AcDbEntity
  8
VIEW
  6
Continuous
 62
     7
100
AcDbLine
 10
10.7000900283
 20
3.0
 30
0.0
 11
10.7000900283
 21
3.2001037598
 31
0.0
  0
LINE
  5
8B
330
46
100
AcDbEntity
  8
VIEW
  6
Continuous
 62
     7
100
AcDbLine
 10
0.0000930801
 20
3.0
 30
0.0
 11
0.0000930801
 21
3.2001037598
 31
0.0
  0
LINE
  5
8C
330
46
100
AcDbEntity
  8
VIEW
  6
Continuous
 62
     7
100
AcDbLine
 10
19.3000961319
 20
12.1501159668
 30
0.0
 11
19.3000961319
 21
3.4501037598
 31
0.0
  0
LINE
  5
8D
330
46
100
AcDbEntity
  8
VIEW
  6
Continuous
 62
     7
100
AcDbLine
 10
8.7000900283
 20
12.1501159668
 30
0.0
 11
19.3000961319
 21
12.1501159668
 31
0.0
  0
LINE
  5
8E
330
46
100
AcDbEntity
  8
VIEW
  6
Continuous
 62
     7
100
AcDbLine
 10
8.7000900283
 20
3.4501037598
 30
0.0
 11
8.7000900283
 21
12.1501159668
 31
0.0
  0
LINE
  5
8F
330
46
100
AcDbEntity
  8
VIEW
  6
Continuous
 62
     7
100
AcDbLine
 10
10.7000900283
 20
3.4501037598
 30
0.0
 11
8.7000900283
 21
3.4501037598
 31
0.0
  0
LINE
  5
90
330
46
100
AcDbEntity
  8
VIEW
  6
Continuous
 62
     7
100
AcDbLine
 10
10.7000900283
 20
3.2001037598
 30
0.0
 11
10.7000900283
 21
3.4501037598
 31
0.0
  0
LINE
  5
91
330
46
100
AcDbEntity
  8
VIEW
  6
Continuous
 62
     7
100
AcDbLine
 10
4.0000930801
 20
10.0
 30
0.0
 11
1.7000900283
 21
10.0
 31
0.0
  0
LINE
  5
92
330
46
100
AcDbEntity
  8
VIEW
  6
Continuous
 62
     7
100
AcDbLine
 10
4.0000930801
 20
26.0
 30
0.0
 11
4.0000930801
 21
10.0
 31
0.0
  0
LINE
  5
93
330
46
100
AcDbEntity
  8
VIEW
  6
Continuous
 62
     7
100
AcDbLine
 10
10.7000900283
 20
27.3500976563
 30
0.0
 11
10.7000900283
 21
32.8000183105
 31
0.0
  0
LINE
  5
94
330
46
100
AcDbEntity
  8
VIEW
  6
Continuous
 62
     7
100
AcDbLine
 10
8.7000900283
 20
27.3500976563
 30
0.0
 11
10.7000900283
 21
27.3500976563
 31
0.0
  0
LINE
  5
95
330
46
100
AcDbEntity
  8
VIEW
  6
Continuous
 62
     7
100
AcDbLine
 10
8.7000900283
 20
18.6501159668
 30
0.0
 11
8.7000900283
 21
27.3500976563
 31
0.0
  0
LINE
  5
96
330
46
100
AcDbEntity
  8
VIEW
  6
Continuous
 62
     7
100
AcDbLine
 10
19.3000961319
 20
18.6501159668
 30
0.0
 11
8.7000900283
 21
18.6501159668
 31
0.0
  0
LINE
  5
97
330
46
100
AcDbEntity
  8
VIEW
  6
Continuous
 62
     7
100
AcDbLine
 10
19.3000961319
 20
27.3500976563
 30
0.0
 11
19.3000961319
 21
18.6501159668
 31
0.0
  0
LINE
  5
98
330
46
100
AcDbEntity
  8
VIEW
  6
Continuous
 62
     7
100
AcDbLine
 10
17.3000961319
 20
27.3500976563
 30
0.0
 11
19.3000961319
 21
27.3500976563
 31
0.0
  0
LINE
  5
99
330
46
100
AcDbEntity
  8
VIEW
  6
Continuous
 62
     7
100
AcDbLine
 10
17.3000961319
 20
32.8000183105
 30
0.0
 11
17.3000961319
 21
27.3500976563
 31
0.0
  0
LINE
  5
9A
330
46
100
AcDbEntity
  8
VIEW
  6
Continuous
 62
     7
100
AcDbLine
 10
24.7000900283
 20
33.0
 30
0.0
 11
24.7000900283
 21
3.0
 31
0.0
  0
LINE
  5
9B
330
46
100
AcDbEntity
  8
VIEW
  6
Continuous
 62
     7
100
AcDbLine
 10
17.3000961319
 20
3.4501037598
 30
0.0
 11
17.3000961319
 21
3.2001037598
 31
0.0
  0
LINE
  5
9C
330
46
100
AcDbEntity
  8
VIEW
  6
Continuous
 62
     7
100
AcDbLine
 10
19.3000961319
 20
3.4501037598
 30
0.0
 11
17.3000961319
 21
3.4501037598
 31
0.0
  0
LINE
  5
9D
330
46
100
AcDbEntity
  8
VIEW
  6
Continuous
 62
     7
100
AcDbLine
 10
1.7000900283
 20
12.0
 30
0.0
 11
1.7000900283
 21
10.0
 31
0.0
  0
LINE
  5
9E
330
46
100
AcDbEntity
  8
VIEW
  6
Continuous
 62
     7
100
AcDbLine
 10
0.0000930801
 20
12.0
 30
0.0
 11
0.0000930801
 21
3.0
 31
0.0
  0
LINE
  5
9F
330
46
100
AcDbEntity
  8
VIEW
  6
Continuous
 62
     7
100
AcDbLine
 10
0.0000930801
 20
33.0
 30
0.0
 11
0.0000930801
 21
24.0
 31
0.0
  0
LINE
  5
A0
330
46
100
AcDbEntity
  8
VIEW
  6
Continuous
 62
     7
100
AcDbLine
 10
1.7000900283
 20
26.0
 30
0.0
 11
4.0000930801
 21
26.0
 31
0.0
  0
LINE
  5
A1
330
46
100
AcDbEntity
  8
VIEW
  6
Continuous
 62
     7
100
AcDbLine
 10
1.7000900283
 20
26.0
 30
0.0
 11
1.7000900283
 21
24.0
 31
0.0
  0
LINE
  5
A2
330
46
100
AcDbEntity
  8
VIEW
  6
Continuous
 62
     7
100
AcDbLine
 10
10.9001022354
 20
4.2001037598
 30
0.0
 11
10.9001022354
 21
3.2001037598
 31
0.0
  0
LINE
  5
A3
330
46
100
AcDbEntity
  8
VIEW
  6
Continuous
 62
     7
100
AcDbLine
 10
10.7000900283
 20
3.4501037598
 30
0.0
 11
10.9001022354
 21
3.5751037598
 31
0.0
  0
LINE
  5
A4
330
46
100
AcDbEntity
  8
VIEW
  6
Continuous
 62
     7
100
AcDbLine
 10
8.9001022354
 20
3.5751037598
 30
0.0
 11
8.7000900283
 21
3.4501037598
 31
0.0
  0
LINE
  5
A5
330
46
100
AcDbEntity
  8
VIEW
  6
Continuous
 62
     7
100
AcDbLine
 10
8.9001022354
 20
4.2001037598
 30
0.0
 11
10.9001022354
 21
4.2001037598
 31
0.0
  0
LINE
  5
A6
330
46
100
AcDbEntity
  8
VIEW
  6
Continuous
 62
     7
100
AcDbLine
 10
19.1000991836
 20
11.4001159668
 30
0.0
 11
8.9001022354
 21
11.4001159668
 31
0.0
  0
LINE
  5
A7
330
46
100
AcDbEntity
  8
VIEW
  6
Continuous
 62
     7
100
AcDbLine
 10
8.7000900283
 20
12.1501159668
 30
0.0
 11
8.9001022354
 21
12.0251159668
 31
0.0
  0
LINE
  5
A8
330
46
100
AcDbEntity
  8
VIEW
  6
Continuous
 62
     7
100
AcDbLine
 10
19.1000991836
 20
12.0251159668
 30
0.0
 11
19.3000961319
 21
12.1501159668
 31
0.0
  0
LINE
  5
A9
330
46
100
AcDbEntity
  8
VIEW
  6
Continuous
 62
     7
100
AcDbLine
 10
10.7000900283
 20
33.0
 30
0.0
 11
10.9001022354
 21
32.8000183105
 31
0.0
  0
LINE
  5
AA
330
46
100
AcDbEntity
  8
VIEW
  6
Continuous
 62
     7
100
AcDbLine
 10
10.9001022354
 20
26.6000976562
 30
0.0
 11
8.9001022354
 21
26.6000976562
 31
0.0
  0
LINE
  5
AB
330
46
100
AcDbEntity
  8
VIEW
  6
Continuous
 62
     7
100
AcDbLine
 10
8.7000900283
 20
27.3500976563
 30
0.0
 11
8.9001022354
 21
27.2250976562
 31
0.0
  0
LINE
  5
AC
330
46
100
AcDbEntity
  8
VIEW
  6
Continuous
 62
     7
100
AcDbLine
 10
10.9001022354
 20
27.2250976562
 30
0.0
 11
10.7000900283
 21
27.3500976563
 31
0.0
  0
LINE
  5
AD
330
46
100
AcDbEntity
  8
VIEW
  6
Continuous
 62
     7
100
AcDbLine
 10
8.9001022354
 20
19.4001159668
 30
0.0
 11
19.1000991836
 21
19.4001159668
 31
0.0
  0
LINE
  5
AE
330
46
100
AcDbEntity
  8
VIEW
  6
Continuous
 62
     7
100
AcDbLine
 10
19.3000961319
 20
18.6501159668
 30
0.0
 11
19.1000991836
 21
18.7751159668
 31
0.0
  0
LINE
  5
AF
330
46
100
AcDbEntity
  8
VIEW
  6
Continuous
 62
     7
100
AcDbLine
 10
8.9001022354
 20
18.7751159668
 30
0.0
 11
8.7000900283
 21
18.6501159668
 31
0.0
  0
LINE
  5
B0
330
46
100
AcDbEntity
  8
VIEW
  6
Continuous
 62
     7
100
AcDbLine
 10
10.9001022354
 20
3.2001037598
 30
0.0
 11
10.7000900283
 21
3.0
 31
0.0
  0
LINE
  5
B1
330
46
100
AcDbEntity
  8
VIEW
  6
Continuous
 62
     7
100
AcDbLine
 10
8.9001022354
 20
27.2250976562
 30
0.0
 11
8.9001022354
 21
18.7751159668
 31
0.0
  0
LINE
  5
B2
330
46
100
AcDbEntity
  8
VIEW
  6
Continuous
 62
     7
100
AcDbLine
 10
10.9001022354
 20
32.8000183105
 30
0.0
 11
10.9001022354
 21
26.6000976562
 31
0.0
  0
LINE
  5
B3
330
46
100
AcDbEntity
  8
VIEW
  6
Continuous
 62
     7
100
AcDbLine
 10
8.9001022354
 20
12.0251159668
 30
0.0
 11
8.9001022354
 21
3.5751037598
 31
0.0
  0
LINE
  5
B4
330
46
100
AcDbEntity
  8
VIEW
  6
Continuous
 62
     7
100
AcDbLine
 10
17.1000991836
 20
32.8000183105
 30
0.0
 11
17.3000961319
 21
33.0
 31
0.0
  0
LINE
  5
B5
330
46
100
AcDbEntity
  8
VIEW
  6
Continuous
 62
     7
100
AcDbLine
 10
17.3000961319
 20
33.0
 30
0.0
 11
17.3000961319
 21
32.8000183105
 31
0.0
  0
LINE
  5
B6
330
46
100
AcDbEntity
  8
VIEW
  6
Continuous
 62
     7
100
AcDbLine
 10
17.1000991836
 20
4.2001037598
 30
0.0
 11
19.1000991836
 21
4.2001037598
 31
0.0
  0
LINE
  5
B7
330
46
100
AcDbEntity
  8
VIEW
  6
Continuous
 62
     7
100
AcDbLine
 10
19.3000961319
 20
3.4501037598
 30
0.0
 11
19.1000991836
 21
3.5751037598
 31
0.0
  0
LINE
  5
B8
330
46
100
AcDbEntity
  8
VIEW
  6
Continuous
 62
     7
100
AcDbLine
 10
17.1000991836
 20
3.5751037598
 30
0.0
 11
17.3000961319
 21
3.4501037598
 31
0.0
  0
LINE
  5
B9
330
46
100
AcDbEntity
  8
VIEW
  6
Continuous
 62
     7
100
AcDbLine
 10
17.3000961319
 20
3.0
 30
0.0
 11
17.1000991836
 21
3.2001037598
 31
0.0
  0
LINE
  5
BA
330
46
100
AcDbEntity
  8
VIEW
  6
Continuous
 62
     7
100
AcDbLine
 10
17.3000961319
 20
3.2001037598
 30
0.0
 11
17.3000961319
 21
3.0
 31
0.0
  0
LINE
  5
BB
330
46
100
AcDbEntity
  8
VIEW
  6
Continuous
 62
     7
100
AcDbLine
 10
17.1000991836
 20
26.6000976562
 30
0.0
 11
17.1000991836
 21
32.8000183105
 31
0.0
  0
LINE
  5
BC
330
46
100
AcDbEntity
  8
VIEW
  6
Continuous
 62
     7
100
AcDbLine
 10
17.3000961319
 20
27.3500976563
 30
0.0
 11
17.1000991836
 21
27.2250976562
 31
0.0
  0
LINE
  5
BD
330
46
100
AcDbEntity
  8
VIEW
  6
Continuous
 62
     7
100
AcDbLine
 10
19.1000991836
 20
27.2250976562
 30
0.0
 11
19.3000961319
 21
27.3500976563
 31
0.0
  0
LINE
  5
BE
330
46
100
AcDbEntity
  8
VIEW
  6
Continuous
 62
     7
100
AcDbLine
 10
19.1000991836
 20
26.6000976562
 30
0.0
 11
17.1000991836
 21
26.6000976562
 31
0.0
  0
LINE
  5
BF
330
46
100
AcDbEntity
  8
VIEW
  6
Continuous
 62
     7
100
AcDbLine
 10
24.7000900283
 20
3.0
 30
0.0
 11
0.0000930801
 21
3.0
 31
0.0
  0
LINE
  5
C0
330
46
100
AcDbEntity
  8
VIEW
  6
Continuous
 62
     7
100
AcDbLine
 10
17.1000991836
 20
3.2001037598
 30
0.0
 11
17.1000991836
 21
4.2001037598
 31
0.0
  0
LINE
  5
C1
330
46
100
AcDbEntity
  8
VIEW
  6
Continuous
 62
     7
100
AcDbLine
 10
19.1000991836
 20
18.7751159668
 30
0.0
 11
19.1000991836
 21
27.2250976562
 31
0.0
  0
LINE
  5
C2
330
46
100
AcDbEntity
  8
VIEW
  6
Continuous
 62
     7
100
AcDbLine
 10
19.1000991836
 20
3.5751037598
 30
0.0
 11
19.1000991836
 21
12.0251159668
 31
0.0
  0
LINE
  5
C3
330
46
100
AcDbEntity
  8
VIEW
  6
Continuous
 62
     7
100
AcDbLine
 10
28.8000961319
 20
13.0
 30
0.0
 11
28.8000961319
 21
23.0
 31
0.0
  0
LINE
  5
C4
330
46
100
AcDbEntity
  8
VIEW
  6
Continuous
 62
     7
100
AcDbLine
 10
29.1000991836
 20
23.0
 30
0.0
 11
29.1000991836
 21
13.0
 31
0.0
  0
LINE
  5
C5
330
46
100
AcDbEntity
  8
VIEW
  6
Continuous
 62
     7
100
AcDbLine
 10
30.4001022354
 20
23.0
 30
0.0
 11
30.4001022354
 21
13.0
 31
0.0
  0
LINE
  5
C6
330
46
100
AcDbEntity
  8
VIEW
  6
Continuous
 62
     7
100
AcDbLine
 10
29.4001022354
 20
13.0
 30
0.0
 11
29.4001022354
 21
23.0
 31
0.0
  0
LINE
  5
C7
330
46
100
AcDbEntity
  8
VIEW
  6
Continuous
 62
     7
100
AcDbLine
 10
30.4001022354
 20
13.0
 30
0.0
 11
28.5999923721
 21
13.0
 31
0.0
  0
LINE
  5
C8
330
46
100
AcDbEntity
  8
VIEW
  6
Continuous
 62
     7
100
AcDbLine
 10
25.0000930801
 20
13.0
 30
0.0
 11
24.7000900283
 21
13.0
 31
0.0
  0
LINE
  5
C9
330
46
100
AcDbEntity
  8
VIEW
  6
Continuous
 62
     7
100
AcDbLine
 10
24.7000900283
 20
23.0
 30
0.0
 11
25.0000930801
 21
23.0
 31
0.0
  0
LINE
  5
CA
330
46
100
AcDbEntity
  8
VIEW
  6
Continuous
 62
     7
100
AcDbLine
 10
28.5999923721
 20
23.0
 30
0.0
 11
30.4001022354
 21
23.0
 31
0.0
  0
LINE
  5
CB
330
46
100
AcDbEntity
  8
VIEW
  6
Continuous
 62
     7
100
AcDbLine
 10
10.9001022354
 20
29.8191223145
 30
0.0
 11
11.0000015274
 21
29.8191223145
 31
0.0
  0
LINE
  5
CC
330
46
100
AcDbEntity
  8
VIEW
  6
Continuous
 62
     7
100
AcDbLine
 10
17.0000015274
 20
29.8191223145
 30
0.0
 11
17.1000991836
 21
29.8191223145
 31
0.0
  0
LINE
  5
CD
330
46
100
AcDbEntity
  8
VIEW
  6
Continuous
 62
     7
100
AcDbLine
 10
24.7000900283
 20
32.0
 30
0.0
 11
25.0000930801
 21
32.0
 31
0.0
  0
LINE
  5
CE
330
46
100
AcDbEntity
  8
VIEW
  6
Continuous
 62
     7
100
AcDbLine
 10
25.0000930801
 20
4.0
 30
0.0
 11
24.7000900283
 21
4.0
 31
0.0
  0
LINE
  5
CF
330
46
100
AcDbEntity
  8
VIEW
  6
Continuous
 62
     7
100
AcDbLine
 10
4.9001022354
 20
0.0
 30
0.0
 11
3.1000991836
 21
0.0
 31
0.0
  0
LINE
  5
D0
330
46
100
AcDbEntity
  8
VIEW
  6
Continuous
 62
     7
100
AcDbLine
 10
2.0000930801
 20
12.0
 30
0.0
 11
2.0000930801
 21
10.0
 31
0.0
  0
LINE
  5
D1
330
46
100
AcDbEntity
  8
VIEW
  6
Continuous
 62
     7
100
AcDbLine
 10
2.0000930801
 20
26.0
 30
0.0
 11
2.0000930801
 21
24.0
 31
0.0
  0
LINE
  5
D2
330
46
100
AcDbEntity
  8
VIEW
  6
Continuous
 62
     7
100
AcDbLine
 10
4.0000930801
 20
24.0
 30
0.0
 11
0.0000930801
 21
24.0
 31
0.0
  0
LINE
  5
D3
330
46
100
AcDbEntity
  8
VIEW
  6
Continuous
 62
     7
100
AcDbLine
 10
0.0000930801
 20
12.0
 30
0.0
 11
4.0000930801
 21
12.0
 31
0.0
  0
LINE
  5
D4
330
46
100
AcDbEntity
  8
WORKLAYER
  6
Continuous
 62
     7
100
AcDbLine
 10
37.8011947647
 20
27.9999084473
 30
0.0
 11
38.3014999405
 21
27.9999084473
 31
0.0
  0
LINE
  5
D5
330
46
100
AcDbEntity
  8
WORKLAYER
  6
Continuous
 62
     7
100
AcDbLine
 10
38.3014999405
 20
27.9999084473
 30
0.0
 11
38.3014999405
 21
21.9999084473
 31
0.0
  0
LINE
  5
D6
330
46
100
AcDbEntity
  8
WORKLAYER
  6
Continuous
 62
     7
100
AcDbLine
 10
38.3014999405
 20
21.9999084473
 30
0.0
 11
37.8011947647
 21
21.9999084473
 31
0.0
  0
LINE
  5
D7
330
46
100
AcDbEntity
  8
WORKLAYER
  6
Continuous
 62
     7
100
AcDbLine
 10
46.8011947647
 20
17.4999084473
 30
0.0
 11
47.3014999405
 21
17.4999084473
 31
0.0
  0
LINE
  5
D8
330
46
100
AcDbEntity
  8
WORKLAYER
  6
Continuous
 62
     7
100
AcDbLine
 10
47.3014999405
 20
17.4999084473
 30
0.0
 11
47.3014999405
 21
11.4999084473
 31
0.0
  0
LINE
  5
D9
330
46
100
AcDbEntity
  8
WORKLAYER
  6
Continuous
 62
     7
100
AcDbLine
 10
47.3014999405
 20
11.4999084473
 30
0.0
 11
46.8011947647
 21
11.4999084473
 31
0.0
  0
LINE
  5
DA
330
46
100
AcDbEntity
  8
WORKLAYER
  6
Continuous
 62
     7
100
AcDbLine
 10
37.8011947647
 20
20.9999084473
 30
0.0
 11
38.3014999405
 21
20.9999084473
 31
0.0
  0
LINE
  5
DB
330
46
100
AcDbEntity
  8
WORKLAYER
  6
Continuous
 62
     7
100
AcDbLine
 10
38.3014999405
 20
20.9999084473
 30
0.0
 11
38.3014999405
 21
14.9999084473
 31
0.0
  0
LINE
  5
DC
330
46
100
AcDbEntity
  8
WORKLAYER
  6
Continuous
 62
     7
100
AcDbLine
 10
38.3014999405
 20
14.9999084473
 30
0.0
 11
37.8011947647
 21
14.9999084473
 31
0.0
  0
LINE
  5
DD
330
46
100
AcDbEntity
  8
WORKLAYER
  6
Continuous
 62
     7
100
AcDbLine
 10
46.8011947647
 20
24.4999084473
 30
0.0
 11
47.3014999405
 21
24.4999084473
 31
0.0
  0
LINE
  5
DE
330
46
100
AcDbEntity
  8
WORKLAYER
  6
Continuous
 62
     7
100
AcDbLine
 10
47.3014999405
 20
24.4999084473
 30
0.0
 11
47.3014999405
 21
18.4999084473
 31
0.0
  0
LINE
  5
DF
330
46
100
AcDbEntity
  8
WORKLAYER
  6
Continuous
 62
     7
100
AcDbLine
 10
47.3014999405
 20
18.4999084473
 30
0.0
 11
46.8011947647
 21
18.4999084473
 31
0.0
  0
LINE
  5
E0
330
46
100
AcDbEntity
  8
WORKLAYER
  6
Continuous
 62
     7
100
AcDbLine
 10
46.8011947647
 20
10.4999084473
 30
0.0
 11
47.3014999405
 21
10.4999084473
 31
0.0
  0
LINE
  5
E1
330
46
100
AcDbEntity
  8
WORKLAYER
  6
Continuous
 62
     7
100
AcDbLine
 10
47.3014999405
 20
10.4999084473
 30
0.0
 11
47.3014999405
 21
5.0
 31
0.0
  0
LINE
  5
E2
330
46
100
AcDbEntity
  8
WORKLAYER
  6
Continuous
 62
     7
100
AcDbLine
 10
47.3014999405
 20
31.0
 30
0.0
 11
47.3014999405
 21
25.4999084473
 31
0.0
  0
LINE
  5
E3
330
46
100
AcDbEntity
  8
WORKLAYER
  6
Continuous
 62
     7
100
AcDbLine
 10
47.3014999405
 20
25.4999084473
 30
0.0
 11
46.8011947647
 21
25.4999084473
 31
0.0
  0
LINE
  5
E4
330
46
100
AcDbEntity
  8
WORKLAYER
  6
Continuous
 62
     7
100
AcDbLine
 10
37.8011947647
 20
13.9999084473
 30
0.0
 11
38.3014999405
 21
13.9999084473
 31
0.0
  0
LINE
  5
E5
330
46
100
AcDbEntity
  8
WORKLAYER
  6
Continuous
 62
     7
100
AcDbLine
 10
38.3014999405
 20
13.9999084473
 30
0.0
 11
38.3014999405
 21
7.9999084473
 31
0.0
  0
LINE
  5
E6
330
46
100
AcDbEntity
  8
WORKLAYER
  6
Continuous
 62
     7
100
AcDbLine
 10
38.3014999405
 20
7.9999084473
 30
0.0
 11
37.8011947647
 21
7.9999084473
 31
0.0
  0
LINE
  5
E7
330
46
100
AcDbEntity
  8
WORKLAYER
  6
Continuous
 62
     7
100
AcDbLine
 10
38.6786972061
 20
24.2999267578
 30
0.0
 11
38.3014999405
 21
24.2999267578
 31
0.0
  0
LINE
  5
E8
330
46
100
AcDbEntity
  8
WORKLAYER
  6
Continuous
 62
     7
100
AcDbLine
 10
38.3014999405
 20
24.2999267578
 30
0.0
 11
38.3014999405
 21
25.700012207
 31
0.0
  0
LINE
  5
E9
330
46
100
AcDbEntity
  8
WORKLAYER
  6
Continuous
 62
     7
100
AcDbLine
 10
38.3014999405
 20
25.700012207
 30
0.0
 11
38.6786972061
 21
25.699798584
 31
0.0
  0
LINE
  5
EA
330
46
100
AcDbEntity
  8
WORKLAYER
  6
Continuous
 62
     7
100
AcDbLine
 10
39.6897903457
 20
24.4999084473
 30
0.0
 11
39.3014999405
 21
24.4999084473
 31
0.0
  0
LINE
  5
EB
330
46
100
AcDbEntity
  8
WORKLAYER
  6
Continuous
 62
     7
100
AcDbLine
 10
39.3014999405
 20
24.4999084473
 30
0.0
 11
39.3014999405
 21
25.4999084473
 31
0.0
  0
LINE
  5
EC
330
46
100
AcDbEntity
  8
WORKLAYER
  6
Continuous
 62
     7
100
AcDbLine
 10
39.3014999405
 20
25.4999084473
 30
0.0
 11
39.6897903457
 21
25.4999084473
 31
0.0
  0
LINE
  5
ED
330
46
100
AcDbEntity
  8
WORKLAYER
  6
Continuous
 62
     7
100
AcDbLine
 10
39.3014999405
 20
27.9002990723
 30
0.0
 11
38.3014999405
 21
27.9002990723
 31
0.0
  0
LINE
  5
EE
330
46
100
AcDbEntity
  8
WORKLAYER
  6
Continuous
 62
     7
100
AcDbLine
 10
39.3013931289
 20
22.1000976563
 30
0.0
 11
38.3014999405
 21
22.1000976563
 31
0.0
  0
LINE
  5
EF
330
46
100
AcDbEntity
  8
WORKLAYER
  6
Continuous
 62
     7
100
AcDbLine
 10
40.5057998672
 20
27.6504211426
 30
0.0
 11
39.6897903457
 21
27.6500244141
 31
0.0
  0
LINE
  5
F0
330
46
100
AcDbEntity
  8
WORKLAYER
  6
Continuous
 62
     7
100
AcDbLine
 10
40.5057998672
 20
22.3502197266
 30
0.0
 11
39.6911941543
 21
22.3505249023
 31
0.0
  0
LINE
  5
F1
330
46
100
AcDbEntity
  8
WORKLAYER
  6
Continuous
 62
     7
100
AcDbLine
 10
39.6911941543
 20
27.6500244141
 30
0.0
 11
39.6911941543
 21
22.3505249023
 31
0.0
  0
LINE
  5
F2
330
46
100
AcDbEntity
  8
WORKLAYER
  6
Continuous
 62
     7
100
AcDbLine
 10
47.6786972061
 20
20.7999267578
 30
0.0
 11
47.3014999405
 21
20.7999267578
 31
0.0
  0
LINE
  5
F3
330
46
100
AcDbEntity
  8
WORKLAYER
  6
Continuous
 62
     7
100
AcDbLine
 10
47.3014999405
 20
20.7999267578
 30
0.0
 11
47.3014999405
 21
22.200012207
 31
0.0
  0
LINE
  5
F4
330
46
100
AcDbEntity
  8
WORKLAYER
  6
Continuous
 62
     7
100
AcDbLine
 10
47.3014999405
 20
22.200012207
 30
0.0
 11
47.6786972061
 21
22.199798584
 31
0.0
  0
LINE
  5
F5
330
46
100
AcDbEntity
  8
WORKLAYER
  6
Continuous
 62
     7
100
AcDbLine
 10
48.6897903457
 20
20.9999084473
 30
0.0
 11
48.3014999405
 21
20.9999084473
 31
0.0
  0
LINE
  5
F6
330
46
100
AcDbEntity
  8
WORKLAYER
  6
Continuous
 62
     7
100
AcDbLine
 10
48.3014999405
 20
20.9999084473
 30
0.0
 11
48.3014999405
 21
21.9999084473
 31
0.0
  0
LINE
  5
F7
330
46
100
AcDbEntity
  8
WORKLAYER
  6
Continuous
 62
     7
100
AcDbLine
 10
48.3014999405
 20
21.9999084473
 30
0.0
 11
48.6897903457
 21
21.9999084473
 31
0.0
  0
LINE
  5
F8
330
46
100
AcDbEntity
  8
WORKLAYER
  6
Continuous
 62
     7
100
AcDbLine
 10
48.3014999405
 20
24.4002990723
 30
0.0
 11
47.3014999405
 21
24.4002990723
 31
0.0
  0
LINE
  5
F9
330
46
100
AcDbEntity
  8
WORKLAYER
  6
Continuous
 62
     7
100
AcDbLine
 10
48.3013931289
 20
18.6000976562
 30
0.0
 11
47.3014999405
 21
18.6000976562
 31
0.0
  0
LINE
  5
FA
330
46
100
AcDbEntity
  8
WORKLAYER
  6
Continuous
 62
     7
100
AcDbLine
 10
49.5057998672
 20
24.1504211426
 30
0.0
 11
48.6897903457
 21
24.1500244141
 31
0.0
  0
LINE
  5
FB
330
46
100
AcDbEntity
  8
WORKLAYER
  6
Continuous
 62
     7
100
AcDbLine
 10
49.5057998672
 20
18.8502197266
 30
0.0
 11
48.6911941543
 21
18.8505249023
 31
0.0
  0
LINE
  5
FC
330
46
100
AcDbEntity
  8
WORKLAYER
  6
Continuous
 62
     7
100
AcDbLine
 10
48.6911941543
 20
24.1500244141
 30
0.0
 11
48.6911941543
 21
18.8505249023
 31
0.0
  0
LINE
  5
FD
330
46
100
AcDbEntity
  8
WORKLAYER
  6
Continuous
 62
     7
100
AcDbLine
 10
49.5057998672
 20
17.1504211426
 30
0.0
 11
48.6897903457
 21
17.1500244141
 31
0.0
  0
LINE
  5
FE
330
46
100
AcDbEntity
  8
WORKLAYER
  6
Continuous
 62
     7
100
AcDbLine
 10
49.5057998672
 20
11.8502197266
 30
0.0
 11
48.6911941543
 21
11.8505249023
 31
0.0
  0
LINE
  5
FF
330
46
100
AcDbEntity
  8
WORKLAYER
  6
Continuous
 62
     7
100
AcDbLine
 10
48.6911941543
 20
17.1500244141
 30
0.0
 11
48.6911941543
 21
11.8505249023
 31
0.0
  0
LINE
  5
100
330
46
100
AcDbEntity
  8
WORKLAYER
  6
Continuous
 62
     7
100
AcDbLine
 10
38.6786972061
 20
17.2999267578
 30
0.0
 11
38.3014999405
 21
17.2999267578
 31
0.0
  0
LINE
  5
101
330
46
100
AcDbEntity
  8
WORKLAYER
  6
Continuous
 62
     7
100
AcDbLine
 10
38.3014999405
 20
17.2999267578
 30
0.0
 11
38.3014999405
 21
18.700012207
 31
0.0
  0
LINE
  5
102
330
46
100
AcDbEntity
  8
WORKLAYER
  6
Continuous
 62
     7
100
AcDbLine
 10
38.3014999405
 20
18.700012207
 30
0.0
 11
38.6786972061
 21
18.699798584
 31
0.0
  0
LINE
  5
103
330
46
100
AcDbEntity
  8
WORKLAYER
  6
Continuous
 62
     7
100
AcDbLine
 10
39.6897903457
 20
17.4999084473
 30
0.0
 11
39.3014999405
 21
17.4999084473
 31
0.0
  0
LINE
  5
104
330
46
100
AcDbEntity
  8
WORKLAYER
  6
Continuous
 62
     7
100
AcDbLine
 10
39.3014999405
 20
17.4999084473
 30
0.0
 11
39.3014999405
 21
18.4999084473
 31
0.0
  0
LINE
  5
105
330
46
100
AcDbEntity
  8
WORKLAYER
  6
Continuous
 62
     7
100
AcDbLine
 10
39.3014999405
 20
18.4999084473
 30
0.0
 11
39.6897903457
 21
18.4999084473
 31
0.0
  0
LINE
  5
106
330
46
100
AcDbEntity
  8
WORKLAYER
  6
Continuous
 62
     7
100
AcDbLine
 10
39.3014999405
 20
20.9002990723
 30
0.0
 11
38.3014999405
 21
20.9002990723
 31
0.0
  0
LINE
  5
107
330
46
100
AcDbEntity
  8
WORKLAYER
  6
Continuous
 62
     7
100
AcDbLine
 10
39.3013931289
 20
15.1000976563
 30
0.0
 11
38.3014999405
 21
15.1000976563
 31
0.0
  0
LINE
  5
108
330
46
100
AcDbEntity
  8
WORKLAYER
  6
Continuous
 62
     7
100
AcDbLine
 10
40.5057998672
 20
20.6504211426
 30
0.0
 11
39.6897903457
 21
20.6500244141
 31
0.0
  0
LINE
  5
109
330
46
100
AcDbEntity
  8
WORKLAYER
  6
Continuous
 62
     7
100
AcDbLine
 10
40.5057998672
 20
15.3502197266
 30
0.0
 11
39.6911941543
 21
15.3505249023
 31
0.0
  0
LINE
  5
10A
330
46
100
AcDbEntity
  8
WORKLAYER
  6
Continuous
 62
     7
100
AcDbLine
 10
39.6911941543
 20
20.6500244141
 30
0.0
 11
39.6911941543
 21
15.3505249023
 31
0.0
  0
LINE
  5
10B
330
46
100
AcDbEntity
  8
WORKLAYER
  6
Continuous
 62
     7
100
AcDbLine
 10
38.6786972061
 20
10.2999267578
 30
0.0
 11
38.3014999405
 21
10.2999267578
 31
0.0
  0
LINE
  5
10C
330
46
100
AcDbEntity
  8
WORKLAYER
  6
Continuous
 62
     7
100
AcDbLine
 10
38.3014999405
 20
10.2999267578
 30
0.0
 11
38.3014999405
 21
11.700012207
 31
0.0
  0
LINE
  5
10D
330
46
100
AcDbEntity
  8
WORKLAYER
  6
Continuous
 62
     7
100
AcDbLine
 10
38.3014999405
 20
11.700012207
 30
0.0
 11
38.6786972061
 21
11.699798584
 31
0.0
  0
LINE
  5
10E
330
46
100
AcDbEntity
  8
WORKLAYER
  6
Continuous
 62
     7
100
AcDbLine
 10
39.6897903457
 20
10.4999084473
 30
0.0
 11
39.3014999405
 21
10.4999084473
 31
0.0
  0
LINE
  5
10F
330
46
100
AcDbEntity
  8
WORKLAYER
  6
Continuous
 62
     7
100
AcDbLine
 10
39.3014999405
 20
10.4999084473
 30
0.0
 11
39.3014999405
 21
11.4999084473
 31
0.0
  0
LINE
  5
110
330
46
100
AcDbEntity
  8
WORKLAYER
  6
Continuous
 62
     7
100
AcDbLine
 10
39.3014999405
 20
11.4999084473
 30
0.0
 11
39.6897903457
 21
11.4999084473
 31
0.0
  0
LINE
  5
111
330
46
100
AcDbEntity
  8
WORKLAYER
  6
Continuous
 62
     7
100
AcDbLine
 10
39.3014999405
 20
13.9002990723
 30
0.0
 11
38.3014999405
 21
13.9002990723
 31
0.0
  0
LINE
  5
112
330
46
100
AcDbEntity
  8
WORKLAYER
  6
Continuous
 62
     7
100
AcDbLine
 10
39.3013931289
 20
8.1000976563
 30
0.0
 11
38.3014999405
 21
8.1000976563
 31
0.0
  0
LINE
  5
113
330
46
100
AcDbEntity
  8
WORKLAYER
  6
Continuous
 62
     7
100
AcDbLine
 10
47.6786972061
 20
6.7999267578
 30
0.0
 11
47.3014999405
 21
6.7999267578
 31
0.0
  0
LINE
  5
114
330
46
100
AcDbEntity
  8
WORKLAYER
  6
Continuous
 62
     7
100
AcDbLine
 10
47.3014999405
 20
6.7999267578
 30
0.0
 11
47.3014999405
 21
8.200012207
 31
0.0
  0
LINE
  5
115
330
46
100
AcDbEntity
  8
WORKLAYER
  6
Continuous
 62
     7
100
AcDbLine
 10
47.3014999405
 20
8.200012207
 30
0.0
 11
47.6786972061
 21
8.199798584
 31
0.0
  0
LINE
  5
116
330
46
100
AcDbEntity
  8
WORKLAYER
  6
Continuous
 62
     7
100
AcDbLine
 10
48.6897903457
 20
6.9999084473
 30
0.0
 11
48.3014999405
 21
6.9999084473
 31
0.0
  0
LINE
  5
117
330
46
100
AcDbEntity
  8
WORKLAYER
  6
Continuous
 62
     7
100
AcDbLine
 10
48.3014999405
 20
6.9999084473
 30
0.0
 11
48.3014999405
 21
7.9999084473
 31
0.0
  0
LINE
  5
118
330
46
100
AcDbEntity
  8
WORKLAYER
  6
Continuous
 62
     7
100
AcDbLine
 10
48.3014999405
 20
7.9999084473
 30
0.0
 11
48.6897903457
 21
7.9999084473
 31
0.0
  0
LINE
  5
119
330
46
100
AcDbEntity
  8
WORKLAYER
  6
Continuous
 62
     7
100
AcDbLine
 10
48.3014999405
 20
10.4002990723
 30
0.0
 11
47.3014999405
 21
10.4002990723
 31
0.0
  0
LINE
  5
11A
330
46
100
AcDbEntity
  8
WORKLAYER
  6
Continuous
 62
     7
100
AcDbLine
 10
40.5057998672
 20
13.6504211426
 30
0.0
 11
39.6897903457
 21
13.6500244141
 31
0.0
  0
LINE
  5
11B
330
46
100
AcDbEntity
  8
WORKLAYER
  6
Continuous
 62
     7
100
AcDbLine
 10
40.5057998672
 20
8.3502197266
 30
0.0
 11
39.6911941543
 21
8.3505249023
 31
0.0
  0
LINE
  5
11C
330
46
100
AcDbEntity
  8
WORKLAYER
  6
Continuous
 62
     7
100
AcDbLine
 10
39.6911941543
 20
13.6500244141
 30
0.0
 11
39.6911941543
 21
8.3505249023
 31
0.0
  0
LINE
  5
11D
330
46
100
AcDbEntity
  8
WORKLAYER
  6
Continuous
 62
     7
100
AcDbLine
 10
47.6786972061
 20
13.7999267578
 30
0.0
 11
47.3014999405
 21
13.7999267578
 31
0.0
  0
LINE
  5
11E
330
46
100
AcDbEntity
  8
WORKLAYER
  6
Continuous
 62
     7
100
AcDbLine
 10
47.3014999405
 20
13.7999267578
 30
0.0
 11
47.3014999405
 21
15.200012207
 31
0.0
  0
LINE
  5
11F
330
46
100
AcDbEntity
  8
WORKLAYER
  6
Continuous
 62
     7
100
AcDbLine
 10
47.3014999405
 20
15.200012207
 30
0.0
 11
47.6786972061
 21
15.199798584
 31
0.0
  0
LINE
  5
120
330
46
100
AcDbEntity
  8
WORKLAYER
  6
Continuous
 62
     7
100
AcDbLine
 10
48.6897903457
 20
13.9999084473
 30
0.0
 11
48.3014999405
 21
13.9999084473
 31
0.0
  0
LINE
  5
121
330
46
100
AcDbEntity
  8
WORKLAYER
  6
Continuous
 62
     7
100
AcDbLine
 10
48.3014999405
 20
13.9999084473
 30
0.0
 11
48.3014999405
 21
14.9999084473
 31
0.0
  0
LINE
  5
122
330
46
100
AcDbEntity
  8
WORKLAYER
  6
Continuous
 62
     7
100
AcDbLine
 10
48.3014999405
 20
14.9999084473
 30
0.0
 11
48.6897903457
 21
14.9999084473
 31
0.0
  0
LINE
  5
123
330
46
100
AcDbEntity
  8
WORKLAYER
  6
Continuous
 62
     7
100
AcDbLine
 10
48.3014999405
 20
17.4002990723
 30
0.0
 11
47.3014999405
 21
17.4002990723
 31
0.0
  0
LINE
  5
124
330
46
100
AcDbEntity
  8
WORKLAYER
  6
Continuous
 62
     7
100
AcDbLine
 10
48.3013931289
 20
11.6000976563
 30
0.0
 11
47.3014999405
 21
11.6000976563
 31
0.0
  0
LINE
  5
125
330
46
100
AcDbEntity
  8
WORKLAYER
  6
Continuous
 62
     7
100
AcDbLine
 10
47.6786972061
 20
27.7999267578
 30
0.0
 11
47.3014999405
 21
27.7999267578
 31
0.0
  0
LINE
  5
126
330
46
100
AcDbEntity
  8
WORKLAYER
  6
Continuous
 62
     7
100
AcDbLine
 10
47.3014999405
 20
27.7999267578
 30
0.0
 11
47.3014999405
 21
29.200012207
 31
0.0
  0
LINE
  5
127
330
46
100
AcDbEntity
  8
WORKLAYER
  6
Continuous
 62
     7
100
AcDbLine
 10
47.3014999405
 20
29.200012207
 30
0.0
 11
47.6786972061
 21
29.199798584
 31
0.0
  0
LINE
  5
128
330
46
100
AcDbEntity
  8
WORKLAYER
  6
Continuous
 62
     7
100
AcDbLine
 10
48.6897903457
 20
27.9999084473
 30
0.0
 11
48.3014999405
 21
27.9999084473
 31
0.0
  0
LINE
  5
129
330
46
100
AcDbEntity
  8
WORKLAYER
  6
Continuous
 62
     7
100
AcDbLine
 10
48.3014999405
 20
27.9999084473
 30
0.0
 11
48.3014999405
 21
28.9999084473
 31
0.0
  0
LINE
  5
12A
330
46
100
AcDbEntity
  8
WORKLAYER
  6
Continuous
 62
     7
100
AcDbLine
 10
48.3014999405
 20
28.9999084473
 30
0.0
 11
48.6897903457
 21
28.9999084473
 31
0.0
  0
LINE
  5
12B
330
46
100
AcDbEntity
  8
WORKLAYER
  6
Continuous
 62
     7
100
AcDbLine
 10
48.3013931289
 20
25.6000976562
 30
0.0
 11
47.3014999405
 21
25.6000976562
 31
0.0
  0
LINE
  5
12C
330
46
100
AcDbEntity
  8
WORKLAYER
  6
Continuous
 62
     7
100
AcDbLine
 10
49.5057998672
 20
25.8502197266
 30
0.0
 11
48.6911941543
 21
25.8505249023
 31
0.0
  0
LINE
  5
12D
330
46
100
AcDbEntity
  8
WORKLAYER
  6
Continuous
 62
     7
100
AcDbLine
 10
48.6911941543
 20
31.0
 30
0.0
 11
48.6911941543
 21
25.8505249023
 31
0.0
  0
LINE
  5
12E
330
46
100
AcDbEntity
  8
WORKLAYER
  6
Continuous
 62
     7
100
AcDbLine
 10
49.5057998672
 20
10.1504211426
 30
0.0
 11
48.6897903457
 21
10.1500244141
 31
0.0
  0
LINE
  5
12F
330
46
100
AcDbEntity
  8
WORKLAYER
  6
Continuous
 62
     7
100
AcDbLine
 10
48.6911941543
 20
10.1500244141
 30
0.0
 11
48.6911941543
 21
5.0
 31
0.0
  0
LINE
  5
130
330
46
100
AcDbEntity
  8
VIEW
  6
Continuous
 62
     7
100
AcDbLine
 10
76.6958938614
 20
3.0
 30
0.0
 11
76.6958938614
 21
33.0
 31
0.0
  0
LINE
  5
131
330
46
100
AcDbEntity
  8
VIEW
  6
Continuous
 62
     7
100
AcDbLine
 10
75.0957962051
 20
16.4000244141
 30
0.0
 11
76.6958938614
 21
16.4000244141
 31
0.0
  0
LINE
  5
132
330
46
100
AcDbEntity
  8
VIEW
  6
Continuous
 62
     7
100
AcDbLine
 10
75.0957962051
 20
19.4000244141
 30
0.0
 11
76.6958938614
 21
19.4000244141
 31
0.0
  0
LINE
  5
133
330
46
100
AcDbEntity
  8
VIEW
  6
Continuous
 62
     7
100
AcDbLine
 10
76.6958938614
 20
15.0
 30
0.0
 11
75.0957962051
 21
15.0
 31
0.0
  0
LINE
  5
134
330
46
100
AcDbEntity
  8
VIEW
  6
Continuous
 62
     7
100
AcDbLine
 10
75.0957962051
 20
11.9000244141
 30
0.0
 11
76.6958938614
 21
11.9000244141
 31
0.0
  0
LINE
  5
135
330
46
100
AcDbEntity
  8
VIEW
  6
Continuous
 62
     7
100
AcDbLine
 10
76.6958938614
 20
10.5
 30
0.0
 11
75.0957962051
 21
10.5
 31
0.0
  0
LINE
  5
136
330
46
100
AcDbEntity
  8
VIEW
  6
Continuous
 62
     7
100
AcDbLine
 10
75.0957962051
 20
33.0
 30
0.0
 11
75.0957962051
 21
3.0
 31
0.0
  0
LINE
  5
137
330
46
100
AcDbEntity
  8
VIEW
  6
Continuous
 62
     7
100
AcDbLine
 10
75.0957962051
 20
28.6000976563
 30
0.0
 11
76.6958938614
 21
28.6000976563
 31
0.0
  0
LINE
  5
138
330
46
100
AcDbEntity
  8
VIEW
  6
Continuous
 62
     7
100
AcDbLine
 10
76.6958938614
 20
27.200012207
 30
0.0
 11
75.0957962051
 21
27.200012207
 31
0.0
  0
LINE
  5
139
330
46
100
AcDbEntity
  8
VIEW
  6
Continuous
 62
     7
100
AcDbLine
 10
75.0957962051
 20
24.200012207
 30
0.0
 11
76.6958938614
 21
24.200012207
 31
0.0
  0
LINE
  5
13A
330
46
100
AcDbEntity
  8
VIEW
  6
Continuous
 62
     7
100
AcDbLine
 10
76.6958938614
 20
9.200012207
 30
0.0
 11
75.0957962051
 21
9.200012207
 31
0.0
  0
LINE
  5
13B
330
46
100
AcDbEntity
  8
VIEW
  6
Continuous
 62
     7
100
AcDbLine
 10
85.6958938614
 20
3.0
 30
0.0
 11
85.6958938614
 21
33.0
 31
0.0
  0
LINE
  5
13C
330
46
100
AcDbEntity
  8
VIEW
  6
Continuous
 62
     7
100
AcDbLine
 10
84.0957962051
 20
16.4000244141
 30
0.0
 11
85.6958938614
 21
16.4000244141
 31
0.0
  0
LINE
  5
13D
330
46
100
AcDbEntity
  8
VIEW
  6
Continuous
 62
     7
100
AcDbLine
 10
84.0957962051
 20
19.4000244141
 30
0.0
 11
85.6958938614
 21
19.4000244141
 31
0.0
  0
LINE
  5
13E
330
46
100
AcDbEntity
  8
VIEW
  6
Continuous
 62
     7
100
AcDbLine
 10
85.6958938614
 20
15.0
 30
0.0
 11
84.0957962051
 21
15.0
 31
0.0
  0
LINE
  5
13F
330
46
100
AcDbEntity
  8
VIEW
  6
Continuous
 62
     7
100
AcDbLine
 10
84.0957962051
 20
11.9000244141
 30
0.0
 11
85.6958938614
 21
11.9000244141
 31
0.0
  0
LINE
  5
140
330
46
100
AcDbEntity
  8
VIEW
  6
Continuous
 62
     7
100
AcDbLine
 10
85.6958938614
 20
10.5
 30
0.0
 11
84.0957962051
 21
10.5
 31
0.0
  0
LINE
  5
141
330
46
100
AcDbEntity
  8
VIEW
  6
Continuous
 62
     7
100
AcDbLine
 10
84.0957962051
 20
33.0
 30
0.0
 11
84.0957962051
 21
3.0
 31
0.0
  0
LINE
  5
142
330
46
100
AcDbEntity
  8
VIEW
  6
Continuous
 62
     7
100
AcDbLine
 10
84.0957962051
 20
28.6000976563
 30
0.0
 11
85.6958938614
 21
28.6000976563
 31
0.0
  0
LINE
  5
143
330
46
100
AcDbEntity
  8
VIEW
  6
Continuous
 62
     7
100
AcDbLine
 10
85.6958938614
 20
27.200012207
 30
0.0
 11
84.0957962051
 21
27.200012207
 31
0.0
  0
LINE
  5
144
330
46
100
AcDbEntity
  8
VIEW
  6
Continuous
 62
     7
100
AcDbLine
 10
84.0957962051
 20
24.200012207
 30
0.0
 11
85.6958938614
 21
24.200012207
 31
0.0
  0
LINE
  5
145
330
46
100
AcDbEntity
  8
VIEW
  6
Continuous
 62
     7
100
AcDbLine
 10
85.6958938614
 20
9.200012207
 30
0.0
 11
84.0957962051
 21
9.200012207
 31
0.0
  0
LINE
  5
146
330
46
100
AcDbEntity
  8
WORKLAYER
  6
Continuous
 62
     7
100
AcDbLine
 10
109.2001052871
 20
32.3000183105
 30
0.0
 11
109.2001052871
 21
3.700012207
 31
0.0
  0
LINE
  5
147
330
46
100
AcDbEntity
  8
VIEW
  6
Continuous
 62
     7
100
AcDbLine
 10
59.5455947891
 20
3.0
 30
0.0
 11
0.0000930801
 21
3.0
 31
0.0
  0
LINE
  5
148
330
46
100
AcDbEntity
  8
VIEW
  6
Continuous
 62
     7
100
AcDbLine
 10
58.3421035782
 20
31.0
 30
0.0
 11
58.3423019424
 21
32.8000183105
 31
0.0
  0
LINE
  5
149
330
46
100
AcDbEntity
  8
VIEW
  6
Continuous
 62
     7
100
AcDbLine
 10
58.3423019424
 20
3.200012207
 30
0.0
 11
58.3421035782
 21
5.0
 31
0.0
  0
LINE
  5
14A
330
46
100
AcDbEntity
  8
VIEW
  6
Continuous
 62
     7
100
AcDbLine
 10
59.6743942276
 20
31.5999145508
 30
0.0
 11
59.6743972823
 21
32.8000175649
 31
0.0
  0
LINE
  5
14B
330
46
100
AcDbEntity
  8
VIEW
  6
Continuous
 62
     7
100
AcDbLine
 10
59.7455917373
 20
3.200012207
 30
0.0
 11
59.7456985489
 21
5.8000183105
 31
0.0
  0
LINE
  5
14C
330
46
100
AcDbEntity
  8
VIEW
  6
Continuous
 62
     7
100
AcDbLine
 10
59.7456985489
 20
30.200012207
 30
0.0
 11
59.7455917373
 21
32.8000183105
 31
0.0
  0
LINE
  5
14D
330
46
100
AcDbEntity
  8
VIEW
  6
Continuous
 62
     7
100
AcDbLine
 10
0.0000930801
 20
33.0
 30
0.0
 11
59.5455947891
 21
33.0
 31
0.0
  0
LINE
  5
14E
330
46
100
AcDbEntity
  8
VIEW
  6
Continuous
 62
     7
100
AcDbLine
 10
28.5999923721
 20
12.8000183105
 30
0.0
 11
30.5999923721
 21
12.8000183105
 31
0.0
  0
LINE
  5
14F
330
46
100
AcDbEntity
  8
VIEW
  6
Continuous
 62
     7
100
AcDbLine
 10
30.5999923721
 20
12.8000183105
 30
0.0
 11
30.5999923721
 21
23.200012207
 31
0.0
  0
LINE
  5
150
330
46
100
AcDbEntity
  8
VIEW
  6
Continuous
 62
     7
100
AcDbLine
 10
30.5999923721
 20
23.200012207
 30
0.0
 11
28.5999923721
 21
23.200012207
 31
0.0
  0
LINE
  5
151
330
46
100
AcDbEntity
  8
VIEW
  6
Continuous
 62
     7
100
AcDbLine
 10
28.5999923721
 20
23.200012207
 30
0.0
 11
28.5999923721
 21
12.8000183105
 31
0.0
  0
LINE
  5
152
330
46
100
AcDbEntity
  8
VIEW
  6
Continuous
 62
     7
100
AcDbLine
 10
45.8011947647
 20
28.0999145508
 30
0.0
 11
45.8011947647
 21
31.0
 31
0.0
  0
LINE
  5
153
330
46
100
AcDbEntity
  8
VIEW
  6
Continuous
 62
     7
100
AcDbLine
 10
46.8011947647
 20
28.0999145508
 30
0.0
 11
37.3013931289
 21
28.0999145508
 31
0.0
  0
LINE
  5
154
330
46
100
AcDbEntity
  8
VIEW
  6
Continuous
 62
     7
100
AcDbLine
 10
37.3013931289
 20
21.9000244141
 30
0.0
 11
37.3013931289
 21
28.0999145508
 31
0.0
  0
LINE
  5
155
330
46
100
AcDbEntity
  8
VIEW
  6
Continuous
 62
     7
100
AcDbLine
 10
46.8011947647
 20
21.9000244141
 30
0.0
 11
37.3013931289
 21
21.9000244141
 31
0.0
  0
LINE
  5
156
330
46
100
AcDbEntity
  8
VIEW
  6
Continuous
 62
     7
100
AcDbLine
 10
45.8011947647
 20
21.0999145508
 30
0.0
 11
45.8011947647
 21
21.9000244141
 31
0.0
  0
LINE
  5
157
330
46
100
AcDbEntity
  8
VIEW
  6
Continuous
 62
     7
100
AcDbLine
 10
46.8011947647
 20
21.0999145508
 30
0.0
 11
37.3013931289
 21
21.0999145508
 31
0.0
  0
LINE
  5
158
330
46
100
AcDbEntity
  8
VIEW
  6
Continuous
 62
     7
100
AcDbLine
 10
37.3013931289
 20
14.9000244141
 30
0.0
 11
37.3013931289
 21
21.0999145508
 31
0.0
  0
LINE
  5
159
330
46
100
AcDbEntity
  8
VIEW
  6
Continuous
 62
     7
100
AcDbLine
 10
46.8011947647
 20
14.9000244141
 30
0.0
 11
37.3013931289
 21
14.9000244141
 31
0.0
  0
LINE
  5
15A
330
46
100
AcDbEntity
  8
VIEW
  6
Continuous
 62
     7
100
AcDbLine
 10
45.8011947647
 20
14.0999145508
 30
0.0
 11
45.8011947647
 21
14.9000244141
 31
0.0
  0
LINE
  5
15B
330
46
100
AcDbEntity
  8
VIEW
  6
Continuous
 62
     7
100
AcDbLine
 10
46.8011947647
 20
14.0999145508
 30
0.0
 11
37.3013931289
 21
14.0999145508
 31
0.0
  0
LINE
  5
15C
330
46
100
AcDbEntity
  8
VIEW
  6
Continuous
 62
     7
100
AcDbLine
 10
37.3013931289
 20
7.9000244141
 30
0.0
 11
37.3013931289
 21
14.0999145508
 31
0.0
  0
LINE
  5
15D
330
46
100
AcDbEntity
  8
VIEW
  6
Continuous
 62
     7
100
AcDbLine
 10
46.8011947647
 20
7.9000244141
 30
0.0
 11
37.3013931289
 21
7.9000244141
 31
0.0
  0
LINE
  5
15E
330
46
100
AcDbEntity
  8
VIEW
  6
Continuous
 62
     7
100
AcDbLine
 10
45.8011947647
 20
5.0
 30
0.0
 11
45.8011947647
 21
7.9000244141
 31
0.0
  0
LINE
  5
15F
330
46
100
AcDbEntity
  8
VIEW
  6
Continuous
 62
     7
100
AcDbLine
 10
25.0000930801
 20
33.0
 30
0.0
 11
25.0000930801
 21
3.0
 31
0.0
  0
LINE
  5
160
330
46
100
AcDbEntity
  8
VIEW
  6
Continuous
 62
     7
100
AcDbLine
 10
46.8011947647
 20
31.0
 30
0.0
 11
46.8011947647
 21
25.4000244141
 31
0.0
  0
LINE
  5
161
330
46
100
AcDbEntity
  8
VIEW
  6
Continuous
 62
     7
100
AcDbLine
 10
37.8011947647
 20
28.0999145508
 30
0.0
 11
37.8011947647
 21
21.9000244141
 31
0.0
  0
LINE
  5
162
330
46
100
AcDbEntity
  8
VIEW
  6
Continuous
 62
     7
100
AcDbLine
 10
37.8011947647
 20
21.0999145508
 30
0.0
 11
37.8011947647
 21
14.9000244141
 31
0.0
  0
LINE
  5
163
330
46
100
AcDbEntity
  8
VIEW
  6
Continuous
 62
     7
100
AcDbLine
 10
37.8011947647
 20
14.0999145508
 30
0.0
 11
37.8011947647
 21
7.9000244141
 31
0.0
  0
LINE
  5
164
330
46
100
AcDbEntity
  8
VIEW
  6
Continuous
 62
     7
100
AcDbLine
 10
46.8011947647
 20
10.5999145508
 30
0.0
 11
46.8011947647
 21
5.0
 31
0.0
  0
LINE
  5
165
330
46
100
AcDbEntity
  8
VIEW
  6
Continuous
 62
     7
100
AcDbLine
 10
45.8011947647
 20
5.0
 30
0.0
 11
58.7482009903
 21
5.0
 31
0.0
  0
LINE
  5
166
330
46
100
AcDbEntity
  8
VIEW
  6
Continuous
 62
     7
100
AcDbLine
 10
58.7482009903
 20
31.0
 30
0.0
 11
58.7482009903
 21
31.5999145508
 31
0.0
  0
LINE
  5
167
330
46
100
AcDbEntity
  8
VIEW
  6
Continuous
 62
     7
100
AcDbLine
 10
58.7482009903
 20
31.5999145508
 30
0.0
 11
59.6740890518
 21
31.5999145508
 31
0.0
  0
LINE
  5
168
330
46
100
AcDbEntity
  8
VIEW
  6
Continuous
 62
     7
100
AcDbLine
 10
45.8011947647
 20
31.0
 30
0.0
 11
58.7482009903
 21
31.0
 31
0.0
  0
LINE
  5
169
330
46
100
AcDbEntity
  8
VIEW
  6
Continuous
 62
     7
100
AcDbLine
 10
58.7482009903
 20
4.4000244141
 30
0.0
 11
58.7482009903
 21
5.0
 31
0.0
  0
LINE
  5
16A
330
46
100
AcDbEntity
  8
VIEW
  6
Continuous
 62
     7
100
AcDbLine
 10
59.7029891983
 20
4.4000244141
 30
0.0
 11
58.7482009903
 21
4.4000244141
 31
0.0
  0
LINE
  5
16B
330
46
100
AcDbEntity
  8
VIEW
  6
Continuous
 62
     7
100
AcDbLine
 10
59.7029891983
 20
5.8000183105
 30
0.0
 11
59.7029891983
 21
4.4000244141
 31
0.0
  0
LINE
  5
16C
330
46
100
AcDbEntity
  8
VIEW
  6
Continuous
 62
     7
100
AcDbLine
 10
46.3011947647
 20
25.4000244141
 30
0.0
 11
46.3011947647
 21
28.0999145508
 31
0.0
  0
LINE
  5
16D
330
46
100
AcDbEntity
  8
VIEW
  6
Continuous
 62
     7
100
AcDbLine
 10
55.3011947647
 20
25.4000244141
 30
0.0
 11
46.3011947647
 21
25.4000244141
 31
0.0
  0
LINE
  5
16E
330
46
100
AcDbEntity
  8
VIEW
  6
Continuous
 62
     7
100
AcDbLine
 10
54.3011947647
 20
24.5999145508
 30
0.0
 11
54.3011947647
 21
25.4000244141
 31
0.0
  0
LINE
  5
16F
330
46
100
AcDbEntity
  8
VIEW
  6
Continuous
 62
     7
100
AcDbLine
 10
55.3011947647
 20
24.5999145508
 30
0.0
 11
46.3011947647
 21
24.5999145508
 31
0.0
  0
LINE
  5
170
330
46
100
AcDbEntity
  8
VIEW
  6
Continuous
 62
     7
100
AcDbLine
 10
46.3011947647
 20
21.9000244141
 30
0.0
 11
46.3011947647
 21
24.5999145508
 31
0.0
  0
LINE
  5
171
330
46
100
AcDbEntity
  8
VIEW
  6
Continuous
 62
     7
100
AcDbLine
 10
46.8011947647
 20
24.5999145508
 30
0.0
 11
46.8011947647
 21
18.4000244141
 31
0.0
  0
LINE
  5
172
330
46
100
AcDbEntity
  8
VIEW
  6
Continuous
 62
     7
100
AcDbLine
 10
55.3011947647
 20
25.4000244141
 30
0.0
 11
55.3011947647
 21
24.5999145508
 31
0.0
  0
LINE
  5
173
330
46
100
AcDbEntity
  8
VIEW
  6
Continuous
 62
     7
100
AcDbLine
 10
54.3011947647
 20
17.5999145508
 30
0.0
 11
54.3011947647
 21
18.4000244141
 31
0.0
  0
LINE
  5
174
330
46
100
AcDbEntity
  8
VIEW
  6
Continuous
 62
     7
100
AcDbLine
 10
55.3011947647
 20
17.5999145508
 30
0.0
 11
46.3011947647
 21
17.5999145508
 31
0.0
  0
LINE
  5
175
330
46
100
AcDbEntity
  8
VIEW
  6
Continuous
 62
     7
100
AcDbLine
 10
46.3011947647
 20
14.9000244141
 30
0.0
 11
46.3011947647
 21
17.5999145508
 31
0.0
  0
LINE
  5
176
330
46
100
AcDbEntity
  8
VIEW
  6
Continuous
 62
     7
100
AcDbLine
 10
46.3011947647
 20
18.4000244141
 30
0.0
 11
46.3011947647
 21
21.0999145508
 31
0.0
  0
LINE
  5
177
330
46
100
AcDbEntity
  8
VIEW
  6
Continuous
 62
     7
100
AcDbLine
 10
55.3011947647
 20
18.4000244141
 30
0.0
 11
46.3011947647
 21
18.4000244141
 31
0.0
  0
LINE
  5
178
330
46
100
AcDbEntity
  8
VIEW
  6
Continuous
 62
     7
100
AcDbLine
 10
46.8011947647
 20
17.5999145508
 30
0.0
 11
46.8011947647
 21
11.4000244141
 31
0.0
  0
LINE
  5
179
330
46
100
AcDbEntity
  8
VIEW
  6
Continuous
 62
     7
100
AcDbLine
 10
55.3011947647
 20
18.4000244141
 30
0.0
 11
55.3011947647
 21
17.5999145508
 31
0.0
  0
LINE
  5
17A
330
46
100
AcDbEntity
  8
VIEW
  6
Continuous
 62
     7
100
AcDbLine
 10
54.3011947647
 20
10.5999145508
 30
0.0
 11
54.3011947647
 21
11.4000244141
 31
0.0
  0
LINE
  5
17B
330
46
100
AcDbEntity
  8
VIEW
  6
Continuous
 62
     7
100
AcDbLine
 10
55.3011947647
 20
10.5999145508
 30
0.0
 11
46.3011947647
 21
10.5999145508
 31
0.0
  0
LINE
  5
17C
330
46
100
AcDbEntity
  8
VIEW
  6
Continuous
 62
     7
100
AcDbLine
 10
46.3011947647
 20
7.9000244141
 30
0.0
 11
46.3011947647
 21
10.5999145508
 31
0.0
  0
LINE
  5
17D
330
46
100
AcDbEntity
  8
VIEW
  6
Continuous
 62
     7
100
AcDbLine
 10
46.3011947647
 20
11.4000244141
 30
0.0
 11
46.3011947647
 21
14.0999145508
 31
0.0
  0
LINE
  5
17E
330
46
100
AcDbEntity
  8
VIEW
  6
Continuous
 62
     7
100
AcDbLine
 10
55.3011947647
 20
11.4000244141
 30
0.0
 11
46.3011947647
 21
11.4000244141
 31
0.0
  0
LINE
  5
17F
330
46
100
AcDbEntity
  8
VIEW
  6
Continuous
 62
     7
100
AcDbLine
 10
55.3011947647
 20
11.4000244141
 30
0.0
 11
55.3011947647
 21
10.5999145508
 31
0.0
  0
LINE
  5
180
330
46
100
AcDbEntity
  8
VIEW
  6
Continuous
 62
     7
100
AcDbLine
 10
25.0000930801
 20
32.3000183105
 30
0.0
 11
24.7000900283
 21
32.3000183105
 31
0.0
  0
LINE
  5
181
330
46
100
AcDbEntity
  8
VIEW
  6
Continuous
 62
     7
100
AcDbLine
 10
25.0000930801
 20
3.700012207
 30
0.0
 11
24.7000900283
 21
3.700012207
 31
0.0
  0
LINE
  5
182
330
46
100
AcDbEntity
  8
VIEW
  6
Continuous
 62
     7
100
AcDbLine
 10
55.8011947647
 20
31.0
 30
0.0
 11
55.8011947647
 21
5.0
 31
0.0
  0
LINE
  5
183
330
46
100
AcDbEntity
  8
VIEW
  6
Continuous
 62
     7
100
AcDbLine
 10
55.8011947647
 20
5.8000183105
 30
0.0
 11
55.939195253
 21
5.8000183105
 31
0.0
  0
LINE
  5
184
330
46
100
AcDbEntity
  8
VIEW
  6
Continuous
 62
     7
100
AcDbLine
 10
59.5000930801
 20
5.8000183105
 30
0.0
 11
59.7029891983
 21
5.8000183105
 31
0.0
  0
LINE
  5
185
330
46
100
AcDbEntity
  8
VIEW
  6
Continuous
 62
     7
100
AcDbLine
 10
59.4743972793
 20
33.0
 30
0.0
 11
59.5455947891
 21
33.0
 31
0.0
  0
LINE
  5
186
330
46
100
AcDbEntity
  8
VIEW
  6
Continuous
 62
     7
100
AcDbLine
 10
55.8011947647
 20
30.200012207
 30
0.0
 11
55.939195253
 21
30.200012207
 31
0.0
  0
LINE
  5
187
330
46
100
AcDbEntity
  8
VIEW
  6
Continuous
 62
     7
100
AcDbLine
 10
59.5000930801
 20
30.200012207
 30
0.0
 11
59.7456985489
 21
30.200012207
 31
0.0
  0
LINE
  5
188
330
46
100
AcDbEntity
  8
VIEW
  6
Continuous
 62
     7
100
AcDbLine
 10
3.9001022354
 20
24.0
 30
0.0
 11
3.9001022354
 21
12.0
 31
0.0
  0
LINE
  5
189
330
46
100
AcDbEntity
  8
VIEW
  6
Continuous
 62
     7
100
AcDbLine
 10
0.5000930801
 20
23.3003234863
 30
0.0
 11
0.5000930801
 21
12.699798584
 31
0.0
  0
LINE
  5
18A
330
46
100
AcDbEntity
  8
VIEW
  6
Continuous
 62
     7
100
AcDbLine
 10
0.0000015274
 20
12.699798584
 30
0.0
 11
0.0000015274
 21
23.3003234863
 31
0.0
  0
LINE
  5
18B
330
46
100
AcDbEntity
  8
VIEW
  6
Continuous
 62
     7
100
AcDbLine
 10
0.1999984756
 20
23.5003051758
 30
0.0
 11
2.4499984756
 21
23.5003051758
 31
0.0
  0
LINE
  5
18C
330
46
100
AcDbEntity
  8
VIEW
  6
Continuous
 62
     7
100
AcDbLine
 10
2.4499984756
 20
12.4998168945
 30
0.0
 11
0.1999984756
 21
12.4998168945
 31
0.0
  0
LINE
  5
18D
330
46
100
AcDbEntity
  8
VIEW
  6
Continuous
 62
     7
100
AcDbLine
 10
1.7500930801
 20
12.4998168945
 30
0.0
 11
1.7500930801
 21
23.5003051758
 31
0.0
  0
LINE
  5
18E
330
46
100
AcDbEntity
  8
VIEW
  6
Continuous
 62
     7
100
AcDbLine
 10
2.4499984756
 20
23.5003051758
 30
0.0
 11
2.4499984756
 21
12.4998168945
 31
0.0
  0
LINE
  5
18F
330
46
100
AcDbEntity
  8
VIEW
  6
Continuous
 62
     7
100
AcDbLine
 10
2.1999984756
 20
12.0
 30
0.0
 11
2.1999984756
 21
12.4998168945
 31
0.0
  0
LINE
  5
190
330
46
100
AcDbEntity
  8
VIEW
  6
Continuous
 62
     7
100
AcDbLine
 10
2.1999984756
 20
23.5003051758
 30
0.0
 11
2.1999984756
 21
24.0
 31
0.0
  0
LINE
  5
191
330
46
100
AcDbEntity
  8
VIEW
  6
Continuous
 62
     7
100
AcDbLine
 10
2.5000930801
 20
24.0
 30
0.0
 11
2.5000930801
 21
12.0
 31
0.0
  0
LINE
  5
192
330
46
100
AcDbEntity
  8
VIEW
  6
Continuous
 62
     7
100
AcDbLine
 10
3.9001022354
 20
19.5
 30
0.0
 11
4.0000930801
 21
19.5
 31
0.0
  0
LINE
  5
193
330
46
100
AcDbEntity
  8
VIEW
  6
Continuous
 62
     7
100
AcDbLine
 10
4.0000930801
 20
16.5
 30
0.0
 11
3.9001022354
 21
16.5
 31
0.0
  0
LINE
  5
194
330
46
100
AcDbEntity
  8
VIEW
  6
Continuous
 62
     7
100
AcDbLine
 10
59.5000930801
 20
4.5
 30
0.0
 11
59.5000930801
 21
31.5
 31
0.0
  0
LINE
  5
195
330
46
100
AcDbEntity
  8
VIEW
  6
Continuous
 62
     7
100
AcDbLine
 10
55.939195253
 20
6.4692993164
 30
0.0
 11
55.939195253
 21
5.6693115234
 31
0.0
  0
LINE
  5
196
330
46
100
AcDbEntity
  8
VIEW
  6
Continuous
 62
     7
100
AcDbLine
 10
55.939195253
 20
30.3307189941
 30
0.0
 11
55.939195253
 21
29.5307006836
 31
0.0
  0
LINE
  5
197
330
46
100
AcDbEntity
  8
VIEW
  6
Continuous
 62
     7
100
AcDbLine
 10
57.5139938369
 20
29.5307006836
 30
0.0
 11
57.5139938369
 21
6.4692993164
 31
0.0
  0
LINE
  5
198
330
46
100
AcDbEntity
  8
VIEW
  6
Continuous
 62
     7
100
AcDbLine
 10
56.830903627
 20
5.6693115234
 30
0.0
 11
56.830903627
 21
5.0
 31
0.0
  0
LINE
  5
199
330
46
100
AcDbEntity
  8
VIEW
  6
Continuous
 62
     7
100
AcDbLine
 10
58.4308944717
 20
5.0
 30
0.0
 11
58.4308944717
 21
5.6693115234
 31
0.0
  0
LINE
  5
19A
330
46
100
AcDbEntity
  8
VIEW
  6
Continuous
 62
     7
100
AcDbLine
 10
58.4308944717
 20
30.3307189941
 30
0.0
 11
58.4308944717
 21
31.0
 31
0.0
  0
LINE
  5
19B
330
46
100
AcDbEntity
  8
VIEW
  6
Continuous
 62
     7
100
AcDbLine
 10
56.830903627
 20
31.0
 30
0.0
 11
56.830903627
 21
30.3307189941
 31
0.0
  0
LINE
  5
19C
330
46
100
AcDbEntity
  8
VIEW
  6
Continuous
 62
     7
100
AcDbLine
 10
58.8000961319
 20
31.5
 30
0.0
 11
58.8000961319
 21
31.5999145508
 31
0.0
  0
LINE
  5
19D
330
46
100
AcDbEntity
  8
VIEW
  6
Continuous
 62
     7
100
AcDbLine
 10
58.8000961319
 20
4.4000244141
 30
0.0
 11
58.8000961319
 21
4.5
 31
0.0
  0
LINE
  5
19E
330
46
100
AcDbEntity
  8
VIEW
  6
Continuous
 62
     7
100
AcDbLine
 10
58.057389833
 20
6.4692993164
 30
0.0
 11
55.939195253
 21
6.4692993164
 31
0.0
  0
LINE
  5
19F
330
46
100
AcDbEntity
  8
VIEW
  6
Continuous
 62
     7
100
AcDbLine
 10
55.939195253
 20
29.5307006836
 30
0.0
 11
58.057389833
 21
29.5307006836
 31
0.0
  0
LINE
  5
1A0
330
46
100
AcDbEntity
  8
VIEW
  6
Continuous
 62
     7
100
AcDbLine
 10
59.0097976699
 20
30.3307189941
 30
0.0
 11
55.939195253
 21
30.3307189941
 31
0.0
  0
LINE
  5
1A1
330
46
100
AcDbEntity
  8
VIEW
  6
Continuous
 62
     7
100
AcDbLine
 10
55.939195253
 20
5.6693115234
 30
0.0
 11
59.0097976699
 21
5.6693115234
 31
0.0
  0
LINE
  5
1A2
330
46
100
AcDbEntity
  8
VIEW
  6
Continuous
 62
     7
100
AcDbLine
 10
59.0097976699
 20
5.6693115234
 30
0.0
 11
59.0097976699
 21
4.5
 31
0.0
  0
LINE
  5
1A3
330
46
100
AcDbEntity
  8
VIEW
  6
Continuous
 62
     7
100
AcDbLine
 10
59.0097976699
 20
31.5
 30
0.0
 11
59.0097976699
 21
30.3307189941
 31
0.0
  0
LINE
  5
1A4
330
46
100
AcDbEntity
  8
VIEW
  6
Continuous
 62
     7
100
AcDbLine
 10
59.5000930801
 20
4.5
 30
0.0
 11
58.7482009903
 21
4.5
 31
0.0
  0
LINE
  5
1A5
330
46
100
AcDbEntity
  8
VIEW
  6
Continuous
 62
     7
100
AcDbLine
 10
56.4158035293
 20
5.0
 30
0.0
 11
56.4158035293
 21
5.6693115234
 31
0.0
  0
LINE
  5
1A6
330
46
100
AcDbEntity
  8
VIEW
  6
Continuous
 62
     7
100
AcDbLine
 10
59.5000930801
 20
31.5
 30
0.0
 11
58.7482009903
 21
31.5
 31
0.0
  0
LINE
  5
1A7
330
46
100
AcDbEntity
  8
VIEW
  6
Continuous
 62
     7
100
AcDbLine
 10
56.4158035293
 20
30.3307189941
 30
0.0
 11
56.4158035293
 21
31.0
 31
0.0
  0
LINE
  5
1A8
330
46
100
AcDbEntity
  8
VIEW
  6
Continuous
 62
     7
100
AcDbLine
 10
82.6958938614
 20
3.0
 30
0.0
 11
82.6958938614
 21
33.0
 31
0.0
  0
LINE
  5
1A9
330
46
100
AcDbEntity
  8
VIEW
  6
Continuous
 62
     7
100
AcDbLine
 10
81.0957962051
 20
16.4000244141
 30
0.0
 11
82.6958938614
 21
16.4000244141
 31
0.0
  0
LINE
  5
1AA
330
46
100
AcDbEntity
  8
VIEW
  6
Continuous
 62
     7
100
AcDbLine
 10
81.0957962051
 20
19.4000244141
 30
0.0
 11
82.6958938614
 21
19.4000244141
 31
0.0
  0
LINE
  5
1AB
330
46
100
AcDbEntity
  8
VIEW
  6
Continuous
 62
     7
100
AcDbLine
 10
82.6958938614
 20
15.0
 30
0.0
 11
81.0957962051
 21
15.0
 31
0.0
  0
LINE
  5
1AC
330
46
100
AcDbEntity
  8
VIEW
  6
Continuous
 62
     7
100
AcDbLine
 10
81.0957962051
 20
11.9000244141
 30
0.0
 11
82.6958938614
 21
11.9000244141
 31
0.0
  0
LINE
  5
1AD
330
46
100
AcDbEntity
  8
VIEW
  6
Continuous
 62
     7
100
AcDbLine
 10
82.6958938614
 20
10.5
 30
0.0
 11
81.0957962051
 21
10.5
 31
0.0
  0
LINE
  5
1AE
330
46
100
AcDbEntity
  8
VIEW
  6
Continuous
 62
     7
100
AcDbLine
 10
81.0957962051
 20
33.0
 30
0.0
 11
81.0957962051
 21
3.0
 31
0.0
  0
LINE
  5
1AF
330
46
100
AcDbEntity
  8
VIEW
  6
Continuous
 62
     7
100
AcDbLine
 10
81.0957962051
 20
28.6000976563
 30
0.0
 11
82.6958938614
 21
28.6000976563
 31
0.0
  0
LINE
  5
1B0
330
46
100
AcDbEntity
  8
VIEW
  6
Continuous
 62
     7
100
AcDbLine
 10
82.6958938614
 20
27.200012207
 30
0.0
 11
81.0957962051
 21
27.200012207
 31
0.0
  0
LINE
  5
1B1
330
46
100
AcDbEntity
  8
VIEW
  6
Continuous
 62
     7
100
AcDbLine
 10
81.0957962051
 20
24.200012207
 30
0.0
 11
82.6958938614
 21
24.200012207
 31
0.0
  0
LINE
  5
1B2
330
46
100
AcDbEntity
  8
VIEW
  6
Continuous
 62
     7
100
AcDbLine
 10
82.6958938614
 20
9.200012207
 30
0.0
 11
81.0957962051
 21
9.200012207
 31
0.0
  0
LINE
  5
1B3
330
46
100
AcDbEntity
  8
VIEW
  6
Continuous
 62
     7
100
AcDbLine
 10
73.6958938614
 20
3.0
 30
0.0
 11
73.6958938614
 21
33.0
 31
0.0
  0
LINE
  5
1B4
330
46
100
AcDbEntity
  8
VIEW
  6
Continuous
 62
     7
100
AcDbLine
 10
72.0957962051
 20
16.4000244141
 30
0.0
 11
73.6958938614
 21
16.4000244141
 31
0.0
  0
LINE
  5
1B5
330
46
100
AcDbEntity
  8
VIEW
  6
Continuous
 62
     7
100
AcDbLine
 10
72.0957962051
 20
19.4000244141
 30
0.0
 11
73.6958938614
 21
19.4000244141
 31
0.0
  0
LINE
  5
1B6
330
46
100
AcDbEntity
  8
VIEW
  6
Continuous
 62
     7
100
AcDbLine
 10
73.6958938614
 20
15.0
 30
0.0
 11
72.0957962051
 21
15.0
 31
0.0
  0
LINE
  5
1B7
330
46
100
AcDbEntity
  8
VIEW
  6
Continuous
 62
     7
100
AcDbLine
 10
72.0957962051
 20
11.9000244141
 30
0.0
 11
73.6958938614
 21
11.9000244141
 31
0.0
  0
LINE
  5
1B8
330
46
100
AcDbEntity
  8
VIEW
  6
Continuous
 62
     7
100
AcDbLine
 10
73.6958938614
 20
10.5
 30
0.0
 11
72.0957962051
 21
10.5
 31
0.0
  0
LINE
  5
1B9
330
46
100
AcDbEntity
  8
VIEW
  6
Continuous
 62
     7
100
AcDbLine
 10
72.0957962051
 20
33.0
 30
0.0
 11
72.0957962051
 21
3.0
 31
0.0
  0
LINE
  5
1BA
330
46
100
AcDbEntity
  8
VIEW
  6
Continuous
 62
     7
100
AcDbLine
 10
72.0957962051
 20
28.6000976563
 30
0.0
 11
73.6958938614
 21
28.6000976563
 31
0.0
  0
LINE
  5
1BB
330
46
100
AcDbEntity
  8
VIEW
  6
Continuous
 62
     7
100
AcDbLine
 10
73.6958938614
 20
27.200012207
 30
0.0
 11
72.0957962051
 21
27.200012207
 31
0.0
  0
LINE
  5
1BC
330
46
100
AcDbEntity
  8
VIEW
  6
Continuous
 62
     7
100
AcDbLine
 10
72.0957962051
 20
24.200012207
 30
0.0
 11
73.6958938614
 21
24.200012207
 31
0.0
  0
LINE
  5
1BD
330
46
100
AcDbEntity
  8
VIEW
  6
Continuous
 62
     7
100
AcDbLine
 10
73.6958938614
 20
9.200012207
 30
0.0
 11
72.0957962051
 21
9.200012207
 31
0.0
  0
LINE
  5
1BE
330
46
100
AcDbEntity
  8
VIEW
  6
Continuous
 62
     7
100
AcDbLine
 10
79.6958938614
 20
3.0
 30
0.0
 11
79.6958938614
 21
33.0
 31
0.0
  0
LINE
  5
1BF
330
46
100
AcDbEntity
  8
VIEW
  6
Continuous
 62
     7
100
AcDbLine
 10
78.0957962051
 20
16.4000244141
 30
0.0
 11
79.6958938614
 21
16.4000244141
 31
0.0
  0
LINE
  5
1C0
330
46
100
AcDbEntity
  8
VIEW
  6
Continuous
 62
     7
100
AcDbLine
 10
78.0957962051
 20
19.4000244141
 30
0.0
 11
79.6958938614
 21
19.4000244141
 31
0.0
  0
LINE
  5
1C1
330
46
100
AcDbEntity
  8
VIEW
  6
Continuous
 62
     7
100
AcDbLine
 10
79.6958938614
 20
15.0
 30
0.0
 11
78.0957962051
 21
15.0
 31
0.0
  0
LINE
  5
1C2
330
46
100
AcDbEntity
  8
VIEW
  6
Continuous
 62
     7
100
AcDbLine
 10
78.0957962051
 20
11.9000244141
 30
0.0
 11
79.6958938614
 21
11.9000244141
 31
0.0
  0
LINE
  5
1C3
330
46
100
AcDbEntity
  8
VIEW
  6
Continuous
 62
     7
100
AcDbLine
 10
79.6958938614
 20
10.5
 30
0.0
 11
78.0957962051
 21
10.5
 31
0.0
  0
LINE
  5
1C4
330
46
100
AcDbEntity
  8
VIEW
  6
Continuous
 62
     7
100
AcDbLine
 10
78.0957962051
 20
33.0
 30
0.0
 11
78.0957962051
 21
3.0
 31
0.0
  0
LINE
  5
1C5
330
46
100
AcDbEntity
  8
VIEW
  6
Continuous
 62
     7
100
AcDbLine
 10
78.0957962051
 20
28.6000976563
 30
0.0
 11
79.6958938614
 21
28.6000976563
 31
0.0
  0
LINE
  5
1C6
330
46
100
AcDbEntity
  8
VIEW
  6
Continuous
 62
     7
100
AcDbLine
 10
79.6958938614
 20
27.200012207
 30
0.0
 11
78.0957962051
 21
27.200012207
 31
0.0
  0
LINE
  5
1C7
330
46
100
AcDbEntity
  8
VIEW
  6
Continuous
 62
     7
100
AcDbLine
 10
78.0957962051
 20
24.200012207
 30
0.0
 11
79.6958938614
 21
24.200012207
 31
0.0
  0
LINE
  5
1C8
330
46
100
AcDbEntity
  8
VIEW
  6
Continuous
 62
     7
100
AcDbLine
 10
79.6958938614
 20
9.200012207
 30
0.0
 11
78.0957962051
 21
9.200012207
 31
0.0
  0
LINE
  5
1C9
330
46
100
AcDbEntity
  8
VIEW
  6
Continuous
 62
     7
100
AcDbLine
 10
97.6958938614
 20
3.0
 30
0.0
 11
97.6958938614
 21
33.0
 31
0.0
  0
LINE
  5
1CA
330
46
100
AcDbEntity
  8
VIEW
  6
Continuous
 62
     7
100
AcDbLine
 10
96.0957962051
 20
28.6000976563
 30
0.0
 11
97.6958938614
 21
28.6000976563
 31
0.0
  0
LINE
  5
1CB
330
46
100
AcDbEntity
  8
VIEW
  6
Continuous
 62
     7
100
AcDbLine
 10
97.6958938614
 20
27.200012207
 30
0.0
 11
96.0957962051
 21
27.200012207
 31
0.0
  0
LINE
  5
1CC
330
46
100
AcDbEntity
  8
VIEW
  6
Continuous
 62
     7
100
AcDbLine
 10
96.0957962051
 20
24.200012207
 30
0.0
 11
97.6958938614
 21
24.200012207
 31
0.0
  0
LINE
  5
1CD
330
46
100
AcDbEntity
  8
VIEW
  6
Continuous
 62
     7
100
AcDbLine
 10
97.6958938614
 20
9.200012207
 30
0.0
 11
96.0957962051
 21
9.200012207
 31
0.0
  0
LINE
  5
1CE
330
46
100
AcDbEntity
  8
VIEW
  6
Continuous
 62
     7
100
AcDbLine
 10
96.0957962051
 20
16.4000244141
 30
0.0
 11
97.6958938614
 21
16.4000244141
 31
0.0
  0
LINE
  5
1CF
330
46
100
AcDbEntity
  8
VIEW
  6
Continuous
 62
     7
100
AcDbLine
 10
96.0957962051
 20
19.4000244141
 30
0.0
 11
97.6958938614
 21
19.4000244141
 31
0.0
  0
LINE
  5
1D0
330
46
100
AcDbEntity
  8
VIEW
  6
Continuous
 62
     7
100
AcDbLine
 10
97.6958938614
 20
15.0
 30
0.0
 11
96.0957962051
 21
15.0
 31
0.0
  0
LINE
  5
1D1
330
46
100
AcDbEntity
  8
VIEW
  6
Continuous
 62
     7
100
AcDbLine
 10
96.0957962051
 20
11.9000244141
 30
0.0
 11
97.6958938614
 21
11.9000244141
 31
0.0
  0
LINE
  5
1D2
330
46
100
AcDbEntity
  8
VIEW
  6
Continuous
 62
     7
100
AcDbLine
 10
97.6958938614
 20
10.5
 30
0.0
 11
96.0957962051
 21
10.5
 31
0.0
  0
LINE
  5
1D3
330
46
100
AcDbEntity
  8
VIEW
  6
Continuous
 62
     7
100
AcDbLine
 10
96.0957962051
 20
33.0
 30
0.0
 11
96.0957962051
 21
3.0
 31
0.0
  0
LINE
  5
1D4
330
46
100
AcDbEntity
  8
VIEW
  6
Continuous
 62
     7
100
AcDbLine
 10
91.6958938614
 20
3.0
 30
0.0
 11
91.6958938614
 21
33.0
 31
0.0
  0
LINE
  5
1D5
330
46
100
AcDbEntity
  8
VIEW
  6
Continuous
 62
     7
100
AcDbLine
 10
91.6958938614
 20
27.200012207
 30
0.0
 11
90.0957962051
 21
27.200012207
 31
0.0
  0
LINE
  5
1D6
330
46
100
AcDbEntity
  8
VIEW
  6
Continuous
 62
     7
100
AcDbLine
 10
90.0957962051
 20
24.200012207
 30
0.0
 11
91.6958938614
 21
24.200012207
 31
0.0
  0
LINE
  5
1D7
330
46
100
AcDbEntity
  8
VIEW
  6
Continuous
 62
     7
100
AcDbLine
 10
91.6958938614
 20
9.200012207
 30
0.0
 11
90.0957962051
 21
9.200012207
 31
0.0
  0
LINE
  5
1D8
330
46
100
AcDbEntity
  8
VIEW
  6
Continuous
 62
     7
100
AcDbLine
 10
90.0957962051
 20
16.4000244141
 30
0.0
 11
91.6958938614
 21
16.4000244141
 31
0.0
  0
LINE
  5
1D9
330
46
100
AcDbEntity
  8
VIEW
  6
Continuous
 62
     7
100
AcDbLine
 10
90.0957962051
 20
19.4000244141
 30
0.0
 11
91.6958938614
 21
19.4000244141
 31
0.0
  0
LINE
  5
1DA
330
46
100
AcDbEntity
  8
VIEW
  6
Continuous
 62
     7
100
AcDbLine
 10
91.6958938614
 20
15.0
 30
0.0
 11
90.0957962051
 21
15.0
 31
0.0
  0
LINE
  5
1DB
330
46
100
AcDbEntity
  8
VIEW
  6
Continuous
 62
     7
100
AcDbLine
 10
90.0957962051
 20
11.9000244141
 30
0.0
 11
91.6958938614
 21
11.9000244141
 31
0.0
  0
LINE
  5
1DC
330
46
100
AcDbEntity
  8
VIEW
  6
Continuous
 62
     7
100
AcDbLine
 10
91.6958938614
 20
10.5
 30
0.0
 11
90.0957962051
 21
10.5
 31
0.0
  0
LINE
  5
1DD
330
46
100
AcDbEntity
  8
VIEW
  6
Continuous
 62
     7
100
AcDbLine
 10
90.0957962051
 20
33.0
 30
0.0
 11
90.0957962051
 21
3.0
 31
0.0
  0
LINE
  5
1DE
330
46
100
AcDbEntity
  8
VIEW
  6
Continuous
 62
     7
100
AcDbLine
 10
90.0957962051
 20
28.6000976563
 30
0.0
 11
91.6958938614
 21
28.6000976563
 31
0.0
  0
LINE
  5
1DF
330
46
100
AcDbEntity
  8
VIEW
  6
Continuous
 62
     7
100
AcDbLine
 10
88.6958938614
 20
3.0
 30
0.0
 11
88.6958938614
 21
33.0
 31
0.0
  0
LINE
  5
1E0
330
46
100
AcDbEntity
  8
VIEW
  6
Continuous
 62
     7
100
AcDbLine
 10
87.0957962051
 20
16.4000244141
 30
0.0
 11
88.6958938614
 21
16.4000244141
 31
0.0
  0
LINE
  5
1E1
330
46
100
AcDbEntity
  8
VIEW
  6
Continuous
 62
     7
100
AcDbLine
 10
87.0957962051
 20
19.4000244141
 30
0.0
 11
88.6958938614
 21
19.4000244141
 31
0.0
  0
LINE
  5
1E2
330
46
100
AcDbEntity
  8
VIEW
  6
Continuous
 62
     7
100
AcDbLine
 10
88.6958938614
 20
15.0
 30
0.0
 11
87.0957962051
 21
15.0
 31
0.0
  0
LINE
  5
1E3
330
46
100
AcDbEntity
  8
VIEW
  6
Continuous
 62
     7
100
AcDbLine
 10
87.0957962051
 20
11.9000244141
 30
0.0
 11
88.6958938614
 21
11.9000244141
 31
0.0
  0
LINE
  5
1E4
330
46
100
AcDbEntity
  8
VIEW
  6
Continuous
 62
     7
100
AcDbLine
 10
88.6958938614
 20
10.5
 30
0.0
 11
87.0957962051
 21
10.5
 31
0.0
  0
LINE
  5
1E5
330
46
100
AcDbEntity
  8
VIEW
  6
Continuous
 62
     7
100
AcDbLine
 10
87.0957962051
 20
33.0
 30
0.0
 11
87.0957962051
 21
3.0
 31
0.0
  0
LINE
  5
1E6
330
46
100
AcDbEntity
  8
VIEW
  6
Continuous
 62
     7
100
AcDbLine
 10
87.0957962051
 20
28.6000976563
 30
0.0
 11
88.6958938614
 21
28.6000976563
 31
0.0
  0
LINE
  5
1E7
330
46
100
AcDbEntity
  8
VIEW
  6
Continuous
 62
     7
100
AcDbLine
 10
88.6958938614
 20
27.200012207
 30
0.0
 11
87.0957962051
 21
27.200012207
 31
0.0
  0
LINE
  5
1E8
330
46
100
AcDbEntity
  8
VIEW
  6
Continuous
 62
     7
100
AcDbLine
 10
87.0957962051
 20
24.200012207
 30
0.0
 11
88.6958938614
 21
24.200012207
 31
0.0
  0
LINE
  5
1E9
330
46
100
AcDbEntity
  8
VIEW
  6
Continuous
 62
     7
100
AcDbLine
 10
88.6958938614
 20
9.200012207
 30
0.0
 11
87.0957962051
 21
9.200012207
 31
0.0
  0
LINE
  5
1EA
330
46
100
AcDbEntity
  8
VIEW
  6
Continuous
 62
     7
100
AcDbLine
 10
94.6958938614
 20
3.0
 30
0.0
 11
94.6958938614
 21
33.0
 31
0.0
  0
LINE
  5
1EB
330
46
100
AcDbEntity
  8
VIEW
  6
Continuous
 62
     7
100
AcDbLine
 10
93.0957962051
 20
28.6000976563
 30
0.0
 11
94.6958938614
 21
28.6000976563
 31
0.0
  0
LINE
  5
1EC
330
46
100
AcDbEntity
  8
VIEW
  6
Continuous
 62
     7
100
AcDbLine
 10
94.6958938614
 20
27.200012207
 30
0.0
 11
93.0957962051
 21
27.200012207
 31
0.0
  0
LINE
  5
1ED
330
46
100
AcDbEntity
  8
VIEW
  6
Continuous
 62
     7
100
AcDbLine
 10
93.0957962051
 20
24.200012207
 30
0.0
 11
94.6958938614
 21
24.200012207
 31
0.0
  0
LINE
  5
1EE
330
46
100
AcDbEntity
  8
VIEW
  6
Continuous
 62
     7
100
AcDbLine
 10
94.6958938614
 20
9.200012207
 30
0.0
 11
93.0957962051
 21
9.200012207
 31
0.0
  0
LINE
  5
1EF
330
46
100
AcDbEntity
  8
VIEW
  6
Continuous
 62
     7
100
AcDbLine
 10
93.0957962051
 20
16.4000244141
 30
0.0
 11
94.6958938614
 21
16.4000244141
 31
0.0
  0
LINE
  5
1F0
330
46
100
AcDbEntity
  8
VIEW
  6
Continuous
 62
     7
100
AcDbLine
 10
93.0957962051
 20
19.4000244141
 30
0.0
 11
94.6958938614
 21
19.4000244141
 31
0.0
  0
LINE
  5
1F1
330
46
100
AcDbEntity
  8
VIEW
  6
Continuous
 62
     7
100
AcDbLine
 10
94.6958938614
 20
15.0
 30
0.0
 11
93.0957962051
 21
15.0
 31
0.0
  0
LINE
  5
1F2
330
46
100
AcDbEntity
  8
VIEW
  6
Continuous
 62
     7
100
AcDbLine
 10
93.0957962051
 20
11.9000244141
 30
0.0
 11
94.6958938614
 21
11.9000244141
 31
0.0
  0
LINE
  5
1F3
330
46
100
AcDbEntity
  8
VIEW
  6
Continuous
 62
     7
100
AcDbLine
 10
94.6958938614
 20
10.5
 30
0.0
 11
93.0957962051
 21
10.5
 31
0.0
  0
LINE
  5
1F4
330
46
100
AcDbEntity
  8
VIEW
  6
Continuous
 62
     7
100
AcDbLine
 10
93.0957962051
 20
33.0
 30
0.0
 11
93.0957962051
 21
3.0
 31
0.0
  0
LINE
  5
1F5
330
46
100
AcDbEntity
  8
VIEW
  6
Continuous
 62
     7
100
AcDbLine
 10
68.6613937393
 20
13.0
 30
0.0
 11
68.6613937393
 21
23.0
 31
0.0
  0
LINE
  5
1F6
330
46
100
AcDbEntity
  8
VIEW
  6
Continuous
 62
     7
100
AcDbLine
 10
64.6613937393
 20
14.0
 30
0.0
 11
64.6613937393
 21
22.0
 31
0.0
  0
LINE
  5
1F7
330
46
100
AcDbEntity
  8
VIEW
  6
Continuous
 62
     7
100
AcDbLine
 10
67.6613937393
 20
22.0
 30
0.0
 11
67.6613937393
 21
14.0
 31
0.0
  0
LINE
  5
1F8
330
46
100
AcDbEntity
  8
VIEW
  6
Continuous
 62
     7
100
AcDbLine
 10
55.8011947647
 20
13.0
 30
0.0
 11
57.5139938369
 21
13.0
 31
0.0
  0
LINE
  5
1F9
330
46
100
AcDbEntity
  8
VIEW
  6
Continuous
 62
     7
100
AcDbLine
 10
59.5000930801
 20
13.0
 30
0.0
 11
68.6613937393
 21
13.0
 31
0.0
  0
LINE
  5
1FA
330
46
100
AcDbEntity
  8
VIEW
  6
Continuous
 62
     7
100
AcDbLine
 10
68.6613937393
 20
23.0
 30
0.0
 11
59.5000930801
 21
23.0
 31
0.0
  0
LINE
  5
1FB
330
46
100
AcDbEntity
  8
VIEW
  6
Continuous
 62
     7
100
AcDbLine
 10
57.5139938369
 20
23.0
 30
0.0
 11
55.8011947647
 21
23.0
 31
0.0
  0
LINE
  5
1FC
330
46
100
AcDbEntity
  8
VIEW
  6
Continuous
 62
     7
100
AcDbLine
 10
67.6613937393
 20
14.0
 30
0.0
 11
59.5000930801
 21
14.0
 31
0.0
  0
LINE
  5
1FD
330
46
100
AcDbEntity
  8
VIEW
  6
Continuous
 62
     7
100
AcDbLine
 10
57.5139938369
 20
14.0
 30
0.0
 11
55.8011947647
 21
14.0
 31
0.0
  0
LINE
  5
1FE
330
46
100
AcDbEntity
  8
WORKLAYER
  6
Continuous
 62
     7
100
AcDbLine
 10
118.2001052871
 20
11.0250244141
 30
0.0
 11
118.2001052871
 21
18.9248046875
 31
0.0
  0
LINE
  5
1FF
330
46
100
AcDbEntity
  8
WORKLAYER
  6
Continuous
 62
     7
100
AcDbLine
 10
109.2001052871
 20
18.9248046875
 30
0.0
 11
118.2001052871
 21
18.9248046875
 31
0.0
  0
LINE
  5
200
330
46
100
AcDbEntity
  8
WORKLAYER
  6
Continuous
 62
     7
100
AcDbLine
 10
109.2001052871
 20
11.0250244141
 30
0.0
 11
118.2001052871
 21
11.0250244141
 31
0.0
  0
LINE
  5
201
330
46
100
AcDbEntity
  8
VIEW
  6
Continuous
 62
     7
100
AcDbLine
 10
55.8011947647
 20
22.0
 30
0.0
 11
57.5139938369
 21
22.0
 31
0.0
  0
LINE
  5
202
330
46
100
AcDbEntity
  8
VIEW
  6
Continuous
 62
     7
100
AcDbLine
 10
59.5000930801
 20
22.0
 30
0.0
 11
67.6613937393
 21
22.0
 31
0.0
  0
LINE
  5
203
330
46
100
AcDbEntity
  8
VIEW
  6
Continuous
 62
     7
100
AcDbLine
 10
59.5455947891
 20
33.0
 30
0.0
 11
108.5000930801
 21
33.0
 31
0.0
  0
LINE
  5
204
330
46
100
AcDbEntity
  8
VIEW
  6
Continuous
 62
     7
100
AcDbLine
 10
61.0002914444
 20
32.3001098633
 30
0.0
 11
61.0002914444
 21
33.0
 31
0.0
  0
LINE
  5
205
330
46
100
AcDbEntity
  8
VIEW
  6
Continuous
 62
     7
100
AcDbLine
 10
59.7456985489
 20
32.4000244141
 30
0.0
 11
61.0002914444
 21
32.4000244141
 31
0.0
  0
LINE
  5
206
330
46
100
AcDbEntity
  8
VIEW
  6
Continuous
 62
     7
100
AcDbLine
 10
61.0002914444
 20
3.0
 30
0.0
 11
61.0002914444
 21
6.200012207
 31
0.0
  0
LINE
  5
207
330
46
100
AcDbEntity
  8
VIEW
  6
Continuous
 62
     7
100
AcDbLine
 10
61.0002914444
 20
32.3001098633
 30
0.0
 11
61.0002914444
 21
32.200012207
 31
0.0
  0
LINE
  5
208
330
46
100
AcDbEntity
  8
VIEW
  6
Continuous
 62
     7
100
AcDbLine
 10
61.0002914444
 20
6.0
 30
0.0
 11
59.5000930801
 21
6.0
 31
0.0
  0
LINE
  5
209
330
46
100
AcDbEntity
  8
VIEW
  6
Continuous
 62
     7
100
AcDbLine
 10
55.939195253
 20
6.0
 30
0.0
 11
55.8011947647
 21
6.0
 31
0.0
  0
LINE
  5
20A
330
46
100
AcDbEntity
  8
VIEW
  6
Continuous
 62
     7
100
AcDbLine
 10
108.5000930801
 20
3.0
 30
0.0
 11
59.5455947891
 21
3.0
 31
0.0
  0
ENDBLK
  5
48
330
46
100
AcDbEntity
  8
0
100
AcDbBlockEnd
  0
BLOCK
  5
20C
330
20B
100
AcDbEntity
  8
0
100
AcDbBlockBegin
  2
ﾌﾞﾛｯｸ97
 70
     0
 71
     0
 10
0.0
 20
0.0
 30
0.0
  3
ﾌﾞﾛｯｸ97
  1

  0
CIRCLE
  5
20E
330
20B
100
AcDbEntity
  8
VIEW
  6
Continuous
 62
     7
100
AcDbCircle
 10
58.0
 20
108.5002059937
 30
0.0
 40
0.8500000238418253
  0
CIRCLE
  5
20F
330
20B
100
AcDbEntity
  8
VIEW
  6
Continuous
 62
     7
100
AcDbCircle
 10
58.0
 20
26.5000991821
 30
0.0
 40
0.8500000238418222
  0
ARC
  5
210
330
20B
100
AcDbEntity
  8
VIEW
  6
Continuous
 62
     7
100
AcDbCircle
 10
55.2516021729
 20
127.0002059937
 30
0.0
 40
3.000000000000014
100
AcDbArc
 50
4.8970627785
 51
90.0
  0
ARC
  5
211
330
20B
100
AcDbEntity
  8
VIEW
  6
Continuous
 62
     7
100
AcDbCircle
 10
55.2516021729
 20
8.0
 30
0.0
 40
3.000000000000026
100
AcDbArc
 50
270.0
 51
355.1029052734
  0
ARC
  5
212
330
20B
100
AcDbEntity
  8
VIEW
  6
Continuous
 62
     7
100
AcDbCircle
 10
57.2260894775
 20
125.0002059937
 30
0.0
 40
0.8500000238418863
100
AcDbArc
 50
90.0
 51
270.0
  0
ARC
  5
213
330
20B
100
AcDbEntity
  8
VIEW
  6
Continuous
 62
     7
100
AcDbCircle
 10
57.2260894775
 20
10.0
 30
0.0
 40
0.8500000238418917
100
AcDbArc
 50
90.0
 51
270.0
  0
ARC
  5
214
330
20B
100
AcDbEntity
  8
VIEW
  6
Continuous
 62
     7
100
AcDbCircle
 10
-639.2041015625
 20
67.5002059937
 30
0.0
 40
700.0000000000002
100
AcDbArc
 50
355.1029052734
 51
355.200592041
  0
ARC
  5
215
330
20B
100
AcDbEntity
  8
VIEW
  6
Continuous
 62
     7
100
AcDbCircle
 10
-639.2041015625
 20
67.5002059937
 30
0.0
 40
700.0000000000003
100
AcDbArc
 50
4.7993631363
 51
4.8970627785
  0
ARC
  5
216
330
20B
100
AcDbEntity
  8
VIEW
  6
Continuous
 62
     7
100
AcDbCircle
 10
-639.2041015625
 20
67.5002059937
 30
0.0
 40
700.0000000000002
100
AcDbArc
 50
3.1409549713
 51
4.6268429756
  0
ARC
  5
217
330
20B
100
AcDbEntity
  8
VIEW
  6
Continuous
 62
     7
100
AcDbCircle
 10
58.1420898437
 20
8.9500045776
 30
0.0
 40
0.2000000029802482
100
AcDbArc
 50
355.200592041
 51
90.0
  0
ARC
  5
218
330
20B
100
AcDbEntity
  8
VIEW
  6
Continuous
 62
     7
100
AcDbCircle
 10
-639.2041015625
 20
67.5002059937
 30
0.0
 40
700.0000000000003
100
AcDbArc
 50
355.3731994629
 51
356.8590087891
  0
ARC
  5
219
330
20B
100
AcDbEntity
  8
VIEW
  6
Continuous
 62
     7
100
AcDbCircle
 10
58.3153991699
 20
123.9500961304
 30
0.0
 40
0.2000000029802607
100
AcDbArc
 50
4.6268429756
 51
90.0
  0
ARC
  5
21A
330
20B
100
AcDbEntity
  8
VIEW
  6
Continuous
 62
     7
100
AcDbCircle
 10
58.3153991699
 20
11.0500030518
 30
0.0
 40
0.2000000029802607
100
AcDbArc
 50
270.0
 51
355.3731994629
  0
ARC
  5
21B
330
20B
100
AcDbEntity
  8
VIEW
  6
Continuous
 62
     7
100
AcDbCircle
 10
58.1420898437
 20
126.0499954224
 30
0.0
 40
0.200000002980206
100
AcDbArc
 50
270.0
 51
4.7993631363
  0
ARC
  5
21C
330
20B
100
AcDbEntity
  8
VIEW
  6
Continuous
 62
     7
100
AcDbCircle
 10
58.7456970215
 20
29.2000961304
 30
0.0
 40
1.000000000000028
100
AcDbArc
 50
356.8590087891
 51
0.0
  0
ARC
  5
21D
330
20B
100
AcDbEntity
  8
VIEW
  6
Continuous
 62
     7
100
AcDbCircle
 10
65.1611938477
 20
28.0000991821
 30
0.0
 40
0.5
100
AcDbArc
 50
180.0
 51
270.0
  0
ARC
  5
21E
330
20B
100
AcDbEntity
  8
VIEW
  6
Continuous
 62
     7
100
AcDbCircle
 10
67.1611938477
 20
28.0000991821
 30
0.0
 40
0.5
100
AcDbArc
 50
270.0
 51
0.0
  0
ARC
  5
21F
330
20B
100
AcDbEntity
  8
VIEW
  6
Continuous
 62
     7
100
AcDbCircle
 10
65.1611938477
 20
107.0002059937
 30
0.0
 40
0.5
100
AcDbArc
 50
90.0
 51
180.0
  0
ARC
  5
220
330
20B
100
AcDbEntity
  8
VIEW
  6
Continuous
 62
     7
100
AcDbCircle
 10
67.1611938477
 20
107.0002059937
 30
0.0
 40
0.5
100
AcDbArc
 50
0.0
 51
90.0
  0
ARC
  5
221
330
20B
100
AcDbEntity
  8
VIEW
  6
Continuous
 62
     7
100
AcDbCircle
 10
108.5001831055
 20
105.7999954224
 30
0.0
 40
0.699999988079071
100
AcDbArc
 50
0.0
 51
90.0
  0
ARC
  5
222
330
20B
100
AcDbEntity
  8
VIEW
  6
Continuous
 62
     7
100
AcDbCircle
 10
108.5001831055
 20
29.2000961304
 30
0.0
 40
0.6999999880790481
100
AcDbArc
 50
269.9999084473
 51
0.0
  0
ARC
  5
223
330
20B
100
AcDbEntity
  8
VIEW
  6
Continuous
 62
     7
100
AcDbCircle
 10
4.0
 20
80.0002975464
 30
0.0
 40
0.5
100
AcDbArc
 50
90.0
 51
270.0
  0
ARC
  5
224
330
20B
100
AcDbEntity
  8
VIEW
  6
Continuous
 62
     7
100
AcDbCircle
 10
4.0
 20
80.0002059937
 30
0.0
 40
0.5000000000000142
100
AcDbArc
 50
179.9902038574
 51
270.0
  0
CIRCLE
  5
225
330
20B
100
AcDbEntity
  8
VIEW
  6
Continuous
 62
     7
100
AcDbCircle
 10
4.0
 20
12.5000991821
 30
0.0
 40
1.399999976158146
  0
CIRCLE
  5
226
330
20B
100
AcDbEntity
  8
VIEW
  6
Continuous
 62
     7
100
AcDbCircle
 10
4.0
 20
122.5002059937
 30
0.0
 40
1.399999976158144
  0
CIRCLE
  5
227
330
20B
100
AcDbEntity
  8
VIEW
  6
Continuous
 62
     7
100
AcDbCircle
 10
58.0
 20
26.5000991821
 30
0.0
 40
0.4999999999999988
  0
CIRCLE
  5
228
330
20B
100
AcDbEntity
  8
VIEW
  6
Continuous
 62
     7
100
AcDbCircle
 10
58.0
 20
26.5000991821
 30
0.0
 40
0.8000000119209502
  0
ARC
  5
229
330
20B
100
AcDbEntity
  8
VIEW
  6
Continuous
 62
     7
100
AcDbCircle
 10
-639.2481079102
 20
66.5945053101
 30
0.0
 40
699.9000244140627
100
AcDbArc
 50
355.2872009277
 51
355.4348144531
  0
CIRCLE
  5
22A
330
20B
100
AcDbEntity
  8
VIEW
  6
Continuous
 62
     7
100
AcDbCircle
 10
57.2561950684
 20
9.9990997314
 30
0.0
 40
0.800000011920949
  0
ARC
  5
22B
330
20B
100
AcDbEntity
  8
WORKLAYER
  6
Continuous
 62
     7
100
AcDbCircle
 10
116.0000915527
 20
62.8702011108
 30
0.0
 40
1.0
100
AcDbArc
 50
0.0
 51
90.0
  0
ARC
  5
22C
330
20B
100
AcDbEntity
  8
WORKLAYER
  6
Continuous
 62
     7
100
AcDbCircle
 10
116.0000915527
 20
60.3702011108
 30
0.0
 40
1.0
100
AcDbArc
 50
270.0
 51
0.0
  0
ARC
  5
22D
330
20B
100
AcDbEntity
  8
VIEW
  6
Continuous
 62
     7
100
AcDbCircle
 10
0.25
 20
0.25
 30
0.0
 40
0.2500000000000002
100
AcDbArc
 50
180.0
 51
270.0
  0
CIRCLE
  5
22E
330
20B
100
AcDbEntity
  8
VIEW
  6
Continuous
 62
     7
100
AcDbCircle
 10
58.0
 20
108.5002059937
 30
0.0
 40
0.4999999999999988
  0
CIRCLE
  5
22F
330
20B
100
AcDbEntity
  8
VIEW
  6
Continuous
 62
     7
100
AcDbCircle
 10
58.0
 20
108.5002059937
 30
0.0
 40
0.8000000119209502
  0
ARC
  5
230
330
20B
100
AcDbEntity
  8
VIEW
  6
Continuous
 62
     7
100
AcDbCircle
 10
-639.2481079102
 20
68.4059066772
 30
0.0
 40
699.900024414063
100
AcDbArc
 50
4.5651779175
 51
4.7128281593
  0
CIRCLE
  5
231
330
20B
100
AcDbEntity
  8
VIEW
  6
Continuous
 62
     7
100
AcDbCircle
 10
57.2561950684
 20
125.0011062622
 30
0.0
 40
0.8000000119209502
  0
ARC
  5
232
330
20B
100
AcDbEntity
  8
WORKLAYER
  6
Continuous
 62
     7
100
AcDbCircle
 10
116.0000915527
 20
55.2502059937
 30
0.0
 40
1.0
100
AcDbArc
 50
0.0
 51
90.0
  0
ARC
  5
233
330
20B
100
AcDbEntity
  8
WORKLAYER
  6
Continuous
 62
     7
100
AcDbCircle
 10
116.0000915527
 20
52.7502059937
 30
0.0
 40
1.0
100
AcDbArc
 50
270.0
 51
0.0
  0
ARC
  5
234
330
20B
100
AcDbEntity
  8
WORKLAYER
  6
Continuous
 62
     7
100
AcDbCircle
 10
116.0000915527
 20
70.490196228
 30
0.0
 40
1.0
100
AcDbArc
 50
0.0
 51
90.0
  0
ARC
  5
235
330
20B
100
AcDbEntity
  8
WORKLAYER
  6
Continuous
 62
     7
100
AcDbCircle
 10
116.0000915527
 20
67.990196228
 30
0.0
 40
1.0
100
AcDbArc
 50
270.0
 51
0.0
  0
ARC
  5
236
330
20B
100
AcDbEntity
  8
WORKLAYER
  6
Continuous
 62
     7
100
AcDbCircle
 10
116.0000915527
 20
47.6301956177
 30
0.0
 40
1.0
100
AcDbArc
 50
0.0
 51
90.0
  0
ARC
  5
237
330
20B
100
AcDbEntity
  8
WORKLAYER
  6
Continuous
 62
     7
100
AcDbCircle
 10
116.0000915527
 20
45.1301956177
 30
0.0
 40
1.0
100
AcDbArc
 50
270.0
 51
0.0
  0
ARC
  5
238
330
20B
100
AcDbEntity
  8
WORKLAYER
  6
Continuous
 62
     7
100
AcDbCircle
 10
116.0000915527
 20
40.0102005005
 30
0.0
 40
1.0
100
AcDbArc
 50
0.0
 51
90.0
  0
ARC
  5
239
330
20B
100
AcDbEntity
  8
WORKLAYER
  6
Continuous
 62
     7
100
AcDbCircle
 10
116.0000915527
 20
37.5102005005
 30
0.0
 40
1.0
100
AcDbArc
 50
270.0
 51
0.0
  0
LINE
  5
23A
330
20B
100
AcDbEntity
  8
VIEW
  6
Continuous
 62
     7
100
AcDbLine
 10
25.0
 20
21.0000991821
 30
0.0
 11
25.0
 21
5.2000045776
 31
0.0
  0
LINE
  5
23B
330
20B
100
AcDbEntity
  8
VIEW
  6
Continuous
 62
     7
100
AcDbLine
 10
0.0
 20
26.1801986694
 30
0.0
 11
0.0
 21
21.0000991821
 31
0.0
  0
LINE
  5
23C
330
20B
100
AcDbEntity
  8
VIEW
  6
Continuous
 62
     7
100
AcDbLine
 10
17.900100708
 20
26.1801986694
 30
0.0
 11
0.0
 21
26.1801986694
 31
0.0
  0
LINE
  5
23D
330
20B
100
AcDbEntity
  8
VIEW
  6
Continuous
 62
     7
100
AcDbLine
 10
17.900100708
 20
49.8199996948
 30
0.0
 11
17.900100708
 21
26.1801986694
 31
0.0
  0
LINE
  5
23E
330
20B
100
AcDbEntity
  8
VIEW
  6
Continuous
 62
     7
100
AcDbLine
 10
4.0
 20
49.8199996948
 30
0.0
 11
17.900100708
 21
49.8199996948
 31
0.0
  0
LINE
  5
23F
330
20B
100
AcDbEntity
  8
VIEW
  6
Continuous
 62
     7
100
AcDbLine
 10
4.0
 20
49.8199996948
 30
0.0
 11
4.0
 21
85.0002059937
 31
0.0
  0
LINE
  5
240
330
20B
100
AcDbEntity
  8
VIEW
  6
Continuous
 62
     7
100
AcDbLine
 10
4.0
 20
85.0002059937
 30
0.0
 11
0.0
 21
85.0002059937
 31
0.0
  0
LINE
  5
241
330
20B
100
AcDbEntity
  8
VIEW
  6
Continuous
 62
     7
100
AcDbLine
 10
25.0
 20
114.0002059937
 30
0.0
 11
0.0
 21
114.0002059937
 31
0.0
  0
LINE
  5
242
330
20B
100
AcDbEntity
  8
VIEW
  6
Continuous
 62
     7
100
AcDbLine
 10
25.0
 20
129.7999954224
 30
0.0
 11
25.0
 21
114.0002059937
 31
0.0
  0
LINE
  5
243
330
20B
100
AcDbEntity
  8
VIEW
  6
Continuous
 62
     7
100
AcDbLine
 10
27.3472900391
 20
105.7999954224
 30
0.0
 11
27.3472900391
 21
29.2000961304
 31
0.0
  0
LINE
  5
244
330
20B
100
AcDbEntity
  8
VIEW
  6
Continuous
 62
     7
100
AcDbLine
 10
9.799987793
 20
55.5002059937
 30
0.0
 11
9.799987793
 21
59.5000076294
 31
0.0
  0
LINE
  5
245
330
20B
100
AcDbEntity
  8
VIEW
  6
Continuous
 62
     7
100
AcDbLine
 10
9.799987793
 20
59.5000076294
 30
0.0
 11
6.0
 21
59.5000076294
 31
0.0
  0
LINE
  5
246
330
20B
100
AcDbEntity
  8
VIEW
  6
Continuous
 62
     7
100
AcDbLine
 10
6.0
 20
59.5000076294
 30
0.0
 11
6.0
 21
58.7000961304
 31
0.0
  0
LINE
  5
247
330
20B
100
AcDbEntity
  8
VIEW
  6
Continuous
 62
     7
100
AcDbLine
 10
6.0
 20
58.7000961304
 30
0.0
 11
8.5
 21
58.7000961304
 31
0.0
  0
LINE
  5
248
330
20B
100
AcDbEntity
  8
VIEW
  6
Continuous
 62
     7
100
AcDbLine
 10
8.5
 20
58.7000961304
 30
0.0
 11
8.5
 21
56.2999954224
 31
0.0
  0
LINE
  5
249
330
20B
100
AcDbEntity
  8
VIEW
  6
Continuous
 62
     7
100
AcDbLine
 10
8.5
 20
56.2999954224
 30
0.0
 11
6.0
 21
56.2999954224
 31
0.0
  0
LINE
  5
24A
330
20B
100
AcDbEntity
  8
VIEW
  6
Continuous
 62
     7
100
AcDbLine
 10
6.0
 20
56.2999954224
 30
0.0
 11
6.0
 21
55.5002059937
 31
0.0
  0
LINE
  5
24B
330
20B
100
AcDbEntity
  8
VIEW
  6
Continuous
 62
     7
100
AcDbLine
 10
6.0
 20
55.5002059937
 30
0.0
 11
9.799987793
 21
55.5002059937
 31
0.0
  0
LINE
  5
24C
330
20B
100
AcDbEntity
  8
VIEW
  6
Continuous
 62
     7
100
AcDbLine
 10
9.799987793
 20
100.5002059937
 30
0.0
 11
9.799987793
 21
104.5002059937
 31
0.0
  0
LINE
  5
24D
330
20B
100
AcDbEntity
  8
VIEW
  6
Continuous
 62
     7
100
AcDbLine
 10
9.799987793
 20
104.5002059937
 30
0.0
 11
6.0
 21
104.5002059937
 31
0.0
  0
LINE
  5
24E
330
20B
100
AcDbEntity
  8
VIEW
  6
Continuous
 62
     7
100
AcDbLine
 10
6.0
 20
104.5002059937
 30
0.0
 11
6.0
 21
103.7000961304
 31
0.0
  0
LINE
  5
24F
330
20B
100
AcDbEntity
  8
VIEW
  6
Continuous
 62
     7
100
AcDbLine
 10
6.0
 20
103.7000961304
 30
0.0
 11
8.5
 21
103.7000961304
 31
0.0
  0
LINE
  5
250
330
20B
100
AcDbEntity
  8
VIEW
  6
Continuous
 62
     7
100
AcDbLine
 10
8.5
 20
103.7000961304
 30
0.0
 11
8.5
 21
101.2999954224
 31
0.0
  0
LINE
  5
251
330
20B
100
AcDbEntity
  8
VIEW
  6
Continuous
 62
     7
100
AcDbLine
 10
8.5
 20
101.2999954224
 30
0.0
 11
6.0
 21
101.2999954224
 31
0.0
  0
LINE
  5
252
330
20B
100
AcDbEntity
  8
VIEW
  6
Continuous
 62
     7
100
AcDbLine
 10
6.0
 20
101.2999954224
 30
0.0
 11
6.0
 21
100.5002059937
 31
0.0
  0
LINE
  5
253
330
20B
100
AcDbEntity
  8
VIEW
  6
Continuous
 62
     7
100
AcDbLine
 10
6.0
 20
100.5002059937
 30
0.0
 11
9.799987793
 21
100.5002059937
 31
0.0
  0
LINE
  5
254
330
20B
100
AcDbEntity
  8
VIEW
  6
Continuous
 62
     7
100
AcDbLine
 10
0.0
 20
21.0000991821
 30
0.0
 11
25.0
 21
21.0000991821
 31
0.0
  0
LINE
  5
255
330
20B
100
AcDbEntity
  8
VIEW
  6
Continuous
 62
     7
100
AcDbLine
 10
0.0
 20
114.0002059937
 30
0.0
 11
0.0
 21
85.0002059937
 31
0.0
  0
LINE
  5
256
330
20B
100
AcDbEntity
  8
VIEW
  6
Continuous
 62
     7
100
AcDbLine
 10
55.2516021729
 20
5.0
 30
0.0
 11
25.0
 21
5.0
 31
0.0
  0
LINE
  5
257
330
20B
100
AcDbEntity
  8
VIEW
  6
Continuous
 62
     7
100
AcDbLine
 10
25.0
 20
5.0
 30
0.0
 11
25.0
 21
5.2000045776
 31
0.0
  0
LINE
  5
258
330
20B
100
AcDbEntity
  8
VIEW
  6
Continuous
 62
     7
100
AcDbLine
 10
25.0
 20
130.0002059937
 30
0.0
 11
55.2516021729
 21
130.0002059937
 31
0.0
  0
LINE
  5
259
330
20B
100
AcDbEntity
  8
VIEW
  6
Continuous
 62
     7
100
AcDbLine
 10
25.0
 20
129.7999954224
 30
0.0
 11
25.0
 21
130.0002059937
 31
0.0
  0
LINE
  5
25A
330
20B
100
AcDbEntity
  8
VIEW
  6
Continuous
 62
     7
100
AcDbLine
 10
27.3472900391
 20
30.2000961304
 30
0.0
 11
58.7456970215
 21
30.2000961304
 31
0.0
  0
LINE
  5
25B
330
20B
100
AcDbEntity
  8
VIEW
  6
Continuous
 62
     7
100
AcDbLine
 10
58.7456970215
 20
104.7999954224
 30
0.0
 11
27.3472900391
 21
104.7999954224
 31
0.0
  0
LINE
  5
25C
330
20B
100
AcDbEntity
  8
VIEW
  6
Continuous
 62
     7
100
AcDbLine
 10
58.1420898437
 20
125.8501052856
 30
0.0
 11
57.2260894775
 21
125.8501052856
 31
0.0
  0
LINE
  5
25D
330
20B
100
AcDbEntity
  8
VIEW
  6
Continuous
 62
     7
100
AcDbLine
 10
57.2260894775
 20
124.1501083374
 30
0.0
 11
58.3152008057
 21
124.1501083374
 31
0.0
  0
LINE
  5
25E
330
20B
100
AcDbEntity
  8
VIEW
  6
Continuous
 62
     7
100
AcDbLine
 10
57.2260894775
 20
9.1499023437
 30
0.0
 11
58.1420898437
 21
9.1499023437
 31
0.0
  0
LINE
  5
25F
330
20B
100
AcDbEntity
  8
VIEW
  6
Continuous
 62
     7
100
AcDbLine
 10
58.3152008057
 20
10.8501052856
 30
0.0
 11
57.2260894775
 21
10.8501052856
 31
0.0
  0
LINE
  5
260
330
20B
100
AcDbEntity
  8
VIEW
  6
Continuous
 62
     7
100
AcDbLine
 10
59.7456970215
 20
29.2000961304
 30
0.0
 11
59.7265014648
 21
29.3952102661
 31
0.0
  0
LINE
  5
261
330
20B
100
AcDbEntity
  8
VIEW
  6
Continuous
 62
     7
100
AcDbLine
 10
59.7265014648
 20
29.3952102661
 30
0.0
 11
59.6696014404
 21
29.5828018188
 31
0.0
  0
LINE
  5
262
330
20B
100
AcDbEntity
  8
VIEW
  6
Continuous
 62
     7
100
AcDbLine
 10
59.6696014404
 20
29.5828018188
 30
0.0
 11
59.5773010254
 21
29.7556991577
 31
0.0
  0
LINE
  5
263
330
20B
100
AcDbEntity
  8
VIEW
  6
Continuous
 62
     7
100
AcDbLine
 10
59.5773010254
 20
29.7556991577
 30
0.0
 11
59.4527893066
 21
29.9070968628
 31
0.0
  0
LINE
  5
264
330
20B
100
AcDbEntity
  8
VIEW
  6
Continuous
 62
     7
100
AcDbLine
 10
59.4527893066
 20
29.9070968628
 30
0.0
 11
59.3013000488
 21
30.0317001343
 31
0.0
  0
LINE
  5
265
330
20B
100
AcDbEntity
  8
VIEW
  6
Continuous
 62
     7
100
AcDbLine
 10
59.3013000488
 20
30.0317001343
 30
0.0
 11
59.1283874512
 21
30.1239089966
 31
0.0
  0
LINE
  5
266
330
20B
100
AcDbEntity
  8
VIEW
  6
Continuous
 62
     7
100
AcDbLine
 10
59.1283874512
 20
30.1239089966
 30
0.0
 11
58.9408874512
 21
30.1809005737
 31
0.0
  0
LINE
  5
267
330
20B
100
AcDbEntity
  8
VIEW
  6
Continuous
 62
     7
100
AcDbLine
 10
58.9408874512
 20
30.1809005737
 30
0.0
 11
58.7456970215
 21
30.2000961304
 31
0.0
  0
LINE
  5
268
330
20B
100
AcDbEntity
  8
VIEW
  6
Continuous
 62
     7
100
AcDbLine
 10
58.7456970215
 20
104.7999954224
 30
0.0
 11
58.9408874512
 21
104.8192977905
 31
0.0
  0
LINE
  5
269
330
20B
100
AcDbEntity
  8
VIEW
  6
Continuous
 62
     7
100
AcDbLine
 10
58.9408874512
 20
104.8192977905
 30
0.0
 11
59.1283874512
 21
104.8763046265
 31
0.0
  0
LINE
  5
26A
330
20B
100
AcDbEntity
  8
VIEW
  6
Continuous
 62
     7
100
AcDbLine
 10
59.1283874512
 20
104.8763046265
 30
0.0
 11
59.3013000488
 21
104.9686965942
 31
0.0
  0
LINE
  5
26B
330
20B
100
AcDbEntity
  8
VIEW
  6
Continuous
 62
     7
100
AcDbLine
 10
59.3013000488
 20
104.9686965942
 30
0.0
 11
59.4527893066
 21
105.0929031372
 31
0.0
  0
LINE
  5
26C
330
20B
100
AcDbEntity
  8
VIEW
  6
Continuous
 62
     7
100
AcDbLine
 10
59.4527893066
 20
105.0929031372
 30
0.0
 11
59.5773010254
 21
105.2444076538
 31
0.0
  0
LINE
  5
26D
330
20B
100
AcDbEntity
  8
VIEW
  6
Continuous
 62
     7
100
AcDbLine
 10
59.5773010254
 20
105.2444076538
 30
0.0
 11
59.6696014404
 21
105.4175033569
 31
0.0
  0
LINE
  5
26E
330
20B
100
AcDbEntity
  8
VIEW
  6
Continuous
 62
     7
100
AcDbLine
 10
59.6696014404
 20
105.4175033569
 30
0.0
 11
59.7265014648
 21
105.6050033569
 31
0.0
  0
LINE
  5
26F
330
20B
100
AcDbEntity
  8
VIEW
  6
Continuous
 62
     7
100
AcDbLine
 10
59.7265014648
 20
105.6050033569
 30
0.0
 11
59.7456970215
 21
105.7999954224
 31
0.0
  0
LINE
  5
270
330
20B
100
AcDbEntity
  8
VIEW
  6
Continuous
 62
     7
100
AcDbLine
 10
27.8472900391
 20
103.7999954224
 30
0.0
 11
27.8472900391
 21
30.5000991821
 31
0.0
  0
LINE
  5
271
330
20B
100
AcDbEntity
  8
VIEW
  6
Continuous
 62
     7
100
AcDbLine
 10
27.8472900391
 20
103.52759552
 30
0.0
 11
27.3472900391
 21
103.5300979614
 31
0.0
  0
LINE
  5
272
330
20B
100
AcDbEntity
  8
VIEW
  6
Continuous
 62
     7
100
AcDbLine
 10
27.8472900391
 20
30.6725997925
 30
0.0
 11
27.3472900391
 21
30.6698989868
 31
0.0
  0
LINE
  5
273
330
20B
100
AcDbEntity
  8
VIEW
  6
Continuous
 62
     7
100
AcDbLine
 10
27.3472900391
 20
30.5000991821
 30
0.0
 11
27.8472900391
 21
30.5000991821
 31
0.0
  0
LINE
  5
274
330
20B
100
AcDbEntity
  8
VIEW
  6
Continuous
 62
     7
100
AcDbLine
 10
72.0956878662
 20
28.5000991821
 30
0.0
 11
59.7085876465
 21
28.5000991821
 31
0.0
  0
LINE
  5
275
330
20B
100
AcDbEntity
  8
VIEW
  6
Continuous
 62
     7
100
AcDbLine
 10
59.7085876465
 20
106.5002059937
 30
0.0
 11
72.0956878662
 21
106.5002059937
 31
0.0
  0
LINE
  5
276
330
20B
100
AcDbEntity
  8
VIEW
  6
Continuous
 62
     7
100
AcDbLine
 10
27.8472900391
 20
31.8725967407
 30
0.0
 11
27.3472900391
 21
31.8698959351
 31
0.0
  0
LINE
  5
277
330
20B
100
AcDbEntity
  8
VIEW
  6
Continuous
 62
     7
100
AcDbLine
 10
64.6611938477
 20
28.0000991821
 30
0.0
 11
64.6611938477
 21
28.5000991821
 31
0.0
  0
LINE
  5
278
330
20B
100
AcDbEntity
  8
VIEW
  6
Continuous
 62
     7
100
AcDbLine
 10
67.6611938477
 20
28.5000991821
 30
0.0
 11
67.6611938477
 21
28.0000991821
 31
0.0
  0
LINE
  5
279
330
20B
100
AcDbEntity
  8
VIEW
  6
Continuous
 62
     7
100
AcDbLine
 10
65.1611938477
 20
27.5000991821
 30
0.0
 11
67.1611938477
 21
27.5000991821
 31
0.0
  0
LINE
  5
27A
330
20B
100
AcDbEntity
  8
VIEW
  6
Continuous
 62
     7
100
AcDbLine
 10
64.6611938477
 20
107.0002059937
 30
0.0
 11
64.6611938477
 21
106.5002059937
 31
0.0
  0
LINE
  5
27B
330
20B
100
AcDbEntity
  8
VIEW
  6
Continuous
 62
     7
100
AcDbLine
 10
65.1611938477
 20
107.5002059937
 30
0.0
 11
67.1611938477
 21
107.5002059937
 31
0.0
  0
LINE
  5
27C
330
20B
100
AcDbEntity
  8
VIEW
  6
Continuous
 62
     7
100
AcDbLine
 10
67.6611938477
 20
106.5002059937
 30
0.0
 11
67.6611938477
 21
107.0002059937
 31
0.0
  0
LINE
  5
27D
330
20B
100
AcDbEntity
  8
VIEW
  6
Continuous
 62
     7
100
AcDbLine
 10
27.8472900391
 20
61.0000076294
 30
0.0
 11
27.3472900391
 21
61.0000076294
 31
0.0
  0
LINE
  5
27E
330
20B
100
AcDbEntity
  8
VIEW
  6
Continuous
 62
     7
100
AcDbLine
 10
27.8472900391
 20
102.7883987427
 30
0.0
 11
27.3472900391
 21
102.7883987427
 31
0.0
  0
LINE
  5
27F
330
20B
100
AcDbEntity
  8
VIEW
  6
Continuous
 62
     7
100
AcDbLine
 10
72.0956878662
 20
30.9041976929
 30
0.0
 11
72.0956878662
 21
28.5000991821
 31
0.0
  0
LINE
  5
280
330
20B
100
AcDbEntity
  8
VIEW
  6
Continuous
 62
     7
100
AcDbLine
 10
61.0
 20
31.2000961304
 30
0.0
 11
61.0
 21
28.5000991821
 31
0.0
  0
LINE
  5
281
330
20B
100
AcDbEntity
  8
VIEW
  6
Continuous
 62
     7
100
AcDbLine
 10
61.0
 20
103.7999954224
 30
0.0
 11
61.0
 21
106.5002059937
 31
0.0
  0
LINE
  5
282
330
20B
100
AcDbEntity
  8
VIEW
  6
Continuous
 62
     7
100
AcDbLine
 10
72.0956878662
 20
104.4957962036
 30
0.0
 11
72.0956878662
 21
106.5002059937
 31
0.0
  0
LINE
  5
283
330
20B
100
AcDbEntity
  8
VIEW
  6
Continuous
 62
     7
100
AcDbLine
 10
72.0956878662
 20
104.4957962036
 30
0.0
 11
73.6956939697
 21
104.4874954224
 31
0.0
  0
LINE
  5
284
330
20B
100
AcDbEntity
  8
VIEW
  6
Continuous
 62
     7
100
AcDbLine
 10
73.6956939697
 20
104.4874954224
 30
0.0
 11
73.6956939697
 21
106.5002059937
 31
0.0
  0
LINE
  5
285
330
20B
100
AcDbEntity
  8
VIEW
  6
Continuous
 62
     7
100
AcDbLine
 10
75.0956878662
 20
104.4803085327
 30
0.0
 11
75.0956878662
 21
106.5002059937
 31
0.0
  0
LINE
  5
286
330
20B
100
AcDbEntity
  8
VIEW
  6
Continuous
 62
     7
100
AcDbLine
 10
75.0956878662
 20
104.4803085327
 30
0.0
 11
76.6956939697
 21
104.4720077515
 31
0.0
  0
LINE
  5
287
330
20B
100
AcDbEntity
  8
VIEW
  6
Continuous
 62
     7
100
AcDbLine
 10
76.6956939697
 20
104.4720077515
 30
0.0
 11
76.6956939697
 21
106.5002059937
 31
0.0
  0
LINE
  5
288
330
20B
100
AcDbEntity
  8
VIEW
  6
Continuous
 62
     7
100
AcDbLine
 10
78.0956878662
 20
104.4645004272
 30
0.0
 11
78.0956878662
 21
106.5002059937
 31
0.0
  0
LINE
  5
289
330
20B
100
AcDbEntity
  8
VIEW
  6
Continuous
 62
     7
100
AcDbLine
 10
78.0956878662
 20
104.4645004272
 30
0.0
 11
79.6958007812
 21
104.4560012817
 31
0.0
  0
LINE
  5
28A
330
20B
100
AcDbEntity
  8
VIEW
  6
Continuous
 62
     7
100
AcDbLine
 10
79.6958007812
 20
104.4560012817
 30
0.0
 11
79.6958007812
 21
106.5002059937
 31
0.0
  0
LINE
  5
28B
330
20B
100
AcDbEntity
  8
VIEW
  6
Continuous
 62
     7
100
AcDbLine
 10
81.0956878662
 20
104.4487991333
 30
0.0
 11
81.0956878662
 21
106.5002059937
 31
0.0
  0
LINE
  5
28C
330
20B
100
AcDbEntity
  8
VIEW
  6
Continuous
 62
     7
100
AcDbLine
 10
81.0956878662
 20
104.4487991333
 30
0.0
 11
82.6958007812
 21
104.4404983521
 31
0.0
  0
LINE
  5
28D
330
20B
100
AcDbEntity
  8
VIEW
  6
Continuous
 62
     7
100
AcDbLine
 10
82.6958007812
 20
104.4404983521
 30
0.0
 11
82.6958007812
 21
106.5002059937
 31
0.0
  0
LINE
  5
28E
330
20B
100
AcDbEntity
  8
VIEW
  6
Continuous
 62
     7
100
AcDbLine
 10
84.095703125
 20
104.4330978394
 30
0.0
 11
84.095703125
 21
106.5002059937
 31
0.0
  0
LINE
  5
28F
330
20B
100
AcDbEntity
  8
VIEW
  6
Continuous
 62
     7
100
AcDbLine
 10
84.095703125
 20
104.4330978394
 30
0.0
 11
85.6958007812
 21
104.4247055054
 31
0.0
  0
LINE
  5
290
330
20B
100
AcDbEntity
  8
VIEW
  6
Continuous
 62
     7
100
AcDbLine
 10
85.6958007812
 20
104.4247055054
 30
0.0
 11
85.6958007812
 21
106.5002059937
 31
0.0
  0
LINE
  5
291
330
20B
100
AcDbEntity
  8
VIEW
  6
Continuous
 62
     7
100
AcDbLine
 10
87.095703125
 20
104.4175033569
 30
0.0
 11
87.095703125
 21
106.5002059937
 31
0.0
  0
LINE
  5
292
330
20B
100
AcDbEntity
  8
VIEW
  6
Continuous
 62
     7
100
AcDbLine
 10
87.095703125
 20
104.4175033569
 30
0.0
 11
88.6958007812
 21
104.4090042114
 31
0.0
  0
LINE
  5
293
330
20B
100
AcDbEntity
  8
VIEW
  6
Continuous
 62
     7
100
AcDbLine
 10
88.6958007812
 20
104.4090042114
 30
0.0
 11
88.6958007812
 21
106.5002059937
 31
0.0
  0
LINE
  5
294
330
20B
100
AcDbEntity
  8
VIEW
  6
Continuous
 62
     7
100
AcDbLine
 10
90.095703125
 20
104.401802063
 30
0.0
 11
90.095703125
 21
106.5002059937
 31
0.0
  0
LINE
  5
295
330
20B
100
AcDbEntity
  8
VIEW
  6
Continuous
 62
     7
100
AcDbLine
 10
90.095703125
 20
104.401802063
 30
0.0
 11
91.6958007812
 21
104.393196106
 31
0.0
  0
LINE
  5
296
330
20B
100
AcDbEntity
  8
VIEW
  6
Continuous
 62
     7
100
AcDbLine
 10
91.6958007812
 20
104.393196106
 30
0.0
 11
91.6958007812
 21
106.5002059937
 31
0.0
  0
LINE
  5
297
330
20B
100
AcDbEntity
  8
VIEW
  6
Continuous
 62
     7
100
AcDbLine
 10
93.095703125
 20
104.3860092163
 30
0.0
 11
93.095703125
 21
106.5002059937
 31
0.0
  0
LINE
  5
298
330
20B
100
AcDbEntity
  8
VIEW
  6
Continuous
 62
     7
100
AcDbLine
 10
93.095703125
 20
104.3860092163
 30
0.0
 11
94.6958007812
 21
104.3777084351
 31
0.0
  0
LINE
  5
299
330
20B
100
AcDbEntity
  8
VIEW
  6
Continuous
 62
     7
100
AcDbLine
 10
94.6958007812
 20
104.3777084351
 30
0.0
 11
94.6958007812
 21
106.5002059937
 31
0.0
  0
LINE
  5
29A
330
20B
100
AcDbEntity
  8
VIEW
  6
Continuous
 62
     7
100
AcDbLine
 10
96.095703125
 20
104.3705062866
 30
0.0
 11
96.095703125
 21
106.5002059937
 31
0.0
  0
LINE
  5
29B
330
20B
100
AcDbEntity
  8
VIEW
  6
Continuous
 62
     7
100
AcDbLine
 10
96.095703125
 20
104.3705062866
 30
0.0
 11
97.6958007812
 21
104.3619003296
 31
0.0
  0
LINE
  5
29C
330
20B
100
AcDbEntity
  8
VIEW
  6
Continuous
 62
     7
100
AcDbLine
 10
97.6958007812
 20
104.3619003296
 30
0.0
 11
97.6958007812
 21
106.5002059937
 31
0.0
  0
LINE
  5
29D
330
20B
100
AcDbEntity
  8
VIEW
  6
Continuous
 62
     7
100
AcDbLine
 10
97.6958007812
 20
31.0382003784
 30
0.0
 11
97.6958007812
 21
28.5000991821
 31
0.0
  0
LINE
  5
29E
330
20B
100
AcDbEntity
  8
VIEW
  6
Continuous
 62
     7
100
AcDbLine
 10
97.6958007812
 20
31.0382003784
 30
0.0
 11
96.095703125
 21
31.0298995972
 31
0.0
  0
LINE
  5
29F
330
20B
100
AcDbEntity
  8
VIEW
  6
Continuous
 62
     7
100
AcDbLine
 10
96.095703125
 20
31.0298995972
 30
0.0
 11
96.095703125
 21
28.5000991821
 31
0.0
  0
LINE
  5
2A0
330
20B
100
AcDbEntity
  8
VIEW
  6
Continuous
 62
     7
100
AcDbLine
 10
94.6958007812
 20
31.0224990845
 30
0.0
 11
94.6958007812
 21
28.5000991821
 31
0.0
  0
LINE
  5
2A1
330
20B
100
AcDbEntity
  8
VIEW
  6
Continuous
 62
     7
100
AcDbLine
 10
94.6958007812
 20
31.0224990845
 30
0.0
 11
93.095703125
 21
31.0141983032
 31
0.0
  0
LINE
  5
2A2
330
20B
100
AcDbEntity
  8
VIEW
  6
Continuous
 62
     7
100
AcDbLine
 10
93.095703125
 20
31.0141983032
 30
0.0
 11
93.095703125
 21
28.5000991821
 31
0.0
  0
LINE
  5
2A3
330
20B
100
AcDbEntity
  8
VIEW
  6
Continuous
 62
     7
100
AcDbLine
 10
91.6958007812
 20
31.0067977905
 30
0.0
 11
91.6958007812
 21
28.5000991821
 31
0.0
  0
LINE
  5
2A4
330
20B
100
AcDbEntity
  8
VIEW
  6
Continuous
 62
     7
100
AcDbLine
 10
91.6958007812
 20
31.0067977905
 30
0.0
 11
90.095703125
 21
30.9984970093
 31
0.0
  0
LINE
  5
2A5
330
20B
100
AcDbEntity
  8
VIEW
  6
Continuous
 62
     7
100
AcDbLine
 10
90.095703125
 20
30.9984970093
 30
0.0
 11
90.095703125
 21
28.5000991821
 31
0.0
  0
LINE
  5
2A6
330
20B
100
AcDbEntity
  8
VIEW
  6
Continuous
 62
     7
100
AcDbLine
 10
88.6958007812
 20
30.9910964966
 30
0.0
 11
88.6958007812
 21
28.5000991821
 31
0.0
  0
LINE
  5
2A7
330
20B
100
AcDbEntity
  8
VIEW
  6
Continuous
 62
     7
100
AcDbLine
 10
88.6958007812
 20
30.9910964966
 30
0.0
 11
87.095703125
 21
30.9827957153
 31
0.0
  0
LINE
  5
2A8
330
20B
100
AcDbEntity
  8
VIEW
  6
Continuous
 62
     7
100
AcDbLine
 10
87.095703125
 20
30.9827957153
 30
0.0
 11
87.095703125
 21
28.5000991821
 31
0.0
  0
LINE
  5
2A9
330
20B
100
AcDbEntity
  8
VIEW
  6
Continuous
 62
     7
100
AcDbLine
 10
85.6958007812
 20
30.9755020142
 30
0.0
 11
85.6958007812
 21
28.5000991821
 31
0.0
  0
LINE
  5
2AA
330
20B
100
AcDbEntity
  8
VIEW
  6
Continuous
 62
     7
100
AcDbLine
 10
85.6958007812
 20
30.9755020142
 30
0.0
 11
84.095703125
 21
30.9671096802
 31
0.0
  0
LINE
  5
2AB
330
20B
100
AcDbEntity
  8
VIEW
  6
Continuous
 62
     7
100
AcDbLine
 10
84.095703125
 20
30.9671096802
 30
0.0
 11
84.095703125
 21
28.5000991821
 31
0.0
  0
LINE
  5
2AC
330
20B
100
AcDbEntity
  8
VIEW
  6
Continuous
 62
     7
100
AcDbLine
 10
82.6958007812
 20
30.9598007202
 30
0.0
 11
82.6958007812
 21
28.5000991821
 31
0.0
  0
LINE
  5
2AD
330
20B
100
AcDbEntity
  8
VIEW
  6
Continuous
 62
     7
100
AcDbLine
 10
82.6958007812
 20
30.9598007202
 30
0.0
 11
81.0956878662
 21
30.951499939
 31
0.0
  0
LINE
  5
2AE
330
20B
100
AcDbEntity
  8
VIEW
  6
Continuous
 62
     7
100
AcDbLine
 10
81.0956878662
 20
30.951499939
 30
0.0
 11
81.0956878662
 21
28.5000991821
 31
0.0
  0
LINE
  5
2AF
330
20B
100
AcDbEntity
  8
VIEW
  6
Continuous
 62
     7
100
AcDbLine
 10
79.6958007812
 20
30.9440994263
 30
0.0
 11
79.6958007812
 21
28.5000991821
 31
0.0
  0
LINE
  5
2B0
330
20B
100
AcDbEntity
  8
VIEW
  6
Continuous
 62
     7
100
AcDbLine
 10
79.6958007812
 20
30.9440994263
 30
0.0
 11
78.0956878662
 21
30.9356002808
 31
0.0
  0
LINE
  5
2B1
330
20B
100
AcDbEntity
  8
VIEW
  6
Continuous
 62
     7
100
AcDbLine
 10
78.0956878662
 20
30.9356002808
 30
0.0
 11
78.0956878662
 21
28.5000991821
 31
0.0
  0
LINE
  5
2B2
330
20B
100
AcDbEntity
  8
VIEW
  6
Continuous
 62
     7
100
AcDbLine
 10
76.6956939697
 20
30.9283981323
 30
0.0
 11
76.6956939697
 21
28.5000991821
 31
0.0
  0
LINE
  5
2B3
330
20B
100
AcDbEntity
  8
VIEW
  6
Continuous
 62
     7
100
AcDbLine
 10
76.6956939697
 20
30.9283981323
 30
0.0
 11
75.0956878662
 21
30.9198989868
 31
0.0
  0
LINE
  5
2B4
330
20B
100
AcDbEntity
  8
VIEW
  6
Continuous
 62
     7
100
AcDbLine
 10
75.0956878662
 20
30.9198989868
 30
0.0
 11
75.0956878662
 21
28.5000991821
 31
0.0
  0
LINE
  5
2B5
330
20B
100
AcDbEntity
  8
VIEW
  6
Continuous
 62
     7
100
AcDbLine
 10
73.6956939697
 20
30.9126968384
 30
0.0
 11
73.6956939697
 21
28.5000991821
 31
0.0
  0
LINE
  5
2B6
330
20B
100
AcDbEntity
  8
VIEW
  6
Continuous
 62
     7
100
AcDbLine
 10
73.6956939697
 20
30.9126968384
 30
0.0
 11
72.0956878662
 21
30.9041976929
 31
0.0
  0
LINE
  5
2B7
330
20B
100
AcDbEntity
  8
VIEW
  6
Continuous
 62
     7
100
AcDbLine
 10
73.6956939697
 20
106.5002059937
 30
0.0
 11
75.0956878662
 21
106.5002059937
 31
0.0
  0
LINE
  5
2B8
330
20B
100
AcDbEntity
  8
VIEW
  6
Continuous
 62
     7
100
AcDbLine
 10
76.6956939697
 20
106.5002059937
 30
0.0
 11
78.0956878662
 21
106.5002059937
 31
0.0
  0
LINE
  5
2B9
330
20B
100
AcDbEntity
  8
VIEW
  6
Continuous
 62
     7
100
AcDbLine
 10
61.0
 20
30.5000991821
 30
0.0
 11
27.8472900391
 21
30.5000991821
 31
0.0
  0
LINE
  5
2BA
330
20B
100
AcDbEntity
  8
VIEW
  6
Continuous
 62
     7
100
AcDbLine
 10
27.3472900391
 20
104.5002059937
 30
0.0
 11
61.0
 21
104.5002059937
 31
0.0
  0
LINE
  5
2BB
330
20B
100
AcDbEntity
  8
VIEW
  6
Continuous
 62
     7
100
AcDbLine
 10
27.8472900391
 20
103.7999954224
 30
0.0
 11
27.8472900391
 21
104.5002059937
 31
0.0
  0
LINE
  5
2BC
330
20B
100
AcDbEntity
  8
VIEW
  6
Continuous
 62
     7
100
AcDbLine
 10
79.6958007812
 20
106.5002059937
 30
0.0
 11
81.0956878662
 21
106.5002059937
 31
0.0
  0
LINE
  5
2BD
330
20B
100
AcDbEntity
  8
VIEW
  6
Continuous
 62
     7
100
AcDbLine
 10
82.6958007812
 20
106.5002059937
 30
0.0
 11
84.095703125
 21
106.5002059937
 31
0.0
  0
LINE
  5
2BE
330
20B
100
AcDbEntity
  8
VIEW
  6
Continuous
 62
     7
100
AcDbLine
 10
85.6958007812
 20
106.5002059937
 30
0.0
 11
87.095703125
 21
106.5002059937
 31
0.0
  0
LINE
  5
2BF
330
20B
100
AcDbEntity
  8
VIEW
  6
Continuous
 62
     7
100
AcDbLine
 10
88.6958007812
 20
106.5002059937
 30
0.0
 11
90.095703125
 21
106.5002059937
 31
0.0
  0
LINE
  5
2C0
330
20B
100
AcDbEntity
  8
VIEW
  6
Continuous
 62
     7
100
AcDbLine
 10
75.0956878662
 20
28.5000991821
 30
0.0
 11
73.6956939697
 21
28.5000991821
 31
0.0
  0
LINE
  5
2C1
330
20B
100
AcDbEntity
  8
VIEW
  6
Continuous
 62
     7
100
AcDbLine
 10
78.0956878662
 20
28.5000991821
 30
0.0
 11
76.6956939697
 21
28.5000991821
 31
0.0
  0
LINE
  5
2C2
330
20B
100
AcDbEntity
  8
VIEW
  6
Continuous
 62
     7
100
AcDbLine
 10
81.0956878662
 20
28.5000991821
 30
0.0
 11
79.6958007812
 21
28.5000991821
 31
0.0
  0
LINE
  5
2C3
330
20B
100
AcDbEntity
  8
VIEW
  6
Continuous
 62
     7
100
AcDbLine
 10
91.6958007812
 20
106.5002059937
 30
0.0
 11
93.095703125
 21
106.5002059937
 31
0.0
  0
LINE
  5
2C4
330
20B
100
AcDbEntity
  8
VIEW
  6
Continuous
 62
     7
100
AcDbLine
 10
84.095703125
 20
28.5000991821
 30
0.0
 11
82.6958007812
 21
28.5000991821
 31
0.0
  0
LINE
  5
2C5
330
20B
100
AcDbEntity
  8
VIEW
  6
Continuous
 62
     7
100
AcDbLine
 10
87.095703125
 20
28.5000991821
 30
0.0
 11
85.6958007812
 21
28.5000991821
 31
0.0
  0
LINE
  5
2C6
330
20B
100
AcDbEntity
  8
VIEW
  6
Continuous
 62
     7
100
AcDbLine
 10
90.095703125
 20
28.5000991821
 30
0.0
 11
88.6958007812
 21
28.5000991821
 31
0.0
  0
LINE
  5
2C7
330
20B
100
AcDbEntity
  8
VIEW
  6
Continuous
 62
     7
100
AcDbLine
 10
93.095703125
 20
28.5000991821
 30
0.0
 11
91.6958007812
 21
28.5000991821
 31
0.0
  0
LINE
  5
2C8
330
20B
100
AcDbEntity
  8
VIEW
  6
Continuous
 62
     7
100
AcDbLine
 10
94.6958007812
 20
106.5002059937
 30
0.0
 11
96.095703125
 21
106.5002059937
 31
0.0
  0
LINE
  5
2C9
330
20B
100
AcDbEntity
  8
VIEW
  6
Continuous
 62
     7
100
AcDbLine
 10
96.095703125
 20
28.5000991821
 30
0.0
 11
94.6958007812
 21
28.5000991821
 31
0.0
  0
LINE
  5
2CA
330
20B
100
AcDbEntity
  8
VIEW
  6
Continuous
 62
     7
100
AcDbLine
 10
97.6958007812
 20
106.5002059937
 30
0.0
 11
108.5001831055
 21
106.5002059937
 31
0.0
  0
LINE
  5
2CB
330
20B
100
AcDbEntity
  8
VIEW
  6
Continuous
 62
     7
100
AcDbLine
 10
108.5001831055
 20
28.5000991821
 30
0.0
 11
97.6958007812
 21
28.5000991821
 31
0.0
  0
LINE
  5
2CC
330
20B
100
AcDbEntity
  8
VIEW
  6
Continuous
 62
     7
100
AcDbLine
 10
109.2001953125
 20
105.7999954224
 30
0.0
 11
109.2001953125
 21
29.2000961304
 31
0.0
  0
LINE
  5
2CD
330
20B
100
AcDbEntity
  8
VIEW
  6
Continuous
 62
     7
100
AcDbLine
 10
0.0
 20
85.0002059937
 30
0.0
 11
4.0
 21
85.0002059937
 31
0.0
  0
LINE
  5
2CE
330
20B
100
AcDbEntity
  8
VIEW
  6
Continuous
 62
     7
100
AcDbLine
 10
4.0
 20
85.0002059937
 30
0.0
 11
4.0
 21
49.7000961304
 31
0.0
  0
LINE
  5
2CF
330
20B
100
AcDbEntity
  8
VIEW
  6
Continuous
 62
     7
100
AcDbLine
 10
8.0
 20
104.5002059937
 30
0.0
 11
8.0
 21
103.7000961304
 31
0.0
  0
LINE
  5
2D0
330
20B
100
AcDbEntity
  8
VIEW
  6
Continuous
 62
     7
100
AcDbLine
 10
8.0
 20
101.2999954224
 30
0.0
 11
8.0
 21
100.5002059937
 31
0.0
  0
LINE
  5
2D1
330
20B
100
AcDbEntity
  8
VIEW
  6
Continuous
 62
     7
100
AcDbLine
 10
8.0
 20
59.5000076294
 30
0.0
 11
8.0
 21
58.7000961304
 31
0.0
  0
LINE
  5
2D2
330
20B
100
AcDbEntity
  8
VIEW
  6
Continuous
 62
     7
100
AcDbLine
 10
8.0
 20
56.2999954224
 30
0.0
 11
8.0
 21
55.5002059937
 31
0.0
  0
LINE
  5
2D3
330
20B
100
AcDbEntity
  8
VIEW
  6
Continuous
 62
     7
100
AcDbLine
 10
8.0
 20
49.8199996948
 30
0.0
 11
8.0
 21
49.7000961304
 31
0.0
  0
LINE
  5
2D4
330
20B
100
AcDbEntity
  8
VIEW
  6
Continuous
 62
     7
100
AcDbLine
 10
5.400100708
 20
26.1801986694
 30
0.0
 11
5.400100708
 21
26.6001968384
 31
0.0
  0
LINE
  5
2D5
330
20B
100
AcDbEntity
  8
VIEW
  6
Continuous
 62
     7
100
AcDbLine
 10
2.5
 20
83.7000961304
 30
0.0
 11
2.5
 21
85.0002059937
 31
0.0
  0
LINE
  5
2D6
330
20B
100
AcDbEntity
  8
VIEW
  6
Continuous
 62
     7
100
AcDbLine
 10
1.8000946045
 20
83.0002059937
 30
0.0
 11
2.5
 21
83.7000961304
 31
0.0
  0
LINE
  5
2D7
330
20B
100
AcDbEntity
  8
VIEW
  6
Continuous
 62
     7
100
AcDbLine
 10
1.8000946045
 20
83.0002059937
 30
0.0
 11
0.5
 21
83.0002059937
 31
0.0
  0
LINE
  5
2D8
330
20B
100
AcDbEntity
  8
VIEW
  6
Continuous
 62
     7
100
AcDbLine
 10
0.0
 20
85.0002059937
 30
0.0
 11
0.5
 21
83.0002059937
 31
0.0
  0
LINE
  5
2D9
330
20B
100
AcDbEntity
  8
VIEW
  6
Continuous
 62
     7
100
AcDbLine
 10
3.5
 20
51.7502975464
 30
0.0
 11
3.5
 21
52.2502975464
 31
0.0
  0
LINE
  5
2DA
330
20B
100
AcDbEntity
  8
VIEW
  6
Continuous
 62
     7
100
AcDbLine
 10
3.5
 20
52.2502975464
 30
0.0
 11
3.5
 21
53.7502975464
 31
0.0
  0
LINE
  5
2DB
330
20B
100
AcDbEntity
  8
VIEW
  6
Continuous
 62
     7
100
AcDbLine
 10
3.5
 20
53.7502975464
 30
0.0
 11
3.5
 21
54.2502975464
 31
0.0
  0
LINE
  5
2DC
330
20B
100
AcDbEntity
  8
VIEW
  6
Continuous
 62
     7
100
AcDbLine
 10
3.5
 20
81.0002975464
 30
0.0
 11
3.5
 21
82.0002975464
 31
0.0
  0
LINE
  5
2DD
330
20B
100
AcDbEntity
  8
VIEW
  6
Continuous
 62
     7
100
AcDbLine
 10
17.1000976563
 20
128.8003005981
 30
0.0
 11
10.900100708
 21
128.8003005981
 31
0.0
  0
LINE
  5
2DE
330
20B
100
AcDbEntity
  8
VIEW
  6
Continuous
 62
     7
100
AcDbLine
 10
10.900100708
 20
6.2000045776
 30
0.0
 11
17.1000976563
 21
6.2000045776
 31
0.0
  0
LINE
  5
2DF
330
20B
100
AcDbEntity
  8
VIEW
  6
Continuous
 62
     7
100
AcDbLine
 10
24.6999969482
 20
129.0002059937
 30
0.0
 11
25.0
 21
129.0002059937
 31
0.0
  0
LINE
  5
2E0
330
20B
100
AcDbEntity
  8
VIEW
  6
Continuous
 62
     7
100
AcDbLine
 10
24.6999969482
 20
6.0000991821
 30
0.0
 11
25.0
 21
6.0000991821
 31
0.0
  0
LINE
  5
2E1
330
20B
100
AcDbEntity
  8
VIEW
  6
Continuous
 62
     7
100
AcDbLine
 10
3.5
 20
51.7502975464
 30
0.0
 11
4.0
 21
51.7502975464
 31
0.0
  0
LINE
  5
2E2
330
20B
100
AcDbEntity
  8
VIEW
  6
Continuous
 62
     7
100
AcDbLine
 10
4.0
 20
54.2502975464
 30
0.0
 11
3.5
 21
54.2502975464
 31
0.0
  0
LINE
  5
2E3
330
20B
100
AcDbEntity
  8
VIEW
  6
Continuous
 62
     7
100
AcDbLine
 10
4.0
 20
82.0002975464
 30
0.0
 11
3.5
 21
82.0002975464
 31
0.0
  0
LINE
  5
2E4
330
20B
100
AcDbEntity
  8
VIEW
  6
Continuous
 62
     7
100
AcDbLine
 10
3.5
 20
81.0002975464
 30
0.0
 11
4.0
 21
81.0002975464
 31
0.0
  0
LINE
  5
2E5
330
20B
100
AcDbEntity
  8
VIEW
  6
Continuous
 62
     7
100
AcDbLine
 10
3.5
 20
51.7502059937
 30
0.0
 11
4.0
 21
51.7502059937
 31
0.0
  0
LINE
  5
2E6
330
20B
100
AcDbEntity
  8
VIEW
  6
Continuous
 62
     7
100
AcDbLine
 10
3.5
 20
81.0002059937
 30
0.0
 11
4.0
 21
81.0002059937
 31
0.0
  0
LINE
  5
2E7
330
20B
100
AcDbEntity
  8
VIEW
  6
Continuous
 62
     7
100
AcDbLine
 10
0.0
 20
49.0002059937
 30
0.0
 11
0.0
 21
5.2000045776
 31
0.0
  0
LINE
  5
2E8
330
20B
100
AcDbEntity
  8
VIEW
  6
Continuous
 62
     7
100
AcDbLine
 10
24.6999969482
 20
20.7001037598
 30
0.0
 11
0.0
 21
20.7001037598
 31
0.0
  0
LINE
  5
2E9
330
20B
100
AcDbEntity
  8
VIEW
  6
Continuous
 62
     7
100
AcDbLine
 10
24.6999969482
 20
20.7001037598
 30
0.0
 11
24.6999969482
 21
5.2000045776
 31
0.0
  0
LINE
  5
2EA
330
20B
100
AcDbEntity
  8
VIEW
  6
Continuous
 62
     7
100
AcDbLine
 10
17.3000946045
 20
7.0000991821
 30
0.0
 11
17.3000946045
 21
5.2000045776
 31
0.0
  0
LINE
  5
2EB
330
20B
100
AcDbEntity
  8
VIEW
  6
Continuous
 62
     7
100
AcDbLine
 10
10.6999969482
 20
7.0000991821
 30
0.0
 11
17.3000946045
 21
7.0000991821
 31
0.0
  0
LINE
  5
2EC
330
20B
100
AcDbEntity
  8
VIEW
  6
Continuous
 62
     7
100
AcDbLine
 10
10.6999969482
 20
5.2000045776
 30
0.0
 11
10.6999969482
 21
7.0000991821
 31
0.0
  0
LINE
  5
2ED
330
20B
100
AcDbEntity
  8
VIEW
  6
Continuous
 62
     7
100
AcDbLine
 10
24.6999969482
 20
129.8003005981
 30
0.0
 11
24.6999969482
 21
114.3003005981
 31
0.0
  0
LINE
  5
2EE
330
20B
100
AcDbEntity
  8
VIEW
  6
Continuous
 62
     7
100
AcDbLine
 10
24.6999969482
 20
114.3003005981
 30
0.0
 11
0.0
 21
114.3003005981
 31
0.0
  0
LINE
  5
2EF
330
20B
100
AcDbEntity
  8
VIEW
  6
Continuous
 62
     7
100
AcDbLine
 10
0.0
 20
129.8003005981
 30
0.0
 11
0.0
 21
85.0002059937
 31
0.0
  0
LINE
  5
2F0
330
20B
100
AcDbEntity
  8
VIEW
  6
Continuous
 62
     7
100
AcDbLine
 10
10.6999969482
 20
128.0002059937
 30
0.0
 11
10.6999969482
 21
129.8003005981
 31
0.0
  0
LINE
  5
2F1
330
20B
100
AcDbEntity
  8
VIEW
  6
Continuous
 62
     7
100
AcDbLine
 10
10.6999969482
 20
128.0002059937
 30
0.0
 11
17.3000946045
 21
128.0002059937
 31
0.0
  0
LINE
  5
2F2
330
20B
100
AcDbEntity
  8
VIEW
  6
Continuous
 62
     7
100
AcDbLine
 10
17.3000946045
 20
129.8003005981
 30
0.0
 11
17.3000946045
 21
128.0002059937
 31
0.0
  0
LINE
  5
2F3
330
20B
100
AcDbEntity
  8
VIEW
  6
Continuous
 62
     7
100
AcDbLine
 10
0.0
 20
5.0000991821
 30
0.0
 11
0.0
 21
5.2000045776
 31
0.0
  0
LINE
  5
2F4
330
20B
100
AcDbEntity
  8
VIEW
  6
Continuous
 62
     7
100
AcDbLine
 10
10.6999969482
 20
5.0000991821
 30
0.0
 11
10.6999969482
 21
5.2000045776
 31
0.0
  0
LINE
  5
2F5
330
20B
100
AcDbEntity
  8
VIEW
  6
Continuous
 62
     7
100
AcDbLine
 10
10.6999969482
 20
129.8003005981
 30
0.0
 11
10.6999969482
 21
130.0002059937
 31
0.0
  0
LINE
  5
2F6
330
20B
100
AcDbEntity
  8
VIEW
  6
Continuous
 62
     7
100
AcDbLine
 10
0.0
 20
129.8003005981
 30
0.0
 11
0.0
 21
130.0002059937
 31
0.0
  0
LINE
  5
2F7
330
20B
100
AcDbEntity
  8
VIEW
  6
Continuous
 62
     7
100
AcDbLine
 10
0.6999969482
 20
49.7000961304
 30
0.0
 11
8.0
 21
49.7000961304
 31
0.0
  0
LINE
  5
2F8
330
20B
100
AcDbEntity
  8
VIEW
  6
Continuous
 62
     7
100
AcDbLine
 10
8.0
 20
49.7000961304
 30
0.0
 11
8.0
 21
26.6001968384
 31
0.0
  0
LINE
  5
2F9
330
20B
100
AcDbEntity
  8
VIEW
  6
Continuous
 62
     7
100
AcDbLine
 10
0.0
 20
49.0002059937
 30
0.0
 11
0.6999969482
 21
49.7000961304
 31
0.0
  0
LINE
  5
2FA
330
20B
100
AcDbEntity
  8
VIEW
  6
Continuous
 62
     7
100
AcDbLine
 10
8.0
 20
26.6001968384
 30
0.0
 11
0.0
 21
26.6001968384
 31
0.0
  0
LINE
  5
2FB
330
20B
100
AcDbEntity
  8
VIEW
  6
Continuous
 62
     7
100
AcDbLine
 10
10.900100708
 20
129.8003005981
 30
0.0
 11
10.900100708
 21
128.0002059937
 31
0.0
  0
LINE
  5
2FC
330
20B
100
AcDbEntity
  8
VIEW
  6
Continuous
 62
     7
100
AcDbLine
 10
10.900100708
 20
7.0000991821
 30
0.0
 11
10.900100708
 21
5.2000045776
 31
0.0
  0
LINE
  5
2FD
330
20B
100
AcDbEntity
  8
VIEW
  6
Continuous
 62
     7
100
AcDbLine
 10
10.900100708
 20
129.8003005981
 30
0.0
 11
10.6999969482
 21
130.0002059937
 31
0.0
  0
LINE
  5
2FE
330
20B
100
AcDbEntity
  8
VIEW
  6
Continuous
 62
     7
100
AcDbLine
 10
10.6999969482
 20
5.0000991821
 30
0.0
 11
10.900100708
 21
5.2000045776
 31
0.0
  0
LINE
  5
2FF
330
20B
100
AcDbEntity
  8
VIEW
  6
Continuous
 62
     7
100
AcDbLine
 10
17.1000976563
 20
128.0002059937
 30
0.0
 11
17.1000976563
 21
129.8003005981
 31
0.0
  0
LINE
  5
300
330
20B
100
AcDbEntity
  8
VIEW
  6
Continuous
 62
     7
100
AcDbLine
 10
17.1000976563
 20
5.2000045776
 30
0.0
 11
17.1000976563
 21
7.0000991821
 31
0.0
  0
LINE
  5
301
330
20B
100
AcDbEntity
  8
VIEW
  6
Continuous
 62
     7
100
AcDbLine
 10
24.6999969482
 20
5.2000045776
 30
0.0
 11
24.6999969482
 21
5.0000991821
 31
0.0
  0
LINE
  5
302
330
20B
100
AcDbEntity
  8
VIEW
  6
Continuous
 62
     7
100
AcDbLine
 10
24.6999969482
 20
5.0000991821
 30
0.0
 11
0.0
 21
5.0000991821
 31
0.0
  0
LINE
  5
303
330
20B
100
AcDbEntity
  8
VIEW
  6
Continuous
 62
     7
100
AcDbLine
 10
17.3000946045
 20
5.2000045776
 30
0.0
 11
17.3000946045
 21
5.0000991821
 31
0.0
  0
LINE
  5
304
330
20B
100
AcDbEntity
  8
VIEW
  6
Continuous
 62
     7
100
AcDbLine
 10
17.3000946045
 20
5.0000991821
 30
0.0
 11
17.1000976563
 21
5.2000045776
 31
0.0
  0
LINE
  5
305
330
20B
100
AcDbEntity
  8
VIEW
  6
Continuous
 62
     7
100
AcDbLine
 10
24.6999969482
 20
130.0002059937
 30
0.0
 11
24.6999969482
 21
129.8003005981
 31
0.0
  0
LINE
  5
306
330
20B
100
AcDbEntity
  8
VIEW
  6
Continuous
 62
     7
100
AcDbLine
 10
17.3000946045
 20
130.0002059937
 30
0.0
 11
17.3000946045
 21
129.8003005981
 31
0.0
  0
LINE
  5
307
330
20B
100
AcDbEntity
  8
VIEW
  6
Continuous
 62
     7
100
AcDbLine
 10
0.0
 20
130.0002059937
 30
0.0
 11
24.6999969482
 21
130.0002059937
 31
0.0
  0
LINE
  5
308
330
20B
100
AcDbEntity
  8
VIEW
  6
Continuous
 62
     7
100
AcDbLine
 10
17.3000946045
 20
130.0002059937
 30
0.0
 11
17.1000976563
 21
129.8003005981
 31
0.0
  0
LINE
  5
309
330
20B
100
AcDbEntity
  8
VIEW
  6
Continuous
 62
     7
100
AcDbLine
 10
25.0
 20
7.3001022339
 30
0.0
 11
24.6999969482
 21
7.3001022339
 31
0.0
  0
LINE
  5
30A
330
20B
100
AcDbEntity
  8
VIEW
  6
Continuous
 62
     7
100
AcDbLine
 10
24.6999969482
 20
127.7000961304
 30
0.0
 11
25.0
 21
127.7000961304
 31
0.0
  0
LINE
  5
30B
330
20B
100
AcDbEntity
  8
WORKLAYER
  6
Continuous
 62
     7
100
AcDbLine
 10
116.0000915527
 20
59.3702011108
 30
0.0
 11
115.0000915527
 21
59.3702011108
 31
0.0
  0
LINE
  5
30C
330
20B
100
AcDbEntity
  8
WORKLAYER
  6
Continuous
 62
     7
100
AcDbLine
 10
116.0000915527
 20
63.8702011108
 30
0.0
 11
115.0000915527
 21
63.8702011108
 31
0.0
  0
LINE
  5
30D
330
20B
100
AcDbEntity
  8
WORKLAYER
  6
Continuous
 62
     7
100
AcDbLine
 10
117.0000915527
 20
62.8702011108
 30
0.0
 11
117.0000915527
 21
60.3702011108
 31
0.0
  0
LINE
  5
30E
330
20B
100
AcDbEntity
  8
VIEW
  6
Continuous
 62
     7
100
AcDbLine
 10
0.0
 20
0.25
 30
0.0
 11
0.0
 21
51.0000076294
 31
0.0
  0
LINE
  5
30F
330
20B
100
AcDbEntity
  8
VIEW
  6
Continuous
 62
     7
100
AcDbLine
 10
3.8999023438
 20
5.0000991821
 30
0.0
 11
3.8999023438
 21
0.0
 31
0.0
  0
LINE
  5
310
330
20B
100
AcDbEntity
  8
VIEW
  6
Continuous
 62
     7
100
AcDbLine
 10
2.1998901367
 20
0.0
 30
0.0
 11
2.1998901367
 21
5.0000991821
 31
0.0
  0
LINE
  5
311
330
20B
100
AcDbEntity
  8
VIEW
  6
Continuous
 62
     7
100
AcDbLine
 10
3.8999023438
 20
0.0
 30
0.0
 11
0.25
 21
0.0
 31
0.0
  0
LINE
  5
312
330
20B
100
AcDbEntity
  8
VIEW
  6
Continuous
 62
     7
100
AcDbLine
 10
1.75
 20
53.0000076294
 30
0.0
 11
0.5
 21
53.0000076294
 31
0.0
  0
LINE
  5
313
330
20B
100
AcDbEntity
  8
VIEW
  6
Continuous
 62
     7
100
AcDbLine
 10
2.4498901367
 20
52.3001022339
 30
0.0
 11
1.75
 21
53.0000076294
 31
0.0
  0
LINE
  5
314
330
20B
100
AcDbEntity
  8
VIEW
  6
Continuous
 62
     7
100
AcDbLine
 10
2.4498901367
 20
52.3001022339
 30
0.0
 11
2.4498901367
 21
49.7000961304
 31
0.0
  0
LINE
  5
315
330
20B
100
AcDbEntity
  8
VIEW
  6
Continuous
 62
     7
100
AcDbLine
 10
0.0
 20
51.0000076294
 30
0.0
 11
0.5
 21
53.0000076294
 31
0.0
  0
LINE
  5
316
330
20B
100
AcDbEntity
  8
WORKLAYER
  6
Continuous
 62
     7
100
AcDbLine
 10
116.0000915527
 20
51.7502059937
 30
0.0
 11
115.0000915527
 21
51.7502059937
 31
0.0
  0
LINE
  5
317
330
20B
100
AcDbEntity
  8
WORKLAYER
  6
Continuous
 62
     7
100
AcDbLine
 10
116.0000915527
 20
56.2502059937
 30
0.0
 11
115.0000915527
 21
56.2502059937
 31
0.0
  0
LINE
  5
318
330
20B
100
AcDbEntity
  8
WORKLAYER
  6
Continuous
 62
     7
100
AcDbLine
 10
117.0000915527
 20
55.2502059937
 30
0.0
 11
117.0000915527
 21
52.7502059937
 31
0.0
  0
LINE
  5
319
330
20B
100
AcDbEntity
  8
WORKLAYER
  6
Continuous
 62
     7
100
AcDbLine
 10
116.0000915527
 20
66.990196228
 30
0.0
 11
115.0000915527
 21
66.990196228
 31
0.0
  0
LINE
  5
31A
330
20B
100
AcDbEntity
  8
WORKLAYER
  6
Continuous
 62
     7
100
AcDbLine
 10
116.0000915527
 20
71.490196228
 30
0.0
 11
115.0000915527
 21
71.490196228
 31
0.0
  0
LINE
  5
31B
330
20B
100
AcDbEntity
  8
WORKLAYER
  6
Continuous
 62
     7
100
AcDbLine
 10
117.0000915527
 20
70.490196228
 30
0.0
 11
117.0000915527
 21
67.990196228
 31
0.0
  0
LINE
  5
31C
330
20B
100
AcDbEntity
  8
WORKLAYER
  6
Continuous
 62
     7
100
AcDbLine
 10
116.0000915527
 20
44.1301956177
 30
0.0
 11
115.0000915527
 21
44.1301956177
 31
0.0
  0
LINE
  5
31D
330
20B
100
AcDbEntity
  8
WORKLAYER
  6
Continuous
 62
     7
100
AcDbLine
 10
116.0000915527
 20
48.6301956177
 30
0.0
 11
115.0000915527
 21
48.6301956177
 31
0.0
  0
LINE
  5
31E
330
20B
100
AcDbEntity
  8
WORKLAYER
  6
Continuous
 62
     7
100
AcDbLine
 10
117.0000915527
 20
47.6301956177
 30
0.0
 11
117.0000915527
 21
45.1301956177
 31
0.0
  0
LINE
  5
31F
330
20B
100
AcDbEntity
  8
WORKLAYER
  6
Continuous
 62
     7
100
AcDbLine
 10
116.0000915527
 20
36.5102005005
 30
0.0
 11
115.0000915527
 21
36.5102005005
 31
0.0
  0
LINE
  5
320
330
20B
100
AcDbEntity
  8
WORKLAYER
  6
Continuous
 62
     7
100
AcDbLine
 10
116.0000915527
 20
41.0102005005
 30
0.0
 11
115.0000915527
 21
41.0102005005
 31
0.0
  0
LINE
  5
321
330
20B
100
AcDbEntity
  8
WORKLAYER
  6
Continuous
 62
     7
100
AcDbLine
 10
117.0000915527
 20
40.0102005005
 30
0.0
 11
117.0000915527
 21
37.5102005005
 31
0.0
  0
LINE
  5
322
330
20B
100
AcDbEntity
  8
WORKLAYER
  6
Continuous
 62
     7
100
AcDbLine
 10
118.2001037598
 20
72.3402023315
 30
0.0
 11
111.4000854492
 21
72.3402023315
 31
0.0
  0
LINE
  5
323
330
20B
100
AcDbEntity
  8
WORKLAYER
  6
Continuous
 62
     7
100
AcDbLine
 10
111.4000854492
 20
72.3402023315
 30
0.0
 11
111.4000854492
 21
66.1400985718
 31
0.0
  0
LINE
  5
324
330
20B
100
AcDbEntity
  8
WORKLAYER
  6
Continuous
 62
     7
100
AcDbLine
 10
118.2001037598
 20
66.1400985718
 30
0.0
 11
111.4000854492
 21
66.1400985718
 31
0.0
  0
LINE
  5
325
330
20B
100
AcDbEntity
  8
WORKLAYER
  6
Continuous
 62
     7
100
AcDbLine
 10
109.2001953125
 20
33.6400985718
 30
0.0
 11
113.2001037598
 21
33.6400985718
 31
0.0
  0
LINE
  5
326
330
20B
100
AcDbEntity
  8
WORKLAYER
  6
Continuous
 62
     7
100
AcDbLine
 10
113.2001037598
 20
57.1001968384
 30
0.0
 11
113.2001037598
 21
50.9001998901
 31
0.0
  0
LINE
  5
327
330
20B
100
AcDbEntity
  8
WORKLAYER
  6
Continuous
 62
     7
100
AcDbLine
 10
113.2001037598
 20
74.3600997925
 30
0.0
 11
109.2001953125
 21
74.3600997925
 31
0.0
  0
LINE
  5
328
330
20B
100
AcDbEntity
  8
WORKLAYER
  6
Continuous
 62
     7
100
AcDbLine
 10
113.2001037598
 20
64.7202072144
 30
0.0
 11
113.2001037598
 21
58.5202102661
 31
0.0
  0
LINE
  5
329
330
20B
100
AcDbEntity
  8
WORKLAYER
  6
Continuous
 62
     7
100
AcDbLine
 10
118.2001037598
 20
64.7202072144
 30
0.0
 11
111.4000854492
 21
64.7202072144
 31
0.0
  0
LINE
  5
32A
330
20B
100
AcDbEntity
  8
WORKLAYER
  6
Continuous
 62
     7
100
AcDbLine
 10
111.4000854492
 20
64.7202072144
 30
0.0
 11
111.4000854492
 21
58.5202102661
 31
0.0
  0
LINE
  5
32B
330
20B
100
AcDbEntity
  8
WORKLAYER
  6
Continuous
 62
     7
100
AcDbLine
 10
118.2001037598
 20
58.5202102661
 30
0.0
 11
111.4000854492
 21
58.5202102661
 31
0.0
  0
LINE
  5
32C
330
20B
100
AcDbEntity
  8
WORKLAYER
  6
Continuous
 62
     7
100
AcDbLine
 10
114.2001037598
 20
64.7202072144
 30
0.0
 11
114.2001037598
 21
58.5202102661
 31
0.0
  0
LINE
  5
32D
330
20B
100
AcDbEntity
  8
WORKLAYER
  6
Continuous
 62
     7
100
AcDbLine
 10
118.2001037598
 20
57.1001968384
 30
0.0
 11
111.4000854492
 21
57.1001968384
 31
0.0
  0
LINE
  5
32E
330
20B
100
AcDbEntity
  8
WORKLAYER
  6
Continuous
 62
     7
100
AcDbLine
 10
111.4000854492
 20
57.1001968384
 30
0.0
 11
111.4000854492
 21
50.9001998901
 31
0.0
  0
LINE
  5
32F
330
20B
100
AcDbEntity
  8
WORKLAYER
  6
Continuous
 62
     7
100
AcDbLine
 10
118.2001037598
 20
50.9001998901
 30
0.0
 11
111.4000854492
 21
50.9001998901
 31
0.0
  0
LINE
  5
330
330
20B
100
AcDbEntity
  8
WORKLAYER
  6
Continuous
 62
     7
100
AcDbLine
 10
115.0000915527
 20
64.7202072144
 30
0.0
 11
115.0000915527
 21
58.5202102661
 31
0.0
  0
LINE
  5
331
330
20B
100
AcDbEntity
  8
WORKLAYER
  6
Continuous
 62
     7
100
AcDbLine
 10
114.2001037598
 20
57.1001968384
 30
0.0
 11
114.2001037598
 21
50.9001998901
 31
0.0
  0
LINE
  5
332
330
20B
100
AcDbEntity
  8
WORKLAYER
  6
Continuous
 62
     7
100
AcDbLine
 10
115.0000915527
 20
57.1001968384
 30
0.0
 11
115.0000915527
 21
50.9001998901
 31
0.0
  0
LINE
  5
333
330
20B
100
AcDbEntity
  8
WORKLAYER
  6
Continuous
 62
     7
100
AcDbLine
 10
113.2001037598
 20
72.3402023315
 30
0.0
 11
113.2001037598
 21
66.1400985718
 31
0.0
  0
LINE
  5
334
330
20B
100
AcDbEntity
  8
WORKLAYER
  6
Continuous
 62
     7
100
AcDbLine
 10
114.2001037598
 20
72.3402023315
 30
0.0
 11
114.2001037598
 21
66.1400985718
 31
0.0
  0
LINE
  5
335
330
20B
100
AcDbEntity
  8
WORKLAYER
  6
Continuous
 62
     7
100
AcDbLine
 10
115.0000915527
 20
72.3402023315
 30
0.0
 11
115.0000915527
 21
66.1400985718
 31
0.0
  0
LINE
  5
336
330
20B
100
AcDbEntity
  8
WORKLAYER
  6
Continuous
 62
     7
100
AcDbLine
 10
113.2001037598
 20
49.4802017212
 30
0.0
 11
113.2001037598
 21
43.2802047729
 31
0.0
  0
LINE
  5
337
330
20B
100
AcDbEntity
  8
WORKLAYER
  6
Continuous
 62
     7
100
AcDbLine
 10
118.2001037598
 20
49.4802017212
 30
0.0
 11
111.4000854492
 21
49.4802017212
 31
0.0
  0
LINE
  5
338
330
20B
100
AcDbEntity
  8
WORKLAYER
  6
Continuous
 62
     7
100
AcDbLine
 10
111.4000854492
 20
49.4802017212
 30
0.0
 11
111.4000854492
 21
43.2802047729
 31
0.0
  0
LINE
  5
339
330
20B
100
AcDbEntity
  8
WORKLAYER
  6
Continuous
 62
     7
100
AcDbLine
 10
118.2001037598
 20
43.2802047729
 30
0.0
 11
111.4000854492
 21
43.2802047729
 31
0.0
  0
LINE
  5
33A
330
20B
100
AcDbEntity
  8
WORKLAYER
  6
Continuous
 62
     7
100
AcDbLine
 10
114.2001037598
 20
49.4802017212
 30
0.0
 11
114.2001037598
 21
43.2802047729
 31
0.0
  0
LINE
  5
33B
330
20B
100
AcDbEntity
  8
WORKLAYER
  6
Continuous
 62
     7
100
AcDbLine
 10
115.0000915527
 20
49.4802017212
 30
0.0
 11
115.0000915527
 21
43.2802047729
 31
0.0
  0
LINE
  5
33C
330
20B
100
AcDbEntity
  8
WORKLAYER
  6
Continuous
 62
     7
100
AcDbLine
 10
113.2001037598
 20
41.8600997925
 30
0.0
 11
113.2001037598
 21
35.6602096558
 31
0.0
  0
LINE
  5
33D
330
20B
100
AcDbEntity
  8
WORKLAYER
  6
Continuous
 62
     7
100
AcDbLine
 10
118.2001037598
 20
41.8600997925
 30
0.0
 11
111.4000854492
 21
41.8600997925
 31
0.0
  0
LINE
  5
33E
330
20B
100
AcDbEntity
  8
WORKLAYER
  6
Continuous
 62
     7
100
AcDbLine
 10
111.4000854492
 20
41.8600997925
 30
0.0
 11
111.4000854492
 21
35.6602096558
 31
0.0
  0
LINE
  5
33F
330
20B
100
AcDbEntity
  8
WORKLAYER
  6
Continuous
 62
     7
100
AcDbLine
 10
118.2001037598
 20
35.6602096558
 30
0.0
 11
111.4000854492
 21
35.6602096558
 31
0.0
  0
LINE
  5
340
330
20B
100
AcDbEntity
  8
WORKLAYER
  6
Continuous
 62
     7
100
AcDbLine
 10
114.2001037598
 20
41.8600997925
 30
0.0
 11
114.2001037598
 21
35.6602096558
 31
0.0
  0
LINE
  5
341
330
20B
100
AcDbEntity
  8
WORKLAYER
  6
Continuous
 62
     7
100
AcDbLine
 10
115.0000915527
 20
41.8600997925
 30
0.0
 11
115.0000915527
 21
35.6602096558
 31
0.0
  0
LINE
  5
342
330
20B
100
AcDbEntity
  8
WORKLAYER
  6
Continuous
 62
     7
100
AcDbLine
 10
113.2001037598
 20
74.3600997925
 30
0.0
 11
113.2001037598
 21
73.7602005005
 31
0.0
  0
LINE
  5
343
330
20B
100
AcDbEntity
  8
WORKLAYER
  6
Continuous
 62
     7
100
AcDbLine
 10
111.4000854492
 20
74.3600997925
 30
0.0
 11
111.4000854492
 21
73.7602005005
 31
0.0
  0
LINE
  5
344
330
20B
100
AcDbEntity
  8
WORKLAYER
  6
Continuous
 62
     7
100
AcDbLine
 10
118.2001037598
 20
73.7602005005
 30
0.0
 11
111.4000854492
 21
73.7602005005
 31
0.0
  0
LINE
  5
345
330
20B
100
AcDbEntity
  8
WORKLAYER
  6
Continuous
 62
     7
100
AcDbLine
 10
113.2001037598
 20
34.240196228
 30
0.0
 11
113.2001037598
 21
33.6400985718
 31
0.0
  0
LINE
  5
346
330
20B
100
AcDbEntity
  8
WORKLAYER
  6
Continuous
 62
     7
100
AcDbLine
 10
118.2001037598
 20
34.240196228
 30
0.0
 11
111.4000854492
 21
34.240196228
 31
0.0
  0
LINE
  5
347
330
20B
100
AcDbEntity
  8
WORKLAYER
  6
Continuous
 62
     7
100
AcDbLine
 10
111.4000854492
 20
34.240196228
 30
0.0
 11
111.4000854492
 21
33.6400985718
 31
0.0
  0
LINE
  5
348
330
20B
100
AcDbEntity
  8
WORKLAYER
  6
Continuous
 62
     7
100
AcDbLine
 10
118.2001037598
 20
34.240196228
 30
0.0
 11
118.2001037598
 21
35.6602096558
 31
0.0
  0
LINE
  5
349
330
20B
100
AcDbEntity
  8
WORKLAYER
  6
Continuous
 62
     7
100
AcDbLine
 10
118.2001037598
 20
41.8600997925
 30
0.0
 11
118.2001037598
 21
43.2802047729
 31
0.0
  0
LINE
  5
34A
330
20B
100
AcDbEntity
  8
WORKLAYER
  6
Continuous
 62
     7
100
AcDbLine
 10
118.2001037598
 20
49.4802017212
 30
0.0
 11
118.2001037598
 21
50.9001998901
 31
0.0
  0
LINE
  5
34B
330
20B
100
AcDbEntity
  8
WORKLAYER
  6
Continuous
 62
     7
100
AcDbLine
 10
118.2001037598
 20
57.1001968384
 30
0.0
 11
118.2001037598
 21
58.5202102661
 31
0.0
  0
LINE
  5
34C
330
20B
100
AcDbEntity
  8
WORKLAYER
  6
Continuous
 62
     7
100
AcDbLine
 10
118.2001037598
 20
64.7202072144
 30
0.0
 11
118.2001037598
 21
66.1400985718
 31
0.0
  0
LINE
  5
34D
330
20B
100
AcDbEntity
  8
WORKLAYER
  6
Continuous
 62
     7
100
AcDbLine
 10
118.2001037598
 20
72.3402023315
 30
0.0
 11
118.2001037598
 21
73.7602005005
 31
0.0
  0
LINE
  5
34E
330
20B
100
AcDbEntity
  8
WORKLAYER
  6
Continuous
 62
     7
100
AcDbLine
 10
9.6999969482
 20
104.5002059937
 30
0.0
 11
9.6999969482
 21
100.5002059937
 31
0.0
  0
LINE
  5
34F
330
20B
100
AcDbEntity
  8
WORKLAYER
  6
Continuous
 62
     7
100
AcDbLine
 10
9.6999969482
 20
59.5000076294
 30
0.0
 11
9.6999969482
 21
55.5002059937
 31
0.0
  0
LINE
  5
350
330
20B
100
AcDbEntity
  8
WORKLAYER
  6
Continuous
 62
     7
100
AcDbLine
 10
9.6999969482
 20
49.8199996948
 30
0.0
 11
9.6999969482
 21
26.1801986694
 31
0.0
  0
LINE
  5
351
330
20B
100
AcDbEntity
  8
WORKLAYER
  6
Continuous
 62
     7
100
AcDbLine
 10
8.5
 20
104.5002059937
 30
0.0
 11
8.5
 21
100.5002059937
 31
0.0
  0
LINE
  5
352
330
20B
100
AcDbEntity
  8
WORKLAYER
  6
Continuous
 62
     7
100
AcDbLine
 10
8.5
 20
59.5000076294
 30
0.0
 11
8.5
 21
55.5002059937
 31
0.0
  0
LINE
  5
353
330
20B
100
AcDbEntity
  8
WORKLAYER
  6
Continuous
 62
     7
100
AcDbLine
 10
8.5
 20
49.8199996948
 30
0.0
 11
8.5
 21
26.1801986694
 31
0.0
  0
ENDBLK
  5
20D
330
20B
100
AcDbEntity
  8
0
100
AcDbBlockEnd
  0
BLOCK
  5
355
330
354
100
AcDbEntity
  8
0
100
AcDbBlockBegin
  2
ﾌﾞﾛｯｸ98
 70
     0
 71
     0
 10
0.0
 20
0.0
 30
0.0
  3
ﾌﾞﾛｯｸ98
  1

  0
ARC
  5
357
330
354
100
AcDbEntity
  8
WORKLAYER
  6
Continuous
 62
     7
100
AcDbCircle
 10
19.3999938965
 20
98.5001068115
 30
0.0
 40
1.000000000000004
100
AcDbArc
 50
270.0
 51
0.0
  0
ARC
  5
358
330
354
100
AcDbEntity
  8
WORKLAYER
  6
Continuous
 62
     7
100
AcDbCircle
 10
10.6999816895
 20
98.5001068115
 30
0.0
 40
1.0
100
AcDbArc
 50
180.0
 51
270.0
  0
ARC
  5
359
330
354
100
AcDbEntity
  8
WORKLAYER
  6
Continuous
 62
     7
100
AcDbCircle
 10
10.6999816895
 20
100.5001068115
 30
0.0
 40
1.0
100
AcDbArc
 50
90.0
 51
180.0
  0
ARC
  5
35A
330
354
100
AcDbEntity
  8
WORKLAYER
  6
Continuous
 62
     7
100
AcDbCircle
 10
19.3999938965
 20
100.5001068115
 30
0.0
 40
1.000000000000004
100
AcDbArc
 50
0.0
 51
90.0
  0
ARC
  5
35B
330
354
100
AcDbEntity
  8
WORKLAYER
  6
Continuous
 62
     7
100
AcDbCircle
 10
9.2001037598
 20
92.1000061035
 30
0.0
 40
1.0
100
AcDbArc
 50
90.0
 51
180.0
  0
ARC
  5
35C
330
354
100
AcDbEntity
  8
WORKLAYER
  6
Continuous
 62
     7
100
AcDbCircle
 10
15.7001037598
 20
92.1000061035
 30
0.0
 40
1.0
100
AcDbArc
 50
0.0
 51
90.0
  0
ARC
  5
35D
330
354
100
AcDbEntity
  8
WORKLAYER
  6
Continuous
 62
     7
100
AcDbCircle
 10
15.7001037598
 20
78.3999023438
 30
0.0
 40
1.0
100
AcDbArc
 50
270.0
 51
0.0
  0
ARC
  5
35E
330
354
100
AcDbEntity
  8
WORKLAYER
  6
Continuous
 62
     7
100
AcDbCircle
 10
9.2001037598
 20
78.3999023438
 30
0.0
 40
1.0
100
AcDbArc
 50
180.0
 51
270.0
  0
ARC
  5
35F
330
354
100
AcDbEntity
  8
VIEW
  6
Continuous
 62
     7
100
AcDbCircle
 10
32.7998962402
 20
107.1000976563
 30
0.0
 40
0.2000000029802607
100
AcDbArc
 50
270.0
 51
0.0
  0
ARC
  5
360
330
354
100
AcDbEntity
  8
WORKLAYER
  6
Continuous
 62
     7
100
AcDbCircle
 10
9.2001037598
 20
34.1398010254
 30
0.0
 40
1.000000000000007
100
AcDbArc
 50
180.0
 51
270.0
  0
ARC
  5
361
330
354
100
AcDbEntity
  8
WORKLAYER
  6
Continuous
 62
     7
100
AcDbCircle
 10
20.7001037598
 20
73.8598022461
 30
0.0
 40
1.000000000000014
100
AcDbArc
 50
0.0
 51
90.0
  0
ARC
  5
362
330
354
100
AcDbEntity
  8
WORKLAYER
  6
Continuous
 62
     7
100
AcDbCircle
 10
20.7001037598
 20
34.1398010254
 30
0.0
 40
1.000000000000007
100
AcDbArc
 50
270.0
 51
0.0
  0
ARC
  5
363
330
354
100
AcDbEntity
  8
WORKLAYER
  6
Continuous
 62
     7
100
AcDbCircle
 10
9.2001037598
 20
73.8598022461
 30
0.0
 40
1.000000000000014
100
AcDbArc
 50
90.0
 51
180.0
  0
CIRCLE
  5
364
330
354
100
AcDbEntity
  8
WORKLAYER
  6
Continuous
 62
     7
100
AcDbCircle
 10
15.2001037598
 20
61.620010376
 30
0.0
 40
2.750000000000034
  0
CIRCLE
  5
365
330
354
100
AcDbEntity
  8
WORKLAYER
  6
Continuous
 62
     7
100
AcDbCircle
 10
15.2001037598
 20
46.3800048828
 30
0.0
 40
2.750000000000034
  0
CIRCLE
  5
366
330
354
100
AcDbEntity
  8
WORKLAYER
  6
Continuous
 62
     7
100
AcDbCircle
 10
15.2001037598
 20
69.2400054932
 30
0.0
 40
2.750000000000034
  0
CIRCLE
  5
367
330
354
100
AcDbEntity
  8
WORKLAYER
  6
Continuous
 62
     7
100
AcDbCircle
 10
15.2001037598
 20
54.0
 30
0.0
 40
2.750000000000034
  0
ARC
  5
368
330
354
100
AcDbEntity
  8
VIEW
  6
Continuous
 62
     7
100
AcDbCircle
 10
0.5
 20
121.599899292
 30
0.0
 40
0.4999999999999449
100
AcDbArc
 50
180.0
 51
270.0
  0
ARC
  5
369
330
354
100
AcDbEntity
  8
VIEW
  6
Continuous
 62
     7
100
AcDbCircle
 10
0.5
 20
123.3999023438
 30
0.0
 40
0.5000000000000004
100
AcDbArc
 50
90.0
 51
180.0
  0
CIRCLE
  5
36A
330
354
100
AcDbEntity
  8
WORKLAYER
  6
Continuous
 62
     7
100
AcDbCircle
 10
15.2001037598
 20
38.7600097656
 30
0.0
 40
2.750000000000036
  0
ARC
  5
36B
330
354
100
AcDbEntity
  8
VIEW
  6
Continuous
 62
     7
100
AcDbCircle
 10
0.5
 20
11.6001052856
 30
0.0
 40
0.4999999999999449
100
AcDbArc
 50
180.0
 51
270.0
  0
ARC
  5
36C
330
354
100
AcDbEntity
  8
VIEW
  6
Continuous
 62
     7
100
AcDbCircle
 10
0.5
 20
13.400100708
 30
0.0
 40
0.5000000000000004
100
AcDbArc
 50
90.0
 51
180.0
  0
ARC
  5
36D
330
354
100
AcDbEntity
  8
VIEW
  6
Continuous
 62
     7
100
AcDbCircle
 10
3.7001037598
 20
105.8000030518
 30
0.0
 40
0.699999988079071
100
AcDbArc
 50
90.0
 51
180.0
  0
ARC
  5
36E
330
354
100
AcDbEntity
  8
VIEW
  6
Continuous
 62
     7
100
AcDbCircle
 10
3.7001037598
 20
29.1999053955
 30
0.0
 40
0.6999999880790142
100
AcDbArc
 50
180.0
 51
270.0
  0
ARC
  5
36F
330
354
100
AcDbEntity
  8
VIEW
  6
Continuous
 62
     7
100
AcDbCircle
 10
32.2998962402
 20
105.8000030518
 30
0.0
 40
0.6999999880791208
100
AcDbArc
 50
0.0
 51
90.0
  0
ARC
  5
370
330
354
100
AcDbEntity
  8
VIEW
  6
Continuous
 62
     7
100
AcDbCircle
 10
32.2998962402
 20
29.1999053955
 30
0.0
 40
0.6999999880790675
100
AcDbArc
 50
270.0
 51
0.0
  0
ARC
  5
371
330
354
100
AcDbEntity
  8
VIEW
  6
Continuous
 62
     7
100
AcDbCircle
 10
3.1999816895
 20
11.0500030518
 30
0.0
 40
0.2000000029801505
100
AcDbArc
 50
180.0
 51
270.0
  0
ARC
  5
372
330
354
100
AcDbEntity
  8
VIEW
  6
Continuous
 62
     7
100
AcDbCircle
 10
32.7998962402
 20
11.0500030518
 30
0.0
 40
0.2000000029802607
100
AcDbArc
 50
270.0
 51
0.0
  0
ARC
  5
373
330
354
100
AcDbEntity
  8
VIEW
  6
Continuous
 62
     7
100
AcDbCircle
 10
3.1999816895
 20
8.9500045776
 30
0.0
 40
0.2000000029802607
100
AcDbArc
 50
90.0
 51
180.0
  0
ARC
  5
374
330
354
100
AcDbEntity
  8
VIEW
  6
Continuous
 62
     7
100
AcDbCircle
 10
32.7998962402
 20
8.9500045776
 30
0.0
 40
0.2000000029802607
100
AcDbArc
 50
0.0
 51
90.0
  0
ARC
  5
375
330
354
100
AcDbEntity
  8
VIEW
  6
Continuous
 62
     7
100
AcDbCircle
 10
32.7998962402
 20
5.2000045776
 30
0.0
 40
0.2000000029802607
100
AcDbArc
 50
270.0
 51
0.0
  0
ARC
  5
376
330
354
100
AcDbEntity
  8
VIEW
  6
Continuous
 62
     7
100
AcDbCircle
 10
3.1999816895
 20
5.2000045776
 30
0.0
 40
0.2000000029801496
100
AcDbArc
 50
180.0
 51
270.0
  0
ARC
  5
377
330
354
100
AcDbEntity
  8
VIEW
  6
Continuous
 62
     7
100
AcDbCircle
 10
32.7998962402
 20
123.9499969482
 30
0.0
 40
0.2000000029802607
100
AcDbArc
 50
0.0
 51
90.0
  0
ARC
  5
378
330
354
100
AcDbEntity
  8
VIEW
  6
Continuous
 62
     7
100
AcDbCircle
 10
3.1999816895
 20
123.9499969482
 30
0.0
 40
0.2000000029802051
100
AcDbArc
 50
90.0
 51
180.0
  0
ARC
  5
379
330
354
100
AcDbEntity
  8
VIEW
  6
Continuous
 62
     7
100
AcDbCircle
 10
32.7998962402
 20
126.0500030518
 30
0.0
 40
0.2000000029802607
100
AcDbArc
 50
270.0
 51
0.0
  0
ARC
  5
37A
330
354
100
AcDbEntity
  8
VIEW
  6
Continuous
 62
     7
100
AcDbCircle
 10
3.1999816895
 20
126.0500030518
 30
0.0
 40
0.1999984756111406
100
AcDbArc
 50
180.0
 51
270.0
  0
ARC
  5
37B
330
354
100
AcDbEntity
  8
VIEW
  6
Continuous
 62
     7
100
AcDbCircle
 10
32.7998962402
 20
129.8000030518
 30
0.0
 40
0.2000000029802607
100
AcDbArc
 50
0.0
 51
90.0
  0
ARC
  5
37C
330
354
100
AcDbEntity
  8
VIEW
  6
Continuous
 62
     7
100
AcDbCircle
 10
3.1999816895
 20
129.8000030518
 30
0.0
 40
0.1999984756112099
100
AcDbArc
 50
90.0
 51
180.0
  0
ARC
  5
37D
330
354
100
AcDbEntity
  8
VIEW
  6
Continuous
 62
     7
100
AcDbCircle
 10
10.3498840332
 20
0.25
 30
0.0
 40
0.2500000000000853
100
AcDbArc
 50
180.0
 51
270.0
  0
ARC
  5
37E
330
354
100
AcDbEntity
  8
VIEW
  6
Continuous
 62
     7
100
AcDbCircle
 10
25.6499023437
 20
0.25
 30
0.0
 40
0.2500000000000002
100
AcDbArc
 50
270.0
 51
0.0
  0
ARC
  5
37F
330
354
100
AcDbEntity
  8
VIEW
  6
Continuous
 62
     7
100
AcDbCircle
 10
17.9998779297
 20
2.7104034424
 30
0.0
 40
2.200000047683688
100
AcDbArc
 50
198.8370056152
 51
341.1629943848
  0
ARC
  5
380
330
354
100
AcDbEntity
  8
VIEW
  6
Continuous
 62
     7
100
AcDbCircle
 10
17.9925842285
 20
6.5
 30
0.0
 40
1.75
100
AcDbArc
 50
238.9976959229
 51
301.0022888184
  0
ARC
  5
381
330
354
100
AcDbEntity
  8
VIEW
  6
Continuous
 62
     7
100
AcDbCircle
 10
17.9998779297
 20
2.7104034424
 30
0.0
 40
2.000000000000001
100
AcDbArc
 50
200.8034973145
 51
339.1965026855
  0
ARC
  5
382
330
354
100
AcDbEntity
  8
VIEW
  6
Continuous
 62
     7
100
AcDbCircle
 10
3.7001037598
 20
105.7998962402
 30
0.0
 40
0.699999988079071
100
AcDbArc
 50
90.0
 51
180.0
  0
CIRCLE
  5
383
330
354
100
AcDbEntity
  8
WORKLAYER
  6
Continuous
 62
     7
100
AcDbCircle
 10
12.7001037598
 20
89.0
 30
0.0
 40
1.749999999999986
  0
CIRCLE
  5
384
330
354
100
AcDbEntity
  8
WORKLAYER
  6
Continuous
 62
     7
100
AcDbCircle
 10
12.7001037598
 20
81.5
 30
0.0
 40
1.749999999999978
  0
LINE
  5
385
330
354
100
AcDbEntity
  8
WORKLAYER
  6
Continuous
 62
     7
100
AcDbLine
 10
4.0000915527
 20
105.1999969482
 30
0.0
 11
31.7001953125
 21
105.1999969482
 31
0.0
  0
LINE
  5
386
330
354
100
AcDbEntity
  8
WORKLAYER
  6
Continuous
 62
     7
100
AcDbLine
 10
31.7001953125
 20
105.1999969482
 30
0.0
 11
31.7001953125
 21
29.4999084473
 31
0.0
  0
LINE
  5
387
330
354
100
AcDbEntity
  8
WORKLAYER
  6
Continuous
 62
     7
100
AcDbLine
 10
31.7001953125
 20
29.4999084473
 30
0.0
 11
4.0000915527
 21
29.4999084473
 31
0.0
  0
LINE
  5
388
330
354
100
AcDbEntity
  8
WORKLAYER
  6
Continuous
 62
     7
100
AcDbLine
 10
4.0000915527
 20
29.4999084473
 30
0.0
 11
4.0000915527
 21
105.1999969482
 31
0.0
  0
LINE
  5
389
330
354
100
AcDbEntity
  8
WORKLAYER
  6
Continuous
 62
     7
100
AcDbLine
 10
9.9000854492
 20
49.4800109863
 30
0.0
 11
9.9000854492
 21
43.2799987793
 31
0.0
  0
LINE
  5
38A
330
354
100
AcDbEntity
  8
WORKLAYER
  6
Continuous
 62
     7
100
AcDbLine
 10
8.7001037598
 20
50.9000091553
 30
0.0
 11
21.2001037598
 21
50.9000091553
 31
0.0
  0
LINE
  5
38B
330
354
100
AcDbEntity
  8
WORKLAYER
  6
Continuous
 62
     7
100
AcDbLine
 10
19.7001037598
 20
33.6399993896
 30
0.0
 11
19.7001037598
 21
34.2400054932
 31
0.0
  0
LINE
  5
38C
330
354
100
AcDbEntity
  8
WORKLAYER
  6
Continuous
 62
     7
100
AcDbLine
 10
8.7001037598
 20
49.4800109863
 30
0.0
 11
21.2001037598
 21
49.4800109863
 31
0.0
  0
LINE
  5
38D
330
354
100
AcDbEntity
  8
WORKLAYER
  6
Continuous
 62
     7
100
AcDbLine
 10
8.7001037598
 20
73.7600097656
 30
0.0
 11
21.2001037598
 21
73.7600097656
 31
0.0
  0
LINE
  5
38E
330
354
100
AcDbEntity
  8
WORKLAYER
  6
Continuous
 62
     7
100
AcDbLine
 10
20.0000915527
 20
57.1000061035
 30
0.0
 11
20.0000915527
 21
50.9000091553
 31
0.0
  0
LINE
  5
38F
330
354
100
AcDbEntity
  8
WORKLAYER
  6
Continuous
 62
     7
100
AcDbLine
 10
8.7001037598
 20
58.5200042725
 30
0.0
 11
21.2001037598
 21
58.5200042725
 31
0.0
  0
LINE
  5
390
330
354
100
AcDbEntity
  8
WORKLAYER
  6
Continuous
 62
     7
100
AcDbLine
 10
20.0000915527
 20
72.3399963379
 30
0.0
 11
20.0000915527
 21
66.1399993896
 31
0.0
  0
LINE
  5
391
330
354
100
AcDbEntity
  8
WORKLAYER
  6
Continuous
 62
     7
100
AcDbLine
 10
9.9000854492
 20
64.7200012207
 30
0.0
 11
9.9000854492
 21
58.5200042725
 31
0.0
  0
LINE
  5
392
330
354
100
AcDbEntity
  8
WORKLAYER
  6
Continuous
 62
     7
100
AcDbLine
 10
9.9000854492
 20
57.1000061035
 30
0.0
 11
9.9000854492
 21
50.9000091553
 31
0.0
  0
LINE
  5
393
330
354
100
AcDbEntity
  8
WORKLAYER
  6
Continuous
 62
     7
100
AcDbLine
 10
20.0000915527
 20
64.7200012207
 30
0.0
 11
20.0000915527
 21
58.5200042725
 31
0.0
  0
LINE
  5
394
330
354
100
AcDbEntity
  8
WORKLAYER
  6
Continuous
 62
     7
100
AcDbLine
 10
8.7001037598
 20
57.1000061035
 30
0.0
 11
21.2001037598
 21
57.1000061035
 31
0.0
  0
LINE
  5
395
330
354
100
AcDbEntity
  8
WORKLAYER
  6
Continuous
 62
     7
100
AcDbLine
 10
9.9000854492
 20
72.3399963379
 30
0.0
 11
9.9000854492
 21
66.1399993896
 31
0.0
  0
LINE
  5
396
330
354
100
AcDbEntity
  8
WORKLAYER
  6
Continuous
 62
     7
100
AcDbLine
 10
8.7001037598
 20
72.3399963379
 30
0.0
 11
21.2001037598
 21
72.3399963379
 31
0.0
  0
LINE
  5
397
330
354
100
AcDbEntity
  8
WORKLAYER
  6
Continuous
 62
     7
100
AcDbLine
 10
8.7001037598
 20
64.7200012207
 30
0.0
 11
21.2001037598
 21
64.7200012207
 31
0.0
  0
LINE
  5
398
330
354
100
AcDbEntity
  8
WORKLAYER
  6
Continuous
 62
     7
100
AcDbLine
 10
8.7001037598
 20
66.1399993896
 30
0.0
 11
21.2001037598
 21
66.1399993896
 31
0.0
  0
LINE
  5
399
330
354
100
AcDbEntity
  8
WORKLAYER
  6
Continuous
 62
     7
100
AcDbLine
 10
8.7001037598
 20
33.6399993896
 30
0.0
 11
8.7001037598
 21
74.3600006104
 31
0.0
  0
LINE
  5
39A
330
354
100
AcDbEntity
  8
WORKLAYER
  6
Continuous
 62
     7
100
AcDbLine
 10
21.2001037598
 20
74.3600006104
 30
0.0
 11
21.2001037598
 21
33.6399993896
 31
0.0
  0
LINE
  5
39B
330
354
100
AcDbEntity
  8
WORKLAYER
  6
Continuous
 62
     7
100
AcDbLine
 10
21.2001037598
 20
33.6399993896
 30
0.0
 11
8.7001037598
 21
33.6399993896
 31
0.0
  0
LINE
  5
39C
330
354
100
AcDbEntity
  8
WORKLAYER
  6
Continuous
 62
     7
100
AcDbLine
 10
8.7001037598
 20
74.3600006104
 30
0.0
 11
21.2001037598
 21
74.3600006104
 31
0.0
  0
LINE
  5
39D
330
354
100
AcDbEntity
  8
WORKLAYER
  6
Continuous
 62
     7
100
AcDbLine
 10
19.7001037598
 20
74.3600006104
 30
0.0
 11
19.7001037598
 21
73.7600097656
 31
0.0
  0
LINE
  5
39E
330
354
100
AcDbEntity
  8
WORKLAYER
  6
Continuous
 62
     7
100
AcDbLine
 10
8.7001037598
 20
35.6600036621
 30
0.0
 11
21.2001037598
 21
35.6600036621
 31
0.0
  0
LINE
  5
39F
330
354
100
AcDbEntity
  8
WORKLAYER
  6
Continuous
 62
     7
100
AcDbLine
 10
20.0000915527
 20
49.4800109863
 30
0.0
 11
20.0000915527
 21
43.2799987793
 31
0.0
  0
LINE
  5
3A0
330
354
100
AcDbEntity
  8
WORKLAYER
  6
Continuous
 62
     7
100
AcDbLine
 10
8.7001037598
 20
34.2400054932
 30
0.0
 11
21.2001037598
 21
34.2400054932
 31
0.0
  0
LINE
  5
3A1
330
354
100
AcDbEntity
  8
WORKLAYER
  6
Continuous
 62
     7
100
AcDbLine
 10
8.7001037598
 20
43.2799987793
 30
0.0
 11
21.2001037598
 21
43.2799987793
 31
0.0
  0
LINE
  5
3A2
330
354
100
AcDbEntity
  8
WORKLAYER
  6
Continuous
 62
     7
100
AcDbLine
 10
8.7001037598
 20
41.8600006104
 30
0.0
 11
21.2001037598
 21
41.8600006104
 31
0.0
  0
LINE
  5
3A3
330
354
100
AcDbEntity
  8
WORKLAYER
  6
Continuous
 62
     7
100
AcDbLine
 10
9.9000854492
 20
41.8600006104
 30
0.0
 11
9.9000854492
 21
35.6600036621
 31
0.0
  0
LINE
  5
3A4
330
354
100
AcDbEntity
  8
WORKLAYER
  6
Continuous
 62
     7
100
AcDbLine
 10
10.2001037598
 20
33.6399993896
 30
0.0
 11
10.2001037598
 21
34.2400054932
 31
0.0
  0
LINE
  5
3A5
330
354
100
AcDbEntity
  8
WORKLAYER
  6
Continuous
 62
     7
100
AcDbLine
 10
20.0000915527
 20
41.8600006104
 30
0.0
 11
20.0000915527
 21
35.6600036621
 31
0.0
  0
LINE
  5
3A6
330
354
100
AcDbEntity
  8
WORKLAYER
  6
Continuous
 62
     7
100
AcDbLine
 10
10.2001037598
 20
74.3600006104
 30
0.0
 11
10.2001037598
 21
73.7600097656
 31
0.0
  0
LINE
  5
3A7
330
354
100
AcDbEntity
  8
WORKLAYER
  6
Continuous
 62
     7
100
AcDbLine
 10
19.3999938965
 20
101.5001068115
 30
0.0
 11
10.6999816895
 21
101.5001068115
 31
0.0
  0
LINE
  5
3A8
330
354
100
AcDbEntity
  8
WORKLAYER
  6
Continuous
 62
     7
100
AcDbLine
 10
10.6999816895
 20
97.5001068115
 30
0.0
 11
19.3999938965
 21
97.5001068115
 31
0.0
  0
LINE
  5
3A9
330
354
100
AcDbEntity
  8
WORKLAYER
  6
Continuous
 62
     7
100
AcDbLine
 10
9.6999816895
 20
98.5001068115
 30
0.0
 11
9.6999816895
 21
100.5001068115
 31
0.0
  0
LINE
  5
3AA
330
354
100
AcDbEntity
  8
WORKLAYER
  6
Continuous
 62
     7
100
AcDbLine
 10
20.3999938965
 20
100.5001068115
 30
0.0
 11
20.3999938965
 21
98.5001068115
 31
0.0
  0
LINE
  5
3AB
330
354
100
AcDbEntity
  8
WORKLAYER
  6
Continuous
 62
     7
100
AcDbLine
 10
9.2001037598
 20
77.3999023438
 30
0.0
 11
15.7001037598
 21
77.3999023438
 31
0.0
  0
LINE
  5
3AC
330
354
100
AcDbEntity
  8
WORKLAYER
  6
Continuous
 62
     7
100
AcDbLine
 10
8.2001037598
 20
78.3999023438
 30
0.0
 11
8.2001037598
 21
92.1000061035
 31
0.0
  0
LINE
  5
3AD
330
354
100
AcDbEntity
  8
WORKLAYER
  6
Continuous
 62
     7
100
AcDbLine
 10
9.2001037598
 20
93.1000061035
 30
0.0
 11
15.7001037598
 21
93.1000061035
 31
0.0
  0
LINE
  5
3AE
330
354
100
AcDbEntity
  8
WORKLAYER
  6
Continuous
 62
     7
100
AcDbLine
 10
16.7001037598
 20
78.3999023438
 30
0.0
 11
16.7001037598
 21
92.1000061035
 31
0.0
  0
LINE
  5
3AF
330
354
100
AcDbEntity
  8
WORKLAYER
  6
Continuous
 62
     7
100
AcDbLine
 10
20.7001037598
 20
33.1398010254
 30
0.0
 11
9.2001037598
 21
33.1398010254
 31
0.0
  0
LINE
  5
3B0
330
354
100
AcDbEntity
  8
WORKLAYER
  6
Continuous
 62
     7
100
AcDbLine
 10
8.2001037598
 20
34.1398010254
 30
0.0
 11
8.2001037598
 21
73.8598022461
 31
0.0
  0
LINE
  5
3B1
330
354
100
AcDbEntity
  8
WORKLAYER
  6
Continuous
 62
     7
100
AcDbLine
 10
9.2001037598
 20
74.8598022461
 30
0.0
 11
20.7001037598
 21
74.8598022461
 31
0.0
  0
LINE
  5
3B2
330
354
100
AcDbEntity
  8
WORKLAYER
  6
Continuous
 62
     7
100
AcDbLine
 10
21.7001037598
 20
73.8598022461
 30
0.0
 11
21.7001037598
 21
34.1398010254
 31
0.0
  0
LINE
  5
3B3
330
354
100
AcDbEntity
  8
WORKLAYER
  6
Continuous
 62
     7
100
AcDbLine
 10
13.8600769043
 20
62.9600982666
 30
0.0
 11
16.5809936523
 21
60.2391052246
 31
0.0
  0
LINE
  5
3B4
330
354
100
AcDbEntity
  8
WORKLAYER
  6
Continuous
 62
     7
100
AcDbLine
 10
13.8600769043
 20
60.2799072266
 30
0.0
 11
16.5809936523
 21
63.0009002686
 31
0.0
  0
LINE
  5
3B5
330
354
100
AcDbEntity
  8
WORKLAYER
  6
Continuous
 62
     7
100
AcDbLine
 10
13.8600769043
 20
47.7201080322
 30
0.0
 11
16.5809936523
 21
44.9990997314
 31
0.0
  0
LINE
  5
3B6
330
354
100
AcDbEntity
  8
WORKLAYER
  6
Continuous
 62
     7
100
AcDbLine
 10
32.0001831055
 20
105.5
 30
0.0
 11
4.0001831055
 21
105.5
 31
0.0
  0
LINE
  5
3B7
330
354
100
AcDbEntity
  8
WORKLAYER
  6
Continuous
 62
     7
100
AcDbLine
 10
4.0001831055
 20
105.5
 30
0.0
 11
4.0001831055
 21
29.4999084473
 31
0.0
  0
LINE
  5
3B8
330
354
100
AcDbEntity
  8
WORKLAYER
  6
Continuous
 62
     7
100
AcDbLine
 10
4.0001831055
 20
29.4999084473
 30
0.0
 11
32.0001831055
 21
29.4999084473
 31
0.0
  0
LINE
  5
3B9
330
354
100
AcDbEntity
  8
WORKLAYER
  6
Continuous
 62
     7
100
AcDbLine
 10
32.0001831055
 20
29.4999084473
 30
0.0
 11
32.0001831055
 21
105.5
 31
0.0
  0
LINE
  5
3BA
330
354
100
AcDbEntity
  8
WORKLAYER
  6
Continuous
 62
     7
100
AcDbLine
 10
9.2001037598
 20
85.9598999023
 30
0.0
 11
8.7001037598
 21
85.9598999023
 31
0.0
  0
LINE
  5
3BB
330
354
100
AcDbEntity
  8
WORKLAYER
  6
Continuous
 62
     7
100
AcDbLine
 10
8.7001037598
 20
85.9598999023
 30
0.0
 11
8.7001037598
 21
86.2098999023
 31
0.0
  0
LINE
  5
3BC
330
354
100
AcDbEntity
  8
WORKLAYER
  6
Continuous
 62
     7
100
AcDbLine
 10
8.7001037598
 20
86.7098999023
 30
0.0
 11
8.7001037598
 21
86.9598999023
 31
0.0
  0
LINE
  5
3BD
330
354
100
AcDbEntity
  8
WORKLAYER
  6
Continuous
 62
     7
100
AcDbLine
 10
8.7001037598
 20
86.9598999023
 30
0.0
 11
9.2001037598
 21
86.9598999023
 31
0.0
  0
LINE
  5
3BE
330
354
100
AcDbEntity
  8
WORKLAYER
  6
Continuous
 62
     7
100
AcDbLine
 10
9.2001037598
 20
85.3999023438
 30
0.0
 11
16.2001037598
 21
85.3999023438
 31
0.0
  0
LINE
  5
3BF
330
354
100
AcDbEntity
  8
WORKLAYER
  6
Continuous
 62
     7
100
AcDbLine
 10
16.2001037598
 20
85.3999023438
 30
0.0
 11
16.2001037598
 21
92.6000061035
 31
0.0
  0
LINE
  5
3C0
330
354
100
AcDbEntity
  8
WORKLAYER
  6
Continuous
 62
     7
100
AcDbLine
 10
16.2001037598
 20
92.6000061035
 30
0.0
 11
9.2001037598
 21
92.6000061035
 31
0.0
  0
LINE
  5
3C1
330
354
100
AcDbEntity
  8
WORKLAYER
  6
Continuous
 62
     7
100
AcDbLine
 10
9.2001037598
 20
92.6000061035
 30
0.0
 11
9.2001037598
 21
85.3999023438
 31
0.0
  0
LINE
  5
3C2
330
354
100
AcDbEntity
  8
WORKLAYER
  6
Continuous
 62
     7
100
AcDbLine
 10
17.8601989746
 20
97.9999084473
 30
0.0
 11
19.8601989746
 21
97.9999084473
 31
0.0
  0
LINE
  5
3C3
330
354
100
AcDbEntity
  8
WORKLAYER
  6
Continuous
 62
     7
100
AcDbLine
 10
19.8601989746
 20
97.9999084473
 30
0.0
 11
19.8601989746
 21
100.9999084473
 31
0.0
  0
LINE
  5
3C4
330
354
100
AcDbEntity
  8
WORKLAYER
  6
Continuous
 62
     7
100
AcDbLine
 10
19.8601989746
 20
100.9999084473
 30
0.0
 11
17.8601989746
 21
100.9999084473
 31
0.0
  0
LINE
  5
3C5
330
354
100
AcDbEntity
  8
WORKLAYER
  6
Continuous
 62
     7
100
AcDbLine
 10
17.8601989746
 20
100.9999084473
 30
0.0
 11
17.8601989746
 21
97.9999084473
 31
0.0
  0
LINE
  5
3C6
330
354
100
AcDbEntity
  8
WORKLAYER
  6
Continuous
 62
     7
100
AcDbLine
 10
15.3202819824
 20
97.9999084473
 30
0.0
 11
17.3202819824
 21
97.9999084473
 31
0.0
  0
LINE
  5
3C7
330
354
100
AcDbEntity
  8
WORKLAYER
  6
Continuous
 62
     7
100
AcDbLine
 10
17.3202819824
 20
97.9999084473
 30
0.0
 11
17.3202819824
 21
100.9999084473
 31
0.0
  0
LINE
  5
3C8
330
354
100
AcDbEntity
  8
WORKLAYER
  6
Continuous
 62
     7
100
AcDbLine
 10
17.3202819824
 20
100.9999084473
 30
0.0
 11
15.3202819824
 21
100.9999084473
 31
0.0
  0
LINE
  5
3C9
330
354
100
AcDbEntity
  8
WORKLAYER
  6
Continuous
 62
     7
100
AcDbLine
 10
15.3202819824
 20
100.9999084473
 30
0.0
 11
15.3202819824
 21
97.9999084473
 31
0.0
  0
LINE
  5
3CA
330
354
100
AcDbEntity
  8
WORKLAYER
  6
Continuous
 62
     7
100
AcDbLine
 10
12.7801818848
 20
97.9999084473
 30
0.0
 11
14.7801818848
 21
97.9999084473
 31
0.0
  0
LINE
  5
3CB
330
354
100
AcDbEntity
  8
WORKLAYER
  6
Continuous
 62
     7
100
AcDbLine
 10
14.7801818848
 20
97.9999084473
 30
0.0
 11
14.7801818848
 21
100.9999084473
 31
0.0
  0
LINE
  5
3CC
330
354
100
AcDbEntity
  8
WORKLAYER
  6
Continuous
 62
     7
100
AcDbLine
 10
14.7801818848
 20
100.9999084473
 30
0.0
 11
12.7801818848
 21
100.9999084473
 31
0.0
  0
LINE
  5
3CD
330
354
100
AcDbEntity
  8
WORKLAYER
  6
Continuous
 62
     7
100
AcDbLine
 10
12.7801818848
 20
100.9999084473
 30
0.0
 11
12.7801818848
 21
97.9999084473
 31
0.0
  0
LINE
  5
3CE
330
354
100
AcDbEntity
  8
WORKLAYER
  6
Continuous
 62
     7
100
AcDbLine
 10
10.2402038574
 20
97.9999084473
 30
0.0
 11
12.2402038574
 21
97.9999084473
 31
0.0
  0
LINE
  5
3CF
330
354
100
AcDbEntity
  8
WORKLAYER
  6
Continuous
 62
     7
100
AcDbLine
 10
12.2402038574
 20
97.9999084473
 30
0.0
 11
12.2402038574
 21
100.9999084473
 31
0.0
  0
LINE
  5
3D0
330
354
100
AcDbEntity
  8
WORKLAYER
  6
Continuous
 62
     7
100
AcDbLine
 10
12.2402038574
 20
100.9999084473
 30
0.0
 11
10.2402038574
 21
100.9999084473
 31
0.0
  0
LINE
  5
3D1
330
354
100
AcDbEntity
  8
WORKLAYER
  6
Continuous
 62
     7
100
AcDbLine
 10
10.2402038574
 20
100.9999084473
 30
0.0
 11
10.2402038574
 21
97.9999084473
 31
0.0
  0
LINE
  5
3D2
330
354
100
AcDbEntity
  8
WORKLAYER
  6
Continuous
 62
     7
100
AcDbLine
 10
8.7001037598
 20
92.9662017822
 30
0.0
 11
8.7001037598
 21
77.5339050293
 31
0.0
  0
LINE
  5
3D3
330
354
100
AcDbEntity
  8
WORKLAYER
  6
Continuous
 62
     7
100
AcDbLine
 10
8.7001037598
 20
74.7259979248
 30
0.0
 11
8.7001037598
 21
33.2740020752
 31
0.0
  0
LINE
  5
3D4
330
354
100
AcDbEntity
  8
WORKLAYER
  6
Continuous
 62
     7
100
AcDbLine
 10
9.2001037598
 20
91.0399017334
 30
0.0
 11
8.7001037598
 21
91.0399017334
 31
0.0
  0
LINE
  5
3D5
330
354
100
AcDbEntity
  8
WORKLAYER
  6
Continuous
 62
     7
100
AcDbLine
 10
8.7001037598
 20
91.0399017334
 30
0.0
 11
8.7001037598
 21
91.2899017334
 31
0.0
  0
LINE
  5
3D6
330
354
100
AcDbEntity
  8
WORKLAYER
  6
Continuous
 62
     7
100
AcDbLine
 10
8.7001037598
 20
91.7899017334
 30
0.0
 11
8.7001037598
 21
92.0399017334
 31
0.0
  0
LINE
  5
3D7
330
354
100
AcDbEntity
  8
WORKLAYER
  6
Continuous
 62
     7
100
AcDbLine
 10
8.7001037598
 20
92.0399017334
 30
0.0
 11
9.2001037598
 21
92.0399017334
 31
0.0
  0
LINE
  5
3D8
330
354
100
AcDbEntity
  8
WORKLAYER
  6
Continuous
 62
     7
100
AcDbLine
 10
9.2001037598
 20
83.5399017334
 30
0.0
 11
8.7001037598
 21
83.5399017334
 31
0.0
  0
LINE
  5
3D9
330
354
100
AcDbEntity
  8
WORKLAYER
  6
Continuous
 62
     7
100
AcDbLine
 10
8.7001037598
 20
83.5399017334
 30
0.0
 11
8.7001037598
 21
83.7899017334
 31
0.0
  0
LINE
  5
3DA
330
354
100
AcDbEntity
  8
WORKLAYER
  6
Continuous
 62
     7
100
AcDbLine
 10
8.7001037598
 20
84.2899017334
 30
0.0
 11
8.7001037598
 21
84.5399017334
 31
0.0
  0
LINE
  5
3DB
330
354
100
AcDbEntity
  8
WORKLAYER
  6
Continuous
 62
     7
100
AcDbLine
 10
8.7001037598
 20
84.5399017334
 30
0.0
 11
9.2001037598
 21
84.5399017334
 31
0.0
  0
LINE
  5
3DC
330
354
100
AcDbEntity
  8
WORKLAYER
  6
Continuous
 62
     7
100
AcDbLine
 10
9.2001037598
 20
78.4598999023
 30
0.0
 11
8.7001037598
 21
78.4598999023
 31
0.0
  0
LINE
  5
3DD
330
354
100
AcDbEntity
  8
WORKLAYER
  6
Continuous
 62
     7
100
AcDbLine
 10
8.7001037598
 20
78.4598999023
 30
0.0
 11
8.7001037598
 21
78.7098999023
 31
0.0
  0
LINE
  5
3DE
330
354
100
AcDbEntity
  8
WORKLAYER
  6
Continuous
 62
     7
100
AcDbLine
 10
8.7001037598
 20
79.2098999023
 30
0.0
 11
8.7001037598
 21
79.4598999023
 31
0.0
  0
LINE
  5
3DF
330
354
100
AcDbEntity
  8
WORKLAYER
  6
Continuous
 62
     7
100
AcDbLine
 10
8.7001037598
 20
79.4598999023
 30
0.0
 11
9.2001037598
 21
79.4598999023
 31
0.0
  0
LINE
  5
3E0
330
354
100
AcDbEntity
  8
WORKLAYER
  6
Continuous
 62
     7
100
AcDbLine
 10
13.2001037598
 20
89.25
 30
0.0
 11
11.2001037598
 21
89.25
 31
0.0
  0
LINE
  5
3E1
330
354
100
AcDbEntity
  8
WORKLAYER
  6
Continuous
 62
     7
100
AcDbLine
 10
14.2001037598
 20
89.0
 30
0.0
 11
13.2001037598
 21
88.0
 31
0.0
  0
LINE
  5
3E2
330
354
100
AcDbEntity
  8
WORKLAYER
  6
Continuous
 62
     7
100
AcDbLine
 10
14.2001037598
 20
89.0
 30
0.0
 11
13.2001037598
 21
90.0
 31
0.0
  0
LINE
  5
3E3
330
354
100
AcDbEntity
  8
WORKLAYER
  6
Continuous
 62
     7
100
AcDbLine
 10
11.2001037598
 20
88.75
 30
0.0
 11
11.2001037598
 21
89.25
 31
0.0
  0
LINE
  5
3E4
330
354
100
AcDbEntity
  8
WORKLAYER
  6
Continuous
 62
     7
100
AcDbLine
 10
13.2001037598
 20
88.75
 30
0.0
 11
11.2001037598
 21
88.75
 31
0.0
  0
LINE
  5
3E5
330
354
100
AcDbEntity
  8
WORKLAYER
  6
Continuous
 62
     7
100
AcDbLine
 10
13.2001037598
 20
90.0
 30
0.0
 11
13.2001037598
 21
89.25
 31
0.0
  0
LINE
  5
3E6
330
354
100
AcDbEntity
  8
WORKLAYER
  6
Continuous
 62
     7
100
AcDbLine
 10
13.2001037598
 20
88.75
 30
0.0
 11
13.2001037598
 21
88.0
 31
0.0
  0
LINE
  5
3E7
330
354
100
AcDbEntity
  8
WORKLAYER
  6
Continuous
 62
     7
100
AcDbLine
 10
9.2001037598
 20
88.5
 30
0.0
 11
8.7001037598
 21
88.5
 31
0.0
  0
LINE
  5
3E8
330
354
100
AcDbEntity
  8
WORKLAYER
  6
Continuous
 62
     7
100
AcDbLine
 10
8.7001037598
 20
88.5
 30
0.0
 11
8.7001037598
 21
88.75
 31
0.0
  0
LINE
  5
3E9
330
354
100
AcDbEntity
  8
WORKLAYER
  6
Continuous
 62
     7
100
AcDbLine
 10
8.7001037598
 20
89.25
 30
0.0
 11
8.7001037598
 21
89.4999084473
 31
0.0
  0
LINE
  5
3EA
330
354
100
AcDbEntity
  8
WORKLAYER
  6
Continuous
 62
     7
100
AcDbLine
 10
8.7001037598
 20
89.4999084473
 30
0.0
 11
9.2001037598
 21
89.4999084473
 31
0.0
  0
LINE
  5
3EB
330
354
100
AcDbEntity
  8
WORKLAYER
  6
Continuous
 62
     7
100
AcDbLine
 10
9.2001037598
 20
77.8999023438
 30
0.0
 11
16.2001037598
 21
77.8999023438
 31
0.0
  0
LINE
  5
3EC
330
354
100
AcDbEntity
  8
WORKLAYER
  6
Continuous
 62
     7
100
AcDbLine
 10
16.2001037598
 20
77.8999023438
 30
0.0
 11
16.2001037598
 21
85.1000061035
 31
0.0
  0
LINE
  5
3ED
330
354
100
AcDbEntity
  8
WORKLAYER
  6
Continuous
 62
     7
100
AcDbLine
 10
16.2001037598
 20
85.1000061035
 30
0.0
 11
9.2001037598
 21
85.1000061035
 31
0.0
  0
LINE
  5
3EE
330
354
100
AcDbEntity
  8
WORKLAYER
  6
Continuous
 62
     7
100
AcDbLine
 10
9.2001037598
 20
85.1000061035
 30
0.0
 11
9.2001037598
 21
77.8999023438
 31
0.0
  0
LINE
  5
3EF
330
354
100
AcDbEntity
  8
WORKLAYER
  6
Continuous
 62
     7
100
AcDbLine
 10
13.2001037598
 20
81.75
 30
0.0
 11
11.2001037598
 21
81.75
 31
0.0
  0
LINE
  5
3F0
330
354
100
AcDbEntity
  8
WORKLAYER
  6
Continuous
 62
     7
100
AcDbLine
 10
14.2001037598
 20
81.5
 30
0.0
 11
13.2001037598
 21
80.5
 31
0.0
  0
LINE
  5
3F1
330
354
100
AcDbEntity
  8
WORKLAYER
  6
Continuous
 62
     7
100
AcDbLine
 10
14.2001037598
 20
81.5
 30
0.0
 11
13.2001037598
 21
82.5
 31
0.0
  0
LINE
  5
3F2
330
354
100
AcDbEntity
  8
WORKLAYER
  6
Continuous
 62
     7
100
AcDbLine
 10
11.2001037598
 20
81.25
 30
0.0
 11
11.2001037598
 21
81.75
 31
0.0
  0
LINE
  5
3F3
330
354
100
AcDbEntity
  8
WORKLAYER
  6
Continuous
 62
     7
100
AcDbLine
 10
13.2001037598
 20
81.25
 30
0.0
 11
11.2001037598
 21
81.25
 31
0.0
  0
LINE
  5
3F4
330
354
100
AcDbEntity
  8
WORKLAYER
  6
Continuous
 62
     7
100
AcDbLine
 10
13.2001037598
 20
82.5
 30
0.0
 11
13.2001037598
 21
81.75
 31
0.0
  0
LINE
  5
3F5
330
354
100
AcDbEntity
  8
WORKLAYER
  6
Continuous
 62
     7
100
AcDbLine
 10
13.2001037598
 20
81.25
 30
0.0
 11
13.2001037598
 21
80.5
 31
0.0
  0
LINE
  5
3F6
330
354
100
AcDbEntity
  8
WORKLAYER
  6
Continuous
 62
     7
100
AcDbLine
 10
9.2001037598
 20
81.0
 30
0.0
 11
8.7001037598
 21
81.0
 31
0.0
  0
LINE
  5
3F7
330
354
100
AcDbEntity
  8
WORKLAYER
  6
Continuous
 62
     7
100
AcDbLine
 10
8.7001037598
 20
81.0
 30
0.0
 11
8.7001037598
 21
81.25
 31
0.0
  0
LINE
  5
3F8
330
354
100
AcDbEntity
  8
WORKLAYER
  6
Continuous
 62
     7
100
AcDbLine
 10
8.7001037598
 20
81.75
 30
0.0
 11
8.7001037598
 21
81.9999084473
 31
0.0
  0
LINE
  5
3F9
330
354
100
AcDbEntity
  8
WORKLAYER
  6
Continuous
 62
     7
100
AcDbLine
 10
8.7001037598
 20
81.9999084473
 30
0.0
 11
9.2001037598
 21
81.9999084473
 31
0.0
  0
LINE
  5
3FA
330
354
100
AcDbEntity
  8
WORKLAYER
  6
Continuous
 62
     7
100
AcDbLine
 10
13.8600769043
 20
45.0399017334
 30
0.0
 11
16.5809936523
 21
47.7609100342
 31
0.0
  0
LINE
  5
3FB
330
354
100
AcDbEntity
  8
WORKLAYER
  6
Continuous
 62
     7
100
AcDbLine
 10
13.8600769043
 20
70.5801086426
 30
0.0
 11
16.5809936523
 21
67.8591003418
 31
0.0
  0
LINE
  5
3FC
330
354
100
AcDbEntity
  8
WORKLAYER
  6
Continuous
 62
     7
100
AcDbLine
 10
13.8600769043
 20
67.8999023438
 30
0.0
 11
16.5809936523
 21
70.6209106445
 31
0.0
  0
LINE
  5
3FD
330
354
100
AcDbEntity
  8
WORKLAYER
  6
Continuous
 62
     7
100
AcDbLine
 10
13.8600769043
 20
55.3401031494
 30
0.0
 11
16.5809936523
 21
52.6191101074
 31
0.0
  0
LINE
  5
3FE
330
354
100
AcDbEntity
  8
WORKLAYER
  6
Continuous
 62
     7
100
AcDbLine
 10
13.8600769043
 20
52.6598968506
 30
0.0
 11
16.5809936523
 21
55.3809051514
 31
0.0
  0
LINE
  5
3FF
330
354
100
AcDbEntity
  8
VIEW
  6
Continuous
 62
     7
100
AcDbLine
 10
3.0
 20
123.8999023438
 30
0.0
 11
0.5
 21
123.8999023438
 31
0.0
  0
LINE
  5
400
330
354
100
AcDbEntity
  8
VIEW
  6
Continuous
 62
     7
100
AcDbLine
 10
0.5
 20
121.099899292
 30
0.0
 11
3.0
 21
121.099899292
 31
0.0
  0
LINE
  5
401
330
354
100
AcDbEntity
  8
VIEW
  6
Continuous
 62
     7
100
AcDbLine
 10
0.0
 20
121.599899292
 30
0.0
 11
0.0
 21
123.3999023438
 31
0.0
  0
LINE
  5
402
330
354
100
AcDbEntity
  8
WORKLAYER
  6
Continuous
 62
     7
100
AcDbLine
 10
13.8600769043
 20
40.1000976563
 30
0.0
 11
16.5809936523
 21
37.3791046143
 31
0.0
  0
LINE
  5
403
330
354
100
AcDbEntity
  8
WORKLAYER
  6
Continuous
 62
     7
100
AcDbLine
 10
13.8600769043
 20
37.4199066162
 30
0.0
 11
16.5809936523
 21
40.1408996582
 31
0.0
  0
LINE
  5
404
330
354
100
AcDbEntity
  8
VIEW
  6
Continuous
 62
     7
100
AcDbLine
 10
3.0
 20
13.900100708
 30
0.0
 11
0.5
 21
13.900100708
 31
0.0
  0
LINE
  5
405
330
354
100
AcDbEntity
  8
VIEW
  6
Continuous
 62
     7
100
AcDbLine
 10
0.5
 20
11.1001052856
 30
0.0
 11
3.0
 21
11.1001052856
 31
0.0
  0
LINE
  5
406
330
354
100
AcDbEntity
  8
VIEW
  6
Continuous
 62
     7
100
AcDbLine
 10
0.0
 20
11.6001052856
 30
0.0
 11
0.0
 21
13.400100708
 31
0.0
  0
LINE
  5
407
330
354
100
AcDbEntity
  8
VIEW
  6
Continuous
 62
     7
100
AcDbLine
 10
2.9998779297
 20
29.1999053955
 30
0.0
 11
2.9998779297
 21
105.8000030518
 31
0.0
  0
LINE
  5
408
330
354
100
AcDbEntity
  8
VIEW
  6
Continuous
 62
     7
100
AcDbLine
 10
3.7001037598
 20
106.5000030398
 30
0.0
 11
32.2998962402
 21
106.5000030398
 31
0.0
  0
LINE
  5
409
330
354
100
AcDbEntity
  8
VIEW
  6
Continuous
 62
     7
100
AcDbLine
 10
32.9998779297
 20
105.8000030518
 30
0.0
 11
32.9998779297
 21
29.1999053955
 31
0.0
  0
LINE
  5
40A
330
354
100
AcDbEntity
  8
VIEW
  6
Continuous
 62
     7
100
AcDbLine
 10
32.2998962402
 20
28.5
 30
0.0
 11
3.7001037598
 21
28.5
 31
0.0
  0
LINE
  5
40B
330
354
100
AcDbEntity
  8
VIEW
  6
Continuous
 62
     7
100
AcDbLine
 10
14.0
 20
28.0
 30
0.0
 11
21.9998779297
 21
28.0
 31
0.0
  0
LINE
  5
40C
330
354
100
AcDbEntity
  8
VIEW
  6
Continuous
 62
     7
100
AcDbLine
 10
21.9998779297
 20
28.5
 30
0.0
 11
21.9998779297
 21
27.8964996338
 31
0.0
  0
LINE
  5
40D
330
354
100
AcDbEntity
  8
VIEW
  6
Continuous
 62
     7
100
AcDbLine
 10
14.0
 20
27.8964996338
 30
0.0
 11
14.0
 21
28.5
 31
0.0
  0
LINE
  5
40E
330
354
100
AcDbEntity
  8
VIEW
  6
Continuous
 62
     7
100
AcDbLine
 10
21.9998779297
 20
107.0
 30
0.0
 11
14.0
 21
107.0
 31
0.0
  0
LINE
  5
40F
330
354
100
AcDbEntity
  8
VIEW
  6
Continuous
 62
     7
100
AcDbLine
 10
14.0
 20
106.5
 30
0.0
 11
14.0
 21
107.1035003662
 31
0.0
  0
LINE
  5
410
330
354
100
AcDbEntity
  8
VIEW
  6
Continuous
 62
     7
100
AcDbLine
 10
21.9998779297
 20
107.1035003662
 30
0.0
 11
21.9998779297
 21
106.5
 31
0.0
  0
LINE
  5
411
330
354
100
AcDbEntity
  8
VIEW
  6
Continuous
 62
     7
100
AcDbLine
 10
28.0998840332
 20
129.5
 30
0.0
 11
21.8999023437
 21
129.5
 31
0.0
  0
LINE
  5
412
330
354
100
AcDbEntity
  8
VIEW
  6
Continuous
 62
     7
100
AcDbLine
 10
14.0998840332
 20
129.5
 30
0.0
 11
7.8999023437
 21
129.5
 31
0.0
  0
LINE
  5
413
330
354
100
AcDbEntity
  8
VIEW
  6
Continuous
 62
     7
100
AcDbLine
 10
14.8999023437
 20
5.5
 30
0.0
 11
21.0998840332
 21
5.5
 31
0.0
  0
LINE
  5
414
330
354
100
AcDbEntity
  8
VIEW
  6
Continuous
 62
     7
100
AcDbLine
 10
21.8999023437
 20
5.5
 30
0.0
 11
28.0998840332
 21
5.5
 31
0.0
  0
LINE
  5
415
330
354
100
AcDbEntity
  8
VIEW
  6
Continuous
 62
     7
100
AcDbLine
 10
21.0998840332
 20
129.5
 30
0.0
 11
14.8999023437
 21
129.5
 31
0.0
  0
LINE
  5
416
330
354
100
AcDbEntity
  8
VIEW
  6
Continuous
 62
     7
100
AcDbLine
 10
7.8999023437
 20
5.5
 30
0.0
 11
14.0998840332
 21
5.5
 31
0.0
  0
LINE
  5
417
330
354
100
AcDbEntity
  8
VIEW
  6
Continuous
 62
     7
100
AcDbLine
 10
31.7998962402
 20
106.9000091553
 30
0.0
 11
31.7998962402
 21
106.5
 31
0.0
  0
LINE
  5
418
330
354
100
AcDbEntity
  8
VIEW
  6
Continuous
 62
     7
100
AcDbLine
 10
33.0
 20
5.2000045776
 30
0.0
 11
33.0
 21
129.8000030518
 31
0.0
  0
LINE
  5
419
330
354
100
AcDbEntity
  8
VIEW
  6
Continuous
 62
     7
100
AcDbLine
 10
23.0
 20
106.5
 30
0.0
 11
23.0
 21
107.1035003662
 31
0.0
  0
LINE
  5
41A
330
354
100
AcDbEntity
  8
VIEW
  6
Continuous
 62
     7
100
AcDbLine
 10
28.0998840332
 20
5.0
 30
0.0
 11
28.0998840332
 21
6.1194000244
 31
0.0
  0
LINE
  5
41B
330
354
100
AcDbEntity
  8
VIEW
  6
Continuous
 62
     7
100
AcDbLine
 10
14.8999023437
 20
6.1194000244
 30
0.0
 11
14.8999023437
 21
5.0
 31
0.0
  0
LINE
  5
41C
330
354
100
AcDbEntity
  8
VIEW
  6
Continuous
 62
     7
100
AcDbLine
 10
14.0998840332
 20
5.0
 30
0.0
 11
14.0998840332
 21
6.1194000244
 31
0.0
  0
LINE
  5
41D
330
354
100
AcDbEntity
  8
VIEW
  6
Continuous
 62
     7
100
AcDbLine
 10
7.8999023437
 20
6.1194000244
 30
0.0
 11
7.8999023437
 21
5.0
 31
0.0
  0
LINE
  5
41E
330
354
100
AcDbEntity
  8
VIEW
  6
Continuous
 62
     7
100
AcDbLine
 10
21.0998840332
 20
5.0
 30
0.0
 11
21.0998840332
 21
6.1194000244
 31
0.0
  0
LINE
  5
41F
330
354
100
AcDbEntity
  8
VIEW
  6
Continuous
 62
     7
100
AcDbLine
 10
21.8999023437
 20
6.1194000244
 30
0.0
 11
21.8999023437
 21
5.0
 31
0.0
  0
LINE
  5
420
330
354
100
AcDbEntity
  8
VIEW
  6
Continuous
 62
     7
100
AcDbLine
 10
31.0
 20
14.0
 30
0.0
 11
31.0
 21
10.7863998413
 31
0.0
  0
LINE
  5
421
330
354
100
AcDbEntity
  8
VIEW
  6
Continuous
 62
     7
100
AcDbLine
 10
31.0
 20
9.1864013672
 30
0.0
 11
31.0
 21
5.0
 31
0.0
  0
LINE
  5
422
330
354
100
AcDbEntity
  8
VIEW
  6
Continuous
 62
     7
100
AcDbLine
 10
31.5998840332
 20
14.0
 30
0.0
 11
31.0
 21
14.0
 31
0.0
  0
LINE
  5
423
330
354
100
AcDbEntity
  8
VIEW
  6
Continuous
 62
     7
100
AcDbLine
 10
31.5998840332
 20
28.4000091553
 30
0.0
 11
31.5998840332
 21
14.0
 31
0.0
  0
LINE
  5
424
330
354
100
AcDbEntity
  8
VIEW
  6
Continuous
 62
     7
100
AcDbLine
 10
30.1999816895
 20
28.4000091553
 30
0.0
 11
31.5998840332
 21
28.4000091553
 31
0.0
  0
LINE
  5
425
330
354
100
AcDbEntity
  8
VIEW
  6
Continuous
 62
     7
100
AcDbLine
 10
5.0
 20
14.0
 30
0.0
 11
4.3999023437
 21
14.0
 31
0.0
  0
LINE
  5
426
330
354
100
AcDbEntity
  8
VIEW
  6
Continuous
 62
     7
100
AcDbLine
 10
4.3999023437
 20
14.0
 30
0.0
 11
4.3999023437
 21
28.4000091553
 31
0.0
  0
LINE
  5
427
330
354
100
AcDbEntity
  8
VIEW
  6
Continuous
 62
     7
100
AcDbLine
 10
32.7998962402
 20
10.8501052856
 30
0.0
 11
31.0
 21
10.8501052856
 31
0.0
  0
LINE
  5
428
330
354
100
AcDbEntity
  8
VIEW
  6
Continuous
 62
     7
100
AcDbLine
 10
5.0
 20
10.8501052856
 30
0.0
 11
3.1999816895
 21
10.8501052856
 31
0.0
  0
LINE
  5
429
330
354
100
AcDbEntity
  8
VIEW
  6
Continuous
 62
     7
100
AcDbLine
 10
5.0
 20
14.0
 30
0.0
 11
5.0
 21
10.7863998413
 31
0.0
  0
LINE
  5
42A
330
354
100
AcDbEntity
  8
VIEW
  6
Continuous
 62
     7
100
AcDbLine
 10
5.0
 20
9.1864013672
 30
0.0
 11
5.0
 21
5.0
 31
0.0
  0
LINE
  5
42B
330
354
100
AcDbEntity
  8
VIEW
  6
Continuous
 62
     7
100
AcDbLine
 10
3.1999816895
 20
9.1500045806
 30
0.0
 11
5.0
 21
9.1500015259
 31
0.0
  0
LINE
  5
42C
330
354
100
AcDbEntity
  8
VIEW
  6
Continuous
 62
     7
100
AcDbLine
 10
31.0
 20
9.1500015259
 30
0.0
 11
32.7998962402
 21
9.1500045806
 31
0.0
  0
LINE
  5
42D
330
354
100
AcDbEntity
  8
VIEW
  6
Continuous
 62
     7
100
AcDbLine
 10
3.0
 20
5.2000045776
 30
0.0
 11
3.0
 21
129.8000030518
 31
0.0
  0
LINE
  5
42E
330
354
100
AcDbEntity
  8
VIEW
  6
Continuous
 62
     7
100
AcDbLine
 10
32.7998962402
 20
5.0000045747
 30
0.0
 11
3.1999816895
 21
5.0000045747
 31
0.0
  0
LINE
  5
42F
330
354
100
AcDbEntity
  8
VIEW
  6
Continuous
 62
     7
100
AcDbLine
 10
30.1999816895
 20
27.8964996338
 30
0.0
 11
30.1999816895
 21
28.5
 31
0.0
  0
LINE
  5
430
330
354
100
AcDbEntity
  8
VIEW
  6
Continuous
 62
     7
100
AcDbLine
 10
5.7998962402
 20
107.1035003662
 30
0.0
 11
5.7998962402
 21
106.5
 31
0.0
  0
LINE
  5
431
330
354
100
AcDbEntity
  8
VIEW
  6
Continuous
 62
     7
100
AcDbLine
 10
13.0
 20
107.1035003662
 30
0.0
 11
13.0
 21
106.5
 31
0.0
  0
LINE
  5
432
330
354
100
AcDbEntity
  8
VIEW
  6
Continuous
 62
     7
100
AcDbLine
 10
28.0998840332
 20
128.8807067871
 30
0.0
 11
28.0998840332
 21
130.0
 31
0.0
  0
LINE
  5
433
330
354
100
AcDbEntity
  8
VIEW
  6
Continuous
 62
     7
100
AcDbLine
 10
14.0998840332
 20
128.8807067871
 30
0.0
 11
14.0998840332
 21
130.0
 31
0.0
  0
LINE
  5
434
330
354
100
AcDbEntity
  8
VIEW
  6
Continuous
 62
     7
100
AcDbLine
 10
14.8999023437
 20
130.0
 30
0.0
 11
14.8999023437
 21
128.8807067871
 31
0.0
  0
LINE
  5
435
330
354
100
AcDbEntity
  8
VIEW
  6
Continuous
 62
     7
100
AcDbLine
 10
7.8999023437
 20
130.0
 30
0.0
 11
7.8999023437
 21
128.8807067871
 31
0.0
  0
LINE
  5
436
330
354
100
AcDbEntity
  8
VIEW
  6
Continuous
 62
     7
100
AcDbLine
 10
5.7998962402
 20
28.5
 30
0.0
 11
5.7998962402
 21
27.8964996338
 31
0.0
  0
LINE
  5
437
330
354
100
AcDbEntity
  8
VIEW
  6
Continuous
 62
     7
100
AcDbLine
 10
5.0
 20
121.0
 30
0.0
 11
5.0
 21
124.2136077881
 31
0.0
  0
LINE
  5
438
330
354
100
AcDbEntity
  8
VIEW
  6
Continuous
 62
     7
100
AcDbLine
 10
5.0
 20
125.8135986328
 30
0.0
 11
5.0
 21
130.0
 31
0.0
  0
LINE
  5
439
330
354
100
AcDbEntity
  8
VIEW
  6
Continuous
 62
     7
100
AcDbLine
 10
4.3999023437
 20
121.0
 30
0.0
 11
5.0
 21
121.0
 31
0.0
  0
LINE
  5
43A
330
354
100
AcDbEntity
  8
VIEW
  6
Continuous
 62
     7
100
AcDbLine
 10
4.3999023437
 20
106.6000976563
 30
0.0
 11
4.3999023437
 21
121.0
 31
0.0
  0
LINE
  5
43B
330
354
100
AcDbEntity
  8
VIEW
  6
Continuous
 62
     7
100
AcDbLine
 10
5.7998962402
 20
106.6000976563
 30
0.0
 11
4.3999023437
 21
106.6000976563
 31
0.0
  0
LINE
  5
43C
330
354
100
AcDbEntity
  8
VIEW
  6
Continuous
 62
     7
100
AcDbLine
 10
4.3999023437
 20
28.4000091553
 30
0.0
 11
5.7998962402
 21
28.4000091553
 31
0.0
  0
LINE
  5
43D
330
354
100
AcDbEntity
  8
VIEW
  6
Continuous
 62
     7
100
AcDbLine
 10
32.7998962402
 20
106.9000091553
 30
0.0
 11
30.1999816895
 21
106.9000091553
 31
0.0
  0
LINE
  5
43E
330
354
100
AcDbEntity
  8
VIEW
  6
Continuous
 62
     7
100
AcDbLine
 10
31.0
 20
121.0
 30
0.0
 11
31.5998840332
 21
121.0
 31
0.0
  0
LINE
  5
43F
330
354
100
AcDbEntity
  8
VIEW
  6
Continuous
 62
     7
100
AcDbLine
 10
31.0
 20
130.0
 30
0.0
 11
31.0
 21
125.8135986328
 31
0.0
  0
LINE
  5
440
330
354
100
AcDbEntity
  8
VIEW
  6
Continuous
 62
     7
100
AcDbLine
 10
31.0
 20
124.2136077881
 30
0.0
 11
31.0
 21
121.0
 31
0.0
  0
LINE
  5
441
330
354
100
AcDbEntity
  8
VIEW
  6
Continuous
 62
     7
100
AcDbLine
 10
31.5998840332
 20
121.0
 30
0.0
 11
31.5998840332
 21
106.9000091553
 31
0.0
  0
LINE
  5
442
330
354
100
AcDbEntity
  8
VIEW
  6
Continuous
 62
     7
100
AcDbLine
 10
31.0
 20
124.150100708
 30
0.0
 11
32.7998962402
 21
124.150100708
 31
0.0
  0
LINE
  5
443
330
354
100
AcDbEntity
  8
VIEW
  6
Continuous
 62
     7
100
AcDbLine
 10
3.1999816895
 20
124.150100708
 30
0.0
 11
5.0
 21
124.150100708
 31
0.0
  0
LINE
  5
444
330
354
100
AcDbEntity
  8
VIEW
  6
Continuous
 62
     7
100
AcDbLine
 10
32.7998962402
 20
125.8500030488
 30
0.0
 11
31.0
 21
125.8500061035
 31
0.0
  0
LINE
  5
445
330
354
100
AcDbEntity
  8
VIEW
  6
Continuous
 62
     7
100
AcDbLine
 10
5.0
 20
125.8500061035
 30
0.0
 11
3.1999816895
 21
125.8500061035
 31
0.0
  0
LINE
  5
446
330
354
100
AcDbEntity
  8
VIEW
  6
Continuous
 62
     7
100
AcDbLine
 10
3.1999816895
 20
130.0
 30
0.0
 11
32.7998962402
 21
130.0000030547
 31
0.0
  0
LINE
  5
447
330
354
100
AcDbEntity
  8
VIEW
  6
Continuous
 62
     7
100
AcDbLine
 10
14.0
 20
28.5
 30
0.0
 11
22.0
 21
28.5
 31
0.0
  0
LINE
  5
448
330
354
100
AcDbEntity
  8
VIEW
  6
Continuous
 62
     7
100
AcDbLine
 10
30.1999816895
 20
107.1035003662
 30
0.0
 11
30.1999816895
 21
106.9000091553
 31
0.0
  0
LINE
  5
449
330
354
100
AcDbEntity
  8
VIEW
  6
Continuous
 62
     7
100
AcDbLine
 10
14.0
 20
106.5
 30
0.0
 11
22.0
 21
106.5
 31
0.0
  0
LINE
  5
44A
330
354
100
AcDbEntity
  8
VIEW
  6
Continuous
 62
     7
100
AcDbLine
 10
21.8999023437
 20
130.0
 30
0.0
 11
21.8999023437
 21
128.8807067871
 31
0.0
  0
LINE
  5
44B
330
354
100
AcDbEntity
  8
VIEW
  6
Continuous
 62
     7
100
AcDbLine
 10
21.0998840332
 20
128.8807067871
 30
0.0
 11
21.0998840332
 21
130.0
 31
0.0
  0
LINE
  5
44C
330
354
100
AcDbEntity
  8
VIEW
  6
Continuous
 62
     7
100
AcDbLine
 10
30.6999816895
 20
107.1035003662
 30
0.0
 11
5.299987793
 21
107.1035003662
 31
0.0
  0
LINE
  5
44D
330
354
100
AcDbEntity
  8
VIEW
  6
Continuous
 62
     7
100
AcDbLine
 10
30.6999816895
 20
107.0
 30
0.0
 11
31.5
 21
107.0
 31
0.0
  0
LINE
  5
44E
330
354
100
AcDbEntity
  8
VIEW
  6
Continuous
 62
     7
100
AcDbLine
 10
4.5
 20
107.0
 30
0.0
 11
5.299987793
 21
107.0
 31
0.0
  0
LINE
  5
44F
330
354
100
AcDbEntity
  8
VIEW
  6
Continuous
 62
     7
100
AcDbLine
 10
4.3999023437
 20
107.6999969482
 30
0.0
 11
4.5
 21
107.6999969482
 31
0.0
  0
LINE
  5
450
330
354
100
AcDbEntity
  8
VIEW
  6
Continuous
 62
     7
100
AcDbLine
 10
4.5
 20
109.3000030518
 30
0.0
 11
4.3999023437
 21
109.3000030518
 31
0.0
  0
LINE
  5
451
330
354
100
AcDbEntity
  8
VIEW
  6
Continuous
 62
     7
100
AcDbLine
 10
31.5
 20
107.6999969482
 30
0.0
 11
31.5998840332
 21
107.6999969482
 31
0.0
  0
LINE
  5
452
330
354
100
AcDbEntity
  8
VIEW
  6
Continuous
 62
     7
100
AcDbLine
 10
31.5998840332
 20
109.3000030518
 30
0.0
 11
31.5
 21
109.3000030518
 31
0.0
  0
LINE
  5
453
330
354
100
AcDbEntity
  8
VIEW
  6
Continuous
 62
     7
100
AcDbLine
 10
5.6692810059
 20
125.8135986328
 30
0.0
 11
4.4692993164
 21
125.8135986328
 31
0.0
  0
LINE
  5
454
330
354
100
AcDbEntity
  8
VIEW
  6
Continuous
 62
     7
100
AcDbLine
 10
4.4692993164
 20
124.2136077881
 30
0.0
 11
5.6692810059
 21
124.2136077881
 31
0.0
  0
LINE
  5
455
330
354
100
AcDbEntity
  8
VIEW
  6
Continuous
 62
     7
100
AcDbLine
 10
30.3306884766
 20
124.2136077881
 30
0.0
 11
31.5307006836
 21
124.2136077881
 31
0.0
  0
LINE
  5
456
330
354
100
AcDbEntity
  8
VIEW
  6
Continuous
 62
     7
100
AcDbLine
 10
31.5307006836
 20
125.8135986328
 30
0.0
 11
30.3306884766
 21
125.8135986328
 31
0.0
  0
LINE
  5
457
330
354
100
AcDbEntity
  8
VIEW
  6
Continuous
 62
     7
100
AcDbLine
 10
4.5
 20
111.1954040527
 30
0.0
 11
4.3999023437
 21
111.0953063965
 31
0.0
  0
LINE
  5
458
330
354
100
AcDbEntity
  8
VIEW
  6
Continuous
 62
     7
100
AcDbLine
 10
4.3999023437
 20
110.295501709
 30
0.0
 11
4.5
 21
110.1954040527
 31
0.0
  0
LINE
  5
459
330
354
100
AcDbEntity
  8
VIEW
  6
Continuous
 62
     7
100
AcDbLine
 10
31.5
 20
110.1954040527
 30
0.0
 11
31.5998840332
 21
110.2953033447
 31
0.0
  0
LINE
  5
45A
330
354
100
AcDbEntity
  8
VIEW
  6
Continuous
 62
     7
100
AcDbLine
 10
31.5998840332
 20
111.0955047607
 30
0.0
 11
31.5
 21
111.1954040527
 31
0.0
  0
LINE
  5
45B
330
354
100
AcDbEntity
  8
VIEW
  6
Continuous
 62
     7
100
AcDbLine
 10
29.5307006836
 20
128.8807067871
 30
0.0
 11
6.4692993164
 21
128.8807067871
 31
0.0
  0
LINE
  5
45C
330
354
100
AcDbEntity
  8
VIEW
  6
Continuous
 62
     7
100
AcDbLine
 10
6.4692993164
 20
129.9049072266
 30
0.0
 11
5.6692810059
 21
129.9049072266
 31
0.0
  0
LINE
  5
45D
330
354
100
AcDbEntity
  8
VIEW
  6
Continuous
 62
     7
100
AcDbLine
 10
30.3306884766
 20
129.9049072266
 30
0.0
 11
29.5307006836
 21
129.9049072266
 31
0.0
  0
LINE
  5
45E
330
354
100
AcDbEntity
  8
VIEW
  6
Continuous
 62
     7
100
AcDbLine
 10
30.6999816895
 20
107.1035003662
 30
0.0
 11
30.6999816895
 21
107.0
 31
0.0
  0
LINE
  5
45F
330
354
100
AcDbEntity
  8
VIEW
  6
Continuous
 62
     7
100
AcDbLine
 10
5.299987793
 20
107.0
 30
0.0
 11
5.299987793
 21
107.1035003662
 31
0.0
  0
LINE
  5
460
330
354
100
AcDbEntity
  8
VIEW
  6
Continuous
 62
     7
100
AcDbLine
 10
5.6692810059
 20
119.9523010254
 30
0.0
 11
4.5
 21
119.9523010254
 31
0.0
  0
LINE
  5
461
330
354
100
AcDbEntity
  8
VIEW
  6
Continuous
 62
     7
100
AcDbLine
 10
5.6692810059
 20
129.9049072266
 30
0.0
 11
5.6692810059
 21
119.9523010254
 31
0.0
  0
LINE
  5
462
330
354
100
AcDbEntity
  8
VIEW
  6
Continuous
 62
     7
100
AcDbLine
 10
30.3306884766
 20
119.9523010254
 30
0.0
 11
30.3306884766
 21
129.9049072266
 31
0.0
  0
LINE
  5
463
330
354
100
AcDbEntity
  8
VIEW
  6
Continuous
 62
     7
100
AcDbLine
 10
31.5
 20
119.9523010254
 30
0.0
 11
30.3306884766
 21
119.9523010254
 31
0.0
  0
LINE
  5
464
330
354
100
AcDbEntity
  8
VIEW
  6
Continuous
 62
     7
100
AcDbLine
 10
31.5
 20
119.9523010254
 30
0.0
 11
31.5
 21
107.0
 31
0.0
  0
LINE
  5
465
330
354
100
AcDbEntity
  8
VIEW
  6
Continuous
 62
     7
100
AcDbLine
 10
4.5
 20
119.9523010254
 30
0.0
 11
4.5
 21
107.0
 31
0.0
  0
LINE
  5
466
330
354
100
AcDbEntity
  8
VIEW
  6
Continuous
 62
     7
100
AcDbLine
 10
6.4692993164
 20
128.7561035156
 30
0.0
 11
6.4692993164
 21
129.8984985352
 31
0.0
  0
LINE
  5
467
330
354
100
AcDbEntity
  8
VIEW
  6
Continuous
 62
     7
100
AcDbLine
 10
29.5307006836
 20
129.8984985352
 30
0.0
 11
29.5307006836
 21
128.7561035156
 31
0.0
  0
LINE
  5
468
330
354
100
AcDbEntity
  8
VIEW
  6
Continuous
 62
     7
100
AcDbLine
 10
4.4692993164
 20
125.0136108398
 30
0.0
 11
4.4692993164
 21
124.2136077881
 31
0.0
  0
LINE
  5
469
330
354
100
AcDbEntity
  8
VIEW
  6
Continuous
 62
     7
100
AcDbLine
 10
4.4692993164
 20
125.8135986328
 30
0.0
 11
4.4692993164
 21
125.0136108398
 31
0.0
  0
LINE
  5
46A
330
354
100
AcDbEntity
  8
VIEW
  6
Continuous
 62
     7
100
AcDbLine
 10
31.5307006836
 20
125.0136108398
 30
0.0
 11
31.5307006836
 21
124.2136077881
 31
0.0
  0
LINE
  5
46B
330
354
100
AcDbEntity
  8
VIEW
  6
Continuous
 62
     7
100
AcDbLine
 10
31.5307006836
 20
125.8135986328
 30
0.0
 11
31.5307006836
 21
125.0136108398
 31
0.0
  0
LINE
  5
46C
330
354
100
AcDbEntity
  8
VIEW
  6
Continuous
 62
     7
100
AcDbLine
 10
25.8999023437
 20
0.25
 30
0.0
 11
25.8999023437
 21
5.0
 31
0.0
  0
LINE
  5
46D
330
354
100
AcDbEntity
  8
VIEW
  6
Continuous
 62
     7
100
AcDbLine
 10
10.0998840332
 20
5.0
 30
0.0
 11
10.0998840332
 21
0.25
 31
0.0
  0
LINE
  5
46E
330
354
100
AcDbEntity
  8
VIEW
  6
Continuous
 62
     7
100
AcDbLine
 10
10.3498840332
 20
0.0
 30
0.0
 11
25.6499023437
 21
0.0
 31
0.0
  0
LINE
  5
46F
330
354
100
AcDbEntity
  8
VIEW
  6
Continuous
 62
     7
100
AcDbLine
 10
19.8695068359
 20
2.0
 30
0.0
 11
21.1998901367
 21
2.0
 31
0.0
  0
LINE
  5
470
330
354
100
AcDbEntity
  8
VIEW
  6
Continuous
 62
     7
100
AcDbLine
 10
21.1998901367
 20
3.2000045776
 30
0.0
 11
21.1998901367
 21
2.0
 31
0.0
  0
LINE
  5
471
330
354
100
AcDbEntity
  8
VIEW
  6
Continuous
 62
     7
100
AcDbLine
 10
14.7998962402
 20
3.2000045776
 30
0.0
 11
21.1998901367
 21
3.2000045776
 31
0.0
  0
LINE
  5
472
330
354
100
AcDbEntity
  8
VIEW
  6
Continuous
 62
     7
100
AcDbLine
 10
14.7998962402
 20
2.0
 30
0.0
 11
14.7998962402
 21
3.2000045776
 31
0.0
  0
LINE
  5
473
330
354
100
AcDbEntity
  8
VIEW
  6
Continuous
 62
     7
100
AcDbLine
 10
14.7998962402
 20
2.0
 30
0.0
 11
16.130279541
 21
2.0
 31
0.0
  0
LINE
  5
474
330
354
100
AcDbEntity
  8
VIEW
  6
Continuous
 62
     7
100
AcDbLine
 10
20.9998779297
 20
2.0
 30
0.0
 11
20.9998779297
 21
3.0
 31
0.0
  0
LINE
  5
475
330
354
100
AcDbEntity
  8
VIEW
  6
Continuous
 62
     7
100
AcDbLine
 10
20.9998779297
 20
3.0
 30
0.0
 11
21.1998901367
 21
3.2000045776
 31
0.0
  0
LINE
  5
476
330
354
100
AcDbEntity
  8
VIEW
  6
Continuous
 62
     7
100
AcDbLine
 10
20.9998779297
 20
3.0
 30
0.0
 11
14.9998779297
 21
3.0
 31
0.0
  0
LINE
  5
477
330
354
100
AcDbEntity
  8
VIEW
  6
Continuous
 62
     7
100
AcDbLine
 10
14.9998779297
 20
3.0
 30
0.0
 11
14.7998962402
 21
3.2000045776
 31
0.0
  0
LINE
  5
478
330
354
100
AcDbEntity
  8
VIEW
  6
Continuous
 62
     7
100
AcDbLine
 10
14.9998779297
 20
3.0
 30
0.0
 11
14.9998779297
 21
2.0
 31
0.0
  0
LINE
  5
479
330
354
100
AcDbEntity
  8
VIEW
  6
Continuous
 62
     7
100
AcDbLine
 10
5.299987793
 20
27.8964996338
 30
0.0
 11
30.6999816895
 21
27.8964996338
 31
0.0
  0
LINE
  5
47A
330
354
100
AcDbEntity
  8
VIEW
  6
Continuous
 62
     7
100
AcDbLine
 10
5.299987793
 20
28.0
 30
0.0
 11
4.5
 21
28.0
 31
0.0
  0
LINE
  5
47B
330
354
100
AcDbEntity
  8
VIEW
  6
Continuous
 62
     7
100
AcDbLine
 10
31.5
 20
28.0
 30
0.0
 11
30.6999816895
 21
28.0
 31
0.0
  0
LINE
  5
47C
330
354
100
AcDbEntity
  8
VIEW
  6
Continuous
 62
     7
100
AcDbLine
 10
31.6000976562
 20
27.3000030518
 30
0.0
 11
31.5
 21
27.3000030518
 31
0.0
  0
LINE
  5
47D
330
354
100
AcDbEntity
  8
VIEW
  6
Continuous
 62
     7
100
AcDbLine
 10
31.5
 20
25.6999969482
 30
0.0
 11
31.6000976562
 21
25.6999969482
 31
0.0
  0
LINE
  5
47E
330
354
100
AcDbEntity
  8
VIEW
  6
Continuous
 62
     7
100
AcDbLine
 10
4.5
 20
27.3000030518
 30
0.0
 11
4.4000854492
 21
27.3000030518
 31
0.0
  0
LINE
  5
47F
330
354
100
AcDbEntity
  8
VIEW
  6
Continuous
 62
     7
100
AcDbLine
 10
4.4000854492
 20
25.6999969482
 30
0.0
 11
4.5
 21
25.6999969482
 31
0.0
  0
LINE
  5
480
330
354
100
AcDbEntity
  8
VIEW
  6
Continuous
 62
     7
100
AcDbLine
 10
30.3306884766
 20
9.1864013672
 30
0.0
 11
31.5307006836
 21
9.1864013672
 31
0.0
  0
LINE
  5
481
330
354
100
AcDbEntity
  8
VIEW
  6
Continuous
 62
     7
100
AcDbLine
 10
31.5307006836
 20
10.7863998413
 30
0.0
 11
30.3306884766
 21
10.7863998413
 31
0.0
  0
LINE
  5
482
330
354
100
AcDbEntity
  8
VIEW
  6
Continuous
 62
     7
100
AcDbLine
 10
5.6692810059
 20
10.7863998413
 30
0.0
 11
4.4692993164
 21
10.7863998413
 31
0.0
  0
LINE
  5
483
330
354
100
AcDbEntity
  8
VIEW
  6
Continuous
 62
     7
100
AcDbLine
 10
4.4692993164
 20
9.1864013672
 30
0.0
 11
5.6692810059
 21
9.1864013672
 31
0.0
  0
LINE
  5
484
330
354
100
AcDbEntity
  8
VIEW
  6
Continuous
 62
     7
100
AcDbLine
 10
31.5
 20
23.8047027588
 30
0.0
 11
31.6000976562
 21
23.904800415
 31
0.0
  0
LINE
  5
485
330
354
100
AcDbEntity
  8
VIEW
  6
Continuous
 62
     7
100
AcDbLine
 10
31.6000976562
 20
24.704498291
 30
0.0
 11
31.5
 21
24.8047027588
 31
0.0
  0
LINE
  5
486
330
354
100
AcDbEntity
  8
VIEW
  6
Continuous
 62
     7
100
AcDbLine
 10
4.5
 20
24.8047027588
 30
0.0
 11
4.4000854492
 21
24.7046966553
 31
0.0
  0
LINE
  5
487
330
354
100
AcDbEntity
  8
VIEW
  6
Continuous
 62
     7
100
AcDbLine
 10
4.4000854492
 20
23.9046020508
 30
0.0
 11
4.5
 21
23.8047027588
 31
0.0
  0
LINE
  5
488
330
354
100
AcDbEntity
  8
VIEW
  6
Continuous
 62
     7
100
AcDbLine
 10
6.4692993164
 20
6.1194000244
 30
0.0
 11
29.5307006836
 21
6.1194000244
 31
0.0
  0
LINE
  5
489
330
354
100
AcDbEntity
  8
VIEW
  6
Continuous
 62
     7
100
AcDbLine
 10
29.5307006836
 20
5.0952072144
 30
0.0
 11
30.3306884766
 21
5.0952072144
 31
0.0
  0
LINE
  5
48A
330
354
100
AcDbEntity
  8
VIEW
  6
Continuous
 62
     7
100
AcDbLine
 10
5.6692810059
 20
5.0952072144
 30
0.0
 11
6.4692993164
 21
5.0952072144
 31
0.0
  0
LINE
  5
48B
330
354
100
AcDbEntity
  8
VIEW
  6
Continuous
 62
     7
100
AcDbLine
 10
5.299987793
 20
27.8964996338
 30
0.0
 11
5.299987793
 21
28.0
 31
0.0
  0
LINE
  5
48C
330
354
100
AcDbEntity
  8
VIEW
  6
Continuous
 62
     7
100
AcDbLine
 10
30.6999816895
 20
28.0
 30
0.0
 11
30.6999816895
 21
27.8964996338
 31
0.0
  0
LINE
  5
48D
330
354
100
AcDbEntity
  8
VIEW
  6
Continuous
 62
     7
100
AcDbLine
 10
30.3306884766
 20
15.047706604
 30
0.0
 11
31.5
 21
15.047706604
 31
0.0
  0
LINE
  5
48E
330
354
100
AcDbEntity
  8
VIEW
  6
Continuous
 62
     7
100
AcDbLine
 10
30.3306884766
 20
5.0952072144
 30
0.0
 11
30.3306884766
 21
15.047706604
 31
0.0
  0
LINE
  5
48F
330
354
100
AcDbEntity
  8
VIEW
  6
Continuous
 62
     7
100
AcDbLine
 10
5.6692810059
 20
15.047706604
 30
0.0
 11
5.6692810059
 21
5.0952072144
 31
0.0
  0
LINE
  5
490
330
354
100
AcDbEntity
  8
VIEW
  6
Continuous
 62
     7
100
AcDbLine
 10
4.5
 20
15.047706604
 30
0.0
 11
5.6692810059
 21
15.047706604
 31
0.0
  0
LINE
  5
491
330
354
100
AcDbEntity
  8
VIEW
  6
Continuous
 62
     7
100
AcDbLine
 10
4.5
 20
15.047706604
 30
0.0
 11
4.5
 21
28.0
 31
0.0
  0
LINE
  5
492
330
354
100
AcDbEntity
  8
VIEW
  6
Continuous
 62
     7
100
AcDbLine
 10
31.5
 20
15.047706604
 30
0.0
 11
31.5
 21
28.0
 31
0.0
  0
LINE
  5
493
330
354
100
AcDbEntity
  8
VIEW
  6
Continuous
 62
     7
100
AcDbLine
 10
29.5307006836
 20
6.2439041138
 30
0.0
 11
29.5307006836
 21
5.1015014648
 31
0.0
  0
LINE
  5
494
330
354
100
AcDbEntity
  8
VIEW
  6
Continuous
 62
     7
100
AcDbLine
 10
6.4692993164
 20
5.1015014648
 30
0.0
 11
6.4692993164
 21
6.2439041138
 31
0.0
  0
LINE
  5
495
330
354
100
AcDbEntity
  8
VIEW
  6
Continuous
 62
     7
100
AcDbLine
 10
31.5307006836
 20
9.9864044189
 30
0.0
 11
31.5307006836
 21
10.7863998413
 31
0.0
  0
LINE
  5
496
330
354
100
AcDbEntity
  8
VIEW
  6
Continuous
 62
     7
100
AcDbLine
 10
31.5307006836
 20
9.1864013672
 30
0.0
 11
31.5307006836
 21
9.9864044189
 31
0.0
  0
LINE
  5
497
330
354
100
AcDbEntity
  8
VIEW
  6
Continuous
 62
     7
100
AcDbLine
 10
4.4692993164
 20
9.9864044189
 30
0.0
 11
4.4692993164
 21
10.7863998413
 31
0.0
  0
LINE
  5
498
330
354
100
AcDbEntity
  8
VIEW
  6
Continuous
 62
     7
100
AcDbLine
 10
4.4692993164
 20
9.1864013672
 30
0.0
 11
4.4692993164
 21
9.9864044189
 31
0.0
  0
ENDBLK
  5
356
330
354
100
AcDbEntity
  8
0
100
AcDbBlockEnd
  0
BLOCK
  5
49C
330
49B
100
AcDbEntity
  8
0
100
AcDbBlockBegin
  2
_OPEN30
 70
     0
 71
     0
 10
0.0
 20
0.0
 30
0.0
  3
_OPEN30
  1

  0
LINE
  5
49E
330
49B
100
AcDbEntity
  8
0
  6
ByBlock
 62
     0
370
    -2
100
AcDbLine
 10
-1.0
 20
0.267949
 30
0.0
 11
0.0
 21
0.0
 31
0.0
  0
LINE
  5
49F
330
49B
100
AcDbEntity
  8
0
  6
ByBlock
 62
     0
370
    -2
100
AcDbLine
 10
0.0
 20
0.0
 30
0.0
 11
-1.0
 21
-0.267949
 31
0.0
  0
LINE
  5
4A0
330
49B
100
AcDbEntity
  8
0
  6
ByBlock
 62
     0
370
    -2
100
AcDbLine
 10
0.0
 20
0.0
 30
0.0
 11
-1.0
 21
0.0
 31
0.0
  0
ENDBLK
  5
49D
330
49B
100
AcDbEntity
  8
0
100
AcDbBlockEnd
  0
BLOCK
  5
4A2
330
4A1
100
AcDbEntity
  8
0
100
AcDbBlockBegin
  2
*D5
 70
     1
 71
     0
 10
0.0
 20
0.0
 30
0.0
  3
*D5
  1

  0
INSERT
  5
4A4
330
4A1
100
AcDbEntity
  8
WORKLAYER
100
AcDbBlockReference
  2
_OPEN30
 10
53.7341012821
 20
168.3822464414
 30
0.1
 41
3.0
 42
3.0
 50
90.0
  0
INSERT
  5
4A5
330
4A1
100
AcDbEntity
  8
WORKLAYER
100
AcDbBlockReference
  2
_OPEN30
 10
53.7341012821
 20
43.3821396299
 30
0.1
 41
3.0
 42
3.0
 50
270.0
  0
LINE
  5
4A6
330
4A1
100
AcDbEntity
  8
WORKLAYER
100
AcDbLine
 10
71.4185602585
 20
168.3822464414
 30
0.0
 11
52.7341012821
 21
168.3822464414
 31
0.0
  0
LINE
  5
4A7
330
4A1
100
AcDbEntity
  8
WORKLAYER
100
AcDbLine
 10
71.4185602585
 20
43.3821396299
 30
0.0
 11
52.7341012821
 21
43.3821396299
 31
0.0
  0
LINE
  5
4A8
330
4A1
100
AcDbEntity
  8
WORKLAYER
100
AcDbLine
 10
53.7341012821
 20
168.3822464414
 30
0.0
 11
53.7341012821
 21
43.3821396299
 31
0.0
  0
MTEXT
  5
4AA
330
4A1
100
AcDbEntity
  8
WORKLAYER
100
AcDbMText
 10
49.2223644257
 20
98.2729286469
 30
0.0
 40
3.5
 41
0.0
 71
     1
 72
     1
  1
125
  7
SLDTEXTSTYLE0
 11
-7.044195017643634E-15
 21
1.0
 31
0.0
 73
     1
 44
1.0
  0
ENDBLK
  5
4A3
330
4A1
100
AcDbEntity
  8
0
100
AcDbBlockEnd
  0
BLOCK
  5
4AE
330
4AD
100
AcDbEntity
  8
0
100
AcDbBlockBegin
  2
*D6
 70
     1
 71
     0
 10
0.0
 20
0.0
 30
0.0
  3
*D6
  1

  0
INSERT
  5
4B0
330
4AD
100
AcDbEntity
  8
WORKLAYER
100
AcDbBlockReference
  2
_OPEN30
 10
53.7341012821
 20
43.3821396299
 30
0.1
 41
3.0
 42
3.0
 50
270.0
  0
INSERT
  5
4B1
330
4AD
100
AcDbEntity
  8
WORKLAYER
100
AcDbBlockReference
  2
_OPEN30
 10
53.7341012821
 20
38.3820404477
 30
0.1
 41
3.0
 42
3.0
 50
90.0
  0
LINE
  5
4B2
330
4AD
100
AcDbEntity
  8
WORKLAYER
100
AcDbLine
 10
71.4185602585
 20
43.3821396299
 30
0.0
 11
52.7341012821
 21
43.3821396299
 31
0.0
  0
LINE
  5
4B3
330
4AD
100
AcDbEntity
  8
WORKLAYER
100
AcDbLine
 10
71.6685602585
 20
38.3820404477
 30
0.0
 11
52.7341012821
 21
38.3820404477
 31
0.0
  0
LINE
  5
4B4
330
4AD
100
AcDbEntity
  8
WORKLAYER
100
AcDbLine
 10
53.7341012821
 20
43.3821396299
 30
0.0
 11
53.7341012821
 21
47.3821396299
 31
0.0
  0
LINE
  5
4B5
330
4AD
100
AcDbEntity
  8
WORKLAYER
100
AcDbLine
 10
53.7341012821
 20
43.3821396299
 30
0.0
 11
53.7341012821
 21
38.3820404477
 31
0.0
  0
LINE
  5
4B6
330
4AD
100
AcDbEntity
  8
WORKLAYER
100
AcDbLine
 10
53.7341012821
 20
38.3820404477
 30
0.0
 11
53.7341012821
 21
30.5107419332
 31
0.0
  0
MTEXT
  5
4B7
330
4AD
100
AcDbEntity
  8
WORKLAYER
100
AcDbMText
 10
49.2223644257
 20
32.0982419332
 30
0.0
 40
3.5
 41
0.0
 71
     1
 72
     1
  1
5
  7
SLDTEXTSTYLE0
 11
-7.044195017643634E-15
 21
1.0
 31
0.0
 73
     1
 44
1.0
  0
ENDBLK
  5
4AF
330
4AD
100
AcDbEntity
  8
0
100
AcDbBlockEnd
  0
BLOCK
  5
4BB
330
4BA
100
AcDbEntity
  8
0
100
AcDbBlockBegin
  2
*D7
 70
     1
 71
     0
 10
0.0
 20
0.0
 30
0.0
  3
*D7
  1

  0
INSERT
  5
4BD
330
4BA
100
AcDbEntity
  8
WORKLAYER
100
AcDbBlockReference
  2
_OPEN30
 10
72.4185602585
 20
186.2977423643
 30
0.1
 41
3.0
 42
3.0
 50
180.0
  0
INSERT
  5
4BE
330
4BA
100
AcDbEntity
  8
WORKLAYER
100
AcDbBlockReference
  2
_OPEN30
 10
181.618743352
 20
186.2977423643
 30
0.1
 41
3.0
 42
3.0
 50
0.0
  0
LINE
  5
4BF
330
4BA
100
AcDbEntity
  8
WORKLAYER
100
AcDbLine
 10
72.4185602585
 20
169.3822464414
 30
0.0
 11
72.4185602585
 21
187.2977423643
 31
0.0
  0
LINE
  5
4C0
330
4BA
100
AcDbEntity
  8
WORKLAYER
100
AcDbLine
 10
181.618743352
 20
145.1820358701
 30
0.0
 11
181.618743352
 21
187.2977423643
 31
0.0
  0
LINE
  5
4C1
330
4BA
100
AcDbEntity
  8
WORKLAYER
100
AcDbLine
 10
72.4185602585
 20
186.2977423643
 30
0.0
 11
181.618743352
 21
186.2977423643
 31
0.0
  0
MTEXT
  5
4C2
330
4BA
100
AcDbEntity
  8
WORKLAYER
100
AcDbMText
 10
118.5983143486
 20
190.8094792207
 30
0.0
 40
3.5
 41
0.0
 71
     1
 72
     1
  1
109.2
  7
SLDTEXTSTYLE0
 73
     1
 44
1.0
  0
ENDBLK
  5
4BC
330
4BA
100
AcDbEntity
  8
0
100
AcDbBlockEnd
  0
BLOCK
  5
4C5
330
4C4
100
AcDbEntity
  8
0
100
AcDbBlockBegin
  2
*D8
 70
     1
 71
     0
 10
0.0
 20
0.0
 30
0.0
  3
*D8
  1

  0
INSERT
  5
4C7
330
4C4
100
AcDbEntity
  8
WORKLAYER
100
AcDbBlockReference
  2
_OPEN30
 10
72.4185602585
 20
201.1120330783
 30
0.1
 41
3.0
 42
3.0
 50
180.0
  0
INSERT
  5
4C8
330
4C4
100
AcDbEntity
  8
WORKLAYER
100
AcDbBlockReference
  2
_OPEN30
 10
190.6186640183
 20
201.1120330783
 30
0.1
 41
3.0
 42
3.0
 50
0.0
  0
LINE
  5
4C9
330
4C4
100
AcDbEntity
  8
WORKLAYER
100
AcDbLine
 10
72.4185602585
 20
169.3822464414
 30
0.0
 11
72.4185602585
 21
202.1120330783
 31
0.0
  0
LINE
  5
4CA
330
4C4
100
AcDbEntity
  8
WORKLAYER
100
AcDbLine
 10
190.6186640183
 20
113.1422409482
 30
0.0
 11
190.6186640183
 21
202.1120330783
 31
0.0
  0
LINE
  5
4CB
330
4C4
100
AcDbEntity
  8
WORKLAYER
100
AcDbLine
 10
72.4185602585
 20
201.1120330783
 30
0.0
 11
190.6186640183
 21
201.1120330783
 31
0.0
  0
MTEXT
  5
4CC
330
4C4
100
AcDbEntity
  8
WORKLAYER
100
AcDbMText
 10
122.4468542279
 20
205.6237699346
 30
0.0
 40
3.5
 41
0.0
 71
     1
 72
     1
  1
118.2
  7
SLDTEXTSTYLE0
 73
     1
 44
1.0
  0
ENDBLK
  5
4C6
330
4C4
100
AcDbEntity
  8
0
100
AcDbBlockEnd
  0
BLOCK
  5
4CF
330
4CE
100
AcDbEntity
  8
0
100
AcDbBlockBegin
  2
*D9
 70
     1
 71
     0
 10
0.0
 20
0.0
 30
0.0
  3
*D9
  1

  0
INSERT
  5
4D1
330
4CE
100
AcDbEntity
  8
WORKLAYER
100
AcDbBlockReference
  2
_OPEN30
 10
211.6415824119
 20
144.8820354176
 30
0.1
 41
3.0
 42
3.0
 50
89.9999991784
  0
INSERT
  5
4D2
330
4CE
100
AcDbEntity
  8
WORKLAYER
100
AcDbBlockReference
  2
_OPEN30
 10
211.6415812933
 20
66.8821361494
 30
0.1
 41
3.0
 42
3.0
 50
269.9999991784
  0
LINE
  5
4D3
330
4CE
100
AcDbEntity
  8
WORKLAYER
100
AcDbLine
 10
181.918743364
 20
144.8820358438
 30
0.0
 11
212.6415824119
 21
144.8820354033
 31
0.0
  0
LINE
  5
4D4
330
4CE
100
AcDbEntity
  8
WORKLAYER
100
AcDbLine
 10
181.9187422454
 20
66.8821365757
 30
0.0
 11
212.6415812933
 21
66.8821361351
 31
0.0
  0
LINE
  5
4D5
330
4CE
100
AcDbEntity
  8
WORKLAYER
100
AcDbLine
 10
211.6415824119
 20
144.8820354176
 30
0.0
 11
211.6415812933
 21
66.8821361494
 31
0.0
  0
MTEXT
  5
4D6
330
4CE
100
AcDbEntity
  8
WORKLAYER
100
AcDbMText
 10
207.1298449584
 20
103.2460319405
 30
0.0
 40
3.5
 41
0.0
 71
     1
 72
     1
  1
78
  7
SLDTEXTSTYLE0
 11
1.434011049367488E-8
 21
0.9999999999999999
 31
0.0
 73
     1
 44
1.0
  0
ENDBLK
  5
4D0
330
4CE
100
AcDbEntity
  8
0
100
AcDbBlockEnd
  0
BLOCK
  5
4D9
330
4D8
100
AcDbEntity
  8
0
100
AcDbBlockBegin
  2
*D10
 70
     1
 71
     0
 10
0.0
 20
0.0
 30
0.0
  3
*D10
  1

  0
INSERT
  5
4DB
330
4D8
100
AcDbEntity
  8
WORKLAYER
100
AcDbBlockReference
  2
_OPEN30
 10
267.1327463532
 20
181.0891403312
 30
0.1
 41
3.0
 42
3.0
 50
180.0
  0
INSERT
  5
4DC
330
4D8
100
AcDbEntity
  8
WORKLAYER
100
AcDbBlockReference
  2
_OPEN30
 10
297.1326593826
 20
181.0891403312
 30
0.1
 41
3.0
 42
3.0
 50
0.0
  0
LINE
  5
4DD
330
4D8
100
AcDbEntity
  8
WORKLAYER
100
AcDbLine
 10
267.1327463532
 20
169.1821426816
 30
0.0
 11
267.1327463532
 21
182.0891403312
 31
0.0
  0
LINE
  5
4DE
330
4D8
100
AcDbEntity
  8
WORKLAYER
100
AcDbLine
 10
297.1326593826
 20
169.1821426816
 30
0.0
 11
297.1326593826
 21
182.0891403312
 31
0.0
  0
LINE
  5
4DF
330
4D8
100
AcDbEntity
  8
WORKLAYER
100
AcDbLine
 10
267.1327463532
 20
181.0891403312
 30
0.0
 11
297.1326593826
 21
181.0891403312
 31
0.0
  0
MTEXT
  5
4E0
330
4D8
100
AcDbEntity
  8
WORKLAYER
100
AcDbMText
 10
280.6266265213
 20
185.6008771875
 30
0.0
 40
3.5
 41
0.0
 71
     1
 72
     1
  1
30
  7
SLDTEXTSTYLE0
 73
     1
 44
1.0
  0
ENDBLK
  5
4DA
330
4D8
100
AcDbEntity
  8
0
100
AcDbBlockEnd
  0
BLOCK
  5
4E3
330
4E2
100
AcDbEntity
  8
0
100
AcDbBlockBegin
  2
*D11
 70
     1
 71
     0
 10
0.0
 20
0.0
 30
0.0
  3
*D11
  1

  0
INSERT
  5
4E5
330
4E2
100
AcDbEntity
  8
WORKLAYER
100
AcDbBlockReference
  2
_OPEN30
 10
267.1327463532
 20
181.0891403312
 30
0.1
 41
3.0
 42
3.0
 50
180.0
  0
INSERT
  5
4E6
330
4E2
100
AcDbEntity
  8
WORKLAYER
100
AcDbBlockReference
  2
_OPEN30
 10
264.1327631394
 20
181.0891403312
 30
0.1
 41
3.0
 42
3.0
 50
0.0
  0
LINE
  5
4E7
330
4E2
100
AcDbEntity
  8
WORKLAYER
100
AcDbLine
 10
267.1327463532
 20
169.1821426816
 30
0.0
 11
267.1327463532
 21
182.0891403312
 31
0.0
  0
LINE
  5
4E8
330
4E2
100
AcDbEntity
  8
WORKLAYER
100
AcDbLine
 10
264.1327631394
 20
162.7820419736
 30
0.0
 11
264.1327631394
 21
182.0891403312
 31
0.0
  0
LINE
  5
4E9
330
4E2
100
AcDbEntity
  8
WORKLAYER
100
AcDbLine
 10
267.1327463532
 20
181.0891403312
 30
0.0
 11
271.1327463532
 21
181.0891403312
 31
0.0
  0
LINE
  5
4EA
330
4E2
100
AcDbEntity
  8
WORKLAYER
100
AcDbLine
 10
267.1327463532
 20
181.0891403312
 30
0.0
 11
264.1327631394
 21
181.0891403312
 31
0.0
  0
LINE
  5
4EB
330
4E2
100
AcDbEntity
  8
WORKLAYER
100
AcDbLine
 10
264.1327631394
 20
181.0891403312
 30
0.0
 11
255.7307348773
 21
181.0891403312
 31
0.0
  0
MTEXT
  5
4EC
330
4E2
100
AcDbEntity
  8
WORKLAYER
100
AcDbMText
 10
257.3182348773
 20
185.6008771875
 30
0.0
 40
3.5
 41
0.0
 71
     1
 72
     1
  1
3
  7
SLDTEXTSTYLE0
 73
     1
 44
1.0
  0
ENDBLK
  5
4E4
330
4E2
100
AcDbEntity
  8
0
100
AcDbBlockEnd
  0
ENDSEC
  0
SECTION
  2
ENTITIES
  0
DIMENSION
  5
499
330
1F
100
AcDbEntity
  8
WORKLAYER
100
AcDbDimension
  2
*D5
 10
53.7341012821
 20
43.3821396299
 30
0.0
 11
53.7341012821
 21
101.3275449565
 31
0.0
 70
   160
 71
     2
 42
-1.0
  3
SLDDIMSTYLE0
100
AcDbAlignedDimension
 13
72.4185602585
 23
168.3822464414
 33
0.0
 14
72.4185602585
 24
43.3821396299
 34
0.0
 50
90.0
100
AcDbRotatedDimension
  0
DIMENSION
  5
4AB
330
1F
100
AcDbEntity
  8
WORKLAYER
100
AcDbDimension
  2
*D6
 10
53.7341012821
 20
38.3820404477
 30
0.0
 11
53.7341012821
 21
33.1164473697
 31
0.0
 70
   160
 71
     2
 42
-1.0
  3
SLDDIMSTYLE1
100
AcDbAlignedDimension
 13
72.4185602585
 23
43.3821396299
 33
0.0
 14
72.6685602585
 24
38.3820404477
 34
0.0
 50
90.0
100
AcDbRotatedDimension
  0
DIMENSION
  5
4B8
330
1F
100
AcDbEntity
  8
WORKLAYER
100
AcDbDimension
  2
*D7
 10
181.618743352
 20
186.2977423643
 30
0.0
 11
123.0840862121
 21
186.2977423643
 31
0.0
 70
   160
 71
     2
 42
-1.0
  3
SLDDIMSTYLE2
100
AcDbAlignedDimension
 13
72.4185602585
 23
168.3822464414
 33
0.0
 14
181.618743352
 24
144.1820358701
 34
0.0
100
AcDbRotatedDimension
  0
DIMENSION
  5
4C3
330
1F
100
AcDbEntity
  8
WORKLAYER
100
AcDbDimension
  2
*D8
 10
190.6186640183
 20
201.1120330783
 30
0.0
 11
126.9326260915
 21
201.1120330783
 31
0.0
 70
   160
 71
     2
 42
-1.0
  3
SLDDIMSTYLE2
100
AcDbAlignedDimension
 13
72.4185602585
 23
168.3822464414
 33
0.0
 14
190.6186640183
 24
112.1422409482
 34
0.0
100
AcDbRotatedDimension
  0
DIMENSION
  5
4CD
330
1F
100
AcDbEntity
  8
WORKLAYER
100
AcDbDimension
  2
*D9
 10
211.6415812933
 20
66.8821361494
 30
0.0
 11
211.641581844
 21
105.2824427488
 31
0.0
 70
   160
 71
     2
 42
-1.0
  3
SLDDIMSTYLE0
100
AcDbAlignedDimension
 13
180.918743364
 23
144.8820358582
 33
0.0
 14
180.9187422454
 24
66.88213659
 34
0.0
 50
89.9999991784
100
AcDbRotatedDimension
  0
DIMENSION
  5
4D7
330
1F
100
AcDbEntity
  8
WORKLAYER
100
AcDbDimension
  2
*D10
 10
297.1326593826
 20
181.0891403312
 30
0.0
 11
282.6630373944
 21
181.0891403312
 31
0.0
 70
   160
 71
     2
 42
-1.0
  3
SLDDIMSTYLE0
100
AcDbAlignedDimension
 13
267.1327463532
 23
168.1821426816
 33
0.0
 14
297.1326593826
 24
168.1821426816
 34
0.0
100
AcDbRotatedDimension
  0
DIMENSION
  5
4E1
330
1F
100
AcDbEntity
  8
WORKLAYER
100
AcDbDimension
  2
*D11
 10
264.1327631394
 20
181.0891403312
 30
0.0
 11
258.3364403138
 21
181.0891403312
 31
0.0
 70
   160
 71
     2
 42
-1.0
  3
SLDDIMSTYLE1
100
AcDbAlignedDimension
 13
267.1327463532
 23
168.1821426816
 33
0.0
 14
264.1327631394
 24
161.7820419736
 34
0.0
100
AcDbRotatedDimension
  0
MTEXT
  5
4ED
330
1F
100
AcDbEntity
  8
WORKLAYER
100
AcDbMText
 10
301.0195696485
 20
22.8098513915
 30
0.0
 40
8.0
 41
0.0
 71
     1
 72
     1
  1
RKC INSTRUMENT INC.
  7
SLDTEXTSTYLE0
 73
     1
 44
1.0
  0
MTEXT
  5
4EE
330
1F
100
AcDbEntity
  8
WORKLAYER
100
AcDbMText
 10
301.0195696485
 20
32.8811139351
 30
0.0
 40
8.0
 41
0.0
 71
     1
 72
     1
  1
MODEL:COM-JC
  7
SLDTEXTSTYLE0
 73
     1
 44
1.0
  0
INSERT
  5
4EF
330
1F
100
AcDbEntity
  8
0
  6
Continuous
 62
     7
100
AcDbBlockReference
  2
ﾌﾞﾛｯｸ96
 10
72.4185587311
 20
233.3383316465
 30
0.0
  0
INSERT
  5
4F0
330
1F
100
AcDbEntity
  8
0
  6
Continuous
 62
     7
100
AcDbBlockReference
  2
ﾌﾞﾛｯｸ97
 10
72.4185602585
 20
38.3820404477
 30
0.0
  0
INSERT
  5
4F1
330
1F
100
AcDbEntity
  8
0
  6
Continuous
 62
     7
100
AcDbBlockReference
  2
ﾌﾞﾛｯｸ98
 10
264.1327631394
 20
38.3821396299
 30
0.0
  0
ENDSEC
  0
SECTION
  2
OBJECTS
  0
DICTIONARY
  5
C
330
0
100
AcDbDictionary
281
     1
  3
ACAD_GROUP
350
D
  3
ACAD_LAYOUT
350
1A
  3
ACAD_MLINESTYLE
350
17
  3
ACAD_PLOTSETTINGS
350
19
  3
ACAD_PLOTSTYLENAME
350
E
  3
ACAD_TABLESTYLE
350
4F2
  3
ACAD_VISUALSTYLE
350
2A
  3
AcDbVariableDictionary
350
4F3
  0
DICTIONARY
  5
D
102
{ACAD_REACTORS
330
C
102
}
330
C
100
AcDbDictionary
281
     1
  0
DICTIONARY
  5
1A
102
{ACAD_REACTORS
330
C
102
}
330
C
100
AcDbDictionary
281
     1
  3
Layout1
350
1E
  3
Layout2
350
26
  3
Model
350
22
  0
DICTIONARY
  5
17
102
{ACAD_REACTORS
330
C
102
}
330
C
100
AcDbDictionary
281
     1
  3
Standard
350
18
  0
DICTIONARY
  5
19
102
{ACAD_REACTORS
330
C
102
}
330
C
100
AcDbDictionary
281
     1
  0
ACDBDICTIONARYWDFLT
  5
E
102
{ACAD_REACTORS
330
C
102
}
330
C
100
AcDbDictionary
281
     1
  3
Normal
350
F
100
AcDbDictionaryWithDefault
340
F
  0
DICTIONARY
  5
4F2
102
{ACAD_REACTORS
330
C
102
}
330
C
100
AcDbDictionary
281
     1
  0
DICTIONARY
  5
2A
102
{ACAD_REACTORS
330
C
102
}
330
C
100
AcDbDictionary
281
     1
  3
2dWireframe
350
2F
  3
3D Hidden
350
31
  3
3dWireframe
350
30
  3
Basic
350
32
  3
Brighten
350
36
  3
ColorChange
350
3A
  3
Conceptual
350
34
  3
Dim
350
35
  3
Facepattern
350
39
  3
Flat
350
2B
  3
FlatWithEdges
350
2C
  3
Gouraud
350
2D
  3
GouraudWithEdges
350
2E
  3
Linepattern
350
38
  3
Realistic
350
33
  3
Thicken
350
37
  0
DICTIONARY
  5
4F3
102
{ACAD_REACTORS
330
C
102
}
330
C
100
AcDbDictionary
281
     1
  3
PSOLHEIGHT
350
4F5
  3
PSOLWIDTH
350
4F4
  0
LAYOUT
  5
1E
102
{ACAD_REACTORS
330
1A
102
}
330
1A
100
AcDbPlotSettings
  1

  2
none_device
  4

  6

 40
0.0
 41
0.0
 42
0.0
 43
0.0
 44
0.0
 45
0.0
 46
0.0
 47
0.0
 48
0.0
 49
0.0
140
0.0
141
0.0
142
1.0
143
1.0
 70
   688
 72
     0
 73
     0
 74
     5
  7

 75
    16
147
1.0
148
0.0
149
0.0
100
AcDbLayout
  1
Layout1
 70
     1
 71
     1
 10
0.0
 20
0.0
 11
420.0
 21
297.0
 12
0.0
 22
0.0
 32
0.0
 14
1.0000000000E+20
 24
1.0000000000E+20
 34
1.0000000000E+20
 15
-1.0000000000E+20
 25
-1.0000000000E+20
 35
-1.0000000000E+20
146
0.0
 13
0.0
 23
0.0
 33
0.0
 16
1.0
 26
0.0
 36
0.0
 17
0.0
 27
1.0
 37
0.0
 76
     0
330
1B
  0
LAYOUT
  5
26
102
{ACAD_REACTORS
330
1A
102
}
330
1A
100
AcDbPlotSettings
  1

  2
none_device
  4

  6

 40
0.0
 41
0.0
 42
0.0
 43
0.0
 44
0.0
 45
0.0
 46
0.0
 47
0.0
 48
0.0
 49
0.0
140
0.0
141
0.0
142
1.0
143
1.0
 70
   688
 72
     0
 73
     0
 74
     5
  7

 75
    16
147
1.0
148
0.0
149
0.0
100
AcDbLayout
  1
Layout2
 70
     1
 71
     2
 10
0.0
 20
0.0
 11
0.0
 21
0.0
 12
0.0
 22
0.0
 32
0.0
 14
0.0
 24
0.0
 34
0.0
 15
0.0
 25
0.0
 35
0.0
146
0.0
 13
0.0
 23
0.0
 33
0.0
 16
1.0
 26
0.0
 36
0.0
 17
0.0
 27
1.0
 37
0.0
 76
     0
330
23
  0
LAYOUT
  5
22
102
{ACAD_REACTORS
330
1A
102
}
330
1A
100
AcDbPlotSettings
  1

  2
none_device
  4

  6

 40
0.0
 41
0.0
 42
0.0
 43
0.0
 44
0.0
 45
0.0
 46
0.0
 47
0.0
 48
0.0
 49
0.0
140
0.0
141
0.0
142
1.0
143
1.0
 70
  1712
 72
     0
 73
     0
 74
     0
  7

 75
     0
147
1.0
148
0.0
149
0.0
100
AcDbLayout
  1
Model
 70
     1
 71
     0
 10
0.0
 20
0.0
 11
420.0
 21
297.0
 12
0.0
 22
0.0
 32
0.0
 14
0.0
 24
0.0
 34
0.0
 15
420.0
 25
297.0
 35
0.0
146
0.0
 13
0.0
 23
0.0
 33
0.0
 16
1.0
 26
0.0
 36
0.0
 17
0.0
 27
1.0
 37
0.0
 76
     0
330
1F
331
29
  0
MLINESTYLE
  5
18
102
{ACAD_REACTORS
330
17
102
}
330
17
100
AcDbMlineStyle
  2
Standard
 70
     0
  3

 62
   256
 51
90.0
 52
90.0
 71
     2
 49
0.5
 62
   256
  6
BYLAYER
 49
-0.5
 62
   256
  6
BYLAYER
  0
ACDBPLACEHOLDER
  5
F
102
{ACAD_REACTORS
330
E
102
}
330
E
  0
VISUALSTYLE
  5
2F
102
{ACAD_REACTORS
330
2A
102
}
330
2A
100
AcDbVisualStyle
  2
2dWireframe
 70
     4
 71
     0
 72
     2
 73
     0
 90
        0
 40
-0.6
 41
-30.0
 62
     5
 63
     7
 74
     1
 91
        4
 64
     7
 65
   257
 75
     1
175
     1
 42
1.0
 92
        0
 66
   257
 43
1.0
 76
     1
 77
     6
 78
     2
 67
     7
 79
     5
170
     0
171
     0
290
     0
174
     0
 93
        1
 44
0.0
173
     0
291
     0
 45
0.0
1001
ACAD
1000
AcDbSavedByObjectVersion
1070
     0
  0
VISUALSTYLE
  5
31
102
{ACAD_REACTORS
330
2A
102
}
330
2A
100
AcDbVisualStyle
  2
3D Hidden
 70
     6
 71
     1
 72
     2
 73
     2
 90
        0
 40
-0.6
 41
-30.0
 62
     5
 63
     7
 74
     2
 91
        2
 64
     7
 65
   257
 75
     2
175
     1
 42
40.0
 92
        0
 66
   257
 43
1.0
 76
     1
 77
     6
 78
     2
 67
     7
 79
     3
170
     0
171
     0
290
     0
174
     0
 93
        1
 44
0.0
173
     0
291
     0
 45
0.0
1001
ACAD
1000
AcDbSavedByObjectVersion
1070
     0
  0
VISUALSTYLE
  5
30
102
{ACAD_REACTORS
330
2A
102
}
330
2A
100
AcDbVisualStyle
  2
3dWireframe
 70
     5
 71
     0
 72
     2
 73
     0
 90
        0
 40
-0.6
 41
-30.0
 62
     5
 63
     7
 74
     1
 91
        4
 64
     7
 65
   257
 75
     1
175
     1
 42
1.0
 92
        0
 66
   257
 43
1.0
 76
     1
 77
     6
 78
     2
 67
     7
 79
     5
170
     0
171
     0
290
     0
174
     0
 93
        1
 44
0.0
173
     0
291
     0
 45
0.0
1001
ACAD
1000
AcDbSavedByObjectVersion
1070
     0
  0
VISUALSTYLE
  5
32
102
{ACAD_REACTORS
330
2A
102
}
330
2A
100
AcDbVisualStyle
  2
Basic
 70
     7
 71
     1
 72
     0
 73
     1
 90
        0
 40
-0.6
 41
-30.0
 62
     5
 63
     7
 74
     0
 91
        4
 64
     7
 65
   257
 75
     1
175
     1
 42
1.0
 92
        8
 66
     7
 43
1.0
 76
     1
 77
     6
 78
     2
 67
     7
 79
     5
170
     0
171
     0
290
     0
174
     0
 93
        1
 44
0.0
173
     0
291
     1
 45
0.0
1001
ACAD
1000
AcDbSavedByObjectVersion
1070
     0
  0
VISUALSTYLE
  5
36
102
{ACAD_REACTORS
330
2A
102
}
330
2A
100
AcDbVisualStyle
  2
Brighten
 70
    12
 71
     2
 72
     2
 73
     0
 90
        0
 40
-0.6
 41
-30.0
 62
     5
 63
     7
 74
     1
 91
        4
 64
     7
 65
   257
 75
     1
175
     1
 42
1.0
 92
        8
 66
     7
 43
1.0
 76
     1
 77
     6
 78
     2
 67
     7
 79
     5
170
     0
171
     0
290
     0
174
     0
 93
        1
 44
50.0
173
     0
291
     1
 45
0.0
1001
ACAD
1000
AcDbSavedByObjectVersion
1070
     0
  0
VISUALSTYLE
  5
3A
102
{ACAD_REACTORS
330
2A
102
}
330
2A
100
AcDbVisualStyle
  2
ColorChange
 70
    16
 71
     2
 72
     2
 73
     3
 90
        0
 40
-0.6
 41
-30.0
 62
     5
 63
     8
 74
     1
 91
        4
 64
     7
 65
   257
 75
     1
175
     1
 42
1.0
 92
        8
 66
     8
 43
1.0
 76
     1
 77
     6
 78
     2
 67
     7
 79
     5
170
     0
171
     0
290
     0
174
     0
 93
        1
 44
0.0
173
     0
291
     1
 45
0.0
1001
ACAD
1000
AcDbSavedByObjectVersion
1070
     0
  0
VISUALSTYLE
  5
34
102
{ACAD_REACTORS
330
2A
102
}
330
2A
100
AcDbVisualStyle
  2
Conceptual
 70
     9
 71
     3
 72
     2
 73
     0
 90
        0
 40
-0.6
 41
-30.0
 62
     5
 63
     7
 74
     2
 91
        2
 64
     7
 65
   257
 75
     1
175
     1
 42
40.0
 92
        8
 66
     7
 43
1.0
 76
     1
 77
     6
 78
     2
 67
     7
 79
     3
170
     0
171
     0
290
     0
174
     0
 93
        1
 44
0.0
173
     0
291
     0
 45
0.0
1001
ACAD
1000
AcDbSavedByObjectVersion
1070
     0
  0
VISUALSTYLE
  5
35
102
{ACAD_REACTORS
330
2A
102
}
330
2A
100
AcDbVisualStyle
  2
Dim
 70
    11
 71
     2
 72
     2
 73
     0
 90
        0
 40
-0.6
 41
-30.0
 62
     5
 63
     7
 74
     1
 91
        4
 64
     7
 65
   257
 75
     1
175
     1
 42
1.0
 92
        8
 66
     7
 43
1.0
 76
     1
 77
     6
 78
     2
 67
     7
 79
     5
170
     0
171
     0
290
     0
174
     0
 93
        1
 44
-50.0
173
     0
291
     1
 45
0.0
1001
ACAD
1000
AcDbSavedByObjectVersion
1070
     0
  0
VISUALSTYLE
  5
39
102
{ACAD_REACTORS
330
2A
102
}
330
2A
100
AcDbVisualStyle
  2
Facepattern
 70
    15
 71
     2
 72
     2
 73
     0
 90
        0
 40
-0.6
 41
-30.0
 62
     5
 63
     7
 74
     1
 91
        4
 64
     7
 65
   257
 75
     1
175
     1
 42
1.0
 92
        8
 66
     7
 43
1.0
 76
     1
 77
     6
 78
     2
 67
     7
 79
     5
170
     0
171
     0
290
     0
174
     0
 93
        1
 44
0.0
173
     0
291
     1
 45
0.0
1001
ACAD
1000
AcDbSavedByObjectVersion
1070
     0
  0
VISUALSTYLE
  5
2B
102
{ACAD_REACTORS
330
2A
102
}
330
2A
100
AcDbVisualStyle
  2
Flat
 70
     0
 71
     2
 72
     1
 73
     1
 90
        2
 40
-0.6
 41
30.0
 62
     5
 63
     7
 74
     0
 91
        4
 64
     7
 65
   257
 75
     1
175
     1
 42
1.0
 92
        8
 66
     7
 43
1.0
 76
     1
 77
     6
 78
     2
 67
     7
 79
     5
170
     0
171
     0
290
     0
174
     0
 93
       13
 44
0.0
173
     0
291
     1
 45
0.0
1001
ACAD
1000
AcDbSavedByObjectVersion
1070
     0
  0
VISUALSTYLE
  5
2C
102
{ACAD_REACTORS
330
2A
102
}
330
2A
100
AcDbVisualStyle
  2
FlatWithEdges
 70
     1
 71
     2
 72
     1
 73
     1
 90
        2
 40
-0.6
 41
30.0
 62
     5
 63
     7
 74
     1
 91
        4
 64
     7
 65
   257
 75
     1
175
     1
 42
1.0
 92
        0
 66
   257
 43
1.0
 76
     1
 77
     6
 78
     2
 67
     7
 79
     5
170
     0
171
     0
290
     0
174
     0
 93
       13
 44
0.0
173
     0
291
     1
 45
0.0
1001
ACAD
1000
AcDbSavedByObjectVersion
1070
     0
  0
VISUALSTYLE
  5
2D
102
{ACAD_REACTORS
330
2A
102
}
330
2A
100
AcDbVisualStyle
  2
Gouraud
 70
     2
 71
     2
 72
     2
 73
     1
 90
        2
 40
-0.6
 41
30.0
 62
     5
 63
     7
 74
     0
 91
        4
 64
     7
 65
   257
 75
     1
175
     1
 42
1.0
 92
        0
 66
     7
 43
1.0
 76
     1
 77
     6
 78
     2
 67
     7
 79
     5
170
     0
171
     0
290
     0
174
     0
 93
       13
 44
0.0
173
     0
291
     1
 45
0.0
1001
ACAD
1000
AcDbSavedByObjectVersion
1070
     0
  0
VISUALSTYLE
  5
2E
102
{ACAD_REACTORS
330
2A
102
}
330
2A
100
AcDbVisualStyle
  2
GouraudWithEdges
 70
     3
 71
     2
 72
     2
 73
     1
 90
        2
 40
-0.6
 41
30.0
 62
     5
 63
     7
 74
     1
 91
        4
 64
     7
 65
   257
 75
     1
175
     1
 42
1.0
 92
        0
 66
   257
 43
1.0
 76
     1
 77
     6
 78
     2
 67
     7
 79
     5
170
     0
171
     0
290
     0
174
     0
 93
       13
 44
0.0
173
     0
291
     1
 45
0.0
1001
ACAD
1000
AcDbSavedByObjectVersion
1070
     0
  0
VISUALSTYLE
  5
38
102
{ACAD_REACTORS
330
2A
102
}
330
2A
100
AcDbVisualStyle
  2
Linepattern
 70
    14
 71
     2
 72
     2
 73
     0
 90
        0
 40
-0.6
 41
-30.0
 62
     5
 63
     7
 74
     1
 91
        4
 64
     7
 65
   257
 75
     7
175
     7
 42
1.0
 92
        8
 66
     7
 43
1.0
 76
     1
 77
     6
 78
     2
 67
     7
 79
     5
170
     0
171
     0
290
     0
174
     0
 93
        1
 44
0.0
173
     0
291
     1
 45
0.0
1001
ACAD
1000
AcDbSavedByObjectVersion
1070
     0
  0
VISUALSTYLE
  5
33
102
{ACAD_REACTORS
330
2A
102
}
330
2A
100
AcDbVisualStyle
  2
Realistic
 70
     8
 71
     2
 72
     2
 73
     0
 90
        0
 40
-0.6
 41
-30.0
 62
     5
 63
     7
 74
     1
 91
        0
 64
     7
 65
   257
 75
     1
175
     1
 42
1.0
 92
        8
 66
     8
 43
1.0
 76
     1
 77
     6
 78
     2
 67
     7
 79
     5
170
     0
171
     0
290
     0
174
     0
 93
       13
 44
0.0
173
     0
291
     0
 45
0.0
1001
ACAD
1000
AcDbSavedByObjectVersion
1070
     0
  0
VISUALSTYLE
  5
37
102
{ACAD_REACTORS
330
2A
102
}
330
2A
100
AcDbVisualStyle
  2
Thicken
 70
    13
 71
     2
 72
     2
 73
     0
 90
        0
 40
-0.6
 41
-30.0
 62
     5
 63
     7
 74
     1
 91
        4
 64
     7
 65
   257
 75
     1
175
     1
 42
1.0
 92
       12
 66
     7
 43
1.0
 76
     1
 77
     6
 78
     2
 67
     7
 79
     5
170
     0
171
     0
290
     0
174
     0
 93
        1
 44
0.0
173
     0
291
     1
 45
0.0
1001
ACAD
1000
AcDbSavedByObjectVersion
1070
     0
  0
DICTIONARYVAR
  5
4F5
102
{ACAD_REACTORS
330
4F3
102
}
330
4F3
100
DictionaryVariables
280
     0
  1
80.000000
  0
DICTIONARYVAR
  5
4F4
102
{ACAD_REACTORS
330
4F3
102
}
330
4F3
100
DictionaryVariables
280
     0
  1
5.000000
  0
ENDSEC
  0
EOF
