  0
SECTION
  2
HEADER
  9
$ACADVER
  1
AC1015
  9
$ACADMAINTVER
 70
     6
  9
$DWGCODEPAGE
  3
DOS932
  9
$INSBASE
 10
0.0
 20
0.0
 30
0.0
  9
$EXTMIN
 10
0.0
 20
0.0
 30
0.0
  9
$EXTMAX
 10
420.0
 20
297.0
 30
0.0
  9
$LIMMIN
 10
0.0
 20
0.0
  9
$LIMMAX
 10
420.0
 20
297.0
  9
$ORTHOMODE
 70
     0
  9
$REGENMODE
 70
     1
  9
$FILLMODE
 70
     1
  9
$QTEXTMODE
 70
     0
  9
$MIRRTEXT
 70
     1
  9
$LTSCALE
 40
1.0
  9
$ATTMODE
 70
     1
  9
$TEXTSIZE
 40
3.5
  9
$TRACEWID
 40
1.0
  9
$TEXTSTYLE
  7
Standard
  9
$CLAYER
  8
0
  9
$CELTYPE
  6
ByLayer
  9
$CECOLOR
 62
   256
  9
$CELTSCALE
 40
1.0
  9
$DISPSILH
 70
     0
  9
$DIMSCALE
 40
1.0
  9
$DIMASZ
 40
3.0
  9
$DIMEXO
 40
1.0
  9
$DIMDLI
 40
3.75
  9
$DIMRND
 40
0.0
  9
$DIMDLE
 40
0.0
  9
$DIMEXE
 40
1.0
  9
$DIMTP
 40
0.0
  9
$DIMTM
 40
0.0
  9
$DIMTXT
 40
3.5
  9
$DIMCEN
 40
2.5
  9
$DIMTSZ
 40
0.0
  9
$DIMTOL
 70
     0
  9
$DIMLIM
 70
     0
  9
$DIMTIH
 70
     1
  9
$DIMTOH
 70
     1
  9
$DIMSE1
 70
     0
  9
$DIMSE2
 70
     0
  9
$DIMTAD
 70
     1
  9
$DIMZIN
 70
     1
  9
$DIMBLK
  1

  9
$DIMASO
 70
     1
  9
$DIMSHO
 70
     1
  9
$DIMPOST
  1

  9
$DIMAPOST
  1

  9
$DIMALT
 70
     0
  9
$DIMALTD
 70
     3
  9
$DIMALTF
 40
0.0393700787
  9
$DIMLFAC
 40
1.0
  9
$DIMTOFL
 70
     1
  9
$DIMTVP
 40
0.0
  9
$DIMTIX
 70
     0
  9
$DIMSOXD
 70
     0
  9
$DIMSAH
 70
     0
  9
$DIMBLK1
  1

  9
$DIMBLK2
  1

  9
$DIMSTYLE
  2
ISO-25
  9
$DIMCLRD
 70
     0
  9
$DIMCLRE
 70
     0
  9
$DIMCLRT
 70
     0
  9
$DIMTFAC
 40
1.0
  9
$DIMGAP
 40
1.524
  9
$DIMJUST
 70
     0
  9
$DIMSD1
 70
     0
  9
$DIMSD2
 70
     0
  9
$DIMTOLJ
 70
     0
  9
$DIMTZIN
 70
     1
  9
$DIMALTZ
 70
     0
  9
$DIMALTTZ
 70
     0
  9
$DIMUPT
 70
     0
  9
$DIMDEC
 70
     2
  9
$DIMTDEC
 70
     2
  9
$DIMALTU
 70
     2
  9
$DIMALTTD
 70
     3
  9
$DIMTXSTY
  7
Standard
  9
$DIMAUNIT
 70
     0
  9
$DIMADEC
 70
     0
  9
$DIMALTRND
 40
0.0
  9
$DIMAZIN
 70
     0
  9
$DIMDSEP
 70
    44
  9
$DIMATFIT
 70
     3
  9
$DIMFRAC
 70
     0
  9
$DIMLDRBLK
  1

  9
$DIMLUNIT
 70
     2
  9
$DIMLWD
 70
    -2
  9
$DIMLWE
 70
    -2
  9
$DIMTMOVE
 70
     0
  9
$LUNITS
 70
     2
  9
$LUPREC
 70
     4
  9
$SKETCHINC
 40
1.0
  9
$FILLETRAD
 40
10.0
  9
$AUNITS
 70
     0
  9
$AUPREC
 70
     0
  9
$MENU
  1
.
  9
$ELEVATION
 40
0.0
  9
$PELEVATION
 40
0.0
  9
$THICKNESS
 40
0.0
  9
$LIMCHECK
 70
     0
  9
$CHAMFERA
 40
10.0
  9
$CHAMFERB
 40
10.0
  9
$CHAMFERC
 40
20.0
  9
$CHAMFERD
 40
0.0
  9
$SKPOLY
 70
     0
  9
$TDCREATE
 40
2455049.592556921
  9
$TDUCREATE
 40
2455049.217556921
  9
$TDUPDATE
 40
2455049.592556933
  9
$TDUUPDATE
 40
2455049.217556933
  9
$TDINDWG
 40
0.0000000116
  9
$TDUSRTIMER
 40
0.0000000116
  9
$USRTIMER
 70
     1
  9
$ANGBASE
 50
0.0
  9
$ANGDIR
 70
     0
  9
$PDMODE
 70
     0
  9
$PDSIZE
 40
-1.0
  9
$PLINEWID
 40
0.0
  9
$SPLFRAME
 70
     0
  9
$SPLINETYPE
 70
     6
  9
$SPLINESEGS
 70
     8
  9
$HANDSEED
  5
564
  9
$SURFTAB1
 70
     6
  9
$SURFTAB2
 70
     6
  9
$SURFTYPE
 70
     6
  9
$SURFU
 70
     6
  9
$SURFV
 70
     6
  9
$UCSBASE
  2

  9
$UCSNAME
  2

  9
$UCSORG
 10
0.0
 20
0.0
 30
0.0
  9
$UCSXDIR
 10
1.0
 20
0.0
 30
0.0
  9
$UCSYDIR
 10
0.0
 20
1.0
 30
0.0
  9
$UCSORTHOREF
  2

  9
$UCSORTHOVIEW
 70
     0
  9
$UCSORGTOP
 10
0.0
 20
0.0
 30
0.0
  9
$UCSORGBOTTOM
 10
0.0
 20
0.0
 30
0.0
  9
$UCSORGLEFT
 10
0.0
 20
0.0
 30
0.0
  9
$UCSORGRIGHT
 10
0.0
 20
0.0
 30
0.0
  9
$UCSORGFRONT
 10
0.0
 20
0.0
 30
0.0
  9
$UCSORGBACK
 10
0.0
 20
0.0
 30
0.0
  9
$PUCSBASE
  2

  9
$PUCSNAME
  2

  9
$PUCSORG
 10
0.0
 20
0.0
 30
0.0
  9
$PUCSXDIR
 10
1.0
 20
0.0
 30
0.0
  9
$PUCSYDIR
 10
0.0
 20
1.0
 30
0.0
  9
$PUCSORTHOREF
  2

  9
$PUCSORTHOVIEW
 70
     0
  9
$PUCSORGTOP
 10
0.0
 20
0.0
 30
0.0
  9
$PUCSORGBOTTOM
 10
0.0
 20
0.0
 30
0.0
  9
$PUCSORGLEFT
 10
0.0
 20
0.0
 30
0.0
  9
$PUCSORGRIGHT
 10
0.0
 20
0.0
 30
0.0
  9
$PUCSORGFRONT
 10
0.0
 20
0.0
 30
0.0
  9
$PUCSORGBACK
 10
0.0
 20
0.0
 30
0.0
  9
$USERI1
 70
     0
  9
$USERI2
 70
     0
  9
$USERI3
 70
     0
  9
$USERI4
 70
     0
  9
$USERI5
 70
     0
  9
$USERR1
 40
0.0
  9
$USERR2
 40
0.0
  9
$USERR3
 40
0.0
  9
$USERR4
 40
0.0
  9
$USERR5
 40
0.0
  9
$WORLDVIEW
 70
     1
  9
$SHADEDGE
 70
     3
  9
$SHADEDIF
 70
    70
  9
$TILEMODE
 70
     0
  9
$MAXACTVP
 70
    64
  9
$PINSBASE
 10
0.0
 20
0.0
 30
0.0
  9
$PLIMCHECK
 70
     0
  9
$PEXTMIN
 10
0.0
 20
0.0
 30
0.0
  9
$PEXTMAX
 10
420.0
 20
297.0
 30
0.0
  9
$PLIMMIN
 10
0.0
 20
0.0
  9
$PLIMMAX
 10
420.0
 20
297.0
  9
$UNITMODE
 70
     0
  9
$VISRETAIN
 70
     1
  9
$PLINEGEN
 70
     0
  9
$PSLTSCALE
 70
     1
  9
$TREEDEPTH
 70
  3020
  9
$CMLSTYLE
  2
Standard
  9
$CMLJUST
 70
     0
  9
$CMLSCALE
 40
20.0
  9
$PROXYGRAPHICS
 70
     1
  9
$MEASUREMENT
 70
     1
  9
$CELWEIGHT
370
    -1
  9
$ENDCAPS
280
     0
  9
$JOINSTYLE
280
     0
  9
$LWDISPLAY
290
     1
  9
$INSUNITS
 70
     4
  9
$HYPERLINKBASE
  1

  9
$STYLESHEET
  1

  9
$XEDIT
290
     1
  9
$CEPSNTYPE
380
     0
  9
$PSTYLEMODE
290
     1
  9
$FINGERPRINTGUID
  2
{DBC72273-BFB7-4C35-A768-5A24054C9700}
  9
$VERSIONGUID
  2
{FAEB1C32-E019-11D5-929B-00C0DF256EC4}
  9
$EXTNAMES
290
     1
  9
$PSVPSCALE
 40
0.0
  9
$OLESTARTUP
290
     0
  0
ENDSEC
  0
SECTION
  2
CLASSES
  0
CLASS
  1
ACDBDICTIONARYWDFLT
  2
AcDbDictionaryWithDefault
  3
ObjectDBX Classes
 90
        0
280
     0
281
     0
  0
CLASS
  1
VISUALSTYLE
  2
AcDbVisualStyle
  3
ObjectDBX Classes
 90
     4095
280
     0
281
     0
  0
CLASS
  1
DICTIONARYVAR
  2
AcDbDictionaryVar
  3
ObjectDBX Classes
 90
        0
280
     0
281
     0
  0
CLASS
  1
ACDBPLACEHOLDER
  2
AcDbPlaceHolder
  3
ObjectDBX Classes
 90
        0
280
     0
281
     0
  0
CLASS
  1
LAYOUT
  2
AcDbLayout
  3
ObjectDBX Classes
 90
        0
280
     0
281
     0
  0
ENDSEC
  0
SECTION
  2
TABLES
  0
TABLE
  2
VPORT
  5
8
330
0
100
AcDbSymbolTable
 70
     1
  0
VPORT
  5
29
330
8
100
AcDbSymbolTableRecord
100
AcDbViewportTableRecord
  2
*Active
 70
     0
 10
0.0
 20
0.0
 11
1.0
 21
1.0
 12
210.0
 22
148.5
 13
0.0
 23
0.0
 14
10.0
 24
10.0
 15
10.0
 25
10.0
 16
0.0
 26
0.0
 36
1.0
 17
0.0
 27
0.0
 37
0.0
 40
297.0
 41
1.4141414141
 42
50.0
 43
0.0
 44
0.0
 50
0.0
 51
0.0
 71
     0
 72
  2000
 73
     1
 74
     3
 75
     0
 76
     0
 77
     0
 78
     0
281
     0
 65
     1
110
0.0
120
0.0
130
0.0
111
1.0
121
0.0
131
0.0
112
0.0
122
1.0
132
0.0
 79
     0
146
0.0
  0
ENDTAB
  0
TABLE
  2
LTYPE
  5
5
330
0
100
AcDbSymbolTable
 70
     6
  0
LTYPE
  5
14
330
5
100
AcDbSymbolTableRecord
100
AcDbLinetypeTableRecord
  2
ByBlock
 70
     0
  3

 72
    65
 73
     0
 40
0.0
  0
LTYPE
  5
15
330
5
100
AcDbSymbolTableRecord
100
AcDbLinetypeTableRecord
  2
ByLayer
 70
     0
  3

 72
    65
 73
     0
 40
0.0
  0
LTYPE
  5
16
330
5
100
AcDbSymbolTableRecord
100
AcDbLinetypeTableRecord
  2
Continuous
 70
     0
  3
Solid line
 72
    65
 73
     0
 40
0.0
  0
LTYPE
  5
3B
330
5
100
AcDbSymbolTableRecord
100
AcDbLinetypeTableRecord
  2
HIDDEN
 70
     0
  3
Hidden __ __ __ __ __ __ __ __ __ __ __ __ __ __
 72
    65
 73
     2
 40
1.905
 49
1.27
 74
     0
 49
-0.635
 74
     0
  0
LTYPE
  5
3C
330
5
100
AcDbSymbolTableRecord
100
AcDbLinetypeTableRecord
  2
PHANTOM
 70
     0
  3
Phantom ______  __  __  ______  __  __  ______
 72
    65
 73
     6
 40
12.7
 49
6.35
 74
     0
 49
-1.27
 74
     0
 49
1.27
 74
     0
 49
-1.27
 74
     0
 49
1.27
 74
     0
 49
-1.27
 74
     0
  0
LTYPE
  5
3D
330
5
100
AcDbSymbolTableRecord
100
AcDbLinetypeTableRecord
  2
CENTER
 70
     0
  3
Center ____ _ ____ _ ____ _ ____ _ ____ _ ____
 72
    65
 73
     4
 40
10.16
 49
6.35
 74
     0
 49
-1.27
 74
     0
 49
1.27
 74
     0
 49
-1.27
 74
     0
  0
LTYPE
  5
3E
330
5
100
AcDbSymbolTableRecord
100
AcDbLinetypeTableRecord
  2
CENTERX2
 70
     0
  3
Center (2x) ________  __  ________  __  _____
 72
    65
 73
     4
 40
20.32
 49
12.7
 74
     0
 49
-2.54
 74
     0
 49
2.54
 74
     0
 49
-2.54
 74
     0
  0
LTYPE
  5
3F
330
5
100
AcDbSymbolTableRecord
100
AcDbLinetypeTableRecord
  2
DOT2
 70
     0
  3
Dot (.5x) ........................................
 72
    65
 73
     2
 40
0.635
 49
0.0
 74
     0
 49
-0.635
 74
     0
  0
ENDTAB
  0
TABLE
  2
LAYER
  5
2
330
0
100
AcDbSymbolTable
 70
     6
  0
LAYER
  5
10
330
2
100
AcDbSymbolTableRecord
100
AcDbLayerTableRecord
  2
0
 70
     0
 62
     7
  6
Continuous
370
    -3
390
F
  0
LAYER
  5
40
330
2
100
AcDbSymbolTableRecord
100
AcDbLayerTableRecord
  2
SLD-0
 70
     0
 62
   179
  6
Continuous
370
    -3
390
F
  0
LAYER
  5
41
330
2
100
AcDbSymbolTableRecord
100
AcDbLayerTableRecord
  2
WORKLAYER
 70
     0
 62
   179
  6
Continuous
370
    -3
390
F
  0
LAYER
  5
42
330
2
100
AcDbSymbolTableRecord
100
AcDbLayerTableRecord
  2
SNOTE
 70
     0
 62
   179
  6
Continuous
370
    -3
390
F
  0
LAYER
  5
43
330
2
100
AcDbSymbolTableRecord
100
AcDbLayerTableRecord
  2
VIEW
 70
     0
 62
   179
  6
Continuous
370
    -3
390
F
  0
LAYER
  5
44
330
2
100
AcDbSymbolTableRecord
100
AcDbLayerTableRecord
  2
SDIM
 70
     0
 62
   179
  6
Continuous
370
    -3
390
F
  0
ENDTAB
  0
TABLE
  2
STYLE
  5
3
330
0
100
AcDbSymbolTable
 70
     2
  0
STYLE
  5
11
330
3
100
AcDbSymbolTableRecord
100
AcDbTextStyleTableRecord
  2
Standard
 70
     0
 40
0.0
 41
1.0
 50
0.0
 71
     0
 42
2.5
  3
txt
  4
bigfont
  0
STYLE
  5
50B
330
3
100
AcDbSymbolTableRecord
100
AcDbTextStyleTableRecord
  2
SLDTEXTSTYLE0
 70
     0
 40
0.0
 41
0.7
 50
0.0
 71
     0
 42
0.2
  3
TXT
  4
bigfont
  0
ENDTAB
  0
TABLE
  2
VIEW
  5
6
330
0
100
AcDbSymbolTable
 70
     0
  0
ENDTAB
  0
TABLE
  2
UCS
  5
7
330
0
100
AcDbSymbolTable
 70
     0
  0
ENDTAB
  0
TABLE
  2
APPID
  5
9
330
0
100
AcDbSymbolTable
 70
     1
  0
APPID
  5
12
330
9
100
AcDbSymbolTableRecord
100
AcDbRegAppTableRecord
  2
ACAD
 70
     0
  0
ENDTAB
  0
TABLE
  2
DIMSTYLE
  5
A
330
0
100
AcDbSymbolTable
 70
     4
100
AcDbDimStyleTable
  0
DIMSTYLE
105
27
330
A
100
AcDbSymbolTableRecord
100
AcDbDimStyleTableRecord
  2
ISO-25
 70
     0
 41
2.5
 42
0.625
 43
3.75
 44
1.25
 73
     0
 74
     0
 77
     1
 78
     8
140
2.5
141
2.5
143
0.0393700787
147
0.625
171
     3
172
     1
271
     2
272
     2
274
     3
278
    44
283
     0
284
     8
340
11
  0
DIMSTYLE
105
4FC
102
{ACAD_REACTORS
330
4FB
330
50D
330
539
102
}
330
A
100
AcDbSymbolTableRecord
100
AcDbDimStyleTableRecord
  2
SLDDIMSTYLE0
 70
     0
 41
3.0
 44
0.0
 73
     0
 77
     1
 78
    12
140
3.5
147
0.875
173
     1
271
     1
272
     1
284
    12
340
11
341
4FD
343
4FD
344
4FD
  0
DIMSTYLE
105
518
102
{ACAD_REACTORS
330
517
330
52F
330
551
102
}
330
A
100
AcDbSymbolTableRecord
100
AcDbDimStyleTableRecord
  2
SLDDIMSTYLE1
 70
     0
 41
3.0
 44
0.0
 73
     0
 77
     1
 78
    12
140
3.5
147
0.875
173
     1
271
     0
272
     0
284
    12
340
11
341
4FD
343
4FD
344
4FD
  0
DIMSTYLE
105
523
102
{ACAD_REACTORS
330
522
330
545
102
}
330
A
100
AcDbSymbolTableRecord
100
AcDbDimStyleTableRecord
  2
SLDDIMSTYLE2
 70
     0
 41
3.0
 44
0.0
 73
     0
 77
     1
 78
    12
140
3.5
147
0.875
173
     1
271
     0
272
     0
284
    12
340
11
341
4FD
343
4FD
344
4FD
  0
ENDTAB
  0
TABLE
  2
BLOCK_RECORD
  5
1
330
0
100
AcDbSymbolTable
 70
    13
  0
BLOCK_RECORD
  5
1F
330
1
100
AcDbSymbolTableRecord
100
AcDbBlockTableRecord
  2
*Model_Space
340
22
  0
BLOCK_RECORD
  5
1B
330
1
100
AcDbSymbolTableRecord
100
AcDbBlockTableRecord
  2
*Paper_Space
340
1E
  0
BLOCK_RECORD
  5
45
330
1
100
AcDbSymbolTableRecord
100
AcDbBlockTableRecord
  2
ﾌﾞﾛｯｸ95
340
0
102
{BLKREFS
331
55F
102
}
  0
BLOCK_RECORD
  5
190
330
1
100
AcDbSymbolTableRecord
100
AcDbBlockTableRecord
  2
ﾌﾞﾛｯｸ96
340
0
102
{BLKREFS
331
55D
102
}
  0
BLOCK_RECORD
  5
2E8
330
1
100
AcDbSymbolTableRecord
100
AcDbBlockTableRecord
  2
ﾌﾞﾛｯｸ97
340
0
102
{BLKREFS
331
55E
102
}
  0
BLOCK_RECORD
  5
4FD
330
1
100
AcDbSymbolTableRecord
100
AcDbBlockTableRecord
  2
_OPEN30
340
0
102
{BLKREFS
331
506
331
507
331
511
331
512
331
51C
331
51D
331
527
331
528
331
533
331
534
331
53F
331
540
331
549
331
54A
331
555
331
556
102
}
  0
BLOCK_RECORD
  5
503
330
1
100
AcDbSymbolTableRecord
100
AcDbBlockTableRecord
  2
*D5
340
0
  0
BLOCK_RECORD
  5
50E
330
1
100
AcDbSymbolTableRecord
100
AcDbBlockTableRecord
  2
*D6
340
0
  0
BLOCK_RECORD
  5
519
330
1
100
AcDbSymbolTableRecord
100
AcDbBlockTableRecord
  2
*D7
340
0
  0
BLOCK_RECORD
  5
524
330
1
100
AcDbSymbolTableRecord
100
AcDbBlockTableRecord
  2
*D8
340
0
  0
BLOCK_RECORD
  5
530
330
1
100
AcDbSymbolTableRecord
100
AcDbBlockTableRecord
  2
*D9
340
0
  0
BLOCK_RECORD
  5
53A
330
1
100
AcDbSymbolTableRecord
100
AcDbBlockTableRecord
  2
*D10
340
0
  0
BLOCK_RECORD
  5
546
330
1
100
AcDbSymbolTableRecord
100
AcDbBlockTableRecord
  2
*D11
340
0
  0
BLOCK_RECORD
  5
552
330
1
100
AcDbSymbolTableRecord
100
AcDbBlockTableRecord
  2
*D12
340
0
  0
ENDTAB
  0
ENDSEC
  0
SECTION
  2
BLOCKS
  0
BLOCK
  5
20
330
1F
100
AcDbEntity
  8
0
100
AcDbBlockBegin
  2
*Model_Space
 70
     0
 71
     0
 10
0.0
 20
0.0
 30
0.0
  3
*Model_Space
  1

  0
ENDBLK
  5
21
330
1F
100
AcDbEntity
  8
0
100
AcDbBlockEnd
  0
BLOCK
  5
1C
330
1B
100
AcDbEntity
 67
     1
  8
0
100
AcDbBlockBegin
  2
*Paper_Space
 70
     0
 71
     0
 10
0.0
 20
0.0
 30
0.0
  3
*Paper_Space
  1

  0
ENDBLK
  5
1D
330
1B
100
AcDbEntity
 67
     1
  8
0
100
AcDbBlockEnd
  0
BLOCK
  5
46
330
45
100
AcDbEntity
  8
0
100
AcDbBlockBegin
  2
ﾌﾞﾛｯｸ95
 70
     0
 71
     0
 10
0.0
 20
0.0
 30
0.0
  3
ﾌﾞﾛｯｸ95
  1

  0
ARC
  5
48
330
45
100
AcDbEntity
  8
WORKLAYER
  6
Continuous
 62
     7
100
AcDbCircle
 10
19.4000244141
 20
98.5001068115
 30
0.0
 40
1.0
100
AcDbArc
 50
270.0
 51
0.0
  0
ARC
  5
49
330
45
100
AcDbEntity
  8
WORKLAYER
  6
Continuous
 62
     7
100
AcDbCircle
 10
10.700012207
 20
98.5001068115
 30
0.0
 40
1.000000000000002
100
AcDbArc
 50
180.0
 51
270.0
  0
ARC
  5
4A
330
45
100
AcDbEntity
  8
WORKLAYER
  6
Continuous
 62
     7
100
AcDbCircle
 10
10.700012207
 20
100.5001068115
 30
0.0
 40
1.000000000000002
100
AcDbArc
 50
90.0
 51
180.0
  0
ARC
  5
4B
330
45
100
AcDbEntity
  8
WORKLAYER
  6
Continuous
 62
     7
100
AcDbCircle
 10
19.4000244141
 20
100.5001068115
 30
0.0
 40
1.0
100
AcDbArc
 50
0.0
 51
90.0
  0
ARC
  5
4C
330
45
100
AcDbEntity
  8
WORKLAYER
  6
Continuous
 62
     7
100
AcDbCircle
 10
15.700012207
 20
92.1000976563
 30
0.0
 40
1.0
100
AcDbArc
 50
0.0
 51
90.0
  0
ARC
  5
4D
330
45
100
AcDbEntity
  8
WORKLAYER
  6
Continuous
 62
     7
100
AcDbCircle
 10
9.200012207
 20
92.1000976563
 30
0.0
 40
1.000000000000002
100
AcDbArc
 50
90.0
 51
180.0
  0
ARC
  5
4E
330
45
100
AcDbEntity
  8
WORKLAYER
  6
Continuous
 62
     7
100
AcDbCircle
 10
15.700012207
 20
70.8999023438
 30
0.0
 40
1.0
100
AcDbArc
 50
270.0
 51
0.0
  0
ARC
  5
4F
330
45
100
AcDbEntity
  8
WORKLAYER
  6
Continuous
 62
     7
100
AcDbCircle
 10
9.200012207
 20
70.8999023438
 30
0.0
 40
1.000000000000002
100
AcDbArc
 50
180.0
 51
270.0
  0
ARC
  5
50
330
45
100
AcDbEntity
  8
VIEW
  6
Continuous
 62
     7
100
AcDbCircle
 10
0.5
 20
11.6001052856
 30
0.0
 40
0.5000000000000004
100
AcDbArc
 50
180.0
 51
270.0
  0
ARC
  5
51
330
45
100
AcDbEntity
  8
VIEW
  6
Continuous
 62
     7
100
AcDbCircle
 10
0.5
 20
13.400100708
 30
0.0
 40
0.5000000000000004
100
AcDbArc
 50
90.0
 51
180.0
  0
ARC
  5
52
330
45
100
AcDbEntity
  8
VIEW
  6
Continuous
 62
     7
100
AcDbCircle
 10
0.5
 20
121.599899292
 30
0.0
 40
0.5000000000000004
100
AcDbArc
 50
180.0
 51
270.0
  0
CIRCLE
  5
53
330
45
100
AcDbEntity
  8
WORKLAYER
  6
Continuous
 62
     7
100
AcDbCircle
 10
17.200012207
 20
51.4998016357
 30
0.0
 40
8.000000000000007
  0
ARC
  5
54
330
45
100
AcDbEntity
  8
VIEW
  6
Continuous
 62
     7
100
AcDbCircle
 10
0.5
 20
123.3999023438
 30
0.0
 40
0.5000000000000004
100
AcDbArc
 50
90.0
 51
180.0
  0
ARC
  5
55
330
45
100
AcDbEntity
  8
VIEW
  6
Continuous
 62
     7
100
AcDbCircle
 10
10.3499145508
 20
0.25
 30
0.0
 40
0.2500000000000002
100
AcDbArc
 50
180.0
 51
270.0
  0
ARC
  5
56
330
45
100
AcDbEntity
  8
VIEW
  6
Continuous
 62
     7
100
AcDbCircle
 10
25.6499023437
 20
0.25
 30
0.0
 40
0.2500000000000002
100
AcDbArc
 50
270.0
 51
0.0
  0
ARC
  5
57
330
45
100
AcDbEntity
  8
VIEW
  6
Continuous
 62
     7
100
AcDbCircle
 10
17.9999084473
 20
2.7104034424
 30
0.0
 40
2.200000047683738
100
AcDbArc
 50
198.8370056152
 51
341.1629943848
  0
ARC
  5
58
330
45
100
AcDbEntity
  8
VIEW
  6
Continuous
 62
     7
100
AcDbCircle
 10
17.9926147461
 20
6.5
 30
0.0
 40
1.750000000000014
100
AcDbArc
 50
238.9976959229
 51
301.0022888184
  0
ARC
  5
59
330
45
100
AcDbEntity
  8
VIEW
  6
Continuous
 62
     7
100
AcDbCircle
 10
17.9999084473
 20
2.7104034424
 30
0.0
 40
2.000000000000051
100
AcDbArc
 50
200.8034973145
 51
339.1965026855
  0
ARC
  5
5A
330
45
100
AcDbEntity
  8
WORKLAYER
  6
Continuous
 62
     7
100
AcDbCircle
 10
15.7001037598
 20
92.1000976563
 30
0.0
 40
1.0
100
AcDbArc
 50
0.0
 51
90.0
  0
ARC
  5
5B
330
45
100
AcDbEntity
  8
WORKLAYER
  6
Continuous
 62
     7
100
AcDbCircle
 10
9.2001037598
 20
92.1000976563
 30
0.0
 40
1.000000000000002
100
AcDbArc
 50
90.0
 51
180.0
  0
ARC
  5
5C
330
45
100
AcDbEntity
  8
WORKLAYER
  6
Continuous
 62
     7
100
AcDbCircle
 10
15.7001037598
 20
70.8999023438
 30
0.0
 40
1.0
100
AcDbArc
 50
270.0
 51
0.0
  0
ARC
  5
5D
330
45
100
AcDbEntity
  8
WORKLAYER
  6
Continuous
 62
     7
100
AcDbCircle
 10
9.2001037598
 20
70.8999023438
 30
0.0
 40
1.000000000000002
100
AcDbArc
 50
180.0
 51
270.0
  0
ARC
  5
5E
330
45
100
AcDbEntity
  8
WORKLAYER
  6
Continuous
 62
     7
100
AcDbCircle
 10
17.2001037598
 20
51.4999084473
 30
0.0
 40
7.550000190734857
100
AcDbArc
 50
352.0047912598
 51
7.9952092171
  0
ARC
  5
5F
330
45
100
AcDbEntity
  8
WORKLAYER
  6
Continuous
 62
     7
100
AcDbCircle
 10
17.2001037598
 20
51.4999084473
 30
0.0
 40
7.550000190734847
100
AcDbArc
 50
52.0047912598
 51
67.9952087402
  0
ARC
  5
60
330
45
100
AcDbEntity
  8
WORKLAYER
  6
Continuous
 62
     7
100
AcDbCircle
 10
17.2001037598
 20
51.4999084473
 30
0.0
 40
7.55000019073486
100
AcDbArc
 50
112.0047988892
 51
127.9952011108
  0
ARC
  5
61
330
45
100
AcDbEntity
  8
WORKLAYER
  6
Continuous
 62
     7
100
AcDbCircle
 10
17.2001037598
 20
51.4999084473
 30
0.0
 40
7.550000190734838
100
AcDbArc
 50
172.0048065186
 51
187.9951934814
  0
ARC
  5
62
330
45
100
AcDbEntity
  8
WORKLAYER
  6
Continuous
 62
     7
100
AcDbCircle
 10
17.2001037598
 20
51.4999084473
 30
0.0
 40
7.550000190734868
100
AcDbArc
 50
232.0048065186
 51
247.9951934814
  0
ARC
  5
63
330
45
100
AcDbEntity
  8
WORKLAYER
  6
Continuous
 62
     7
100
AcDbCircle
 10
17.2001037598
 20
51.4999084473
 30
0.0
 40
7.550000190734855
100
AcDbArc
 50
292.0047912598
 51
307.9952087402
  0
ARC
  5
64
330
45
100
AcDbEntity
  8
VIEW
  6
Continuous
 62
     7
100
AcDbCircle
 10
3.200012207
 20
11.0500030518
 30
0.0
 40
0.2000000029802607
100
AcDbArc
 50
180.0
 51
270.0
  0
ARC
  5
65
330
45
100
AcDbEntity
  8
VIEW
  6
Continuous
 62
     7
100
AcDbCircle
 10
32.7999267578
 20
11.0500030518
 30
0.0
 40
0.2000000029802322
100
AcDbArc
 50
270.0
 51
0.0
  0
ARC
  5
66
330
45
100
AcDbEntity
  8
VIEW
  6
Continuous
 62
     7
100
AcDbCircle
 10
3.200012207
 20
8.9500045776
 30
0.0
 40
0.2000000029802607
100
AcDbArc
 50
90.0
 51
180.0
  0
ARC
  5
67
330
45
100
AcDbEntity
  8
VIEW
  6
Continuous
 62
     7
100
AcDbCircle
 10
32.7999267578
 20
8.9500045776
 30
0.0
 40
0.2000000029802322
100
AcDbArc
 50
0.0
 51
90.0
  0
ARC
  5
68
330
45
100
AcDbEntity
  8
VIEW
  6
Continuous
 62
     7
100
AcDbCircle
 10
32.7999267578
 20
5.2000045776
 30
0.0
 40
0.2000000029802331
100
AcDbArc
 50
270.0
 51
0.0
  0
ARC
  5
69
330
45
100
AcDbEntity
  8
VIEW
  6
Continuous
 62
     7
100
AcDbCircle
 10
3.200012207
 20
5.2000045776
 30
0.0
 40
0.2000000029802607
100
AcDbArc
 50
180.0
 51
270.0
  0
ARC
  5
6A
330
45
100
AcDbEntity
  8
VIEW
  6
Continuous
 62
     7
100
AcDbCircle
 10
32.7999267578
 20
123.9499969482
 30
0.0
 40
0.2000000029802322
100
AcDbArc
 50
0.0
 51
90.0
  0
ARC
  5
6B
330
45
100
AcDbEntity
  8
VIEW
  6
Continuous
 62
     7
100
AcDbCircle
 10
3.200012207
 20
123.9499969482
 30
0.0
 40
0.2000000029802607
100
AcDbArc
 50
90.0
 51
180.0
  0
ARC
  5
6C
330
45
100
AcDbEntity
  8
VIEW
  6
Continuous
 62
     7
100
AcDbCircle
 10
32.7999267578
 20
126.0500030518
 30
0.0
 40
0.2000000029802322
100
AcDbArc
 50
270.0
 51
0.0
  0
ARC
  5
6D
330
45
100
AcDbEntity
  8
VIEW
  6
Continuous
 62
     7
100
AcDbCircle
 10
3.200012207
 20
126.0500030518
 30
0.0
 40
0.1999984756111823
100
AcDbArc
 50
180.0
 51
270.0
  0
ARC
  5
6E
330
45
100
AcDbEntity
  8
VIEW
  6
Continuous
 62
     7
100
AcDbCircle
 10
32.7999267578
 20
129.8000030518
 30
0.0
 40
0.2000000029802322
100
AcDbArc
 50
0.0
 51
90.0
  0
ARC
  5
6F
330
45
100
AcDbEntity
  8
VIEW
  6
Continuous
 62
     7
100
AcDbCircle
 10
3.200012207
 20
129.8000030518
 30
0.0
 40
0.1999984756112383
100
AcDbArc
 50
90.0
 51
180.0
  0
ARC
  5
70
330
45
100
AcDbEntity
  8
VIEW
  6
Continuous
 62
     7
100
AcDbCircle
 10
3.7001037598
 20
105.8000030518
 30
0.0
 40
0.699999988079071
100
AcDbArc
 50
90.0
 51
180.0
  0
ARC
  5
71
330
45
100
AcDbEntity
  8
VIEW
  6
Continuous
 62
     7
100
AcDbCircle
 10
3.7001037598
 20
29.1999053955
 30
0.0
 40
0.699999988079071
100
AcDbArc
 50
180.0
 51
270.0
  0
ARC
  5
72
330
45
100
AcDbEntity
  8
VIEW
  6
Continuous
 62
     7
100
AcDbCircle
 10
32.2999267578
 20
105.8000030518
 30
0.0
 40
0.699999988079071
100
AcDbArc
 50
0.0
 51
90.0
  0
ARC
  5
73
330
45
100
AcDbEntity
  8
VIEW
  6
Continuous
 62
     7
100
AcDbCircle
 10
32.2999267578
 20
29.1999053955
 30
0.0
 40
0.699999988079071
100
AcDbArc
 50
270.0
 51
0.0
  0
ARC
  5
74
330
45
100
AcDbEntity
  8
VIEW
  6
Continuous
 62
     7
100
AcDbCircle
 10
32.7999267578
 20
107.1000976563
 30
0.0
 40
0.2000000029802322
100
AcDbArc
 50
270.0
 51
0.0
  0
ARC
  5
75
330
45
100
AcDbEntity
  8
VIEW
  6
Continuous
 62
     7
100
AcDbCircle
 10
3.7001037598
 20
105.7998962402
 30
0.0
 40
0.699999988079071
100
AcDbArc
 50
90.0
 51
180.0
  0
CIRCLE
  5
76
330
45
100
AcDbEntity
  8
WORKLAYER
  6
Continuous
 62
     7
100
AcDbCircle
 10
17.2001037598
 20
51.4999084473
 30
0.0
 40
6.000000000000004
  0
CIRCLE
  5
77
330
45
100
AcDbEntity
  8
WORKLAYER
  6
Continuous
 62
     7
100
AcDbCircle
 10
17.2001037598
 20
51.4999084473
 30
0.0
 40
0.5
  0
CIRCLE
  5
78
330
45
100
AcDbEntity
  8
WORKLAYER
  6
Continuous
 62
     7
100
AcDbCircle
 10
18.9678039551
 20
49.7321014404
 30
0.0
 40
0.5000000000000036
  0
CIRCLE
  5
79
330
45
100
AcDbEntity
  8
WORKLAYER
  6
Continuous
 62
     7
100
AcDbCircle
 10
15.4323120117
 20
53.2676086426
 30
0.0
 40
0.5
  0
CIRCLE
  5
7A
330
45
100
AcDbEntity
  8
WORKLAYER
  6
Continuous
 62
     7
100
AcDbCircle
 10
15.4323120117
 20
49.7321014404
 30
0.0
 40
0.5
  0
CIRCLE
  5
7B
330
45
100
AcDbEntity
  8
WORKLAYER
  6
Continuous
 62
     7
100
AcDbCircle
 10
18.9678039551
 20
53.2676086426
 30
0.0
 40
0.5000000000000036
  0
CIRCLE
  5
7C
330
45
100
AcDbEntity
  8
WORKLAYER
  6
Continuous
 62
     7
100
AcDbCircle
 10
17.2001037598
 20
51.4999084473
 30
0.0
 40
4.150000095367421
  0
CIRCLE
  5
7D
330
45
100
AcDbEntity
  8
WORKLAYER
  6
Continuous
 62
     7
100
AcDbCircle
 10
17.2001037598
 20
51.4999084473
 30
0.0
 40
5.250000000000004
  0
CIRCLE
  5
7E
330
45
100
AcDbEntity
  8
WORKLAYER
  6
Continuous
 62
     7
100
AcDbCircle
 10
17.2001037598
 20
51.4999084473
 30
0.0
 40
4.80000019073487
  0
CIRCLE
  5
7F
330
45
100
AcDbEntity
  8
WORKLAYER
  6
Continuous
 62
     7
100
AcDbCircle
 10
12.7001037598
 20
89.0
 30
0.0
 40
1.750000000000002
  0
CIRCLE
  5
80
330
45
100
AcDbEntity
  8
WORKLAYER
  6
Continuous
 62
     7
100
AcDbCircle
 10
12.7001037598
 20
81.5
 30
0.0
 40
1.750000000000002
  0
CIRCLE
  5
81
330
45
100
AcDbEntity
  8
WORKLAYER
  6
Continuous
 62
     7
100
AcDbCircle
 10
12.7001037598
 20
74.0
 30
0.0
 40
1.750000000000002
  0
LINE
  5
82
330
45
100
AcDbEntity
  8
WORKLAYER
  6
Continuous
 62
     7
100
AcDbLine
 10
19.4000244141
 20
101.5001068115
 30
0.0
 11
10.700012207
 21
101.5001068115
 31
0.0
  0
LINE
  5
83
330
45
100
AcDbEntity
  8
WORKLAYER
  6
Continuous
 62
     7
100
AcDbLine
 10
10.700012207
 20
97.5001068115
 30
0.0
 11
19.4000244141
 21
97.5001068115
 31
0.0
  0
LINE
  5
84
330
45
100
AcDbEntity
  8
WORKLAYER
  6
Continuous
 62
     7
100
AcDbLine
 10
9.700012207
 20
98.5001068115
 30
0.0
 11
9.700012207
 21
100.5001068115
 31
0.0
  0
LINE
  5
85
330
45
100
AcDbEntity
  8
WORKLAYER
  6
Continuous
 62
     7
100
AcDbLine
 10
20.4000244141
 20
100.5001068115
 30
0.0
 11
20.4000244141
 21
98.5001068115
 31
0.0
  0
LINE
  5
86
330
45
100
AcDbEntity
  8
WORKLAYER
  6
Continuous
 62
     7
100
AcDbLine
 10
16.700012207
 20
70.8999023438
 30
0.0
 11
16.700012207
 21
92.1000976563
 31
0.0
  0
LINE
  5
87
330
45
100
AcDbEntity
  8
WORKLAYER
  6
Continuous
 62
     7
100
AcDbLine
 10
15.700012207
 20
93.1000976563
 30
0.0
 11
9.200012207
 21
93.1000976563
 31
0.0
  0
LINE
  5
88
330
45
100
AcDbEntity
  8
WORKLAYER
  6
Continuous
 62
     7
100
AcDbLine
 10
9.200012207
 20
69.8999023438
 30
0.0
 11
15.700012207
 21
69.8999023438
 31
0.0
  0
LINE
  5
89
330
45
100
AcDbEntity
  8
WORKLAYER
  6
Continuous
 62
     7
100
AcDbLine
 10
8.200012207
 20
70.8999023438
 30
0.0
 11
8.200012207
 21
92.1000976563
 31
0.0
  0
LINE
  5
8A
330
45
100
AcDbEntity
  8
VIEW
  6
Continuous
 62
     7
100
AcDbLine
 10
3.0
 20
13.900100708
 30
0.0
 11
0.5
 21
13.900100708
 31
0.0
  0
LINE
  5
8B
330
45
100
AcDbEntity
  8
VIEW
  6
Continuous
 62
     7
100
AcDbLine
 10
0.5
 20
11.1001052856
 30
0.0
 11
3.0
 21
11.1001052856
 31
0.0
  0
LINE
  5
8C
330
45
100
AcDbEntity
  8
VIEW
  6
Continuous
 62
     7
100
AcDbLine
 10
0.0
 20
11.6001052856
 30
0.0
 11
0.0
 21
13.400100708
 31
0.0
  0
LINE
  5
8D
330
45
100
AcDbEntity
  8
VIEW
  6
Continuous
 62
     7
100
AcDbLine
 10
3.0
 20
123.8999023438
 30
0.0
 11
0.5
 21
123.8999023438
 31
0.0
  0
LINE
  5
8E
330
45
100
AcDbEntity
  8
VIEW
  6
Continuous
 62
     7
100
AcDbLine
 10
0.5
 20
121.099899292
 30
0.0
 11
3.0
 21
121.099899292
 31
0.0
  0
LINE
  5
8F
330
45
100
AcDbEntity
  8
VIEW
  6
Continuous
 62
     7
100
AcDbLine
 10
0.0
 20
121.599899292
 30
0.0
 11
0.0
 21
123.3999023438
 31
0.0
  0
LINE
  5
90
330
45
100
AcDbEntity
  8
VIEW
  6
Continuous
 62
     7
100
AcDbLine
 10
30.700012207
 20
107.1035003662
 30
0.0
 11
5.3000183105
 21
107.1035003662
 31
0.0
  0
LINE
  5
91
330
45
100
AcDbEntity
  8
VIEW
  6
Continuous
 62
     7
100
AcDbLine
 10
30.700012207
 20
107.0
 30
0.0
 11
31.5
 21
107.0
 31
0.0
  0
LINE
  5
92
330
45
100
AcDbEntity
  8
VIEW
  6
Continuous
 62
     7
100
AcDbLine
 10
4.5
 20
107.0
 30
0.0
 11
5.3000183105
 21
107.0
 31
0.0
  0
LINE
  5
93
330
45
100
AcDbEntity
  8
VIEW
  6
Continuous
 62
     7
100
AcDbLine
 10
4.3999023437
 20
107.6999969482
 30
0.0
 11
4.5
 21
107.6999969482
 31
0.0
  0
LINE
  5
94
330
45
100
AcDbEntity
  8
VIEW
  6
Continuous
 62
     7
100
AcDbLine
 10
4.5
 20
109.3000030518
 30
0.0
 11
4.3999023437
 21
109.3000030518
 31
0.0
  0
LINE
  5
95
330
45
100
AcDbEntity
  8
VIEW
  6
Continuous
 62
     7
100
AcDbLine
 10
31.5
 20
107.6999969482
 30
0.0
 11
31.5999145508
 21
107.6999969482
 31
0.0
  0
LINE
  5
96
330
45
100
AcDbEntity
  8
VIEW
  6
Continuous
 62
     7
100
AcDbLine
 10
31.5999145508
 20
109.3000030518
 30
0.0
 11
31.5
 21
109.3000030518
 31
0.0
  0
LINE
  5
97
330
45
100
AcDbEntity
  8
VIEW
  6
Continuous
 62
     7
100
AcDbLine
 10
5.6693115234
 20
125.8135986328
 30
0.0
 11
4.4692993164
 21
125.8135986328
 31
0.0
  0
LINE
  5
98
330
45
100
AcDbEntity
  8
VIEW
  6
Continuous
 62
     7
100
AcDbLine
 10
4.4692993164
 20
124.2136077881
 30
0.0
 11
5.6693115234
 21
124.2136077881
 31
0.0
  0
LINE
  5
99
330
45
100
AcDbEntity
  8
VIEW
  6
Continuous
 62
     7
100
AcDbLine
 10
30.3307189941
 20
124.2136077881
 30
0.0
 11
31.5307006836
 21
124.2136077881
 31
0.0
  0
LINE
  5
9A
330
45
100
AcDbEntity
  8
VIEW
  6
Continuous
 62
     7
100
AcDbLine
 10
31.5307006836
 20
125.8135986328
 30
0.0
 11
30.3307189941
 21
125.8135986328
 31
0.0
  0
LINE
  5
9B
330
45
100
AcDbEntity
  8
VIEW
  6
Continuous
 62
     7
100
AcDbLine
 10
4.5
 20
111.1954040527
 30
0.0
 11
4.3999023437
 21
111.0953063965
 31
0.0
  0
LINE
  5
9C
330
45
100
AcDbEntity
  8
VIEW
  6
Continuous
 62
     7
100
AcDbLine
 10
4.3999023437
 20
110.295501709
 30
0.0
 11
4.5
 21
110.1954040527
 31
0.0
  0
LINE
  5
9D
330
45
100
AcDbEntity
  8
VIEW
  6
Continuous
 62
     7
100
AcDbLine
 10
31.5
 20
110.1954040527
 30
0.0
 11
31.5999145508
 21
110.2953033447
 31
0.0
  0
LINE
  5
9E
330
45
100
AcDbEntity
  8
VIEW
  6
Continuous
 62
     7
100
AcDbLine
 10
31.5999145508
 20
111.0955047607
 30
0.0
 11
31.5
 21
111.1954040527
 31
0.0
  0
LINE
  5
9F
330
45
100
AcDbEntity
  8
VIEW
  6
Continuous
 62
     7
100
AcDbLine
 10
29.5307006836
 20
128.8807067871
 30
0.0
 11
6.4692993164
 21
128.8807067871
 31
0.0
  0
LINE
  5
A0
330
45
100
AcDbEntity
  8
VIEW
  6
Continuous
 62
     7
100
AcDbLine
 10
6.4692993164
 20
129.9049072266
 30
0.0
 11
5.6693115234
 21
129.9049072266
 31
0.0
  0
LINE
  5
A1
330
45
100
AcDbEntity
  8
VIEW
  6
Continuous
 62
     7
100
AcDbLine
 10
30.3307189941
 20
129.9049072266
 30
0.0
 11
29.5307006836
 21
129.9049072266
 31
0.0
  0
LINE
  5
A2
330
45
100
AcDbEntity
  8
VIEW
  6
Continuous
 62
     7
100
AcDbLine
 10
30.700012207
 20
107.1035003662
 30
0.0
 11
30.700012207
 21
107.0
 31
0.0
  0
LINE
  5
A3
330
45
100
AcDbEntity
  8
VIEW
  6
Continuous
 62
     7
100
AcDbLine
 10
5.3000183105
 20
107.0
 30
0.0
 11
5.3000183105
 21
107.1035003662
 31
0.0
  0
LINE
  5
A4
330
45
100
AcDbEntity
  8
VIEW
  6
Continuous
 62
     7
100
AcDbLine
 10
5.6693115234
 20
119.9523010254
 30
0.0
 11
4.5
 21
119.9523010254
 31
0.0
  0
LINE
  5
A5
330
45
100
AcDbEntity
  8
VIEW
  6
Continuous
 62
     7
100
AcDbLine
 10
5.6693115234
 20
129.9049072266
 30
0.0
 11
5.6693115234
 21
119.9523010254
 31
0.0
  0
LINE
  5
A6
330
45
100
AcDbEntity
  8
VIEW
  6
Continuous
 62
     7
100
AcDbLine
 10
30.3307189941
 20
119.9523010254
 30
0.0
 11
30.3307189941
 21
129.9049072266
 31
0.0
  0
LINE
  5
A7
330
45
100
AcDbEntity
  8
VIEW
  6
Continuous
 62
     7
100
AcDbLine
 10
31.5
 20
119.9523010254
 30
0.0
 11
30.3307189941
 21
119.9523010254
 31
0.0
  0
LINE
  5
A8
330
45
100
AcDbEntity
  8
VIEW
  6
Continuous
 62
     7
100
AcDbLine
 10
31.5
 20
119.9523010254
 30
0.0
 11
31.5
 21
107.0
 31
0.0
  0
LINE
  5
A9
330
45
100
AcDbEntity
  8
VIEW
  6
Continuous
 62
     7
100
AcDbLine
 10
4.5
 20
119.9523010254
 30
0.0
 11
4.5
 21
107.0
 31
0.0
  0
LINE
  5
AA
330
45
100
AcDbEntity
  8
VIEW
  6
Continuous
 62
     7
100
AcDbLine
 10
6.4692993164
 20
128.7561035156
 30
0.0
 11
6.4692993164
 21
129.8984985352
 31
0.0
  0
LINE
  5
AB
330
45
100
AcDbEntity
  8
VIEW
  6
Continuous
 62
     7
100
AcDbLine
 10
29.5307006836
 20
129.8984985352
 30
0.0
 11
29.5307006836
 21
128.7561035156
 31
0.0
  0
LINE
  5
AC
330
45
100
AcDbEntity
  8
VIEW
  6
Continuous
 62
     7
100
AcDbLine
 10
4.4692993164
 20
125.0136108398
 30
0.0
 11
4.4692993164
 21
124.2136077881
 31
0.0
  0
LINE
  5
AD
330
45
100
AcDbEntity
  8
VIEW
  6
Continuous
 62
     7
100
AcDbLine
 10
4.4692993164
 20
125.8135986328
 30
0.0
 11
4.4692993164
 21
125.0136108398
 31
0.0
  0
LINE
  5
AE
330
45
100
AcDbEntity
  8
VIEW
  6
Continuous
 62
     7
100
AcDbLine
 10
31.5307006836
 20
125.0136108398
 30
0.0
 11
31.5307006836
 21
124.2136077881
 31
0.0
  0
LINE
  5
AF
330
45
100
AcDbEntity
  8
VIEW
  6
Continuous
 62
     7
100
AcDbLine
 10
31.5307006836
 20
125.8135986328
 30
0.0
 11
31.5307006836
 21
125.0136108398
 31
0.0
  0
LINE
  5
B0
330
45
100
AcDbEntity
  8
VIEW
  6
Continuous
 62
     7
100
AcDbLine
 10
25.8999023437
 20
0.25
 30
0.0
 11
25.8999023437
 21
5.0
 31
0.0
  0
LINE
  5
B1
330
45
100
AcDbEntity
  8
VIEW
  6
Continuous
 62
     7
100
AcDbLine
 10
10.0999145508
 20
5.0
 30
0.0
 11
10.0999145508
 21
0.25
 31
0.0
  0
LINE
  5
B2
330
45
100
AcDbEntity
  8
VIEW
  6
Continuous
 62
     7
100
AcDbLine
 10
10.3499145508
 20
0.0
 30
0.0
 11
25.6499023437
 21
0.0
 31
0.0
  0
LINE
  5
B3
330
45
100
AcDbEntity
  8
VIEW
  6
Continuous
 62
     7
100
AcDbLine
 10
19.8695068359
 20
2.0
 30
0.0
 11
21.1999206543
 21
2.0
 31
0.0
  0
LINE
  5
B4
330
45
100
AcDbEntity
  8
VIEW
  6
Continuous
 62
     7
100
AcDbLine
 10
21.1999206543
 20
3.2000045776
 30
0.0
 11
21.1999206543
 21
2.0
 31
0.0
  0
LINE
  5
B5
330
45
100
AcDbEntity
  8
VIEW
  6
Continuous
 62
     7
100
AcDbLine
 10
14.7999267578
 20
3.2000045776
 30
0.0
 11
21.1999206543
 21
3.2000045776
 31
0.0
  0
LINE
  5
B6
330
45
100
AcDbEntity
  8
VIEW
  6
Continuous
 62
     7
100
AcDbLine
 10
14.7999267578
 20
2.0
 30
0.0
 11
14.7999267578
 21
3.2000045776
 31
0.0
  0
LINE
  5
B7
330
45
100
AcDbEntity
  8
VIEW
  6
Continuous
 62
     7
100
AcDbLine
 10
14.7999267578
 20
2.0
 30
0.0
 11
16.1303100586
 21
2.0
 31
0.0
  0
LINE
  5
B8
330
45
100
AcDbEntity
  8
VIEW
  6
Continuous
 62
     7
100
AcDbLine
 10
20.9999084473
 20
2.0
 30
0.0
 11
20.9999084473
 21
3.0
 31
0.0
  0
LINE
  5
B9
330
45
100
AcDbEntity
  8
VIEW
  6
Continuous
 62
     7
100
AcDbLine
 10
20.9999084473
 20
3.0
 30
0.0
 11
21.1999206543
 21
3.2000045776
 31
0.0
  0
LINE
  5
BA
330
45
100
AcDbEntity
  8
VIEW
  6
Continuous
 62
     7
100
AcDbLine
 10
20.9999084473
 20
3.0
 30
0.0
 11
14.9999084473
 21
3.0
 31
0.0
  0
LINE
  5
BB
330
45
100
AcDbEntity
  8
VIEW
  6
Continuous
 62
     7
100
AcDbLine
 10
14.9999084473
 20
3.0
 30
0.0
 11
14.7999267578
 21
3.2000045776
 31
0.0
  0
LINE
  5
BC
330
45
100
AcDbEntity
  8
VIEW
  6
Continuous
 62
     7
100
AcDbLine
 10
14.9999084473
 20
3.0
 30
0.0
 11
14.9999084473
 21
2.0
 31
0.0
  0
LINE
  5
BD
330
45
100
AcDbEntity
  8
VIEW
  6
Continuous
 62
     7
100
AcDbLine
 10
5.3000183105
 20
27.8964996338
 30
0.0
 11
30.700012207
 21
27.8964996338
 31
0.0
  0
LINE
  5
BE
330
45
100
AcDbEntity
  8
VIEW
  6
Continuous
 62
     7
100
AcDbLine
 10
5.3000183105
 20
28.0
 30
0.0
 11
4.5
 21
28.0
 31
0.0
  0
LINE
  5
BF
330
45
100
AcDbEntity
  8
VIEW
  6
Continuous
 62
     7
100
AcDbLine
 10
31.5
 20
28.0
 30
0.0
 11
30.700012207
 21
28.0
 31
0.0
  0
LINE
  5
C0
330
45
100
AcDbEntity
  8
VIEW
  6
Continuous
 62
     7
100
AcDbLine
 10
31.6000976562
 20
27.3000030518
 30
0.0
 11
31.5
 21
27.3000030518
 31
0.0
  0
LINE
  5
C1
330
45
100
AcDbEntity
  8
VIEW
  6
Continuous
 62
     7
100
AcDbLine
 10
31.5
 20
25.6999969482
 30
0.0
 11
31.6000976562
 21
25.6999969482
 31
0.0
  0
LINE
  5
C2
330
45
100
AcDbEntity
  8
VIEW
  6
Continuous
 62
     7
100
AcDbLine
 10
4.5
 20
27.3000030518
 30
0.0
 11
4.4001159668
 21
27.3000030518
 31
0.0
  0
LINE
  5
C3
330
45
100
AcDbEntity
  8
VIEW
  6
Continuous
 62
     7
100
AcDbLine
 10
4.4001159668
 20
25.6999969482
 30
0.0
 11
4.5
 21
25.6999969482
 31
0.0
  0
LINE
  5
C4
330
45
100
AcDbEntity
  8
VIEW
  6
Continuous
 62
     7
100
AcDbLine
 10
30.3307189941
 20
9.1864013672
 30
0.0
 11
31.5307006836
 21
9.1864013672
 31
0.0
  0
LINE
  5
C5
330
45
100
AcDbEntity
  8
VIEW
  6
Continuous
 62
     7
100
AcDbLine
 10
31.5307006836
 20
10.7863998413
 30
0.0
 11
30.3307189941
 21
10.7863998413
 31
0.0
  0
LINE
  5
C6
330
45
100
AcDbEntity
  8
VIEW
  6
Continuous
 62
     7
100
AcDbLine
 10
5.6693115234
 20
10.7863998413
 30
0.0
 11
4.4692993164
 21
10.7863998413
 31
0.0
  0
LINE
  5
C7
330
45
100
AcDbEntity
  8
WORKLAYER
  6
Continuous
 62
     7
100
AcDbLine
 10
4.0001220703
 20
105.1999969482
 30
0.0
 11
31.7002258301
 21
105.1999969482
 31
0.0
  0
LINE
  5
C8
330
45
100
AcDbEntity
  8
WORKLAYER
  6
Continuous
 62
     7
100
AcDbLine
 10
31.7002258301
 20
105.1999969482
 30
0.0
 11
31.7002258301
 21
29.4999084473
 31
0.0
  0
LINE
  5
C9
330
45
100
AcDbEntity
  8
WORKLAYER
  6
Continuous
 62
     7
100
AcDbLine
 10
31.7002258301
 20
29.4999084473
 30
0.0
 11
4.0001220703
 21
29.4999084473
 31
0.0
  0
LINE
  5
CA
330
45
100
AcDbEntity
  8
WORKLAYER
  6
Continuous
 62
     7
100
AcDbLine
 10
4.0001220703
 20
29.4999084473
 30
0.0
 11
4.0001220703
 21
105.1999969482
 31
0.0
  0
LINE
  5
CB
330
45
100
AcDbEntity
  8
VIEW
  6
Continuous
 62
     7
100
AcDbLine
 10
4.4692993164
 20
9.1864013672
 30
0.0
 11
5.6693115234
 21
9.1864013672
 31
0.0
  0
LINE
  5
CC
330
45
100
AcDbEntity
  8
VIEW
  6
Continuous
 62
     7
100
AcDbLine
 10
31.5
 20
23.8047027588
 30
0.0
 11
31.6000976562
 21
23.904800415
 31
0.0
  0
LINE
  5
CD
330
45
100
AcDbEntity
  8
VIEW
  6
Continuous
 62
     7
100
AcDbLine
 10
31.6000976562
 20
24.704498291
 30
0.0
 11
31.5
 21
24.8047027588
 31
0.0
  0
LINE
  5
CE
330
45
100
AcDbEntity
  8
VIEW
  6
Continuous
 62
     7
100
AcDbLine
 10
4.5
 20
24.8047027588
 30
0.0
 11
4.4001159668
 21
24.7046966553
 31
0.0
  0
LINE
  5
CF
330
45
100
AcDbEntity
  8
VIEW
  6
Continuous
 62
     7
100
AcDbLine
 10
4.4001159668
 20
23.9046020508
 30
0.0
 11
4.5
 21
23.8047027588
 31
0.0
  0
LINE
  5
D0
330
45
100
AcDbEntity
  8
VIEW
  6
Continuous
 62
     7
100
AcDbLine
 10
6.4692993164
 20
6.1194000244
 30
0.0
 11
29.5307006836
 21
6.1194000244
 31
0.0
  0
LINE
  5
D1
330
45
100
AcDbEntity
  8
VIEW
  6
Continuous
 62
     7
100
AcDbLine
 10
29.5307006836
 20
5.0952072144
 30
0.0
 11
30.3307189941
 21
5.0952072144
 31
0.0
  0
LINE
  5
D2
330
45
100
AcDbEntity
  8
VIEW
  6
Continuous
 62
     7
100
AcDbLine
 10
5.6693115234
 20
5.0952072144
 30
0.0
 11
6.4692993164
 21
5.0952072144
 31
0.0
  0
LINE
  5
D3
330
45
100
AcDbEntity
  8
VIEW
  6
Continuous
 62
     7
100
AcDbLine
 10
5.3000183105
 20
27.8964996338
 30
0.0
 11
5.3000183105
 21
28.0
 31
0.0
  0
LINE
  5
D4
330
45
100
AcDbEntity
  8
VIEW
  6
Continuous
 62
     7
100
AcDbLine
 10
30.700012207
 20
28.0
 30
0.0
 11
30.700012207
 21
27.8964996338
 31
0.0
  0
LINE
  5
D5
330
45
100
AcDbEntity
  8
VIEW
  6
Continuous
 62
     7
100
AcDbLine
 10
30.3307189941
 20
15.047706604
 30
0.0
 11
31.5
 21
15.047706604
 31
0.0
  0
LINE
  5
D6
330
45
100
AcDbEntity
  8
VIEW
  6
Continuous
 62
     7
100
AcDbLine
 10
30.3307189941
 20
5.0952072144
 30
0.0
 11
30.3307189941
 21
15.047706604
 31
0.0
  0
LINE
  5
D7
330
45
100
AcDbEntity
  8
VIEW
  6
Continuous
 62
     7
100
AcDbLine
 10
5.6693115234
 20
15.047706604
 30
0.0
 11
5.6693115234
 21
5.0952072144
 31
0.0
  0
LINE
  5
D8
330
45
100
AcDbEntity
  8
VIEW
  6
Continuous
 62
     7
100
AcDbLine
 10
4.5
 20
15.047706604
 30
0.0
 11
5.6693115234
 21
15.047706604
 31
0.0
  0
LINE
  5
D9
330
45
100
AcDbEntity
  8
VIEW
  6
Continuous
 62
     7
100
AcDbLine
 10
4.5
 20
15.047706604
 30
0.0
 11
4.5
 21
28.0
 31
0.0
  0
LINE
  5
DA
330
45
100
AcDbEntity
  8
VIEW
  6
Continuous
 62
     7
100
AcDbLine
 10
31.5
 20
15.047706604
 30
0.0
 11
31.5
 21
28.0
 31
0.0
  0
LINE
  5
DB
330
45
100
AcDbEntity
  8
VIEW
  6
Continuous
 62
     7
100
AcDbLine
 10
29.5307006836
 20
6.2439041138
 30
0.0
 11
29.5307006836
 21
5.1015014648
 31
0.0
  0
LINE
  5
DC
330
45
100
AcDbEntity
  8
VIEW
  6
Continuous
 62
     7
100
AcDbLine
 10
6.4692993164
 20
5.1015014648
 30
0.0
 11
6.4692993164
 21
6.2439041138
 31
0.0
  0
LINE
  5
DD
330
45
100
AcDbEntity
  8
VIEW
  6
Continuous
 62
     7
100
AcDbLine
 10
31.5307006836
 20
9.9864044189
 30
0.0
 11
31.5307006836
 21
10.7863998413
 31
0.0
  0
LINE
  5
DE
330
45
100
AcDbEntity
  8
VIEW
  6
Continuous
 62
     7
100
AcDbLine
 10
31.5307006836
 20
9.1864013672
 30
0.0
 11
31.5307006836
 21
9.9864044189
 31
0.0
  0
LINE
  5
DF
330
45
100
AcDbEntity
  8
VIEW
  6
Continuous
 62
     7
100
AcDbLine
 10
4.4692993164
 20
9.9864044189
 30
0.0
 11
4.4692993164
 21
10.7863998413
 31
0.0
  0
LINE
  5
E0
330
45
100
AcDbEntity
  8
VIEW
  6
Continuous
 62
     7
100
AcDbLine
 10
4.4692993164
 20
9.1864013672
 30
0.0
 11
4.4692993164
 21
9.9864044189
 31
0.0
  0
LINE
  5
E1
330
45
100
AcDbEntity
  8
WORKLAYER
  6
Continuous
 62
     7
100
AcDbLine
 10
13.2001037598
 20
89.25
 30
0.0
 11
11.2001037598
 21
89.25
 31
0.0
  0
LINE
  5
E2
330
45
100
AcDbEntity
  8
WORKLAYER
  6
Continuous
 62
     7
100
AcDbLine
 10
14.2001037598
 20
89.0
 30
0.0
 11
13.2001037598
 21
88.0
 31
0.0
  0
LINE
  5
E3
330
45
100
AcDbEntity
  8
WORKLAYER
  6
Continuous
 62
     7
100
AcDbLine
 10
14.2001037598
 20
89.0
 30
0.0
 11
13.2001037598
 21
90.0
 31
0.0
  0
LINE
  5
E4
330
45
100
AcDbEntity
  8
WORKLAYER
  6
Continuous
 62
     7
100
AcDbLine
 10
11.2001037598
 20
88.75
 30
0.0
 11
11.2001037598
 21
89.25
 31
0.0
  0
LINE
  5
E5
330
45
100
AcDbEntity
  8
WORKLAYER
  6
Continuous
 62
     7
100
AcDbLine
 10
13.2001037598
 20
88.75
 30
0.0
 11
11.2001037598
 21
88.75
 31
0.0
  0
LINE
  5
E6
330
45
100
AcDbEntity
  8
WORKLAYER
  6
Continuous
 62
     7
100
AcDbLine
 10
13.2001037598
 20
90.0
 30
0.0
 11
13.2001037598
 21
89.25
 31
0.0
  0
LINE
  5
E7
330
45
100
AcDbEntity
  8
WORKLAYER
  6
Continuous
 62
     7
100
AcDbLine
 10
13.2001037598
 20
88.75
 30
0.0
 11
13.2001037598
 21
88.0
 31
0.0
  0
LINE
  5
E8
330
45
100
AcDbEntity
  8
WORKLAYER
  6
Continuous
 62
     7
100
AcDbLine
 10
16.7001037598
 20
70.8999023438
 30
0.0
 11
16.7001037598
 21
92.1000976563
 31
0.0
  0
LINE
  5
E9
330
45
100
AcDbEntity
  8
WORKLAYER
  6
Continuous
 62
     7
100
AcDbLine
 10
15.7001037598
 20
93.1000976563
 30
0.0
 11
9.2001037598
 21
93.1000976563
 31
0.0
  0
LINE
  5
EA
330
45
100
AcDbEntity
  8
WORKLAYER
  6
Continuous
 62
     7
100
AcDbLine
 10
9.2001037598
 20
69.8999023438
 30
0.0
 11
15.7001037598
 21
69.8999023438
 31
0.0
  0
LINE
  5
EB
330
45
100
AcDbEntity
  8
WORKLAYER
  6
Continuous
 62
     7
100
AcDbLine
 10
8.2001037598
 20
70.8999023438
 30
0.0
 11
8.2001037598
 21
92.1000976563
 31
0.0
  0
LINE
  5
EC
330
45
100
AcDbEntity
  8
WORKLAYER
  6
Continuous
 62
     7
100
AcDbLine
 10
32.000213623
 20
105.5
 30
0.0
 11
4.000213623
 21
105.5
 31
0.0
  0
LINE
  5
ED
330
45
100
AcDbEntity
  8
WORKLAYER
  6
Continuous
 62
     7
100
AcDbLine
 10
4.000213623
 20
105.5
 30
0.0
 11
4.000213623
 21
29.4999084473
 31
0.0
  0
LINE
  5
EE
330
45
100
AcDbEntity
  8
WORKLAYER
  6
Continuous
 62
     7
100
AcDbLine
 10
4.000213623
 20
29.4999084473
 30
0.0
 11
32.000213623
 21
29.4999084473
 31
0.0
  0
LINE
  5
EF
330
45
100
AcDbEntity
  8
WORKLAYER
  6
Continuous
 62
     7
100
AcDbLine
 10
32.000213623
 20
29.4999084473
 30
0.0
 11
32.000213623
 21
105.5
 31
0.0
  0
LINE
  5
F0
330
45
100
AcDbEntity
  8
WORKLAYER
  6
Continuous
 62
     7
100
AcDbLine
 10
13.2001037598
 20
81.7499084473
 30
0.0
 11
11.2001037598
 21
81.7499084473
 31
0.0
  0
LINE
  5
F1
330
45
100
AcDbEntity
  8
WORKLAYER
  6
Continuous
 62
     7
100
AcDbLine
 10
14.2001037598
 20
81.4999084473
 30
0.0
 11
13.2001037598
 21
80.4999084473
 31
0.0
  0
LINE
  5
F2
330
45
100
AcDbEntity
  8
WORKLAYER
  6
Continuous
 62
     7
100
AcDbLine
 10
14.2001037598
 20
81.4999084473
 30
0.0
 11
13.2001037598
 21
82.4999084473
 31
0.0
  0
LINE
  5
F3
330
45
100
AcDbEntity
  8
WORKLAYER
  6
Continuous
 62
     7
100
AcDbLine
 10
11.2001037598
 20
81.2499084473
 30
0.0
 11
11.2001037598
 21
81.7499084473
 31
0.0
  0
LINE
  5
F4
330
45
100
AcDbEntity
  8
WORKLAYER
  6
Continuous
 62
     7
100
AcDbLine
 10
13.2001037598
 20
81.2499084473
 30
0.0
 11
11.2001037598
 21
81.2499084473
 31
0.0
  0
LINE
  5
F5
330
45
100
AcDbEntity
  8
WORKLAYER
  6
Continuous
 62
     7
100
AcDbLine
 10
13.2001037598
 20
82.4999084473
 30
0.0
 11
13.2001037598
 21
81.7499084473
 31
0.0
  0
LINE
  5
F6
330
45
100
AcDbEntity
  8
WORKLAYER
  6
Continuous
 62
     7
100
AcDbLine
 10
13.2001037598
 20
81.2499084473
 30
0.0
 11
13.2001037598
 21
80.4999084473
 31
0.0
  0
LINE
  5
F7
330
45
100
AcDbEntity
  8
WORKLAYER
  6
Continuous
 62
     7
100
AcDbLine
 10
13.2001037598
 20
74.2499084473
 30
0.0
 11
11.2001037598
 21
74.2499084473
 31
0.0
  0
LINE
  5
F8
330
45
100
AcDbEntity
  8
WORKLAYER
  6
Continuous
 62
     7
100
AcDbLine
 10
14.2001037598
 20
73.9999084473
 30
0.0
 11
13.2001037598
 21
72.9999084473
 31
0.0
  0
LINE
  5
F9
330
45
100
AcDbEntity
  8
WORKLAYER
  6
Continuous
 62
     7
100
AcDbLine
 10
14.2001037598
 20
73.9999084473
 30
0.0
 11
13.2001037598
 21
74.9999084473
 31
0.0
  0
LINE
  5
FA
330
45
100
AcDbEntity
  8
WORKLAYER
  6
Continuous
 62
     7
100
AcDbLine
 10
11.2001037598
 20
73.7499084473
 30
0.0
 11
11.2001037598
 21
74.2499084473
 31
0.0
  0
LINE
  5
FB
330
45
100
AcDbEntity
  8
WORKLAYER
  6
Continuous
 62
     7
100
AcDbLine
 10
13.2001037598
 20
73.7499084473
 30
0.0
 11
11.2001037598
 21
73.7499084473
 31
0.0
  0
LINE
  5
FC
330
45
100
AcDbEntity
  8
WORKLAYER
  6
Continuous
 62
     7
100
AcDbLine
 10
13.2001037598
 20
74.9999084473
 30
0.0
 11
13.2001037598
 21
74.2499084473
 31
0.0
  0
LINE
  5
FD
330
45
100
AcDbEntity
  8
WORKLAYER
  6
Continuous
 62
     7
100
AcDbLine
 10
13.2001037598
 20
73.7499084473
 30
0.0
 11
13.2001037598
 21
72.9999084473
 31
0.0
  0
LINE
  5
FE
330
45
100
AcDbEntity
  8
WORKLAYER
  6
Continuous
 62
     7
100
AcDbLine
 10
17.8601989746
 20
97.9999084473
 30
0.0
 11
19.8601989746
 21
97.9999084473
 31
0.0
  0
LINE
  5
FF
330
45
100
AcDbEntity
  8
WORKLAYER
  6
Continuous
 62
     7
100
AcDbLine
 10
19.8601989746
 20
97.9999084473
 30
0.0
 11
19.8601989746
 21
100.9999084473
 31
0.0
  0
LINE
  5
100
330
45
100
AcDbEntity
  8
WORKLAYER
  6
Continuous
 62
     7
100
AcDbLine
 10
19.8601989746
 20
100.9999084473
 30
0.0
 11
17.8601989746
 21
100.9999084473
 31
0.0
  0
LINE
  5
101
330
45
100
AcDbEntity
  8
WORKLAYER
  6
Continuous
 62
     7
100
AcDbLine
 10
17.8601989746
 20
100.9999084473
 30
0.0
 11
17.8601989746
 21
97.9999084473
 31
0.0
  0
LINE
  5
102
330
45
100
AcDbEntity
  8
WORKLAYER
  6
Continuous
 62
     7
100
AcDbLine
 10
15.3203125
 20
97.9999084473
 30
0.0
 11
17.3203125
 21
97.9999084473
 31
0.0
  0
LINE
  5
103
330
45
100
AcDbEntity
  8
WORKLAYER
  6
Continuous
 62
     7
100
AcDbLine
 10
17.3203125
 20
97.9999084473
 30
0.0
 11
17.3203125
 21
100.9999084473
 31
0.0
  0
LINE
  5
104
330
45
100
AcDbEntity
  8
WORKLAYER
  6
Continuous
 62
     7
100
AcDbLine
 10
17.3203125
 20
100.9999084473
 30
0.0
 11
15.3203125
 21
100.9999084473
 31
0.0
  0
LINE
  5
105
330
45
100
AcDbEntity
  8
WORKLAYER
  6
Continuous
 62
     7
100
AcDbLine
 10
15.3203125
 20
100.9999084473
 30
0.0
 11
15.3203125
 21
97.9999084473
 31
0.0
  0
LINE
  5
106
330
45
100
AcDbEntity
  8
WORKLAYER
  6
Continuous
 62
     7
100
AcDbLine
 10
12.7802124023
 20
97.9999084473
 30
0.0
 11
14.7802124023
 21
97.9999084473
 31
0.0
  0
LINE
  5
107
330
45
100
AcDbEntity
  8
WORKLAYER
  6
Continuous
 62
     7
100
AcDbLine
 10
14.7802124023
 20
97.9999084473
 30
0.0
 11
14.7802124023
 21
100.9999084473
 31
0.0
  0
LINE
  5
108
330
45
100
AcDbEntity
  8
WORKLAYER
  6
Continuous
 62
     7
100
AcDbLine
 10
14.7802124023
 20
100.9999084473
 30
0.0
 11
12.7802124023
 21
100.9999084473
 31
0.0
  0
LINE
  5
109
330
45
100
AcDbEntity
  8
WORKLAYER
  6
Continuous
 62
     7
100
AcDbLine
 10
12.7802124023
 20
100.9999084473
 30
0.0
 11
12.7802124023
 21
97.9999084473
 31
0.0
  0
LINE
  5
10A
330
45
100
AcDbEntity
  8
WORKLAYER
  6
Continuous
 62
     7
100
AcDbLine
 10
10.2402038574
 20
97.9999084473
 30
0.0
 11
12.2402038574
 21
97.9999084473
 31
0.0
  0
LINE
  5
10B
330
45
100
AcDbEntity
  8
WORKLAYER
  6
Continuous
 62
     7
100
AcDbLine
 10
12.2402038574
 20
97.9999084473
 30
0.0
 11
12.2402038574
 21
100.9999084473
 31
0.0
  0
LINE
  5
10C
330
45
100
AcDbEntity
  8
WORKLAYER
  6
Continuous
 62
     7
100
AcDbLine
 10
12.2402038574
 20
100.9999084473
 30
0.0
 11
10.2402038574
 21
100.9999084473
 31
0.0
  0
LINE
  5
10D
330
45
100
AcDbEntity
  8
WORKLAYER
  6
Continuous
 62
     7
100
AcDbLine
 10
10.2402038574
 20
100.9999084473
 30
0.0
 11
10.2402038574
 21
97.9999084473
 31
0.0
  0
LINE
  5
10E
330
45
100
AcDbEntity
  8
WORKLAYER
  6
Continuous
 62
     7
100
AcDbLine
 10
9.2001037598
 20
88.5
 30
0.0
 11
8.7001037598
 21
88.5
 31
0.0
  0
LINE
  5
10F
330
45
100
AcDbEntity
  8
WORKLAYER
  6
Continuous
 62
     7
100
AcDbLine
 10
8.7001037598
 20
88.5
 30
0.0
 11
8.7001037598
 21
88.75
 31
0.0
  0
LINE
  5
110
330
45
100
AcDbEntity
  8
WORKLAYER
  6
Continuous
 62
     7
100
AcDbLine
 10
8.7001037598
 20
89.25
 30
0.0
 11
8.7001037598
 21
89.4999084473
 31
0.0
  0
LINE
  5
111
330
45
100
AcDbEntity
  8
WORKLAYER
  6
Continuous
 62
     7
100
AcDbLine
 10
8.7001037598
 20
89.4999084473
 30
0.0
 11
9.2001037598
 21
89.4999084473
 31
0.0
  0
LINE
  5
112
330
45
100
AcDbEntity
  8
WORKLAYER
  6
Continuous
 62
     7
100
AcDbLine
 10
9.2001037598
 20
85.3999023438
 30
0.0
 11
16.2001037598
 21
85.3999023438
 31
0.0
  0
LINE
  5
113
330
45
100
AcDbEntity
  8
WORKLAYER
  6
Continuous
 62
     7
100
AcDbLine
 10
16.2001037598
 20
85.3999023438
 30
0.0
 11
16.2001037598
 21
92.6000976563
 31
0.0
  0
LINE
  5
114
330
45
100
AcDbEntity
  8
WORKLAYER
  6
Continuous
 62
     7
100
AcDbLine
 10
16.2001037598
 20
92.6000976563
 30
0.0
 11
9.2001037598
 21
92.6000976563
 31
0.0
  0
LINE
  5
115
330
45
100
AcDbEntity
  8
WORKLAYER
  6
Continuous
 62
     7
100
AcDbLine
 10
9.2001037598
 20
92.6000976563
 30
0.0
 11
9.2001037598
 21
85.3999023438
 31
0.0
  0
LINE
  5
116
330
45
100
AcDbEntity
  8
WORKLAYER
  6
Continuous
 62
     7
100
AcDbLine
 10
9.2001037598
 20
77.8999023438
 30
0.0
 11
16.2001037598
 21
77.8999023438
 31
0.0
  0
LINE
  5
117
330
45
100
AcDbEntity
  8
WORKLAYER
  6
Continuous
 62
     7
100
AcDbLine
 10
16.2001037598
 20
77.8999023438
 30
0.0
 11
16.2001037598
 21
85.1000976563
 31
0.0
  0
LINE
  5
118
330
45
100
AcDbEntity
  8
WORKLAYER
  6
Continuous
 62
     7
100
AcDbLine
 10
16.2001037598
 20
85.1000976563
 30
0.0
 11
9.2001037598
 21
85.1000976563
 31
0.0
  0
LINE
  5
119
330
45
100
AcDbEntity
  8
WORKLAYER
  6
Continuous
 62
     7
100
AcDbLine
 10
9.2001037598
 20
85.1000976563
 30
0.0
 11
9.2001037598
 21
77.8999023438
 31
0.0
  0
LINE
  5
11A
330
45
100
AcDbEntity
  8
WORKLAYER
  6
Continuous
 62
     7
100
AcDbLine
 10
9.2001037598
 20
91.0399017334
 30
0.0
 11
8.7001037598
 21
91.0399017334
 31
0.0
  0
LINE
  5
11B
330
45
100
AcDbEntity
  8
WORKLAYER
  6
Continuous
 62
     7
100
AcDbLine
 10
8.7001037598
 20
91.0399017334
 30
0.0
 11
8.7001037598
 21
91.2899017334
 31
0.0
  0
LINE
  5
11C
330
45
100
AcDbEntity
  8
WORKLAYER
  6
Continuous
 62
     7
100
AcDbLine
 10
8.7001037598
 20
91.7899017334
 30
0.0
 11
8.7001037598
 21
92.0399017334
 31
0.0
  0
LINE
  5
11D
330
45
100
AcDbEntity
  8
WORKLAYER
  6
Continuous
 62
     7
100
AcDbLine
 10
8.7001037598
 20
92.0399017334
 30
0.0
 11
9.2001037598
 21
92.0399017334
 31
0.0
  0
LINE
  5
11E
330
45
100
AcDbEntity
  8
WORKLAYER
  6
Continuous
 62
     7
100
AcDbLine
 10
9.2001037598
 20
85.9600067139
 30
0.0
 11
8.7001037598
 21
85.9600067139
 31
0.0
  0
LINE
  5
11F
330
45
100
AcDbEntity
  8
WORKLAYER
  6
Continuous
 62
     7
100
AcDbLine
 10
8.7001037598
 20
85.9600067139
 30
0.0
 11
8.7001037598
 21
86.2100067139
 31
0.0
  0
LINE
  5
120
330
45
100
AcDbEntity
  8
WORKLAYER
  6
Continuous
 62
     7
100
AcDbLine
 10
8.7001037598
 20
86.7100067139
 30
0.0
 11
8.7001037598
 21
86.9600067139
 31
0.0
  0
LINE
  5
121
330
45
100
AcDbEntity
  8
WORKLAYER
  6
Continuous
 62
     7
100
AcDbLine
 10
8.7001037598
 20
86.9600067139
 30
0.0
 11
9.2001037598
 21
86.9600067139
 31
0.0
  0
LINE
  5
122
330
45
100
AcDbEntity
  8
WORKLAYER
  6
Continuous
 62
     7
100
AcDbLine
 10
9.2001037598
 20
81.0
 30
0.0
 11
8.7001037598
 21
81.0
 31
0.0
  0
LINE
  5
123
330
45
100
AcDbEntity
  8
WORKLAYER
  6
Continuous
 62
     7
100
AcDbLine
 10
8.7001037598
 20
81.0
 30
0.0
 11
8.7001037598
 21
81.25
 31
0.0
  0
LINE
  5
124
330
45
100
AcDbEntity
  8
WORKLAYER
  6
Continuous
 62
     7
100
AcDbLine
 10
8.7001037598
 20
81.75
 30
0.0
 11
8.7001037598
 21
81.9999084473
 31
0.0
  0
LINE
  5
125
330
45
100
AcDbEntity
  8
WORKLAYER
  6
Continuous
 62
     7
100
AcDbLine
 10
8.7001037598
 20
81.9999084473
 30
0.0
 11
9.2001037598
 21
81.9999084473
 31
0.0
  0
LINE
  5
126
330
45
100
AcDbEntity
  8
WORKLAYER
  6
Continuous
 62
     7
100
AcDbLine
 10
9.2001037598
 20
83.5399017334
 30
0.0
 11
8.7001037598
 21
83.5399017334
 31
0.0
  0
LINE
  5
127
330
45
100
AcDbEntity
  8
WORKLAYER
  6
Continuous
 62
     7
100
AcDbLine
 10
8.7001037598
 20
83.5399017334
 30
0.0
 11
8.7001037598
 21
83.7899017334
 31
0.0
  0
LINE
  5
128
330
45
100
AcDbEntity
  8
WORKLAYER
  6
Continuous
 62
     7
100
AcDbLine
 10
8.7001037598
 20
84.2899017334
 30
0.0
 11
8.7001037598
 21
84.5399017334
 31
0.0
  0
LINE
  5
129
330
45
100
AcDbEntity
  8
WORKLAYER
  6
Continuous
 62
     7
100
AcDbLine
 10
8.7001037598
 20
84.5399017334
 30
0.0
 11
9.2001037598
 21
84.5399017334
 31
0.0
  0
LINE
  5
12A
330
45
100
AcDbEntity
  8
WORKLAYER
  6
Continuous
 62
     7
100
AcDbLine
 10
9.2001037598
 20
78.4600067139
 30
0.0
 11
8.7001037598
 21
78.4600067139
 31
0.0
  0
LINE
  5
12B
330
45
100
AcDbEntity
  8
WORKLAYER
  6
Continuous
 62
     7
100
AcDbLine
 10
8.7001037598
 20
78.4600067139
 30
0.0
 11
8.7001037598
 21
78.7100067139
 31
0.0
  0
LINE
  5
12C
330
45
100
AcDbEntity
  8
WORKLAYER
  6
Continuous
 62
     7
100
AcDbLine
 10
8.7001037598
 20
79.2100067139
 30
0.0
 11
8.7001037598
 21
79.4600067139
 31
0.0
  0
LINE
  5
12D
330
45
100
AcDbEntity
  8
WORKLAYER
  6
Continuous
 62
     7
100
AcDbLine
 10
8.7001037598
 20
79.4600067139
 30
0.0
 11
9.2001037598
 21
79.4600067139
 31
0.0
  0
LINE
  5
12E
330
45
100
AcDbEntity
  8
WORKLAYER
  6
Continuous
 62
     7
100
AcDbLine
 10
9.2001037598
 20
70.3999023438
 30
0.0
 11
16.2001037598
 21
70.3999023438
 31
0.0
  0
LINE
  5
12F
330
45
100
AcDbEntity
  8
WORKLAYER
  6
Continuous
 62
     7
100
AcDbLine
 10
16.2001037598
 20
70.3999023438
 30
0.0
 11
16.2001037598
 21
77.6000976562
 31
0.0
  0
LINE
  5
130
330
45
100
AcDbEntity
  8
WORKLAYER
  6
Continuous
 62
     7
100
AcDbLine
 10
16.2001037598
 20
77.6000976562
 30
0.0
 11
9.2001037598
 21
77.6000976562
 31
0.0
  0
LINE
  5
131
330
45
100
AcDbEntity
  8
WORKLAYER
  6
Continuous
 62
     7
100
AcDbLine
 10
9.2001037598
 20
77.6000976562
 30
0.0
 11
9.2001037598
 21
70.3999023438
 31
0.0
  0
LINE
  5
132
330
45
100
AcDbEntity
  8
WORKLAYER
  6
Continuous
 62
     7
100
AcDbLine
 10
9.2001037598
 20
76.0399017334
 30
0.0
 11
8.7001037598
 21
76.0399017334
 31
0.0
  0
LINE
  5
133
330
45
100
AcDbEntity
  8
WORKLAYER
  6
Continuous
 62
     7
100
AcDbLine
 10
8.7001037598
 20
76.0399017334
 30
0.0
 11
8.7001037598
 21
76.2899017334
 31
0.0
  0
LINE
  5
134
330
45
100
AcDbEntity
  8
WORKLAYER
  6
Continuous
 62
     7
100
AcDbLine
 10
8.7001037598
 20
76.7899017334
 30
0.0
 11
8.7001037598
 21
77.0399017334
 31
0.0
  0
LINE
  5
135
330
45
100
AcDbEntity
  8
WORKLAYER
  6
Continuous
 62
     7
100
AcDbLine
 10
8.7001037598
 20
77.0399017334
 30
0.0
 11
9.2001037598
 21
77.0399017334
 31
0.0
  0
LINE
  5
136
330
45
100
AcDbEntity
  8
WORKLAYER
  6
Continuous
 62
     7
100
AcDbLine
 10
9.2001037598
 20
73.5
 30
0.0
 11
8.7001037598
 21
73.5
 31
0.0
  0
LINE
  5
137
330
45
100
AcDbEntity
  8
WORKLAYER
  6
Continuous
 62
     7
100
AcDbLine
 10
8.7001037598
 20
73.5
 30
0.0
 11
8.7001037598
 21
73.75
 31
0.0
  0
LINE
  5
138
330
45
100
AcDbEntity
  8
WORKLAYER
  6
Continuous
 62
     7
100
AcDbLine
 10
8.7001037598
 20
74.25
 30
0.0
 11
8.7001037598
 21
74.4999084473
 31
0.0
  0
LINE
  5
139
330
45
100
AcDbEntity
  8
WORKLAYER
  6
Continuous
 62
     7
100
AcDbLine
 10
8.7001037598
 20
74.4999084473
 30
0.0
 11
9.2001037598
 21
74.4999084473
 31
0.0
  0
LINE
  5
13A
330
45
100
AcDbEntity
  8
WORKLAYER
  6
Continuous
 62
     7
100
AcDbLine
 10
9.2001037598
 20
70.9600067139
 30
0.0
 11
8.7001037598
 21
70.9600067139
 31
0.0
  0
LINE
  5
13B
330
45
100
AcDbEntity
  8
WORKLAYER
  6
Continuous
 62
     7
100
AcDbLine
 10
8.7001037598
 20
70.9600067139
 30
0.0
 11
8.7001037598
 21
71.2100067139
 31
0.0
  0
LINE
  5
13C
330
45
100
AcDbEntity
  8
WORKLAYER
  6
Continuous
 62
     7
100
AcDbLine
 10
8.7001037598
 20
71.7100067139
 30
0.0
 11
8.7001037598
 21
71.9600067139
 31
0.0
  0
LINE
  5
13D
330
45
100
AcDbEntity
  8
WORKLAYER
  6
Continuous
 62
     7
100
AcDbLine
 10
8.7001037598
 20
71.9600067139
 30
0.0
 11
9.2001037598
 21
71.9600067139
 31
0.0
  0
LINE
  5
13E
330
45
100
AcDbEntity
  8
VIEW
  6
Continuous
 62
     7
100
AcDbLine
 10
28.0999145508
 20
129.5
 30
0.0
 11
21.8999023437
 21
129.5
 31
0.0
  0
LINE
  5
13F
330
45
100
AcDbEntity
  8
VIEW
  6
Continuous
 62
     7
100
AcDbLine
 10
14.0999145508
 20
129.5
 30
0.0
 11
7.8999023437
 21
129.5
 31
0.0
  0
LINE
  5
140
330
45
100
AcDbEntity
  8
VIEW
  6
Continuous
 62
     7
100
AcDbLine
 10
14.8999023437
 20
5.5
 30
0.0
 11
21.0999145508
 21
5.5
 31
0.0
  0
LINE
  5
141
330
45
100
AcDbEntity
  8
VIEW
  6
Continuous
 62
     7
100
AcDbLine
 10
21.8999023437
 20
5.5
 30
0.0
 11
28.0999145508
 21
5.5
 31
0.0
  0
LINE
  5
142
330
45
100
AcDbEntity
  8
VIEW
  6
Continuous
 62
     7
100
AcDbLine
 10
21.0999145508
 20
129.5
 30
0.0
 11
14.8999023437
 21
129.5
 31
0.0
  0
LINE
  5
143
330
45
100
AcDbEntity
  8
VIEW
  6
Continuous
 62
     7
100
AcDbLine
 10
7.8999023437
 20
5.5
 30
0.0
 11
14.0999145508
 21
5.5
 31
0.0
  0
LINE
  5
144
330
45
100
AcDbEntity
  8
VIEW
  6
Continuous
 62
     7
100
AcDbLine
 10
31.7999267578
 20
106.9000091553
 30
0.0
 11
31.7999267578
 21
106.5
 31
0.0
  0
LINE
  5
145
330
45
100
AcDbEntity
  8
VIEW
  6
Continuous
 62
     7
100
AcDbLine
 10
33.0
 20
5.2000045776
 30
0.0
 11
33.0
 21
129.8000030518
 31
0.0
  0
LINE
  5
146
330
45
100
AcDbEntity
  8
VIEW
  6
Continuous
 62
     7
100
AcDbLine
 10
23.0
 20
106.5
 30
0.0
 11
23.0
 21
107.1035003662
 31
0.0
  0
LINE
  5
147
330
45
100
AcDbEntity
  8
VIEW
  6
Continuous
 62
     7
100
AcDbLine
 10
28.0999145508
 20
5.0
 30
0.0
 11
28.0999145508
 21
6.1194000244
 31
0.0
  0
LINE
  5
148
330
45
100
AcDbEntity
  8
VIEW
  6
Continuous
 62
     7
100
AcDbLine
 10
14.8999023437
 20
6.1194000244
 30
0.0
 11
14.8999023437
 21
5.0
 31
0.0
  0
LINE
  5
149
330
45
100
AcDbEntity
  8
VIEW
  6
Continuous
 62
     7
100
AcDbLine
 10
14.0999145508
 20
5.0
 30
0.0
 11
14.0999145508
 21
6.1194000244
 31
0.0
  0
LINE
  5
14A
330
45
100
AcDbEntity
  8
VIEW
  6
Continuous
 62
     7
100
AcDbLine
 10
7.8999023437
 20
6.1194000244
 30
0.0
 11
7.8999023437
 21
5.0
 31
0.0
  0
LINE
  5
14B
330
45
100
AcDbEntity
  8
VIEW
  6
Continuous
 62
     7
100
AcDbLine
 10
21.0999145508
 20
5.0
 30
0.0
 11
21.0999145508
 21
6.1194000244
 31
0.0
  0
LINE
  5
14C
330
45
100
AcDbEntity
  8
VIEW
  6
Continuous
 62
     7
100
AcDbLine
 10
21.8999023437
 20
6.1194000244
 30
0.0
 11
21.8999023437
 21
5.0
 31
0.0
  0
LINE
  5
14D
330
45
100
AcDbEntity
  8
VIEW
  6
Continuous
 62
     7
100
AcDbLine
 10
31.0
 20
14.0
 30
0.0
 11
31.0
 21
10.7863998413
 31
0.0
  0
LINE
  5
14E
330
45
100
AcDbEntity
  8
VIEW
  6
Continuous
 62
     7
100
AcDbLine
 10
31.0
 20
9.1864013672
 30
0.0
 11
31.0
 21
5.0
 31
0.0
  0
LINE
  5
14F
330
45
100
AcDbEntity
  8
VIEW
  6
Continuous
 62
     7
100
AcDbLine
 10
31.5999145508
 20
14.0
 30
0.0
 11
31.0
 21
14.0
 31
0.0
  0
LINE
  5
150
330
45
100
AcDbEntity
  8
VIEW
  6
Continuous
 62
     7
100
AcDbLine
 10
31.5999145508
 20
28.4000091553
 30
0.0
 11
31.5999145508
 21
14.0
 31
0.0
  0
LINE
  5
151
330
45
100
AcDbEntity
  8
VIEW
  6
Continuous
 62
     7
100
AcDbLine
 10
30.200012207
 20
28.4000091553
 30
0.0
 11
31.5999145508
 21
28.4000091553
 31
0.0
  0
LINE
  5
152
330
45
100
AcDbEntity
  8
VIEW
  6
Continuous
 62
     7
100
AcDbLine
 10
5.0
 20
14.0
 30
0.0
 11
4.3999023437
 21
14.0
 31
0.0
  0
LINE
  5
153
330
45
100
AcDbEntity
  8
VIEW
  6
Continuous
 62
     7
100
AcDbLine
 10
4.3999023437
 20
14.0
 30
0.0
 11
4.3999023437
 21
28.4000091553
 31
0.0
  0
LINE
  5
154
330
45
100
AcDbEntity
  8
VIEW
  6
Continuous
 62
     7
100
AcDbLine
 10
32.7999267578
 20
10.8501052856
 30
0.0
 11
31.0
 21
10.8501052856
 31
0.0
  0
LINE
  5
155
330
45
100
AcDbEntity
  8
VIEW
  6
Continuous
 62
     7
100
AcDbLine
 10
5.0
 20
10.8501052856
 30
0.0
 11
3.200012207
 21
10.8501052856
 31
0.0
  0
LINE
  5
156
330
45
100
AcDbEntity
  8
VIEW
  6
Continuous
 62
     7
100
AcDbLine
 10
5.0
 20
14.0
 30
0.0
 11
5.0
 21
10.7863998413
 31
0.0
  0
LINE
  5
157
330
45
100
AcDbEntity
  8
VIEW
  6
Continuous
 62
     7
100
AcDbLine
 10
5.0
 20
9.1864013672
 30
0.0
 11
5.0
 21
5.0
 31
0.0
  0
LINE
  5
158
330
45
100
AcDbEntity
  8
VIEW
  6
Continuous
 62
     7
100
AcDbLine
 10
3.200012207
 20
9.1500045806
 30
0.0
 11
5.0
 21
9.1500015259
 31
0.0
  0
LINE
  5
159
330
45
100
AcDbEntity
  8
VIEW
  6
Continuous
 62
     7
100
AcDbLine
 10
31.0
 20
9.1500015259
 30
0.0
 11
32.7999267578
 21
9.1500045806
 31
0.0
  0
LINE
  5
15A
330
45
100
AcDbEntity
  8
VIEW
  6
Continuous
 62
     7
100
AcDbLine
 10
3.0
 20
5.2000045776
 30
0.0
 11
3.0
 21
129.8000030518
 31
0.0
  0
LINE
  5
15B
330
45
100
AcDbEntity
  8
VIEW
  6
Continuous
 62
     7
100
AcDbLine
 10
32.7999267578
 20
5.0000045747
 30
0.0
 11
3.200012207
 21
5.0000045747
 31
0.0
  0
LINE
  5
15C
330
45
100
AcDbEntity
  8
VIEW
  6
Continuous
 62
     7
100
AcDbLine
 10
30.200012207
 20
27.8964996338
 30
0.0
 11
30.200012207
 21
28.5
 31
0.0
  0
LINE
  5
15D
330
45
100
AcDbEntity
  8
VIEW
  6
Continuous
 62
     7
100
AcDbLine
 10
5.7999267578
 20
107.1035003662
 30
0.0
 11
5.7999267578
 21
106.5
 31
0.0
  0
LINE
  5
15E
330
45
100
AcDbEntity
  8
VIEW
  6
Continuous
 62
     7
100
AcDbLine
 10
13.0
 20
107.1035003662
 30
0.0
 11
13.0
 21
106.5
 31
0.0
  0
LINE
  5
15F
330
45
100
AcDbEntity
  8
VIEW
  6
Continuous
 62
     7
100
AcDbLine
 10
28.0999145508
 20
128.8807067871
 30
0.0
 11
28.0999145508
 21
130.0
 31
0.0
  0
LINE
  5
160
330
45
100
AcDbEntity
  8
VIEW
  6
Continuous
 62
     7
100
AcDbLine
 10
14.0999145508
 20
128.8807067871
 30
0.0
 11
14.0999145508
 21
130.0
 31
0.0
  0
LINE
  5
161
330
45
100
AcDbEntity
  8
VIEW
  6
Continuous
 62
     7
100
AcDbLine
 10
14.8999023437
 20
130.0
 30
0.0
 11
14.8999023437
 21
128.8807067871
 31
0.0
  0
LINE
  5
162
330
45
100
AcDbEntity
  8
VIEW
  6
Continuous
 62
     7
100
AcDbLine
 10
7.8999023437
 20
130.0
 30
0.0
 11
7.8999023437
 21
128.8807067871
 31
0.0
  0
LINE
  5
163
330
45
100
AcDbEntity
  8
VIEW
  6
Continuous
 62
     7
100
AcDbLine
 10
5.7999267578
 20
28.5
 30
0.0
 11
5.7999267578
 21
27.8964996338
 31
0.0
  0
LINE
  5
164
330
45
100
AcDbEntity
  8
VIEW
  6
Continuous
 62
     7
100
AcDbLine
 10
5.0
 20
121.0
 30
0.0
 11
5.0
 21
124.2136077881
 31
0.0
  0
LINE
  5
165
330
45
100
AcDbEntity
  8
VIEW
  6
Continuous
 62
     7
100
AcDbLine
 10
5.0
 20
125.8135986328
 30
0.0
 11
5.0
 21
130.0
 31
0.0
  0
LINE
  5
166
330
45
100
AcDbEntity
  8
VIEW
  6
Continuous
 62
     7
100
AcDbLine
 10
4.3999023437
 20
121.0
 30
0.0
 11
5.0
 21
121.0
 31
0.0
  0
LINE
  5
167
330
45
100
AcDbEntity
  8
VIEW
  6
Continuous
 62
     7
100
AcDbLine
 10
4.3999023437
 20
106.6000976562
 30
0.0
 11
4.3999023437
 21
121.0
 31
0.0
  0
LINE
  5
168
330
45
100
AcDbEntity
  8
VIEW
  6
Continuous
 62
     7
100
AcDbLine
 10
5.7999267578
 20
106.6000976562
 30
0.0
 11
4.3999023437
 21
106.6000976562
 31
0.0
  0
LINE
  5
169
330
45
100
AcDbEntity
  8
VIEW
  6
Continuous
 62
     7
100
AcDbLine
 10
4.3999023437
 20
28.4000091553
 30
0.0
 11
5.7999267578
 21
28.4000091553
 31
0.0
  0
LINE
  5
16A
330
45
100
AcDbEntity
  8
VIEW
  6
Continuous
 62
     7
100
AcDbLine
 10
32.7999267578
 20
106.9000091553
 30
0.0
 11
30.200012207
 21
106.9000091553
 31
0.0
  0
LINE
  5
16B
330
45
100
AcDbEntity
  8
VIEW
  6
Continuous
 62
     7
100
AcDbLine
 10
31.0
 20
121.0
 30
0.0
 11
31.5999145508
 21
121.0
 31
0.0
  0
LINE
  5
16C
330
45
100
AcDbEntity
  8
VIEW
  6
Continuous
 62
     7
100
AcDbLine
 10
31.0
 20
130.0
 30
0.0
 11
31.0
 21
125.8135986328
 31
0.0
  0
LINE
  5
16D
330
45
100
AcDbEntity
  8
VIEW
  6
Continuous
 62
     7
100
AcDbLine
 10
31.0
 20
124.2136077881
 30
0.0
 11
31.0
 21
121.0
 31
0.0
  0
LINE
  5
16E
330
45
100
AcDbEntity
  8
VIEW
  6
Continuous
 62
     7
100
AcDbLine
 10
31.5999145508
 20
121.0
 30
0.0
 11
31.5999145508
 21
106.9000091553
 31
0.0
  0
LINE
  5
16F
330
45
100
AcDbEntity
  8
VIEW
  6
Continuous
 62
     7
100
AcDbLine
 10
31.0
 20
124.150100708
 30
0.0
 11
32.7999267578
 21
124.150100708
 31
0.0
  0
LINE
  5
170
330
45
100
AcDbEntity
  8
VIEW
  6
Continuous
 62
     7
100
AcDbLine
 10
3.200012207
 20
124.150100708
 30
0.0
 11
5.0
 21
124.150100708
 31
0.0
  0
LINE
  5
171
330
45
100
AcDbEntity
  8
VIEW
  6
Continuous
 62
     7
100
AcDbLine
 10
32.7999267578
 20
125.8500030488
 30
0.0
 11
31.0
 21
125.8500061035
 31
0.0
  0
LINE
  5
172
330
45
100
AcDbEntity
  8
VIEW
  6
Continuous
 62
     7
100
AcDbLine
 10
5.0
 20
125.8500061035
 30
0.0
 11
3.200012207
 21
125.8500061035
 31
0.0
  0
LINE
  5
173
330
45
100
AcDbEntity
  8
VIEW
  6
Continuous
 62
     7
100
AcDbLine
 10
3.200012207
 20
130.0
 30
0.0
 11
32.7999267578
 21
130.0000030547
 31
0.0
  0
LINE
  5
174
330
45
100
AcDbEntity
  8
VIEW
  6
Continuous
 62
     7
100
AcDbLine
 10
14.0
 20
28.5
 30
0.0
 11
22.0
 21
28.5
 31
0.0
  0
LINE
  5
175
330
45
100
AcDbEntity
  8
VIEW
  6
Continuous
 62
     7
100
AcDbLine
 10
30.200012207
 20
107.1035003662
 30
0.0
 11
30.200012207
 21
106.9000091553
 31
0.0
  0
LINE
  5
176
330
45
100
AcDbEntity
  8
VIEW
  6
Continuous
 62
     7
100
AcDbLine
 10
14.0
 20
106.5
 30
0.0
 11
22.0
 21
106.5
 31
0.0
  0
LINE
  5
177
330
45
100
AcDbEntity
  8
VIEW
  6
Continuous
 62
     7
100
AcDbLine
 10
21.8999023437
 20
130.0
 30
0.0
 11
21.8999023437
 21
128.8807067871
 31
0.0
  0
LINE
  5
178
330
45
100
AcDbEntity
  8
VIEW
  6
Continuous
 62
     7
100
AcDbLine
 10
21.0999145508
 20
128.8807067871
 30
0.0
 11
21.0999145508
 21
130.0
 31
0.0
  0
LINE
  5
179
330
45
100
AcDbEntity
  8
VIEW
  6
Continuous
 62
     7
100
AcDbLine
 10
2.9999084473
 20
29.1999053955
 30
0.0
 11
2.9999084473
 21
105.8000030518
 31
0.0
  0
LINE
  5
17A
330
45
100
AcDbEntity
  8
VIEW
  6
Continuous
 62
     7
100
AcDbLine
 10
3.7001037598
 20
106.5000030398
 30
0.0
 11
32.2999267578
 21
106.5000030398
 31
0.0
  0
LINE
  5
17B
330
45
100
AcDbEntity
  8
VIEW
  6
Continuous
 62
     7
100
AcDbLine
 10
32.9999084473
 20
105.8000030518
 30
0.0
 11
32.9999084473
 21
29.1999053955
 31
0.0
  0
LINE
  5
17C
330
45
100
AcDbEntity
  8
VIEW
  6
Continuous
 62
     7
100
AcDbLine
 10
32.2999267578
 20
28.5
 30
0.0
 11
3.7001037598
 21
28.5
 31
0.0
  0
LINE
  5
17D
330
45
100
AcDbEntity
  8
VIEW
  6
Continuous
 62
     7
100
AcDbLine
 10
14.0
 20
28.0
 30
0.0
 11
21.9999084473
 21
28.0
 31
0.0
  0
LINE
  5
17E
330
45
100
AcDbEntity
  8
VIEW
  6
Continuous
 62
     7
100
AcDbLine
 10
21.9999084473
 20
28.5
 30
0.0
 11
21.9999084473
 21
27.8964996338
 31
0.0
  0
LINE
  5
17F
330
45
100
AcDbEntity
  8
VIEW
  6
Continuous
 62
     7
100
AcDbLine
 10
14.0
 20
27.8964996338
 30
0.0
 11
14.0
 21
28.5
 31
0.0
  0
LINE
  5
180
330
45
100
AcDbEntity
  8
VIEW
  6
Continuous
 62
     7
100
AcDbLine
 10
21.9999084473
 20
107.0
 30
0.0
 11
14.0
 21
107.0
 31
0.0
  0
LINE
  5
181
330
45
100
AcDbEntity
  8
VIEW
  6
Continuous
 62
     7
100
AcDbLine
 10
14.0
 20
106.5
 30
0.0
 11
14.0
 21
107.1035003662
 31
0.0
  0
LINE
  5
182
330
45
100
AcDbEntity
  8
VIEW
  6
Continuous
 62
     7
100
AcDbLine
 10
21.9999084473
 20
107.1035003662
 30
0.0
 11
21.9999084473
 21
106.5
 31
0.0
  0
LINE
  5
183
330
45
100
AcDbEntity
  8
WORKLAYER
  6
Continuous
 62
     7
100
AcDbLine
 10
8.7001037598
 20
92.9661102295
 30
0.0
 11
8.7001037598
 21
70.0339050293
 31
0.0
  0
LINE
  5
184
330
45
100
AcDbEntity
  8
WORKLAYER
  6
Continuous
 62
     7
100
AcDbLine
 10
20.0289001465
 20
58.4999084473
 30
0.0
 11
14.3712158203
 21
58.4999084473
 31
0.0
  0
LINE
  5
185
330
45
100
AcDbEntity
  8
WORKLAYER
  6
Continuous
 62
     7
100
AcDbLine
 10
20.0289001465
 20
44.4999084473
 30
0.0
 11
14.3712158203
 21
44.4999084473
 31
0.0
  0
LINE
  5
186
330
45
100
AcDbEntity
  8
WORKLAYER
  6
Continuous
 62
     7
100
AcDbLine
 10
9.7235107422
 20
50.4497070313
 30
0.0
 11
12.5523071289
 21
45.5500030518
 31
0.0
  0
LINE
  5
187
330
45
100
AcDbEntity
  8
WORKLAYER
  6
Continuous
 62
     7
100
AcDbLine
 10
21.8478088379
 20
57.4497070313
 30
0.0
 11
24.6767272949
 21
52.5500030518
 31
0.0
  0
LINE
  5
188
330
45
100
AcDbEntity
  8
WORKLAYER
  6
Continuous
 62
     7
100
AcDbLine
 10
21.8478088379
 20
45.5500030518
 30
0.0
 11
24.6767272949
 21
50.4497070313
 31
0.0
  0
LINE
  5
189
330
45
100
AcDbEntity
  8
WORKLAYER
  6
Continuous
 62
     7
100
AcDbLine
 10
9.7235107422
 20
52.5500030518
 30
0.0
 11
12.5523071289
 21
57.4497070313
 31
0.0
  0
LINE
  5
18A
330
45
100
AcDbEntity
  8
WORKLAYER
  6
Continuous
 62
     7
100
AcDbLine
 10
23.3612976074
 20
56.6029052734
 30
0.0
 11
18.5389099121
 21
59.3871002197
 31
0.0
  0
LINE
  5
18B
330
45
100
AcDbEntity
  8
WORKLAYER
  6
Continuous
 62
     7
100
AcDbLine
 10
15.8612976074
 20
59.3871002197
 30
0.0
 11
11.0389099121
 21
56.6029052734
 31
0.0
  0
LINE
  5
18C
330
45
100
AcDbEntity
  8
WORKLAYER
  6
Continuous
 62
     7
100
AcDbLine
 10
9.7001037598
 20
54.2837982178
 30
0.0
 11
9.7001037598
 21
48.7162017822
 31
0.0
  0
LINE
  5
18D
330
45
100
AcDbEntity
  8
WORKLAYER
  6
Continuous
 62
     7
100
AcDbLine
 10
11.0393066406
 20
46.3964996338
 30
0.0
 11
15.8607177734
 21
43.6128082275
 31
0.0
  0
LINE
  5
18E
330
45
100
AcDbEntity
  8
WORKLAYER
  6
Continuous
 62
     7
100
AcDbLine
 10
18.5395202637
 20
43.6128082275
 30
0.0
 11
23.3609008789
 21
46.3964996338
 31
0.0
  0
LINE
  5
18F
330
45
100
AcDbEntity
  8
WORKLAYER
  6
Continuous
 62
     7
100
AcDbLine
 10
24.7001037598
 20
48.716003418
 30
0.0
 11
24.7001037598
 21
54.2837982178
 31
0.0
  0
ENDBLK
  5
47
330
45
100
AcDbEntity
  8
0
100
AcDbBlockEnd
  0
BLOCK
  5
191
330
190
100
AcDbEntity
  8
0
100
AcDbBlockBegin
  2
ﾌﾞﾛｯｸ96
 70
     0
 71
     0
 10
0.0
 20
0.0
 30
0.0
  3
ﾌﾞﾛｯｸ96
  1

  0
CIRCLE
  5
193
330
190
100
AcDbEntity
  8
VIEW
  6
Continuous
 62
     7
100
AcDbCircle
 10
58.0
 20
108.5002059937
 30
0.0
 40
0.850000023841865
  0
CIRCLE
  5
194
330
190
100
AcDbEntity
  8
VIEW
  6
Continuous
 62
     7
100
AcDbCircle
 10
58.0
 20
26.5000991821
 30
0.0
 40
0.850000023841865
  0
ARC
  5
195
330
190
100
AcDbEntity
  8
VIEW
  6
Continuous
 62
     7
100
AcDbCircle
 10
55.2516021729
 20
127.0002059937
 30
0.0
 40
3.000000000000014
100
AcDbArc
 50
4.8970627785
 51
90.0
  0
ARC
  5
196
330
190
100
AcDbEntity
  8
VIEW
  6
Continuous
 62
     7
100
AcDbCircle
 10
55.2516021729
 20
8.0
 30
0.0
 40
3.000000000000025
100
AcDbArc
 50
270.0
 51
355.1029052734
  0
ARC
  5
197
330
190
100
AcDbEntity
  8
VIEW
  6
Continuous
 62
     7
100
AcDbCircle
 10
57.2260894775
 20
125.0002059937
 30
0.0
 40
0.8500000238418721
100
AcDbArc
 50
90.0
 51
270.0
  0
ARC
  5
198
330
190
100
AcDbEntity
  8
VIEW
  6
Continuous
 62
     7
100
AcDbCircle
 10
57.2260894775
 20
10.0
 30
0.0
 40
0.8500000238418632
100
AcDbArc
 50
90.0
 51
270.0
  0
ARC
  5
199
330
190
100
AcDbEntity
  8
VIEW
  6
Continuous
 62
     7
100
AcDbCircle
 10
-639.2041015625
 20
67.5002059937
 30
0.0
 40
700.0
100
AcDbArc
 50
355.1029052734
 51
355.200592041
  0
ARC
  5
19A
330
190
100
AcDbEntity
  8
VIEW
  6
Continuous
 62
     7
100
AcDbCircle
 10
-639.2041015625
 20
67.5002059937
 30
0.0
 40
700.0
100
AcDbArc
 50
4.7993631363
 51
4.8970627785
  0
ARC
  5
19B
330
190
100
AcDbEntity
  8
VIEW
  6
Continuous
 62
     7
100
AcDbCircle
 10
-639.2041015625
 20
67.5002059937
 30
0.0
 40
700.0
100
AcDbArc
 50
3.1409549713
 51
4.6268429756
  0
ARC
  5
19C
330
190
100
AcDbEntity
  8
VIEW
  6
Continuous
 62
     7
100
AcDbCircle
 10
58.1420898438
 20
8.9500045776
 30
0.0
 40
0.2000000029802416
100
AcDbArc
 50
355.200592041
 51
90.0
  0
ARC
  5
19D
330
190
100
AcDbEntity
  8
VIEW
  6
Continuous
 62
     7
100
AcDbCircle
 10
-639.2041015625
 20
67.5002059937
 30
0.0
 40
700.0000000000001
100
AcDbArc
 50
355.3731994629
 51
356.8590087891
  0
ARC
  5
19E
330
190
100
AcDbEntity
  8
VIEW
  6
Continuous
 62
     7
100
AcDbCircle
 10
58.3153991699
 20
123.9500961304
 30
0.0
 40
0.2000000029802322
100
AcDbArc
 50
4.6268429756
 51
90.0
  0
ARC
  5
19F
330
190
100
AcDbEntity
  8
VIEW
  6
Continuous
 62
     7
100
AcDbCircle
 10
58.3153991699
 20
11.0500030518
 30
0.0
 40
0.2000000029802322
100
AcDbArc
 50
270.0
 51
355.3731994629
  0
ARC
  5
1A0
330
190
100
AcDbEntity
  8
VIEW
  6
Continuous
 62
     7
100
AcDbCircle
 10
58.1420898438
 20
126.0499954224
 30
0.0
 40
0.2000000029802607
100
AcDbArc
 50
270.0
 51
4.7993631363
  0
ARC
  5
1A1
330
190
100
AcDbEntity
  8
VIEW
  6
Continuous
 62
     7
100
AcDbCircle
 10
58.7456970215
 20
29.2000961304
 30
0.0
 40
1.000000000000025
100
AcDbArc
 50
356.8590087891
 51
0.0
  0
ARC
  5
1A2
330
190
100
AcDbEntity
  8
VIEW
  6
Continuous
 62
     7
100
AcDbCircle
 10
65.1611938477
 20
28.0000991821
 30
0.0
 40
0.5
100
AcDbArc
 50
180.0
 51
270.0
  0
ARC
  5
1A3
330
190
100
AcDbEntity
  8
VIEW
  6
Continuous
 62
     7
100
AcDbCircle
 10
67.1611938477
 20
28.0000991821
 30
0.0
 40
0.5
100
AcDbArc
 50
270.0
 51
0.0
  0
ARC
  5
1A4
330
190
100
AcDbEntity
  8
VIEW
  6
Continuous
 62
     7
100
AcDbCircle
 10
65.1611938477
 20
107.0002059937
 30
0.0
 40
0.5
100
AcDbArc
 50
90.0
 51
180.0
  0
ARC
  5
1A5
330
190
100
AcDbEntity
  8
VIEW
  6
Continuous
 62
     7
100
AcDbCircle
 10
67.1611938477
 20
107.0002059937
 30
0.0
 40
0.5
100
AcDbArc
 50
0.0
 51
90.0
  0
ARC
  5
1A6
330
190
100
AcDbEntity
  8
VIEW
  6
Continuous
 62
     7
100
AcDbCircle
 10
108.5001831055
 20
105.7999954224
 30
0.0
 40
0.699999988079071
100
AcDbArc
 50
0.0
 51
90.0
  0
ARC
  5
1A7
330
190
100
AcDbEntity
  8
VIEW
  6
Continuous
 62
     7
100
AcDbCircle
 10
108.5001831055
 20
29.2000961304
 30
0.0
 40
0.6999999880790765
100
AcDbArc
 50
269.9999084473
 51
0.0
  0
CIRCLE
  5
1A8
330
190
100
AcDbEntity
  8
VIEW
  6
Continuous
 62
     7
100
AcDbCircle
 10
58.0
 20
108.5002059937
 30
0.0
 40
0.5000000000000071
  0
CIRCLE
  5
1A9
330
190
100
AcDbEntity
  8
VIEW
  6
Continuous
 62
     7
100
AcDbCircle
 10
58.0
 20
108.5002059937
 30
0.0
 40
0.8000000119209361
  0
ARC
  5
1AA
330
190
100
AcDbEntity
  8
VIEW
  6
Continuous
 62
     7
100
AcDbCircle
 10
-639.2481079102
 20
68.4059066772
 30
0.0
 40
699.9000244140625
100
AcDbArc
 50
4.5651779175
 51
4.7128281593
  0
CIRCLE
  5
1AB
330
190
100
AcDbEntity
  8
VIEW
  6
Continuous
 62
     7
100
AcDbCircle
 10
57.2561950684
 20
125.0011062622
 30
0.0
 40
0.800000011920929
  0
ARC
  5
1AC
330
190
100
AcDbEntity
  8
VIEW
  6
Continuous
 62
     7
100
AcDbCircle
 10
4.0
 20
80.0002975464
 30
0.0
 40
0.5000000000000142
100
AcDbArc
 50
90.0
 51
270.0
  0
ARC
  5
1AD
330
190
100
AcDbEntity
  8
VIEW
  6
Continuous
 62
     7
100
AcDbCircle
 10
4.0
 20
80.0002059937
 30
0.0
 40
0.5000000000000095
100
AcDbArc
 50
179.9902038574
 51
270.0
  0
CIRCLE
  5
1AE
330
190
100
AcDbEntity
  8
VIEW
  6
Continuous
 62
     7
100
AcDbCircle
 10
4.0
 20
12.5000991821
 30
0.0
 40
1.399999976158139
  0
CIRCLE
  5
1AF
330
190
100
AcDbEntity
  8
VIEW
  6
Continuous
 62
     7
100
AcDbCircle
 10
4.0
 20
122.5002059937
 30
0.0
 40
1.399999976158139
  0
CIRCLE
  5
1B0
330
190
100
AcDbEntity
  8
VIEW
  6
Continuous
 62
     7
100
AcDbCircle
 10
58.0
 20
26.5000991821
 30
0.0
 40
0.5000000000000071
  0
CIRCLE
  5
1B1
330
190
100
AcDbEntity
  8
VIEW
  6
Continuous
 62
     7
100
AcDbCircle
 10
58.0
 20
26.5000991821
 30
0.0
 40
0.8000000119209361
  0
ARC
  5
1B2
330
190
100
AcDbEntity
  8
VIEW
  6
Continuous
 62
     7
100
AcDbCircle
 10
-639.2481079102
 20
66.5945053101
 30
0.0
 40
699.9000244140625
100
AcDbArc
 50
355.2872009277
 51
355.4348144531
  0
CIRCLE
  5
1B3
330
190
100
AcDbEntity
  8
VIEW
  6
Continuous
 62
     7
100
AcDbCircle
 10
57.2561950684
 20
9.9990997314
 30
0.0
 40
0.800000011920929
  0
ARC
  5
1B4
330
190
100
AcDbEntity
  8
VIEW
  6
Continuous
 62
     7
100
AcDbCircle
 10
0.25
 20
0.25
 30
0.0
 40
0.2500000000000002
100
AcDbArc
 50
180.0
 51
270.0
  0
ARC
  5
1B5
330
190
100
AcDbEntity
  8
WORKLAYER
  6
PHANTOM
 62
     7
100
AcDbCircle
 10
168.3610839844
 20
26.4878005981
 30
0.0
 40
22.50000000000001
100
AcDbArc
 50
0.0
 51
90.0
  0
ARC
  5
1B6
330
190
100
AcDbEntity
  8
WORKLAYER
  6
PHANTOM
 62
     7
100
AcDbCircle
 10
168.3610839844
 20
26.4878005981
 30
0.0
 40
27.50000000000001
100
AcDbArc
 50
0.0
 51
90.0
  0
LINE
  5
1B7
330
190
100
AcDbEntity
  8
VIEW
  6
Continuous
 62
     7
100
AcDbLine
 10
25.0
 20
21.0000991821
 30
0.0
 11
25.0
 21
5.2000045776
 31
0.0
  0
LINE
  5
1B8
330
190
100
AcDbEntity
  8
VIEW
  6
Continuous
 62
     7
100
AcDbLine
 10
0.0
 20
26.1801986694
 30
0.0
 11
0.0
 21
21.0000991821
 31
0.0
  0
LINE
  5
1B9
330
190
100
AcDbEntity
  8
VIEW
  6
Continuous
 62
     7
100
AcDbLine
 10
17.900100708
 20
26.1801986694
 30
0.0
 11
0.0
 21
26.1801986694
 31
0.0
  0
LINE
  5
1BA
330
190
100
AcDbEntity
  8
VIEW
  6
Continuous
 62
     7
100
AcDbLine
 10
17.900100708
 20
49.8199996948
 30
0.0
 11
17.900100708
 21
26.1801986694
 31
0.0
  0
LINE
  5
1BB
330
190
100
AcDbEntity
  8
VIEW
  6
Continuous
 62
     7
100
AcDbLine
 10
4.0
 20
49.8199996948
 30
0.0
 11
17.900100708
 21
49.8199996948
 31
0.0
  0
LINE
  5
1BC
330
190
100
AcDbEntity
  8
VIEW
  6
Continuous
 62
     7
100
AcDbLine
 10
4.0
 20
49.8199996948
 30
0.0
 11
4.0
 21
85.0002059937
 31
0.0
  0
LINE
  5
1BD
330
190
100
AcDbEntity
  8
VIEW
  6
Continuous
 62
     7
100
AcDbLine
 10
4.0
 20
85.0002059937
 30
0.0
 11
0.0
 21
85.0002059937
 31
0.0
  0
LINE
  5
1BE
330
190
100
AcDbEntity
  8
VIEW
  6
Continuous
 62
     7
100
AcDbLine
 10
25.0
 20
114.0002059937
 30
0.0
 11
0.0
 21
114.0002059937
 31
0.0
  0
LINE
  5
1BF
330
190
100
AcDbEntity
  8
VIEW
  6
Continuous
 62
     7
100
AcDbLine
 10
25.0
 20
129.7999954224
 30
0.0
 11
25.0
 21
114.0002059937
 31
0.0
  0
LINE
  5
1C0
330
190
100
AcDbEntity
  8
VIEW
  6
Continuous
 62
     7
100
AcDbLine
 10
27.3472900391
 20
105.7999954224
 30
0.0
 11
27.3472900391
 21
29.2000961304
 31
0.0
  0
LINE
  5
1C1
330
190
100
AcDbEntity
  8
VIEW
  6
Continuous
 62
     7
100
AcDbLine
 10
9.799987793
 20
55.5002059937
 30
0.0
 11
9.799987793
 21
59.5000076294
 31
0.0
  0
LINE
  5
1C2
330
190
100
AcDbEntity
  8
VIEW
  6
Continuous
 62
     7
100
AcDbLine
 10
9.799987793
 20
59.5000076294
 30
0.0
 11
6.0
 21
59.5000076294
 31
0.0
  0
LINE
  5
1C3
330
190
100
AcDbEntity
  8
VIEW
  6
Continuous
 62
     7
100
AcDbLine
 10
6.0
 20
59.5000076294
 30
0.0
 11
6.0
 21
58.7000961304
 31
0.0
  0
LINE
  5
1C4
330
190
100
AcDbEntity
  8
VIEW
  6
Continuous
 62
     7
100
AcDbLine
 10
6.0
 20
58.7000961304
 30
0.0
 11
8.5
 21
58.7000961304
 31
0.0
  0
LINE
  5
1C5
330
190
100
AcDbEntity
  8
VIEW
  6
Continuous
 62
     7
100
AcDbLine
 10
8.5
 20
58.7000961304
 30
0.0
 11
8.5
 21
56.2999954224
 31
0.0
  0
LINE
  5
1C6
330
190
100
AcDbEntity
  8
VIEW
  6
Continuous
 62
     7
100
AcDbLine
 10
8.5
 20
56.2999954224
 30
0.0
 11
6.0
 21
56.2999954224
 31
0.0
  0
LINE
  5
1C7
330
190
100
AcDbEntity
  8
VIEW
  6
Continuous
 62
     7
100
AcDbLine
 10
6.0
 20
56.2999954224
 30
0.0
 11
6.0
 21
55.5002059937
 31
0.0
  0
LINE
  5
1C8
330
190
100
AcDbEntity
  8
VIEW
  6
Continuous
 62
     7
100
AcDbLine
 10
6.0
 20
55.5002059937
 30
0.0
 11
9.799987793
 21
55.5002059937
 31
0.0
  0
LINE
  5
1C9
330
190
100
AcDbEntity
  8
VIEW
  6
Continuous
 62
     7
100
AcDbLine
 10
9.799987793
 20
100.5002059937
 30
0.0
 11
9.799987793
 21
104.5002059937
 31
0.0
  0
LINE
  5
1CA
330
190
100
AcDbEntity
  8
VIEW
  6
Continuous
 62
     7
100
AcDbLine
 10
9.799987793
 20
104.5002059937
 30
0.0
 11
6.0
 21
104.5002059937
 31
0.0
  0
LINE
  5
1CB
330
190
100
AcDbEntity
  8
VIEW
  6
Continuous
 62
     7
100
AcDbLine
 10
6.0
 20
104.5002059937
 30
0.0
 11
6.0
 21
103.7000961304
 31
0.0
  0
LINE
  5
1CC
330
190
100
AcDbEntity
  8
VIEW
  6
Continuous
 62
     7
100
AcDbLine
 10
6.0
 20
103.7000961304
 30
0.0
 11
8.5
 21
103.7000961304
 31
0.0
  0
LINE
  5
1CD
330
190
100
AcDbEntity
  8
VIEW
  6
Continuous
 62
     7
100
AcDbLine
 10
8.5
 20
103.7000961304
 30
0.0
 11
8.5
 21
101.2999954224
 31
0.0
  0
LINE
  5
1CE
330
190
100
AcDbEntity
  8
VIEW
  6
Continuous
 62
     7
100
AcDbLine
 10
8.5
 20
101.2999954224
 30
0.0
 11
6.0
 21
101.2999954224
 31
0.0
  0
LINE
  5
1CF
330
190
100
AcDbEntity
  8
VIEW
  6
Continuous
 62
     7
100
AcDbLine
 10
6.0
 20
101.2999954224
 30
0.0
 11
6.0
 21
100.5002059937
 31
0.0
  0
LINE
  5
1D0
330
190
100
AcDbEntity
  8
VIEW
  6
Continuous
 62
     7
100
AcDbLine
 10
6.0
 20
100.5002059937
 30
0.0
 11
9.799987793
 21
100.5002059937
 31
0.0
  0
LINE
  5
1D1
330
190
100
AcDbEntity
  8
VIEW
  6
Continuous
 62
     7
100
AcDbLine
 10
0.0
 20
21.0000991821
 30
0.0
 11
25.0
 21
21.0000991821
 31
0.0
  0
LINE
  5
1D2
330
190
100
AcDbEntity
  8
VIEW
  6
Continuous
 62
     7
100
AcDbLine
 10
0.0
 20
114.0002059937
 30
0.0
 11
0.0
 21
85.0002059937
 31
0.0
  0
LINE
  5
1D3
330
190
100
AcDbEntity
  8
VIEW
  6
Continuous
 62
     7
100
AcDbLine
 10
55.2516021729
 20
5.0
 30
0.0
 11
25.0
 21
5.0
 31
0.0
  0
LINE
  5
1D4
330
190
100
AcDbEntity
  8
VIEW
  6
Continuous
 62
     7
100
AcDbLine
 10
25.0
 20
5.0
 30
0.0
 11
25.0
 21
5.2000045776
 31
0.0
  0
LINE
  5
1D5
330
190
100
AcDbEntity
  8
VIEW
  6
Continuous
 62
     7
100
AcDbLine
 10
25.0
 20
130.0002059937
 30
0.0
 11
55.2516021729
 21
130.0002059937
 31
0.0
  0
LINE
  5
1D6
330
190
100
AcDbEntity
  8
VIEW
  6
Continuous
 62
     7
100
AcDbLine
 10
25.0
 20
129.7999954224
 30
0.0
 11
25.0
 21
130.0002059937
 31
0.0
  0
LINE
  5
1D7
330
190
100
AcDbEntity
  8
VIEW
  6
Continuous
 62
     7
100
AcDbLine
 10
27.3472900391
 20
30.2000961304
 30
0.0
 11
58.7456970215
 21
30.2000961304
 31
0.0
  0
LINE
  5
1D8
330
190
100
AcDbEntity
  8
VIEW
  6
Continuous
 62
     7
100
AcDbLine
 10
58.7456970215
 20
104.7999954224
 30
0.0
 11
27.3472900391
 21
104.7999954224
 31
0.0
  0
LINE
  5
1D9
330
190
100
AcDbEntity
  8
VIEW
  6
Continuous
 62
     7
100
AcDbLine
 10
58.1420898438
 20
125.8501052856
 30
0.0
 11
57.2260894775
 21
125.8501052856
 31
0.0
  0
LINE
  5
1DA
330
190
100
AcDbEntity
  8
VIEW
  6
Continuous
 62
     7
100
AcDbLine
 10
57.2260894775
 20
124.1501083374
 30
0.0
 11
58.3152008057
 21
124.1501083374
 31
0.0
  0
LINE
  5
1DB
330
190
100
AcDbEntity
  8
VIEW
  6
Continuous
 62
     7
100
AcDbLine
 10
57.2260894775
 20
9.1499023438
 30
0.0
 11
58.1420898438
 21
9.1499023438
 31
0.0
  0
LINE
  5
1DC
330
190
100
AcDbEntity
  8
VIEW
  6
Continuous
 62
     7
100
AcDbLine
 10
58.3152008057
 20
10.8501052856
 30
0.0
 11
57.2260894775
 21
10.8501052856
 31
0.0
  0
LINE
  5
1DD
330
190
100
AcDbEntity
  8
VIEW
  6
Continuous
 62
     7
100
AcDbLine
 10
59.7456970215
 20
29.2000961304
 30
0.0
 11
59.7265014648
 21
29.3952102661
 31
0.0
  0
LINE
  5
1DE
330
190
100
AcDbEntity
  8
VIEW
  6
Continuous
 62
     7
100
AcDbLine
 10
59.7265014648
 20
29.3952102661
 30
0.0
 11
59.6696014404
 21
29.5828018188
 31
0.0
  0
LINE
  5
1DF
330
190
100
AcDbEntity
  8
VIEW
  6
Continuous
 62
     7
100
AcDbLine
 10
59.6696014404
 20
29.5828018188
 30
0.0
 11
59.5773010254
 21
29.7556991577
 31
0.0
  0
LINE
  5
1E0
330
190
100
AcDbEntity
  8
VIEW
  6
Continuous
 62
     7
100
AcDbLine
 10
59.5773010254
 20
29.7556991577
 30
0.0
 11
59.4527893066
 21
29.9070968628
 31
0.0
  0
LINE
  5
1E1
330
190
100
AcDbEntity
  8
VIEW
  6
Continuous
 62
     7
100
AcDbLine
 10
59.4527893066
 20
29.9070968628
 30
0.0
 11
59.3013000488
 21
30.0317001343
 31
0.0
  0
LINE
  5
1E2
330
190
100
AcDbEntity
  8
VIEW
  6
Continuous
 62
     7
100
AcDbLine
 10
59.3013000488
 20
30.0317001343
 30
0.0
 11
59.1283874512
 21
30.1239089966
 31
0.0
  0
LINE
  5
1E3
330
190
100
AcDbEntity
  8
VIEW
  6
Continuous
 62
     7
100
AcDbLine
 10
59.1283874512
 20
30.1239089966
 30
0.0
 11
58.9408874512
 21
30.1809005737
 31
0.0
  0
LINE
  5
1E4
330
190
100
AcDbEntity
  8
VIEW
  6
Continuous
 62
     7
100
AcDbLine
 10
58.9408874512
 20
30.1809005737
 30
0.0
 11
58.7456970215
 21
30.2000961304
 31
0.0
  0
LINE
  5
1E5
330
190
100
AcDbEntity
  8
VIEW
  6
Continuous
 62
     7
100
AcDbLine
 10
58.7456970215
 20
104.7999954224
 30
0.0
 11
58.9408874512
 21
104.8192977905
 31
0.0
  0
LINE
  5
1E6
330
190
100
AcDbEntity
  8
VIEW
  6
Continuous
 62
     7
100
AcDbLine
 10
58.9408874512
 20
104.8192977905
 30
0.0
 11
59.1283874512
 21
104.8763046265
 31
0.0
  0
LINE
  5
1E7
330
190
100
AcDbEntity
  8
VIEW
  6
Continuous
 62
     7
100
AcDbLine
 10
59.1283874512
 20
104.8763046265
 30
0.0
 11
59.3013000488
 21
104.9686965942
 31
0.0
  0
LINE
  5
1E8
330
190
100
AcDbEntity
  8
VIEW
  6
Continuous
 62
     7
100
AcDbLine
 10
59.3013000488
 20
104.9686965942
 30
0.0
 11
59.4527893066
 21
105.0929031372
 31
0.0
  0
LINE
  5
1E9
330
190
100
AcDbEntity
  8
VIEW
  6
Continuous
 62
     7
100
AcDbLine
 10
59.4527893066
 20
105.0929031372
 30
0.0
 11
59.5773010254
 21
105.2444076538
 31
0.0
  0
LINE
  5
1EA
330
190
100
AcDbEntity
  8
VIEW
  6
Continuous
 62
     7
100
AcDbLine
 10
59.5773010254
 20
105.2444076538
 30
0.0
 11
59.6696014404
 21
105.4175033569
 31
0.0
  0
LINE
  5
1EB
330
190
100
AcDbEntity
  8
VIEW
  6
Continuous
 62
     7
100
AcDbLine
 10
59.6696014404
 20
105.4175033569
 30
0.0
 11
59.7265014648
 21
105.6050033569
 31
0.0
  0
LINE
  5
1EC
330
190
100
AcDbEntity
  8
VIEW
  6
Continuous
 62
     7
100
AcDbLine
 10
59.7265014648
 20
105.6050033569
 30
0.0
 11
59.7456970215
 21
105.7999954224
 31
0.0
  0
LINE
  5
1ED
330
190
100
AcDbEntity
  8
VIEW
  6
Continuous
 62
     7
100
AcDbLine
 10
27.8472900391
 20
103.7999954224
 30
0.0
 11
27.8472900391
 21
30.5000991821
 31
0.0
  0
LINE
  5
1EE
330
190
100
AcDbEntity
  8
VIEW
  6
Continuous
 62
     7
100
AcDbLine
 10
27.8472900391
 20
103.52759552
 30
0.0
 11
27.3472900391
 21
103.5300979614
 31
0.0
  0
LINE
  5
1EF
330
190
100
AcDbEntity
  8
VIEW
  6
Continuous
 62
     7
100
AcDbLine
 10
27.8472900391
 20
30.6725997925
 30
0.0
 11
27.3472900391
 21
30.6698989868
 31
0.0
  0
LINE
  5
1F0
330
190
100
AcDbEntity
  8
VIEW
  6
Continuous
 62
     7
100
AcDbLine
 10
27.3472900391
 20
30.5000991821
 30
0.0
 11
27.8472900391
 21
30.5000991821
 31
0.0
  0
LINE
  5
1F1
330
190
100
AcDbEntity
  8
VIEW
  6
Continuous
 62
     7
100
AcDbLine
 10
72.0956878662
 20
28.5000991821
 30
0.0
 11
59.7085876465
 21
28.5000991821
 31
0.0
  0
LINE
  5
1F2
330
190
100
AcDbEntity
  8
VIEW
  6
Continuous
 62
     7
100
AcDbLine
 10
59.7085876465
 20
106.5002059937
 30
0.0
 11
72.0956878662
 21
106.5002059937
 31
0.0
  0
LINE
  5
1F3
330
190
100
AcDbEntity
  8
VIEW
  6
Continuous
 62
     7
100
AcDbLine
 10
27.8472900391
 20
31.8725967407
 30
0.0
 11
27.3472900391
 21
31.8698959351
 31
0.0
  0
LINE
  5
1F4
330
190
100
AcDbEntity
  8
VIEW
  6
Continuous
 62
     7
100
AcDbLine
 10
64.6611938477
 20
28.0000991821
 30
0.0
 11
64.6611938477
 21
28.5000991821
 31
0.0
  0
LINE
  5
1F5
330
190
100
AcDbEntity
  8
VIEW
  6
Continuous
 62
     7
100
AcDbLine
 10
67.6611938477
 20
28.5000991821
 30
0.0
 11
67.6611938477
 21
28.0000991821
 31
0.0
  0
LINE
  5
1F6
330
190
100
AcDbEntity
  8
VIEW
  6
Continuous
 62
     7
100
AcDbLine
 10
65.1611938477
 20
27.5000991821
 30
0.0
 11
67.1611938477
 21
27.5000991821
 31
0.0
  0
LINE
  5
1F7
330
190
100
AcDbEntity
  8
VIEW
  6
Continuous
 62
     7
100
AcDbLine
 10
64.6611938477
 20
107.0002059937
 30
0.0
 11
64.6611938477
 21
106.5002059937
 31
0.0
  0
LINE
  5
1F8
330
190
100
AcDbEntity
  8
VIEW
  6
Continuous
 62
     7
100
AcDbLine
 10
65.1611938477
 20
107.5002059937
 30
0.0
 11
67.1611938477
 21
107.5002059937
 31
0.0
  0
LINE
  5
1F9
330
190
100
AcDbEntity
  8
VIEW
  6
Continuous
 62
     7
100
AcDbLine
 10
67.6611938477
 20
106.5002059937
 30
0.0
 11
67.6611938477
 21
107.0002059937
 31
0.0
  0
LINE
  5
1FA
330
190
100
AcDbEntity
  8
VIEW
  6
Continuous
 62
     7
100
AcDbLine
 10
27.8472900391
 20
61.0000076294
 30
0.0
 11
27.3472900391
 21
61.0000076294
 31
0.0
  0
LINE
  5
1FB
330
190
100
AcDbEntity
  8
VIEW
  6
Continuous
 62
     7
100
AcDbLine
 10
27.8472900391
 20
102.7883987427
 30
0.0
 11
27.3472900391
 21
102.7883987427
 31
0.0
  0
LINE
  5
1FC
330
190
100
AcDbEntity
  8
VIEW
  6
Continuous
 62
     7
100
AcDbLine
 10
72.0956878662
 20
30.9041976929
 30
0.0
 11
72.0956878662
 21
28.5000991821
 31
0.0
  0
LINE
  5
1FD
330
190
100
AcDbEntity
  8
VIEW
  6
Continuous
 62
     7
100
AcDbLine
 10
61.0
 20
31.2000961304
 30
0.0
 11
61.0
 21
28.5000991821
 31
0.0
  0
LINE
  5
1FE
330
190
100
AcDbEntity
  8
VIEW
  6
Continuous
 62
     7
100
AcDbLine
 10
61.0
 20
103.7999954224
 30
0.0
 11
61.0
 21
106.5002059937
 31
0.0
  0
LINE
  5
1FF
330
190
100
AcDbEntity
  8
VIEW
  6
Continuous
 62
     7
100
AcDbLine
 10
72.0956878662
 20
104.4957962036
 30
0.0
 11
72.0956878662
 21
106.5002059937
 31
0.0
  0
LINE
  5
200
330
190
100
AcDbEntity
  8
VIEW
  6
Continuous
 62
     7
100
AcDbLine
 10
72.0956878662
 20
104.4957962036
 30
0.0
 11
73.6956939697
 21
104.4874954224
 31
0.0
  0
LINE
  5
201
330
190
100
AcDbEntity
  8
VIEW
  6
Continuous
 62
     7
100
AcDbLine
 10
73.6956939697
 20
104.4874954224
 30
0.0
 11
73.6956939697
 21
106.5002059937
 31
0.0
  0
LINE
  5
202
330
190
100
AcDbEntity
  8
VIEW
  6
Continuous
 62
     7
100
AcDbLine
 10
75.0956878662
 20
104.4803085327
 30
0.0
 11
75.0956878662
 21
106.5002059937
 31
0.0
  0
LINE
  5
203
330
190
100
AcDbEntity
  8
VIEW
  6
Continuous
 62
     7
100
AcDbLine
 10
75.0956878662
 20
104.4803085327
 30
0.0
 11
76.6956939697
 21
104.4720077515
 31
0.0
  0
LINE
  5
204
330
190
100
AcDbEntity
  8
VIEW
  6
Continuous
 62
     7
100
AcDbLine
 10
76.6956939697
 20
104.4720077515
 30
0.0
 11
76.6956939697
 21
106.5002059937
 31
0.0
  0
LINE
  5
205
330
190
100
AcDbEntity
  8
VIEW
  6
Continuous
 62
     7
100
AcDbLine
 10
78.0956878662
 20
104.4645004272
 30
0.0
 11
78.0956878662
 21
106.5002059937
 31
0.0
  0
LINE
  5
206
330
190
100
AcDbEntity
  8
VIEW
  6
Continuous
 62
     7
100
AcDbLine
 10
78.0956878662
 20
104.4645004272
 30
0.0
 11
79.6958007812
 21
104.4560012817
 31
0.0
  0
LINE
  5
207
330
190
100
AcDbEntity
  8
VIEW
  6
Continuous
 62
     7
100
AcDbLine
 10
79.6958007812
 20
104.4560012817
 30
0.0
 11
79.6958007812
 21
106.5002059937
 31
0.0
  0
LINE
  5
208
330
190
100
AcDbEntity
  8
VIEW
  6
Continuous
 62
     7
100
AcDbLine
 10
81.0956878662
 20
104.4487991333
 30
0.0
 11
81.0956878662
 21
106.5002059937
 31
0.0
  0
LINE
  5
209
330
190
100
AcDbEntity
  8
VIEW
  6
Continuous
 62
     7
100
AcDbLine
 10
81.0956878662
 20
104.4487991333
 30
0.0
 11
82.6958007812
 21
104.4404983521
 31
0.0
  0
LINE
  5
20A
330
190
100
AcDbEntity
  8
VIEW
  6
Continuous
 62
     7
100
AcDbLine
 10
82.6958007812
 20
104.4404983521
 30
0.0
 11
82.6958007812
 21
106.5002059937
 31
0.0
  0
LINE
  5
20B
330
190
100
AcDbEntity
  8
VIEW
  6
Continuous
 62
     7
100
AcDbLine
 10
84.095703125
 20
104.4330978394
 30
0.0
 11
84.095703125
 21
106.5002059937
 31
0.0
  0
LINE
  5
20C
330
190
100
AcDbEntity
  8
VIEW
  6
Continuous
 62
     7
100
AcDbLine
 10
84.095703125
 20
104.4330978394
 30
0.0
 11
85.6958007812
 21
104.4247055054
 31
0.0
  0
LINE
  5
20D
330
190
100
AcDbEntity
  8
VIEW
  6
Continuous
 62
     7
100
AcDbLine
 10
85.6958007812
 20
104.4247055054
 30
0.0
 11
85.6958007812
 21
106.5002059937
 31
0.0
  0
LINE
  5
20E
330
190
100
AcDbEntity
  8
VIEW
  6
Continuous
 62
     7
100
AcDbLine
 10
87.095703125
 20
104.4175033569
 30
0.0
 11
87.095703125
 21
106.5002059937
 31
0.0
  0
LINE
  5
20F
330
190
100
AcDbEntity
  8
VIEW
  6
Continuous
 62
     7
100
AcDbLine
 10
87.095703125
 20
104.4175033569
 30
0.0
 11
88.6958007812
 21
104.4090042114
 31
0.0
  0
LINE
  5
210
330
190
100
AcDbEntity
  8
VIEW
  6
Continuous
 62
     7
100
AcDbLine
 10
88.6958007812
 20
104.4090042114
 30
0.0
 11
88.6958007812
 21
106.5002059937
 31
0.0
  0
LINE
  5
211
330
190
100
AcDbEntity
  8
VIEW
  6
Continuous
 62
     7
100
AcDbLine
 10
90.095703125
 20
104.401802063
 30
0.0
 11
90.095703125
 21
106.5002059937
 31
0.0
  0
LINE
  5
212
330
190
100
AcDbEntity
  8
VIEW
  6
Continuous
 62
     7
100
AcDbLine
 10
90.095703125
 20
104.401802063
 30
0.0
 11
91.6958007812
 21
104.393196106
 31
0.0
  0
LINE
  5
213
330
190
100
AcDbEntity
  8
VIEW
  6
Continuous
 62
     7
100
AcDbLine
 10
91.6958007812
 20
104.393196106
 30
0.0
 11
91.6958007812
 21
106.5002059937
 31
0.0
  0
LINE
  5
214
330
190
100
AcDbEntity
  8
VIEW
  6
Continuous
 62
     7
100
AcDbLine
 10
93.095703125
 20
104.3860092163
 30
0.0
 11
93.095703125
 21
106.5002059937
 31
0.0
  0
LINE
  5
215
330
190
100
AcDbEntity
  8
VIEW
  6
Continuous
 62
     7
100
AcDbLine
 10
93.095703125
 20
104.3860092163
 30
0.0
 11
94.6958007812
 21
104.3777084351
 31
0.0
  0
LINE
  5
216
330
190
100
AcDbEntity
  8
VIEW
  6
Continuous
 62
     7
100
AcDbLine
 10
94.6958007812
 20
104.3777084351
 30
0.0
 11
94.6958007812
 21
106.5002059937
 31
0.0
  0
LINE
  5
217
330
190
100
AcDbEntity
  8
VIEW
  6
Continuous
 62
     7
100
AcDbLine
 10
96.095703125
 20
104.3705062866
 30
0.0
 11
96.095703125
 21
106.5002059937
 31
0.0
  0
LINE
  5
218
330
190
100
AcDbEntity
  8
VIEW
  6
Continuous
 62
     7
100
AcDbLine
 10
96.095703125
 20
104.3705062866
 30
0.0
 11
97.6958007812
 21
104.3619003296
 31
0.0
  0
LINE
  5
219
330
190
100
AcDbEntity
  8
VIEW
  6
Continuous
 62
     7
100
AcDbLine
 10
97.6958007812
 20
104.3619003296
 30
0.0
 11
97.6958007812
 21
106.5002059937
 31
0.0
  0
LINE
  5
21A
330
190
100
AcDbEntity
  8
VIEW
  6
Continuous
 62
     7
100
AcDbLine
 10
97.6958007812
 20
31.0382003784
 30
0.0
 11
97.6958007812
 21
28.5000991821
 31
0.0
  0
LINE
  5
21B
330
190
100
AcDbEntity
  8
VIEW
  6
Continuous
 62
     7
100
AcDbLine
 10
97.6958007812
 20
31.0382003784
 30
0.0
 11
96.095703125
 21
31.0298995972
 31
0.0
  0
LINE
  5
21C
330
190
100
AcDbEntity
  8
VIEW
  6
Continuous
 62
     7
100
AcDbLine
 10
96.095703125
 20
31.0298995972
 30
0.0
 11
96.095703125
 21
28.5000991821
 31
0.0
  0
LINE
  5
21D
330
190
100
AcDbEntity
  8
VIEW
  6
Continuous
 62
     7
100
AcDbLine
 10
94.6958007812
 20
31.0224990845
 30
0.0
 11
94.6958007812
 21
28.5000991821
 31
0.0
  0
LINE
  5
21E
330
190
100
AcDbEntity
  8
VIEW
  6
Continuous
 62
     7
100
AcDbLine
 10
94.6958007812
 20
31.0224990845
 30
0.0
 11
93.095703125
 21
31.0141983032
 31
0.0
  0
LINE
  5
21F
330
190
100
AcDbEntity
  8
VIEW
  6
Continuous
 62
     7
100
AcDbLine
 10
93.095703125
 20
31.0141983032
 30
0.0
 11
93.095703125
 21
28.5000991821
 31
0.0
  0
LINE
  5
220
330
190
100
AcDbEntity
  8
VIEW
  6
Continuous
 62
     7
100
AcDbLine
 10
91.6958007812
 20
31.0067977905
 30
0.0
 11
91.6958007812
 21
28.5000991821
 31
0.0
  0
LINE
  5
221
330
190
100
AcDbEntity
  8
VIEW
  6
Continuous
 62
     7
100
AcDbLine
 10
91.6958007812
 20
31.0067977905
 30
0.0
 11
90.095703125
 21
30.9984970093
 31
0.0
  0
LINE
  5
222
330
190
100
AcDbEntity
  8
VIEW
  6
Continuous
 62
     7
100
AcDbLine
 10
90.095703125
 20
30.9984970093
 30
0.0
 11
90.095703125
 21
28.5000991821
 31
0.0
  0
LINE
  5
223
330
190
100
AcDbEntity
  8
VIEW
  6
Continuous
 62
     7
100
AcDbLine
 10
88.6958007812
 20
30.9910964966
 30
0.0
 11
88.6958007812
 21
28.5000991821
 31
0.0
  0
LINE
  5
224
330
190
100
AcDbEntity
  8
VIEW
  6
Continuous
 62
     7
100
AcDbLine
 10
88.6958007812
 20
30.9910964966
 30
0.0
 11
87.095703125
 21
30.9827957153
 31
0.0
  0
LINE
  5
225
330
190
100
AcDbEntity
  8
VIEW
  6
Continuous
 62
     7
100
AcDbLine
 10
87.095703125
 20
30.9827957153
 30
0.0
 11
87.095703125
 21
28.5000991821
 31
0.0
  0
LINE
  5
226
330
190
100
AcDbEntity
  8
VIEW
  6
Continuous
 62
     7
100
AcDbLine
 10
85.6958007812
 20
30.9755020142
 30
0.0
 11
85.6958007812
 21
28.5000991821
 31
0.0
  0
LINE
  5
227
330
190
100
AcDbEntity
  8
VIEW
  6
Continuous
 62
     7
100
AcDbLine
 10
85.6958007812
 20
30.9755020142
 30
0.0
 11
84.095703125
 21
30.9671096802
 31
0.0
  0
LINE
  5
228
330
190
100
AcDbEntity
  8
VIEW
  6
Continuous
 62
     7
100
AcDbLine
 10
84.095703125
 20
30.9671096802
 30
0.0
 11
84.095703125
 21
28.5000991821
 31
0.0
  0
LINE
  5
229
330
190
100
AcDbEntity
  8
VIEW
  6
Continuous
 62
     7
100
AcDbLine
 10
82.6958007812
 20
30.9598007202
 30
0.0
 11
82.6958007812
 21
28.5000991821
 31
0.0
  0
LINE
  5
22A
330
190
100
AcDbEntity
  8
VIEW
  6
Continuous
 62
     7
100
AcDbLine
 10
82.6958007812
 20
30.9598007202
 30
0.0
 11
81.0956878662
 21
30.951499939
 31
0.0
  0
LINE
  5
22B
330
190
100
AcDbEntity
  8
VIEW
  6
Continuous
 62
     7
100
AcDbLine
 10
81.0956878662
 20
30.951499939
 30
0.0
 11
81.0956878662
 21
28.5000991821
 31
0.0
  0
LINE
  5
22C
330
190
100
AcDbEntity
  8
VIEW
  6
Continuous
 62
     7
100
AcDbLine
 10
79.6958007812
 20
30.9440994263
 30
0.0
 11
79.6958007812
 21
28.5000991821
 31
0.0
  0
LINE
  5
22D
330
190
100
AcDbEntity
  8
VIEW
  6
Continuous
 62
     7
100
AcDbLine
 10
79.6958007812
 20
30.9440994263
 30
0.0
 11
78.0956878662
 21
30.9356002808
 31
0.0
  0
LINE
  5
22E
330
190
100
AcDbEntity
  8
VIEW
  6
Continuous
 62
     7
100
AcDbLine
 10
78.0956878662
 20
30.9356002808
 30
0.0
 11
78.0956878662
 21
28.5000991821
 31
0.0
  0
LINE
  5
22F
330
190
100
AcDbEntity
  8
VIEW
  6
Continuous
 62
     7
100
AcDbLine
 10
76.6956939697
 20
30.9283981323
 30
0.0
 11
76.6956939697
 21
28.5000991821
 31
0.0
  0
LINE
  5
230
330
190
100
AcDbEntity
  8
VIEW
  6
Continuous
 62
     7
100
AcDbLine
 10
76.6956939697
 20
30.9283981323
 30
0.0
 11
75.0956878662
 21
30.9198989868
 31
0.0
  0
LINE
  5
231
330
190
100
AcDbEntity
  8
VIEW
  6
Continuous
 62
     7
100
AcDbLine
 10
75.0956878662
 20
30.9198989868
 30
0.0
 11
75.0956878662
 21
28.5000991821
 31
0.0
  0
LINE
  5
232
330
190
100
AcDbEntity
  8
VIEW
  6
Continuous
 62
     7
100
AcDbLine
 10
73.6956939697
 20
30.9126968384
 30
0.0
 11
73.6956939697
 21
28.5000991821
 31
0.0
  0
LINE
  5
233
330
190
100
AcDbEntity
  8
VIEW
  6
Continuous
 62
     7
100
AcDbLine
 10
73.6956939697
 20
30.9126968384
 30
0.0
 11
72.0956878662
 21
30.9041976929
 31
0.0
  0
LINE
  5
234
330
190
100
AcDbEntity
  8
VIEW
  6
Continuous
 62
     7
100
AcDbLine
 10
73.6956939697
 20
106.5002059937
 30
0.0
 11
75.0956878662
 21
106.5002059937
 31
0.0
  0
LINE
  5
235
330
190
100
AcDbEntity
  8
VIEW
  6
Continuous
 62
     7
100
AcDbLine
 10
76.6956939697
 20
106.5002059937
 30
0.0
 11
78.0956878662
 21
106.5002059937
 31
0.0
  0
LINE
  5
236
330
190
100
AcDbEntity
  8
VIEW
  6
Continuous
 62
     7
100
AcDbLine
 10
61.0
 20
30.5000991821
 30
0.0
 11
27.8472900391
 21
30.5000991821
 31
0.0
  0
LINE
  5
237
330
190
100
AcDbEntity
  8
VIEW
  6
Continuous
 62
     7
100
AcDbLine
 10
27.3472900391
 20
104.5002059937
 30
0.0
 11
61.0
 21
104.5002059937
 31
0.0
  0
LINE
  5
238
330
190
100
AcDbEntity
  8
VIEW
  6
Continuous
 62
     7
100
AcDbLine
 10
27.8472900391
 20
103.7999954224
 30
0.0
 11
27.8472900391
 21
104.5002059937
 31
0.0
  0
LINE
  5
239
330
190
100
AcDbEntity
  8
VIEW
  6
Continuous
 62
     7
100
AcDbLine
 10
79.6958007812
 20
106.5002059937
 30
0.0
 11
81.0956878662
 21
106.5002059937
 31
0.0
  0
LINE
  5
23A
330
190
100
AcDbEntity
  8
VIEW
  6
Continuous
 62
     7
100
AcDbLine
 10
82.6958007812
 20
106.5002059937
 30
0.0
 11
84.095703125
 21
106.5002059937
 31
0.0
  0
LINE
  5
23B
330
190
100
AcDbEntity
  8
VIEW
  6
Continuous
 62
     7
100
AcDbLine
 10
85.6958007812
 20
106.5002059937
 30
0.0
 11
87.095703125
 21
106.5002059937
 31
0.0
  0
LINE
  5
23C
330
190
100
AcDbEntity
  8
VIEW
  6
Continuous
 62
     7
100
AcDbLine
 10
88.6958007812
 20
106.5002059937
 30
0.0
 11
90.095703125
 21
106.5002059937
 31
0.0
  0
LINE
  5
23D
330
190
100
AcDbEntity
  8
VIEW
  6
Continuous
 62
     7
100
AcDbLine
 10
75.0956878662
 20
28.5000991821
 30
0.0
 11
73.6956939697
 21
28.5000991821
 31
0.0
  0
LINE
  5
23E
330
190
100
AcDbEntity
  8
VIEW
  6
Continuous
 62
     7
100
AcDbLine
 10
78.0956878662
 20
28.5000991821
 30
0.0
 11
76.6956939697
 21
28.5000991821
 31
0.0
  0
LINE
  5
23F
330
190
100
AcDbEntity
  8
VIEW
  6
Continuous
 62
     7
100
AcDbLine
 10
81.0956878662
 20
28.5000991821
 30
0.0
 11
79.6958007812
 21
28.5000991821
 31
0.0
  0
LINE
  5
240
330
190
100
AcDbEntity
  8
VIEW
  6
Continuous
 62
     7
100
AcDbLine
 10
91.6958007812
 20
106.5002059937
 30
0.0
 11
93.095703125
 21
106.5002059937
 31
0.0
  0
LINE
  5
241
330
190
100
AcDbEntity
  8
VIEW
  6
Continuous
 62
     7
100
AcDbLine
 10
84.095703125
 20
28.5000991821
 30
0.0
 11
82.6958007812
 21
28.5000991821
 31
0.0
  0
LINE
  5
242
330
190
100
AcDbEntity
  8
VIEW
  6
Continuous
 62
     7
100
AcDbLine
 10
87.095703125
 20
28.5000991821
 30
0.0
 11
85.6958007812
 21
28.5000991821
 31
0.0
  0
LINE
  5
243
330
190
100
AcDbEntity
  8
VIEW
  6
Continuous
 62
     7
100
AcDbLine
 10
90.095703125
 20
28.5000991821
 30
0.0
 11
88.6958007812
 21
28.5000991821
 31
0.0
  0
LINE
  5
244
330
190
100
AcDbEntity
  8
VIEW
  6
Continuous
 62
     7
100
AcDbLine
 10
93.095703125
 20
28.5000991821
 30
0.0
 11
91.6958007812
 21
28.5000991821
 31
0.0
  0
LINE
  5
245
330
190
100
AcDbEntity
  8
VIEW
  6
Continuous
 62
     7
100
AcDbLine
 10
94.6958007812
 20
106.5002059937
 30
0.0
 11
96.095703125
 21
106.5002059937
 31
0.0
  0
LINE
  5
246
330
190
100
AcDbEntity
  8
VIEW
  6
Continuous
 62
     7
100
AcDbLine
 10
96.095703125
 20
28.5000991821
 30
0.0
 11
94.6958007812
 21
28.5000991821
 31
0.0
  0
LINE
  5
247
330
190
100
AcDbEntity
  8
VIEW
  6
Continuous
 62
     7
100
AcDbLine
 10
97.6958007812
 20
106.5002059937
 30
0.0
 11
108.5001831055
 21
106.5002059937
 31
0.0
  0
LINE
  5
248
330
190
100
AcDbEntity
  8
VIEW
  6
Continuous
 62
     7
100
AcDbLine
 10
108.5001831055
 20
28.5000991821
 30
0.0
 11
97.6958007812
 21
28.5000991821
 31
0.0
  0
LINE
  5
249
330
190
100
AcDbEntity
  8
VIEW
  6
Continuous
 62
     7
100
AcDbLine
 10
109.2001953125
 20
105.7999954224
 30
0.0
 11
109.2001953125
 21
29.2000961304
 31
0.0
  0
LINE
  5
24A
330
190
100
AcDbEntity
  8
VIEW
  6
Continuous
 62
     7
100
AcDbLine
 10
0.0
 20
85.0002059937
 30
0.0
 11
4.0
 21
85.0002059937
 31
0.0
  0
LINE
  5
24B
330
190
100
AcDbEntity
  8
VIEW
  6
Continuous
 62
     7
100
AcDbLine
 10
4.0
 20
85.0002059937
 30
0.0
 11
4.0
 21
49.7000961304
 31
0.0
  0
LINE
  5
24C
330
190
100
AcDbEntity
  8
VIEW
  6
Continuous
 62
     7
100
AcDbLine
 10
8.0
 20
104.5002059937
 30
0.0
 11
8.0
 21
103.7000961304
 31
0.0
  0
LINE
  5
24D
330
190
100
AcDbEntity
  8
VIEW
  6
Continuous
 62
     7
100
AcDbLine
 10
8.0
 20
101.2999954224
 30
0.0
 11
8.0
 21
100.5002059937
 31
0.0
  0
LINE
  5
24E
330
190
100
AcDbEntity
  8
VIEW
  6
Continuous
 62
     7
100
AcDbLine
 10
8.0
 20
59.5000076294
 30
0.0
 11
8.0
 21
58.7000961304
 31
0.0
  0
LINE
  5
24F
330
190
100
AcDbEntity
  8
VIEW
  6
Continuous
 62
     7
100
AcDbLine
 10
8.0
 20
56.2999954224
 30
0.0
 11
8.0
 21
55.5002059937
 31
0.0
  0
LINE
  5
250
330
190
100
AcDbEntity
  8
VIEW
  6
Continuous
 62
     7
100
AcDbLine
 10
8.0
 20
49.8199996948
 30
0.0
 11
8.0
 21
49.7000961304
 31
0.0
  0
LINE
  5
251
330
190
100
AcDbEntity
  8
VIEW
  6
Continuous
 62
     7
100
AcDbLine
 10
5.400100708
 20
26.1801986694
 30
0.0
 11
5.400100708
 21
26.6001968384
 31
0.0
  0
LINE
  5
252
330
190
100
AcDbEntity
  8
VIEW
  6
Continuous
 62
     7
100
AcDbLine
 10
2.5
 20
83.7000961304
 30
0.0
 11
2.5
 21
85.0002059937
 31
0.0
  0
LINE
  5
253
330
190
100
AcDbEntity
  8
VIEW
  6
Continuous
 62
     7
100
AcDbLine
 10
1.8000946045
 20
83.0002059937
 30
0.0
 11
2.5
 21
83.7000961304
 31
0.0
  0
LINE
  5
254
330
190
100
AcDbEntity
  8
VIEW
  6
Continuous
 62
     7
100
AcDbLine
 10
1.8000946045
 20
83.0002059937
 30
0.0
 11
0.5
 21
83.0002059937
 31
0.0
  0
LINE
  5
255
330
190
100
AcDbEntity
  8
VIEW
  6
Continuous
 62
     7
100
AcDbLine
 10
0.0
 20
85.0002059937
 30
0.0
 11
0.5
 21
83.0002059937
 31
0.0
  0
LINE
  5
256
330
190
100
AcDbEntity
  8
VIEW
  6
Continuous
 62
     7
100
AcDbLine
 10
3.5
 20
51.7502975464
 30
0.0
 11
3.5
 21
52.2502975464
 31
0.0
  0
LINE
  5
257
330
190
100
AcDbEntity
  8
VIEW
  6
Continuous
 62
     7
100
AcDbLine
 10
3.5
 20
52.2502975464
 30
0.0
 11
3.5
 21
53.7502975464
 31
0.0
  0
LINE
  5
258
330
190
100
AcDbEntity
  8
VIEW
  6
Continuous
 62
     7
100
AcDbLine
 10
3.5
 20
53.7502975464
 30
0.0
 11
3.5
 21
54.2502975464
 31
0.0
  0
LINE
  5
259
330
190
100
AcDbEntity
  8
VIEW
  6
Continuous
 62
     7
100
AcDbLine
 10
3.5
 20
81.0002975464
 30
0.0
 11
3.5
 21
82.0002975464
 31
0.0
  0
LINE
  5
25A
330
190
100
AcDbEntity
  8
VIEW
  6
Continuous
 62
     7
100
AcDbLine
 10
17.1000976563
 20
128.8003005981
 30
0.0
 11
10.900100708
 21
128.8003005981
 31
0.0
  0
LINE
  5
25B
330
190
100
AcDbEntity
  8
VIEW
  6
Continuous
 62
     7
100
AcDbLine
 10
10.900100708
 20
6.2000045776
 30
0.0
 11
17.1000976563
 21
6.2000045776
 31
0.0
  0
LINE
  5
25C
330
190
100
AcDbEntity
  8
VIEW
  6
Continuous
 62
     7
100
AcDbLine
 10
24.6999969482
 20
129.0002059937
 30
0.0
 11
25.0
 21
129.0002059937
 31
0.0
  0
LINE
  5
25D
330
190
100
AcDbEntity
  8
VIEW
  6
Continuous
 62
     7
100
AcDbLine
 10
24.6999969482
 20
6.0000991821
 30
0.0
 11
25.0
 21
6.0000991821
 31
0.0
  0
LINE
  5
25E
330
190
100
AcDbEntity
  8
VIEW
  6
Continuous
 62
     7
100
AcDbLine
 10
3.5
 20
51.7502975464
 30
0.0
 11
4.0
 21
51.7502975464
 31
0.0
  0
LINE
  5
25F
330
190
100
AcDbEntity
  8
VIEW
  6
Continuous
 62
     7
100
AcDbLine
 10
4.0
 20
54.2502975464
 30
0.0
 11
3.5
 21
54.2502975464
 31
0.0
  0
LINE
  5
260
330
190
100
AcDbEntity
  8
VIEW
  6
Continuous
 62
     7
100
AcDbLine
 10
4.0
 20
82.0002975464
 30
0.0
 11
3.5
 21
82.0002975464
 31
0.0
  0
LINE
  5
261
330
190
100
AcDbEntity
  8
VIEW
  6
Continuous
 62
     7
100
AcDbLine
 10
3.5
 20
81.0002975464
 30
0.0
 11
4.0
 21
81.0002975464
 31
0.0
  0
LINE
  5
262
330
190
100
AcDbEntity
  8
VIEW
  6
Continuous
 62
     7
100
AcDbLine
 10
3.5
 20
51.7502059937
 30
0.0
 11
4.0
 21
51.7502059937
 31
0.0
  0
LINE
  5
263
330
190
100
AcDbEntity
  8
VIEW
  6
Continuous
 62
     7
100
AcDbLine
 10
3.5
 20
81.0002059937
 30
0.0
 11
4.0
 21
81.0002059937
 31
0.0
  0
LINE
  5
264
330
190
100
AcDbEntity
  8
VIEW
  6
Continuous
 62
     7
100
AcDbLine
 10
0.0
 20
49.0002059937
 30
0.0
 11
0.0
 21
5.2000045776
 31
0.0
  0
LINE
  5
265
330
190
100
AcDbEntity
  8
VIEW
  6
Continuous
 62
     7
100
AcDbLine
 10
24.6999969482
 20
20.7001037598
 30
0.0
 11
0.0
 21
20.7001037598
 31
0.0
  0
LINE
  5
266
330
190
100
AcDbEntity
  8
VIEW
  6
Continuous
 62
     7
100
AcDbLine
 10
24.6999969482
 20
20.7001037598
 30
0.0
 11
24.6999969482
 21
5.2000045776
 31
0.0
  0
LINE
  5
267
330
190
100
AcDbEntity
  8
VIEW
  6
Continuous
 62
     7
100
AcDbLine
 10
17.3000946045
 20
7.0000991821
 30
0.0
 11
17.3000946045
 21
5.2000045776
 31
0.0
  0
LINE
  5
268
330
190
100
AcDbEntity
  8
VIEW
  6
Continuous
 62
     7
100
AcDbLine
 10
10.6999969482
 20
7.0000991821
 30
0.0
 11
17.3000946045
 21
7.0000991821
 31
0.0
  0
LINE
  5
269
330
190
100
AcDbEntity
  8
VIEW
  6
Continuous
 62
     7
100
AcDbLine
 10
10.6999969482
 20
5.2000045776
 30
0.0
 11
10.6999969482
 21
7.0000991821
 31
0.0
  0
LINE
  5
26A
330
190
100
AcDbEntity
  8
VIEW
  6
Continuous
 62
     7
100
AcDbLine
 10
24.6999969482
 20
129.8003005981
 30
0.0
 11
24.6999969482
 21
114.3003005981
 31
0.0
  0
LINE
  5
26B
330
190
100
AcDbEntity
  8
VIEW
  6
Continuous
 62
     7
100
AcDbLine
 10
24.6999969482
 20
114.3003005981
 30
0.0
 11
0.0
 21
114.3003005981
 31
0.0
  0
LINE
  5
26C
330
190
100
AcDbEntity
  8
VIEW
  6
Continuous
 62
     7
100
AcDbLine
 10
0.0
 20
129.8003005981
 30
0.0
 11
0.0
 21
85.0002059937
 31
0.0
  0
LINE
  5
26D
330
190
100
AcDbEntity
  8
VIEW
  6
Continuous
 62
     7
100
AcDbLine
 10
10.6999969482
 20
128.0002059937
 30
0.0
 11
10.6999969482
 21
129.8003005981
 31
0.0
  0
LINE
  5
26E
330
190
100
AcDbEntity
  8
VIEW
  6
Continuous
 62
     7
100
AcDbLine
 10
10.6999969482
 20
128.0002059937
 30
0.0
 11
17.3000946045
 21
128.0002059937
 31
0.0
  0
LINE
  5
26F
330
190
100
AcDbEntity
  8
VIEW
  6
Continuous
 62
     7
100
AcDbLine
 10
17.3000946045
 20
129.8003005981
 30
0.0
 11
17.3000946045
 21
128.0002059937
 31
0.0
  0
LINE
  5
270
330
190
100
AcDbEntity
  8
VIEW
  6
Continuous
 62
     7
100
AcDbLine
 10
0.0
 20
5.0000991821
 30
0.0
 11
0.0
 21
5.2000045776
 31
0.0
  0
LINE
  5
271
330
190
100
AcDbEntity
  8
VIEW
  6
Continuous
 62
     7
100
AcDbLine
 10
10.6999969482
 20
5.0000991821
 30
0.0
 11
10.6999969482
 21
5.2000045776
 31
0.0
  0
LINE
  5
272
330
190
100
AcDbEntity
  8
VIEW
  6
Continuous
 62
     7
100
AcDbLine
 10
10.6999969482
 20
129.8003005981
 30
0.0
 11
10.6999969482
 21
130.0002059937
 31
0.0
  0
LINE
  5
273
330
190
100
AcDbEntity
  8
VIEW
  6
Continuous
 62
     7
100
AcDbLine
 10
0.0
 20
129.8003005981
 30
0.0
 11
0.0
 21
130.0002059937
 31
0.0
  0
LINE
  5
274
330
190
100
AcDbEntity
  8
VIEW
  6
Continuous
 62
     7
100
AcDbLine
 10
0.6999969482
 20
49.7000961304
 30
0.0
 11
8.0
 21
49.7000961304
 31
0.0
  0
LINE
  5
275
330
190
100
AcDbEntity
  8
VIEW
  6
Continuous
 62
     7
100
AcDbLine
 10
8.0
 20
49.7000961304
 30
0.0
 11
8.0
 21
26.6001968384
 31
0.0
  0
LINE
  5
276
330
190
100
AcDbEntity
  8
VIEW
  6
Continuous
 62
     7
100
AcDbLine
 10
0.0
 20
49.0002059937
 30
0.0
 11
0.6999969482
 21
49.7000961304
 31
0.0
  0
LINE
  5
277
330
190
100
AcDbEntity
  8
VIEW
  6
Continuous
 62
     7
100
AcDbLine
 10
8.0
 20
26.6001968384
 30
0.0
 11
0.0
 21
26.6001968384
 31
0.0
  0
LINE
  5
278
330
190
100
AcDbEntity
  8
VIEW
  6
Continuous
 62
     7
100
AcDbLine
 10
10.900100708
 20
129.8003005981
 30
0.0
 11
10.900100708
 21
128.0002059937
 31
0.0
  0
LINE
  5
279
330
190
100
AcDbEntity
  8
VIEW
  6
Continuous
 62
     7
100
AcDbLine
 10
10.900100708
 20
7.0000991821
 30
0.0
 11
10.900100708
 21
5.2000045776
 31
0.0
  0
LINE
  5
27A
330
190
100
AcDbEntity
  8
VIEW
  6
Continuous
 62
     7
100
AcDbLine
 10
10.900100708
 20
129.8003005981
 30
0.0
 11
10.6999969482
 21
130.0002059937
 31
0.0
  0
LINE
  5
27B
330
190
100
AcDbEntity
  8
VIEW
  6
Continuous
 62
     7
100
AcDbLine
 10
10.6999969482
 20
5.0000991821
 30
0.0
 11
10.900100708
 21
5.2000045776
 31
0.0
  0
LINE
  5
27C
330
190
100
AcDbEntity
  8
VIEW
  6
Continuous
 62
     7
100
AcDbLine
 10
17.1000976563
 20
128.0002059937
 30
0.0
 11
17.1000976563
 21
129.8003005981
 31
0.0
  0
LINE
  5
27D
330
190
100
AcDbEntity
  8
VIEW
  6
Continuous
 62
     7
100
AcDbLine
 10
17.1000976563
 20
5.2000045776
 30
0.0
 11
17.1000976563
 21
7.0000991821
 31
0.0
  0
LINE
  5
27E
330
190
100
AcDbEntity
  8
VIEW
  6
Continuous
 62
     7
100
AcDbLine
 10
24.6999969482
 20
5.2000045776
 30
0.0
 11
24.6999969482
 21
5.0000991821
 31
0.0
  0
LINE
  5
27F
330
190
100
AcDbEntity
  8
VIEW
  6
Continuous
 62
     7
100
AcDbLine
 10
24.6999969482
 20
5.0000991821
 30
0.0
 11
0.0
 21
5.0000991821
 31
0.0
  0
LINE
  5
280
330
190
100
AcDbEntity
  8
VIEW
  6
Continuous
 62
     7
100
AcDbLine
 10
17.3000946045
 20
5.2000045776
 30
0.0
 11
17.3000946045
 21
5.0000991821
 31
0.0
  0
LINE
  5
281
330
190
100
AcDbEntity
  8
VIEW
  6
Continuous
 62
     7
100
AcDbLine
 10
17.3000946045
 20
5.0000991821
 30
0.0
 11
17.1000976563
 21
5.2000045776
 31
0.0
  0
LINE
  5
282
330
190
100
AcDbEntity
  8
VIEW
  6
Continuous
 62
     7
100
AcDbLine
 10
24.6999969482
 20
130.0002059937
 30
0.0
 11
24.6999969482
 21
129.8003005981
 31
0.0
  0
LINE
  5
283
330
190
100
AcDbEntity
  8
VIEW
  6
Continuous
 62
     7
100
AcDbLine
 10
17.3000946045
 20
130.0002059937
 30
0.0
 11
17.3000946045
 21
129.8003005981
 31
0.0
  0
LINE
  5
284
330
190
100
AcDbEntity
  8
VIEW
  6
Continuous
 62
     7
100
AcDbLine
 10
0.0
 20
130.0002059937
 30
0.0
 11
24.6999969482
 21
130.0002059937
 31
0.0
  0
LINE
  5
285
330
190
100
AcDbEntity
  8
VIEW
  6
Continuous
 62
     7
100
AcDbLine
 10
17.3000946045
 20
130.0002059937
 30
0.0
 11
17.1000976563
 21
129.8003005981
 31
0.0
  0
LINE
  5
286
330
190
100
AcDbEntity
  8
VIEW
  6
Continuous
 62
     7
100
AcDbLine
 10
25.0
 20
7.3001022339
 30
0.0
 11
24.6999969482
 21
7.3001022339
 31
0.0
  0
LINE
  5
287
330
190
100
AcDbEntity
  8
VIEW
  6
Continuous
 62
     7
100
AcDbLine
 10
24.6999969482
 20
127.7000961304
 30
0.0
 11
25.0
 21
127.7000961304
 31
0.0
  0
LINE
  5
288
330
190
100
AcDbEntity
  8
WORKLAYER
  6
Continuous
 62
     7
100
AcDbLine
 10
9.6999969482
 20
104.5002059937
 30
0.0
 11
9.6999969482
 21
100.5002059937
 31
0.0
  0
LINE
  5
289
330
190
100
AcDbEntity
  8
WORKLAYER
  6
Continuous
 62
     7
100
AcDbLine
 10
9.6999969482
 20
59.5000076294
 30
0.0
 11
9.6999969482
 21
55.5002059937
 31
0.0
  0
LINE
  5
28A
330
190
100
AcDbEntity
  8
WORKLAYER
  6
Continuous
 62
     7
100
AcDbLine
 10
9.6999969482
 20
49.8199996948
 30
0.0
 11
9.6999969482
 21
26.1801986694
 31
0.0
  0
LINE
  5
28B
330
190
100
AcDbEntity
  8
WORKLAYER
  6
Continuous
 62
     7
100
AcDbLine
 10
8.5
 20
104.5002059937
 30
0.0
 11
8.5
 21
100.5002059937
 31
0.0
  0
LINE
  5
28C
330
190
100
AcDbEntity
  8
WORKLAYER
  6
Continuous
 62
     7
100
AcDbLine
 10
8.5
 20
59.5000076294
 30
0.0
 11
8.5
 21
55.5002059937
 31
0.0
  0
LINE
  5
28D
330
190
100
AcDbEntity
  8
WORKLAYER
  6
Continuous
 62
     7
100
AcDbLine
 10
8.5
 20
49.8199996948
 30
0.0
 11
8.5
 21
26.1801986694
 31
0.0
  0
LINE
  5
28E
330
190
100
AcDbEntity
  8
VIEW
  6
Continuous
 62
     7
100
AcDbLine
 10
0.0
 20
0.25
 30
0.0
 11
0.0
 21
51.0000076294
 31
0.0
  0
LINE
  5
28F
330
190
100
AcDbEntity
  8
VIEW
  6
Continuous
 62
     7
100
AcDbLine
 10
3.8999023438
 20
5.0000991821
 30
0.0
 11
3.8999023438
 21
0.0
 31
0.0
  0
LINE
  5
290
330
190
100
AcDbEntity
  8
VIEW
  6
Continuous
 62
     7
100
AcDbLine
 10
2.1998901367
 20
0.0
 30
0.0
 11
2.1998901367
 21
5.0000991821
 31
0.0
  0
LINE
  5
291
330
190
100
AcDbEntity
  8
VIEW
  6
Continuous
 62
     7
100
AcDbLine
 10
3.8999023438
 20
0.0
 30
0.0
 11
0.25
 21
0.0
 31
0.0
  0
LINE
  5
292
330
190
100
AcDbEntity
  8
VIEW
  6
Continuous
 62
     7
100
AcDbLine
 10
1.75
 20
53.0000076294
 30
0.0
 11
0.5
 21
53.0000076294
 31
0.0
  0
LINE
  5
293
330
190
100
AcDbEntity
  8
VIEW
  6
Continuous
 62
     7
100
AcDbLine
 10
2.4498901367
 20
52.3001022339
 30
0.0
 11
1.75
 21
53.0000076294
 31
0.0
  0
LINE
  5
294
330
190
100
AcDbEntity
  8
VIEW
  6
Continuous
 62
     7
100
AcDbLine
 10
2.4498901367
 20
52.3001022339
 30
0.0
 11
2.4498901367
 21
49.7000961304
 31
0.0
  0
LINE
  5
295
330
190
100
AcDbEntity
  8
VIEW
  6
Continuous
 62
     7
100
AcDbLine
 10
0.0
 20
51.0000076294
 30
0.0
 11
0.5
 21
53.0000076294
 31
0.0
  0
LINE
  5
296
330
190
100
AcDbEntity
  8
WORKLAYER
  6
PHANTOM
 62
     7
100
AcDbLine
 10
145.3610839844
 20
57.9525985718
 30
0.0
 11
155.3610839844
 21
57.9525985718
 31
0.0
  0
LINE
  5
297
330
190
100
AcDbEntity
  8
WORKLAYER
  6
PHANTOM
 62
     7
100
AcDbLine
 10
155.3610839844
 20
57.9525985718
 30
0.0
 11
156.3610839844
 21
56.9525985718
 31
0.0
  0
LINE
  5
298
330
190
100
AcDbEntity
  8
WORKLAYER
  6
PHANTOM
 62
     7
100
AcDbLine
 10
125.4974060059
 20
60.4878005981
 30
0.0
 11
141.4974060059
 21
60.4878005981
 31
0.0
  0
LINE
  5
299
330
190
100
AcDbEntity
  8
WORKLAYER
  6
PHANTOM
 62
     7
100
AcDbLine
 10
125.4974060059
 20
61.4878005981
 30
0.0
 11
125.4974060059
 21
41.4878005981
 31
0.0
  0
LINE
  5
29A
330
190
100
AcDbEntity
  8
WORKLAYER
  6
PHANTOM
 62
     7
100
AcDbLine
 10
125.4974060059
 20
42.4878005981
 30
0.0
 11
141.4974060059
 21
42.4878005981
 31
0.0
  0
LINE
  5
29B
330
190
100
AcDbEntity
  8
WORKLAYER
  6
PHANTOM
 62
     7
100
AcDbLine
 10
141.4974060059
 20
60.4878005981
 30
0.0
 11
141.4974060059
 21
42.4878005981
 31
0.0
  0
LINE
  5
29C
330
190
100
AcDbEntity
  8
WORKLAYER
  6
PHANTOM
 62
     7
100
AcDbLine
 10
125.4974060059
 20
61.4878005981
 30
0.0
 11
120.4974060059
 21
61.4878005981
 31
0.0
  0
LINE
  5
29D
330
190
100
AcDbEntity
  8
WORKLAYER
  6
PHANTOM
 62
     7
100
AcDbLine
 10
120.4974060059
 20
61.4878005981
 30
0.0
 11
119.4974060059
 21
60.4878005981
 31
0.0
  0
LINE
  5
29E
330
190
100
AcDbEntity
  8
WORKLAYER
  6
PHANTOM
 62
     7
100
AcDbLine
 10
125.4974060059
 20
41.4878005981
 30
0.0
 11
120.4974060059
 21
41.4878005981
 31
0.0
  0
LINE
  5
29F
330
190
100
AcDbEntity
  8
WORKLAYER
  6
PHANTOM
 62
     7
100
AcDbLine
 10
119.4974060059
 20
42.4878005981
 30
0.0
 11
120.4974060059
 21
41.4878005981
 31
0.0
  0
LINE
  5
2A0
330
190
100
AcDbEntity
  8
WORKLAYER
  6
PHANTOM
 62
     7
100
AcDbLine
 10
118.5
 20
61.4878005981
 30
0.0
 11
109.2001953125
 21
61.4878005981
 31
0.0
  0
LINE
  5
2A1
330
190
100
AcDbEntity
  8
WORKLAYER
  6
PHANTOM
 62
     7
100
AcDbLine
 10
118.5
 20
61.4878005981
 30
0.0
 11
119.5
 21
60.4878005981
 31
0.0
  0
LINE
  5
2A2
330
190
100
AcDbEntity
  8
WORKLAYER
  6
PHANTOM
 62
     7
100
AcDbLine
 10
118.5
 20
41.4878005981
 30
0.0
 11
109.2001953125
 21
41.4878005981
 31
0.0
  0
LINE
  5
2A3
330
190
100
AcDbEntity
  8
WORKLAYER
  6
PHANTOM
 62
     7
100
AcDbLine
 10
118.5
 20
41.4878005981
 30
0.0
 11
119.5
 21
42.4878005981
 31
0.0
  0
LINE
  5
2A4
330
190
100
AcDbEntity
  8
WORKLAYER
  6
PHANTOM
 62
     7
100
AcDbLine
 10
141.4974060059
 20
60.4878005981
 30
0.0
 11
145.3610839844
 21
59.4525985718
 31
0.0
  0
LINE
  5
2A5
330
190
100
AcDbEntity
  8
WORKLAYER
  6
PHANTOM
 62
     7
100
AcDbLine
 10
141.4974060059
 20
42.4878005981
 30
0.0
 11
145.3610839844
 21
43.523109436
 31
0.0
  0
LINE
  5
2A6
330
190
100
AcDbEntity
  8
WORKLAYER
  6
PHANTOM
 62
     7
100
AcDbLine
 10
145.3610839844
 20
59.4525985718
 30
0.0
 11
145.3610839844
 21
57.9525985718
 31
0.0
  0
LINE
  5
2A7
330
190
100
AcDbEntity
  8
WORKLAYER
  6
PHANTOM
 62
     7
100
AcDbLine
 10
145.3610839844
 20
43.523109436
 30
0.0
 11
145.3610839844
 21
45.023109436
 31
0.0
  0
LINE
  5
2A8
330
190
100
AcDbEntity
  8
WORKLAYER
  6
PHANTOM
 62
     7
100
AcDbLine
 10
145.3610839844
 20
45.023109436
 30
0.0
 11
155.3610839844
 21
45.023109436
 31
0.0
  0
LINE
  5
2A9
330
190
100
AcDbEntity
  8
WORKLAYER
  6
PHANTOM
 62
     7
100
AcDbLine
 10
155.3610839844
 20
45.023109436
 30
0.0
 11
156.3610839844
 21
46.023109436
 31
0.0
  0
LINE
  5
2AA
330
190
100
AcDbEntity
  8
WORKLAYER
  6
PHANTOM
 62
     7
100
AcDbLine
 10
155.3610839844
 20
57.9525985718
 30
0.0
 11
155.3610839844
 21
45.023109436
 31
0.0
  0
LINE
  5
2AB
330
190
100
AcDbEntity
  8
WORKLAYER
  6
PHANTOM
 62
     7
100
AcDbLine
 10
156.3610839844
 20
56.9525985718
 30
0.0
 11
156.3610839844
 21
46.023109436
 31
0.0
  0
LINE
  5
2AC
330
190
100
AcDbEntity
  8
WORKLAYER
  6
PHANTOM
 62
     7
100
AcDbLine
 10
156.3610839844
 20
56.9525985718
 30
0.0
 11
158.3610839844
 21
56.9525985718
 31
0.0
  0
LINE
  5
2AD
330
190
100
AcDbEntity
  8
WORKLAYER
  6
PHANTOM
 62
     7
100
AcDbLine
 10
156.3610839844
 20
46.023109436
 30
0.0
 11
158.3610839844
 21
46.023109436
 31
0.0
  0
LINE
  5
2AE
330
190
100
AcDbEntity
  8
WORKLAYER
  6
PHANTOM
 62
     7
100
AcDbLine
 10
158.3610839844
 20
57.9525985718
 30
0.0
 11
162.3610839844
 21
57.9525985718
 31
0.0
  0
LINE
  5
2AF
330
190
100
AcDbEntity
  8
WORKLAYER
  6
PHANTOM
 62
     7
100
AcDbLine
 10
162.3610839844
 20
57.9525985718
 30
0.0
 11
163.3610839844
 21
56.9525985718
 31
0.0
  0
LINE
  5
2B0
330
190
100
AcDbEntity
  8
WORKLAYER
  6
PHANTOM
 62
     7
100
AcDbLine
 10
158.3610839844
 20
45.023109436
 30
0.0
 11
162.3610839844
 21
45.023109436
 31
0.0
  0
LINE
  5
2B1
330
190
100
AcDbEntity
  8
WORKLAYER
  6
PHANTOM
 62
     7
100
AcDbLine
 10
158.3610839844
 20
57.9525985718
 30
0.0
 11
158.3610839844
 21
45.023109436
 31
0.0
  0
LINE
  5
2B2
330
190
100
AcDbEntity
  8
WORKLAYER
  6
PHANTOM
 62
     7
100
AcDbLine
 10
163.3610839844
 20
56.9525985718
 30
0.0
 11
163.3610839844
 21
56.4878005981
 31
0.0
  0
LINE
  5
2B3
330
190
100
AcDbEntity
  8
WORKLAYER
  6
PHANTOM
 62
     7
100
AcDbLine
 10
163.3610839844
 20
46.023109436
 30
0.0
 11
162.3610839844
 21
45.023109436
 31
0.0
  0
LINE
  5
2B4
330
190
100
AcDbEntity
  8
WORKLAYER
  6
PHANTOM
 62
     7
100
AcDbLine
 10
163.3610839844
 20
56.4878005981
 30
0.0
 11
162.3610839844
 21
55.4878005981
 31
0.0
  0
LINE
  5
2B5
330
190
100
AcDbEntity
  8
WORKLAYER
  6
PHANTOM
 62
     7
100
AcDbLine
 10
158.3610839844
 20
55.4878005981
 30
0.0
 11
162.3610839844
 21
55.4878005981
 31
0.0
  0
LINE
  5
2B6
330
190
100
AcDbEntity
  8
WORKLAYER
  6
PHANTOM
 62
     7
100
AcDbLine
 10
158.3610839844
 20
48.4878005981
 30
0.0
 11
162.3610839844
 21
48.4878005981
 31
0.0
  0
LINE
  5
2B7
330
190
100
AcDbEntity
  8
WORKLAYER
  6
PHANTOM
 62
     7
100
AcDbLine
 10
158.3610839844
 20
54.4878005981
 30
0.0
 11
162.3610839844
 21
54.4878005981
 31
0.0
  0
LINE
  5
2B8
330
190
100
AcDbEntity
  8
WORKLAYER
  6
PHANTOM
 62
     7
100
AcDbLine
 10
162.3610839844
 20
54.4878005981
 30
0.0
 11
163.3610839844
 21
53.4878005981
 31
0.0
  0
LINE
  5
2B9
330
190
100
AcDbEntity
  8
WORKLAYER
  6
PHANTOM
 62
     7
100
AcDbLine
 10
158.3610839844
 20
47.4878005981
 30
0.0
 11
162.3610839844
 21
47.4878005981
 31
0.0
  0
LINE
  5
2BA
330
190
100
AcDbEntity
  8
WORKLAYER
  6
PHANTOM
 62
     7
100
AcDbLine
 10
162.3610839844
 20
47.4878005981
 30
0.0
 11
163.3610839844
 21
46.4878005981
 31
0.0
  0
LINE
  5
2BB
330
190
100
AcDbEntity
  8
WORKLAYER
  6
PHANTOM
 62
     7
100
AcDbLine
 10
163.3610839844
 20
53.4878005981
 30
0.0
 11
163.3610839844
 21
49.4878005981
 31
0.0
  0
LINE
  5
2BC
330
190
100
AcDbEntity
  8
WORKLAYER
  6
PHANTOM
 62
     7
100
AcDbLine
 10
163.3610839844
 20
49.4878005981
 30
0.0
 11
162.3610839844
 21
48.4878005981
 31
0.0
  0
LINE
  5
2BD
330
190
100
AcDbEntity
  8
WORKLAYER
  6
PHANTOM
 62
     7
100
AcDbLine
 10
163.3610839844
 20
46.4878005981
 30
0.0
 11
163.3610839844
 21
46.023109436
 31
0.0
  0
LINE
  5
2BE
330
190
100
AcDbEntity
  8
WORKLAYER
  6
PHANTOM
 62
     7
100
AcDbLine
 10
162.3610839844
 20
55.4878005981
 30
0.0
 11
162.3610839844
 21
54.4878005981
 31
0.0
  0
LINE
  5
2BF
330
190
100
AcDbEntity
  8
WORKLAYER
  6
PHANTOM
 62
     7
100
AcDbLine
 10
162.3610839844
 20
48.4878005981
 30
0.0
 11
162.3610839844
 21
47.4878005981
 31
0.0
  0
LINE
  5
2C0
330
190
100
AcDbEntity
  8
WORKLAYER
  6
PHANTOM
 62
     7
100
AcDbLine
 10
163.3610839844
 20
56.4878005981
 30
0.0
 11
163.3610839844
 21
46.4878005981
 31
0.0
  0
LINE
  5
2C1
330
190
100
AcDbEntity
  8
WORKLAYER
  6
Continuous
 62
     7
100
AcDbLine
 10
117.5000915527
 20
57.5002059937
 30
0.0
 11
117.5000915527
 21
45.5002059937
 31
0.0
  0
LINE
  5
2C2
330
190
100
AcDbEntity
  8
WORKLAYER
  6
Continuous
 62
     7
100
AcDbLine
 10
117.5000915527
 20
57.5002059937
 30
0.0
 11
109.2001953125
 21
57.5002059937
 31
0.0
  0
LINE
  5
2C3
330
190
100
AcDbEntity
  8
WORKLAYER
  6
Continuous
 62
     7
100
AcDbLine
 10
117.5000915527
 20
45.5002059937
 30
0.0
 11
109.2001953125
 21
45.5002059937
 31
0.0
  0
LINE
  5
2C4
330
190
100
AcDbEntity
  8
WORKLAYER
  6
Continuous
 62
     7
100
AcDbLine
 10
117.5000915527
 20
56.6252059937
 30
0.0
 11
109.2001953125
 21
56.6252059937
 31
0.0
  0
LINE
  5
2C5
330
190
100
AcDbEntity
  8
WORKLAYER
  6
Continuous
 62
     7
100
AcDbLine
 10
117.5000915527
 20
46.3752059937
 30
0.0
 11
109.2001953125
 21
46.3752059937
 31
0.0
  0
LINE
  5
2C6
330
190
100
AcDbEntity
  8
WORKLAYER
  6
PHANTOM
 62
     7
100
AcDbLine
 10
168.3610839844
 20
53.9878005981
 30
0.0
 11
163.3610839844
 21
53.9878005981
 31
0.0
  0
LINE
  5
2C7
330
190
100
AcDbEntity
  8
WORKLAYER
  6
PHANTOM
 62
     7
100
AcDbLine
 10
168.3610839844
 20
48.9878005981
 30
0.0
 11
163.3610839844
 21
48.9878005981
 31
0.0
  0
LINE
  5
2C8
330
190
100
AcDbEntity
  8
WORKLAYER
  6
PHANTOM
 62
     7
100
AcDbLine
 10
190.8610839844
 20
26.4878005981
 30
0.0
 11
190.8610839844
 21
18.3903045654
 31
0.0
  0
LINE
  5
2C9
330
190
100
AcDbEntity
  8
WORKLAYER
  6
PHANTOM
 62
     7
100
AcDbLine
 10
195.8610839844
 20
26.4878005981
 30
0.0
 11
195.8610839844
 21
18.3903045654
 31
0.0
  0
LINE
  5
2CA
330
190
100
AcDbEntity
  8
WORKLAYER
  6
PHANTOM
 62
     7
100
AcDbLine
 10
190.8610839844
 20
18.3903045654
 30
0.0
 11
191.0495295105
 21
18.614789238
 31
0.0
  0
LINE
  5
2CB
330
190
100
AcDbEntity
  8
WORKLAYER
  6
PHANTOM
 62
     7
100
AcDbLine
 10
191.0495295105
 20
18.614789238
 30
0.0
 11
191.2377265625
 21
18.8340377808
 31
0.0
  0
LINE
  5
2CC
330
190
100
AcDbEntity
  8
WORKLAYER
  6
PHANTOM
 62
     7
100
AcDbLine
 10
191.2377265625
 20
18.8340377808
 30
0.0
 11
191.4254321594
 21
19.042820015
 31
0.0
  0
LINE
  5
2CD
330
190
100
AcDbEntity
  8
WORKLAYER
  6
PHANTOM
 62
     7
100
AcDbLine
 10
191.4254321594
 20
19.042820015
 30
0.0
 11
191.6124033203
 21
19.2359057617
 31
0.0
  0
LINE
  5
2CE
330
190
100
AcDbEntity
  8
WORKLAYER
  6
PHANTOM
 62
     7
100
AcDbLine
 10
191.6124033203
 20
19.2359057617
 30
0.0
 11
191.7983970642
 21
19.4080648422
 31
0.0
  0
LINE
  5
2CF
330
190
100
AcDbEntity
  8
WORKLAYER
  6
PHANTOM
 62
     7
100
AcDbLine
 10
191.7983970642
 20
19.4080648422
 30
0.0
 11
191.9831704102
 21
19.5540670776
 31
0.0
  0
LINE
  5
2D0
330
190
100
AcDbEntity
  8
WORKLAYER
  6
PHANTOM
 62
     7
100
AcDbLine
 10
191.9831704102
 20
19.5540670776
 30
0.0
 11
192.1664803772
 21
19.6686822891
 31
0.0
  0
LINE
  5
2D1
330
190
100
AcDbEntity
  8
WORKLAYER
  6
PHANTOM
 62
     7
100
AcDbLine
 10
192.1664803772
 20
19.6686822891
 30
0.0
 11
192.3480839844
 21
19.7466802979
 31
0.0
  0
LINE
  5
2D2
330
190
100
AcDbEntity
  8
WORKLAYER
  6
PHANTOM
 62
     7
100
AcDbLine
 10
192.3480839844
 20
19.7466802979
 30
0.0
 11
192.5277382507
 21
19.782830925
 31
0.0
  0
LINE
  5
2D3
330
190
100
AcDbEntity
  8
WORKLAYER
  6
PHANTOM
 62
     7
100
AcDbLine
 10
192.5277382507
 20
19.782830925
 30
0.0
 11
192.7052001953
 21
19.7719039917
 31
0.0
  0
LINE
  5
2D4
330
190
100
AcDbEntity
  8
WORKLAYER
  6
PHANTOM
 62
     7
100
AcDbLine
 10
192.7052001953
 20
19.7719039917
 30
0.0
 11
192.8927807617
 21
19.7050343018
 31
0.0
  0
LINE
  5
2D5
330
190
100
AcDbEntity
  8
WORKLAYER
  6
PHANTOM
 62
     7
100
AcDbLine
 10
192.8927807617
 20
19.7050343018
 30
0.0
 11
193.078918457
 21
19.5896314087
 31
0.0
  0
LINE
  5
2D6
330
190
100
AcDbEntity
  8
WORKLAYER
  6
PHANTOM
 62
     7
100
AcDbLine
 10
193.078918457
 20
19.5896314087
 30
0.0
 11
193.2649700928
 21
19.437131897
 31
0.0
  0
LINE
  5
2D7
330
190
100
AcDbEntity
  8
WORKLAYER
  6
PHANTOM
 62
     7
100
AcDbLine
 10
193.2649700928
 20
19.437131897
 30
0.0
 11
193.4522924805
 21
19.2589723511
 31
0.0
  0
LINE
  5
2D8
330
190
100
AcDbEntity
  8
WORKLAYER
  6
PHANTOM
 62
     7
100
AcDbLine
 10
193.4522924805
 20
19.2589723511
 30
0.0
 11
193.6422424316
 21
19.0665893555
 31
0.0
  0
LINE
  5
2D9
330
190
100
AcDbEntity
  8
WORKLAYER
  6
PHANTOM
 62
     7
100
AcDbLine
 10
193.6422424316
 20
19.0665893555
 30
0.0
 11
193.8361767578
 21
18.8714194946
 31
0.0
  0
LINE
  5
2DA
330
190
100
AcDbEntity
  8
WORKLAYER
  6
PHANTOM
 62
     7
100
AcDbLine
 10
193.8361767578
 20
18.8714194946
 30
0.0
 11
194.0354522705
 21
18.684899353
 31
0.0
  0
LINE
  5
2DB
330
190
100
AcDbEntity
  8
WORKLAYER
  6
PHANTOM
 62
     7
100
AcDbLine
 10
194.0354522705
 20
18.684899353
 30
0.0
 11
194.2414257813
 21
18.5184655151
 31
0.0
  0
LINE
  5
2DC
330
190
100
AcDbEntity
  8
WORKLAYER
  6
PHANTOM
 62
     7
100
AcDbLine
 10
194.2414257813
 20
18.5184655151
 30
0.0
 11
194.4554541016
 21
18.3835545654
 31
0.0
  0
LINE
  5
2DD
330
190
100
AcDbEntity
  8
WORKLAYER
  6
PHANTOM
 62
     7
100
AcDbLine
 10
194.4554541016
 20
18.3835545654
 30
0.0
 11
194.678894043
 21
18.2916030884
 31
0.0
  0
LINE
  5
2DE
330
190
100
AcDbEntity
  8
WORKLAYER
  6
PHANTOM
 62
     7
100
AcDbLine
 10
194.678894043
 20
18.2916030884
 30
0.0
 11
194.7900158691
 21
18.265637825
 31
0.0
  0
LINE
  5
2DF
330
190
100
AcDbEntity
  8
WORKLAYER
  6
PHANTOM
 62
     7
100
AcDbLine
 10
194.7900158691
 20
18.265637825
 30
0.0
 11
194.9033789063
 21
18.2509866943
 31
0.0
  0
LINE
  5
2E0
330
190
100
AcDbEntity
  8
WORKLAYER
  6
PHANTOM
 62
     7
100
AcDbLine
 10
194.9033789063
 20
18.2509866943
 30
0.0
 11
195.0187341309
 21
18.2463931808
 31
0.0
  0
LINE
  5
2E1
330
190
100
AcDbEntity
  8
WORKLAYER
  6
PHANTOM
 62
     7
100
AcDbLine
 10
195.0187341309
 20
18.2463931808
 30
0.0
 11
195.1358325195
 21
18.250600769
 31
0.0
  0
LINE
  5
2E2
330
190
100
AcDbEntity
  8
WORKLAYER
  6
PHANTOM
 62
     7
100
AcDbLine
 10
195.1358325195
 20
18.250600769
 30
0.0
 11
195.2544250488
 21
18.2623529434
 31
0.0
  0
LINE
  5
2E3
330
190
100
AcDbEntity
  8
WORKLAYER
  6
PHANTOM
 62
     7
100
AcDbLine
 10
195.2544250488
 20
18.2623529434
 30
0.0
 11
195.3742626953
 21
18.2803931885
 31
0.0
  0
LINE
  5
2E4
330
190
100
AcDbEntity
  8
WORKLAYER
  6
PHANTOM
 62
     7
100
AcDbLine
 10
195.3742626953
 20
18.2803931885
 30
0.0
 11
195.4950964355
 21
18.3034649887
 31
0.0
  0
LINE
  5
2E5
330
190
100
AcDbEntity
  8
WORKLAYER
  6
PHANTOM
 62
     7
100
AcDbLine
 10
195.4950964355
 20
18.3034649887
 30
0.0
 11
195.6166772461
 21
18.3303118286
 31
0.0
  0
LINE
  5
2E6
330
190
100
AcDbEntity
  8
WORKLAYER
  6
PHANTOM
 62
     7
100
AcDbLine
 10
195.6166772461
 20
18.3303118286
 30
0.0
 11
195.7387561035
 21
18.3596771927
 31
0.0
  0
LINE
  5
2E7
330
190
100
AcDbEntity
  8
WORKLAYER
  6
PHANTOM
 62
     7
100
AcDbLine
 10
195.7387561035
 20
18.3596771927
 30
0.0
 11
195.8610839844
 21
18.3903045654
 31
0.0
  0
ENDBLK
  5
192
330
190
100
AcDbEntity
  8
0
100
AcDbBlockEnd
  0
BLOCK
  5
2E9
330
2E8
100
AcDbEntity
  8
0
100
AcDbBlockBegin
  2
ﾌﾞﾛｯｸ97
 70
     0
 71
     0
 10
0.0
 20
0.0
 30
0.0
  3
ﾌﾞﾛｯｸ97
  1

  0
ARC
  5
2EB
330
2E8
100
AcDbEntity
  8
WORKLAYER
  6
Continuous
 62
     7
100
AcDbCircle
 10
37.9877029434
 20
21.5003967285
 30
0.0
 40
10.71370983123777
100
AcDbArc
 50
2.6727910042
 51
15.7059001923
  0
ARC
  5
2EC
330
2E8
100
AcDbEntity
  8
WORKLAYER
  6
Continuous
 62
     7
100
AcDbCircle
 10
37.9877029434
 20
21.5003967285
 30
0.0
 40
10.7137098312378
100
AcDbArc
 50
344.2934875488
 51
357.3233947754
  0
ARC
  5
2ED
330
2E8
100
AcDbEntity
  8
WORKLAYER
  6
Continuous
 62
     7
100
AcDbCircle
 10
36.9877029434
 20
21.5003967285
 30
0.0
 40
10.71370983123778
100
AcDbArc
 50
3.7445979118
 51
15.7059001923
  0
ARC
  5
2EE
330
2E8
100
AcDbEntity
  8
WORKLAYER
  6
Continuous
 62
     7
100
AcDbCircle
 10
36.9877029434
 20
21.5003967285
 30
0.0
 40
10.7137098312378
100
AcDbArc
 50
344.2934875488
 51
356.2522888184
  0
ARC
  5
2EF
330
2E8
100
AcDbEntity
  8
WORKLAYER
  6
Continuous
 62
     7
100
AcDbCircle
 10
43.7377029434
 20
7.5003967285
 30
0.0
 40
7.000000000000006
100
AcDbArc
 50
344.037109375
 51
15.961400032
  0
ARC
  5
2F0
330
2E8
100
AcDbEntity
  8
WORKLAYER
  6
Continuous
 62
     7
100
AcDbCircle
 10
49.5063034073
 20
9.1504211426
 30
0.0
 40
0.9999999999999974
100
AcDbArc
 50
15.961400032
 51
90.02784729
  0
ARC
  5
2F1
330
2E8
100
AcDbEntity
  8
WORKLAYER
  6
Continuous
 62
     7
100
AcDbCircle
 10
49.5061965957
 20
5.8502197266
 30
0.0
 40
1.000000000000027
100
AcDbArc
 50
301.7677001953
 51
344.037109375
  0
ARC
  5
2F2
330
2E8
100
AcDbEntity
  8
WORKLAYER
  6
Continuous
 62
     7
100
AcDbCircle
 10
43.7377029434
 20
28.5003967285
 30
0.0
 40
7.000000000000005
100
AcDbArc
 50
344.037109375
 51
15.961400032
  0
ARC
  5
2F3
330
2E8
100
AcDbEntity
  8
WORKLAYER
  6
Continuous
 62
     7
100
AcDbCircle
 10
49.5063034073
 20
30.1504211426
 30
0.0
 40
1.000000000000015
100
AcDbArc
 50
15.961400032
 51
58.1692085266
  0
ARC
  5
2F4
330
2E8
100
AcDbEntity
  8
WORKLAYER
  6
Continuous
 62
     7
100
AcDbCircle
 10
49.5061965957
 20
26.8502197266
 30
0.0
 40
1.000000000000027
100
AcDbArc
 50
269.9784851074
 51
344.037109375
  0
ARC
  5
2F5
330
2E8
100
AcDbEntity
  8
WORKLAYER
  6
Continuous
 62
     7
100
AcDbCircle
 10
37.9877029434
 20
28.5003967285
 30
0.0
 40
10.71370983123779
100
AcDbArc
 50
2.6727910042
 51
13.4925403595
  0
ARC
  5
2F6
330
2E8
100
AcDbEntity
  8
WORKLAYER
  6
Continuous
 62
     7
100
AcDbCircle
 10
37.9877029434
 20
28.5003967285
 30
0.0
 40
10.7137098312378
100
AcDbArc
 50
344.2934875488
 51
357.3233947754
  0
ARC
  5
2F7
330
2E8
100
AcDbEntity
  8
WORKLAYER
  6
Continuous
 62
     7
100
AcDbCircle
 10
36.9877029434
 20
28.5003967285
 30
0.0
 40
10.71370983123779
100
AcDbArc
 50
3.7445979118
 51
13.4925403595
  0
ARC
  5
2F8
330
2E8
100
AcDbEntity
  8
WORKLAYER
  6
Continuous
 62
     7
100
AcDbCircle
 10
36.9877029434
 20
28.5003967285
 30
0.0
 40
10.7137098312378
100
AcDbArc
 50
344.2934875488
 51
356.2522888184
  0
ARC
  5
2F9
330
2E8
100
AcDbEntity
  8
VIEW
  6
Continuous
 62
     7
100
AcDbCircle
 10
108.5000930801
 20
32.3000183105
 30
0.0
 40
0.699999988079071
100
AcDbArc
 50
0.0
 51
90.0
  0
ARC
  5
2FA
330
2E8
100
AcDbEntity
  8
WORKLAYER
  6
Continuous
 62
     7
100
AcDbCircle
 10
108.5000930801
 20
3.700012207
 30
0.0
 40
0.699999988079071
100
AcDbArc
 50
270.0
 51
0.0
  0
ARC
  5
2FB
330
2E8
100
AcDbEntity
  8
VIEW
  6
Continuous
 62
     7
100
AcDbCircle
 10
58.1422897354
 20
32.8000183105
 30
0.0
 40
0.2000000029802421
100
AcDbArc
 50
359.9941101074
 51
90.0
  0
ARC
  5
2FC
330
2E8
100
AcDbEntity
  8
VIEW
  6
Continuous
 62
     7
100
AcDbCircle
 10
58.1422897354
 20
3.200012207
 30
0.0
 40
0.2000000029802332
100
AcDbArc
 50
270.0
 51
0.0059257378
  0
ARC
  5
2FD
330
2E8
100
AcDbEntity
  8
VIEW
  6
Continuous
 62
     7
100
AcDbCircle
 10
59.4743972793
 20
32.8000183105
 30
0.0
 40
0.2000000029802368
100
AcDbArc
 50
359.999786377
 51
90.0
  0
ARC
  5
2FE
330
2E8
100
AcDbEntity
  8
VIEW
  6
Continuous
 62
     7
100
AcDbCircle
 10
59.5455947891
 20
3.200012207
 30
0.0
 40
0.199998475611217
100
AcDbArc
 50
270.0
 51
0.0
  0
ARC
  5
2FF
330
2E8
100
AcDbEntity
  8
VIEW
  6
Continuous
 62
     7
100
AcDbCircle
 10
59.5455947891
 20
32.8000183105
 30
0.0
 40
0.199998475611217
100
AcDbArc
 50
0.0
 51
90.0
  0
ARC
  5
300
330
2E8
100
AcDbEntity
  8
VIEW
  6
Continuous
 62
     7
100
AcDbCircle
 10
4.9001022354
 20
0.5
 30
0.0
 40
0.5000000000000009
100
AcDbArc
 50
270.0
 51
0.0
  0
ARC
  5
301
330
2E8
100
AcDbEntity
  8
VIEW
  6
Continuous
 62
     7
100
AcDbCircle
 10
3.1000991836
 20
0.5
 30
0.0
 40
0.5000000000000004
100
AcDbArc
 50
180.0
 51
270.0
  0
ARC
  5
302
330
2E8
100
AcDbEntity
  8
VIEW
  6
Continuous
 62
     7
100
AcDbCircle
 10
0.1999984756
 20
23.3003234863
 30
0.0
 40
0.1999984756111961
100
AcDbArc
 50
89.9995269775
 51
180.0
  0
ARC
  5
303
330
2E8
100
AcDbEntity
  8
VIEW
  6
Continuous
 62
     7
100
AcDbCircle
 10
0.1999984756
 20
12.699798584
 30
0.0
 40
0.1999984756112409
100
AcDbArc
 50
180.0
 51
270.0004882812
  0
ARC
  5
304
330
2E8
100
AcDbEntity
  8
WORKLAYER
  6
Continuous
 62
     7
100
AcDbCircle
 10
28.9877029434
 20
11.0003967285
 30
0.0
 40
10.7137098312378
100
AcDbArc
 50
2.6727910042
 51
15.7059001923
  0
ARC
  5
305
330
2E8
100
AcDbEntity
  8
WORKLAYER
  6
Continuous
 62
     7
100
AcDbCircle
 10
28.9877029434
 20
11.0003967285
 30
0.0
 40
10.71370983123781
100
AcDbArc
 50
344.2934875488
 51
357.3233947754
  0
ARC
  5
306
330
2E8
100
AcDbEntity
  8
WORKLAYER
  6
Continuous
 62
     7
100
AcDbCircle
 10
27.9877029434
 20
11.0003967285
 30
0.0
 40
10.71370983123778
100
AcDbArc
 50
3.7445979118
 51
15.7059001923
  0
ARC
  5
307
330
2E8
100
AcDbEntity
  8
WORKLAYER
  6
Continuous
 62
     7
100
AcDbCircle
 10
27.9877029434
 20
11.0003967285
 30
0.0
 40
10.71370983123778
100
AcDbArc
 50
344.2934875488
 51
356.2522888184
  0
ARC
  5
308
330
2E8
100
AcDbEntity
  8
WORKLAYER
  6
Continuous
 62
     7
100
AcDbCircle
 10
28.9877029434
 20
25.0003967285
 30
0.0
 40
10.7137098312378
100
AcDbArc
 50
2.6727910042
 51
15.7059001923
  0
ARC
  5
309
330
2E8
100
AcDbEntity
  8
WORKLAYER
  6
Continuous
 62
     7
100
AcDbCircle
 10
28.9877029434
 20
25.0003967285
 30
0.0
 40
10.71370983123782
100
AcDbArc
 50
344.2934875488
 51
357.3233947754
  0
ARC
  5
30A
330
2E8
100
AcDbEntity
  8
WORKLAYER
  6
Continuous
 62
     7
100
AcDbCircle
 10
27.9877029434
 20
25.0003967285
 30
0.0
 40
10.71370983123776
100
AcDbArc
 50
3.7445979118
 51
15.7059001923
  0
ARC
  5
30B
330
2E8
100
AcDbEntity
  8
WORKLAYER
  6
Continuous
 62
     7
100
AcDbCircle
 10
27.9877029434
 20
25.0003967285
 30
0.0
 40
10.7137098312378
100
AcDbArc
 50
344.2934875488
 51
356.2522888184
  0
ARC
  5
30C
330
2E8
100
AcDbEntity
  8
WORKLAYER
  6
Continuous
 62
     7
100
AcDbCircle
 10
34.7377029434
 20
25.0003967285
 30
0.0
 40
7.000000000000005
100
AcDbArc
 50
344.037109375
 51
15.961400032
  0
ARC
  5
30D
330
2E8
100
AcDbEntity
  8
WORKLAYER
  6
Continuous
 62
     7
100
AcDbCircle
 10
40.5063034073
 20
26.6504211426
 30
0.0
 40
1.000000000000014
100
AcDbArc
 50
15.961400032
 51
90.02784729
  0
ARC
  5
30E
330
2E8
100
AcDbEntity
  8
WORKLAYER
  6
Continuous
 62
     7
100
AcDbCircle
 10
40.5061965957
 20
23.3502197266
 30
0.0
 40
1.000000000000027
100
AcDbArc
 50
269.9784851074
 51
344.037109375
  0
ARC
  5
30F
330
2E8
100
AcDbEntity
  8
WORKLAYER
  6
Continuous
 62
     7
100
AcDbCircle
 10
37.9877029434
 20
7.5003967285
 30
0.0
 40
10.71370983123777
100
AcDbArc
 50
2.6727910042
 51
15.7059001923
  0
ARC
  5
310
330
2E8
100
AcDbEntity
  8
WORKLAYER
  6
Continuous
 62
     7
100
AcDbCircle
 10
37.9877029434
 20
7.5003967285
 30
0.0
 40
10.71370983123779
100
AcDbArc
 50
346.5043029785
 51
357.3233947754
  0
ARC
  5
311
330
2E8
100
AcDbEntity
  8
WORKLAYER
  6
Continuous
 62
     7
100
AcDbCircle
 10
36.9877029434
 20
7.5003967285
 30
0.0
 40
10.71370983123778
100
AcDbArc
 50
3.7445979118
 51
15.7059001923
  0
ARC
  5
312
330
2E8
100
AcDbEntity
  8
WORKLAYER
  6
Continuous
 62
     7
100
AcDbCircle
 10
36.9877029434
 20
7.5003967285
 30
0.0
 40
10.71370983123779
100
AcDbArc
 50
346.5043029785
 51
356.2522888184
  0
ARC
  5
313
330
2E8
100
AcDbEntity
  8
WORKLAYER
  6
Continuous
 62
     7
100
AcDbCircle
 10
37.9877029434
 20
14.5003967285
 30
0.0
 40
10.71370983123777
100
AcDbArc
 50
2.6727910042
 51
15.7059001923
  0
ARC
  5
314
330
2E8
100
AcDbEntity
  8
WORKLAYER
  6
Continuous
 62
     7
100
AcDbCircle
 10
37.9877029434
 20
14.5003967285
 30
0.0
 40
10.7137098312378
100
AcDbArc
 50
344.2934875488
 51
357.3233947754
  0
ARC
  5
315
330
2E8
100
AcDbEntity
  8
WORKLAYER
  6
Continuous
 62
     7
100
AcDbCircle
 10
36.9877029434
 20
14.5003967285
 30
0.0
 40
10.71370983123778
100
AcDbArc
 50
3.7445979118
 51
15.7059001923
  0
ARC
  5
316
330
2E8
100
AcDbEntity
  8
WORKLAYER
  6
Continuous
 62
     7
100
AcDbCircle
 10
36.9877029434
 20
14.5003967285
 30
0.0
 40
10.7137098312378
100
AcDbArc
 50
344.2934875488
 51
356.2522888184
  0
ARC
  5
317
330
2E8
100
AcDbEntity
  8
WORKLAYER
  6
Continuous
 62
     7
100
AcDbCircle
 10
34.7377029434
 20
11.0003967285
 30
0.0
 40
7.000000000000006
100
AcDbArc
 50
344.037109375
 51
15.961400032
  0
ARC
  5
318
330
2E8
100
AcDbEntity
  8
WORKLAYER
  6
Continuous
 62
     7
100
AcDbCircle
 10
40.5063034073
 20
12.6504211426
 30
0.0
 40
0.9999999999999974
100
AcDbArc
 50
15.961400032
 51
90.02784729
  0
ARC
  5
319
330
2E8
100
AcDbEntity
  8
WORKLAYER
  6
Continuous
 62
     7
100
AcDbCircle
 10
40.5061965957
 20
9.3502197266
 30
0.0
 40
1.000000000000027
100
AcDbArc
 50
269.9784851074
 51
344.037109375
  0
ARC
  5
31A
330
2E8
100
AcDbEntity
  8
WORKLAYER
  6
Continuous
 62
     7
100
AcDbCircle
 10
43.7377029434
 20
21.5003967285
 30
0.0
 40
6.999999999999991
100
AcDbArc
 50
344.037109375
 51
15.961400032
  0
ARC
  5
31B
330
2E8
100
AcDbEntity
  8
WORKLAYER
  6
Continuous
 62
     7
100
AcDbCircle
 10
49.5063034073
 20
23.1504211426
 30
0.0
 40
0.9999999999999979
100
AcDbArc
 50
15.961400032
 51
90.02784729
  0
ARC
  5
31C
330
2E8
100
AcDbEntity
  8
WORKLAYER
  6
Continuous
 62
     7
100
AcDbCircle
 10
49.5061965957
 20
19.8502197266
 30
0.0
 40
1.000000000000027
100
AcDbArc
 50
269.9784851074
 51
344.037109375
  0
ARC
  5
31D
330
2E8
100
AcDbEntity
  8
WORKLAYER
  6
Continuous
 62
     7
100
AcDbCircle
 10
43.7377029434
 20
14.5003967285
 30
0.0
 40
6.999999999999991
100
AcDbArc
 50
344.037109375
 51
15.961400032
  0
ARC
  5
31E
330
2E8
100
AcDbEntity
  8
WORKLAYER
  6
Continuous
 62
     7
100
AcDbCircle
 10
49.5063034073
 20
16.1504211426
 30
0.0
 40
0.9999999999999979
100
AcDbArc
 50
15.961400032
 51
90.02784729
  0
ARC
  5
31F
330
2E8
100
AcDbEntity
  8
WORKLAYER
  6
Continuous
 62
     7
100
AcDbCircle
 10
49.5061965957
 20
12.8502197266
 30
0.0
 40
1.000000000000012
100
AcDbArc
 50
269.9784851074
 51
344.037109375
  0
ARC
  5
320
330
2E8
100
AcDbEntity
  8
WORKLAYER
  6
Continuous
 62
     7
100
AcDbCircle
 10
34.7377029434
 20
18.0003967285
 30
0.0
 40
7.000000000000006
100
AcDbArc
 50
344.037109375
 51
15.961400032
  0
ARC
  5
321
330
2E8
100
AcDbEntity
  8
WORKLAYER
  6
Continuous
 62
     7
100
AcDbCircle
 10
40.5063034073
 20
19.6504211426
 30
0.0
 40
1.000000000000013
100
AcDbArc
 50
15.961400032
 51
90.02784729
  0
ARC
  5
322
330
2E8
100
AcDbEntity
  8
WORKLAYER
  6
Continuous
 62
     7
100
AcDbCircle
 10
40.5061965957
 20
16.3502197266
 30
0.0
 40
1.000000000000027
100
AcDbArc
 50
269.9784851074
 51
344.037109375
  0
ARC
  5
323
330
2E8
100
AcDbEntity
  8
WORKLAYER
  6
Continuous
 62
     7
100
AcDbCircle
 10
28.9877029434
 20
18.0003967285
 30
0.0
 40
10.7137098312378
100
AcDbArc
 50
2.6727910042
 51
15.7059001923
  0
ARC
  5
324
330
2E8
100
AcDbEntity
  8
WORKLAYER
  6
Continuous
 62
     7
100
AcDbCircle
 10
28.9877029434
 20
18.0003967285
 30
0.0
 40
10.71370983123781
100
AcDbArc
 50
344.2934875488
 51
357.3233947754
  0
ARC
  5
325
330
2E8
100
AcDbEntity
  8
WORKLAYER
  6
Continuous
 62
     7
100
AcDbCircle
 10
27.9877029434
 20
18.0003967285
 30
0.0
 40
10.71370983123778
100
AcDbArc
 50
3.7445979118
 51
15.7059001923
  0
ARC
  5
326
330
2E8
100
AcDbEntity
  8
WORKLAYER
  6
Continuous
 62
     7
100
AcDbCircle
 10
27.9877029434
 20
18.0003967285
 30
0.0
 40
10.71370983123778
100
AcDbArc
 50
344.2934875488
 51
356.2522888184
  0
LINE
  5
327
330
2E8
100
AcDbEntity
  8
WORKLAYER
  6
Continuous
 62
     7
100
AcDbLine
 10
37.8011947647
 20
13.9999084473
 30
0.0
 11
38.3014999405
 21
13.9999084473
 31
0.0
  0
LINE
  5
328
330
2E8
100
AcDbEntity
  8
WORKLAYER
  6
Continuous
 62
     7
100
AcDbLine
 10
38.3014999405
 20
13.9999084473
 30
0.0
 11
38.3014999405
 21
7.9999084473
 31
0.0
  0
LINE
  5
329
330
2E8
100
AcDbEntity
  8
WORKLAYER
  6
Continuous
 62
     7
100
AcDbLine
 10
38.3014999405
 20
7.9999084473
 30
0.0
 11
37.8011947647
 21
7.9999084473
 31
0.0
  0
LINE
  5
32A
330
2E8
100
AcDbEntity
  8
WORKLAYER
  6
Continuous
 62
     7
100
AcDbLine
 10
47.6786972061
 20
20.7999267578
 30
0.0
 11
47.3014999405
 21
20.7999267578
 31
0.0
  0
LINE
  5
32B
330
2E8
100
AcDbEntity
  8
WORKLAYER
  6
Continuous
 62
     7
100
AcDbLine
 10
47.3014999405
 20
20.7999267578
 30
0.0
 11
47.3014999405
 21
22.200012207
 31
0.0
  0
LINE
  5
32C
330
2E8
100
AcDbEntity
  8
WORKLAYER
  6
Continuous
 62
     7
100
AcDbLine
 10
47.3014999405
 20
22.200012207
 30
0.0
 11
47.6786972061
 21
22.199798584
 31
0.0
  0
LINE
  5
32D
330
2E8
100
AcDbEntity
  8
WORKLAYER
  6
Continuous
 62
     7
100
AcDbLine
 10
48.6897903457
 20
20.9999084473
 30
0.0
 11
48.3014999405
 21
20.9999084473
 31
0.0
  0
LINE
  5
32E
330
2E8
100
AcDbEntity
  8
WORKLAYER
  6
Continuous
 62
     7
100
AcDbLine
 10
48.3014999405
 20
20.9999084473
 30
0.0
 11
48.3014999405
 21
21.9999084473
 31
0.0
  0
LINE
  5
32F
330
2E8
100
AcDbEntity
  8
WORKLAYER
  6
Continuous
 62
     7
100
AcDbLine
 10
48.3014999405
 20
21.9999084473
 30
0.0
 11
48.6897903457
 21
21.9999084473
 31
0.0
  0
LINE
  5
330
330
2E8
100
AcDbEntity
  8
WORKLAYER
  6
Continuous
 62
     7
100
AcDbLine
 10
48.3014999405
 20
24.4002990723
 30
0.0
 11
47.3014999405
 21
24.4002990723
 31
0.0
  0
LINE
  5
331
330
2E8
100
AcDbEntity
  8
WORKLAYER
  6
Continuous
 62
     7
100
AcDbLine
 10
48.3013931289
 20
18.6000976563
 30
0.0
 11
47.3014999405
 21
18.6000976563
 31
0.0
  0
LINE
  5
332
330
2E8
100
AcDbEntity
  8
WORKLAYER
  6
Continuous
 62
     7
100
AcDbLine
 10
49.5057998672
 20
10.1504211426
 30
0.0
 11
48.6897903457
 21
10.1500244141
 31
0.0
  0
LINE
  5
333
330
2E8
100
AcDbEntity
  8
WORKLAYER
  6
Continuous
 62
     7
100
AcDbLine
 10
48.6911941543
 20
10.1500244141
 30
0.0
 11
48.6911941543
 21
5.0
 31
0.0
  0
LINE
  5
334
330
2E8
100
AcDbEntity
  8
WORKLAYER
  6
Continuous
 62
     7
100
AcDbLine
 10
49.5057998672
 20
25.8502197266
 30
0.0
 11
48.6911941543
 21
25.8505249023
 31
0.0
  0
LINE
  5
335
330
2E8
100
AcDbEntity
  8
WORKLAYER
  6
Continuous
 62
     7
100
AcDbLine
 10
48.6911941543
 20
31.0
 30
0.0
 11
48.6911941543
 21
25.8505249023
 31
0.0
  0
LINE
  5
336
330
2E8
100
AcDbEntity
  8
WORKLAYER
  6
Continuous
 62
     7
100
AcDbLine
 10
47.6786972061
 20
27.7999267578
 30
0.0
 11
47.3014999405
 21
27.7999267578
 31
0.0
  0
LINE
  5
337
330
2E8
100
AcDbEntity
  8
WORKLAYER
  6
Continuous
 62
     7
100
AcDbLine
 10
47.3014999405
 20
27.7999267578
 30
0.0
 11
47.3014999405
 21
29.200012207
 31
0.0
  0
LINE
  5
338
330
2E8
100
AcDbEntity
  8
WORKLAYER
  6
Continuous
 62
     7
100
AcDbLine
 10
47.3014999405
 20
29.200012207
 30
0.0
 11
47.6786972061
 21
29.199798584
 31
0.0
  0
LINE
  5
339
330
2E8
100
AcDbEntity
  8
WORKLAYER
  6
Continuous
 62
     7
100
AcDbLine
 10
48.6897903457
 20
27.9999084473
 30
0.0
 11
48.3014999405
 21
27.9999084473
 31
0.0
  0
LINE
  5
33A
330
2E8
100
AcDbEntity
  8
WORKLAYER
  6
Continuous
 62
     7
100
AcDbLine
 10
48.3014999405
 20
27.9999084473
 30
0.0
 11
48.3014999405
 21
28.9999084473
 31
0.0
  0
LINE
  5
33B
330
2E8
100
AcDbEntity
  8
WORKLAYER
  6
Continuous
 62
     7
100
AcDbLine
 10
48.3014999405
 20
28.9999084473
 30
0.0
 11
48.6897903457
 21
28.9999084473
 31
0.0
  0
LINE
  5
33C
330
2E8
100
AcDbEntity
  8
WORKLAYER
  6
Continuous
 62
     7
100
AcDbLine
 10
48.3013931289
 20
25.6000976562
 30
0.0
 11
47.3014999405
 21
25.6000976562
 31
0.0
  0
LINE
  5
33D
330
2E8
100
AcDbEntity
  8
WORKLAYER
  6
Continuous
 62
     7
100
AcDbLine
 10
46.8011947647
 20
17.4999084473
 30
0.0
 11
47.3014999405
 21
17.4999084473
 31
0.0
  0
LINE
  5
33E
330
2E8
100
AcDbEntity
  8
WORKLAYER
  6
Continuous
 62
     7
100
AcDbLine
 10
47.3014999405
 20
17.4999084473
 30
0.0
 11
47.3014999405
 21
11.4999084473
 31
0.0
  0
LINE
  5
33F
330
2E8
100
AcDbEntity
  8
WORKLAYER
  6
Continuous
 62
     7
100
AcDbLine
 10
47.3014999405
 20
11.4999084473
 30
0.0
 11
46.8011947647
 21
11.4999084473
 31
0.0
  0
LINE
  5
340
330
2E8
100
AcDbEntity
  8
WORKLAYER
  6
Continuous
 62
     7
100
AcDbLine
 10
46.8011947647
 20
24.4999084473
 30
0.0
 11
47.3014999405
 21
24.4999084473
 31
0.0
  0
LINE
  5
341
330
2E8
100
AcDbEntity
  8
WORKLAYER
  6
Continuous
 62
     7
100
AcDbLine
 10
47.3014999405
 20
24.4999084473
 30
0.0
 11
47.3014999405
 21
18.4999084473
 31
0.0
  0
LINE
  5
342
330
2E8
100
AcDbEntity
  8
WORKLAYER
  6
Continuous
 62
     7
100
AcDbLine
 10
47.3014999405
 20
18.4999084473
 30
0.0
 11
46.8011947647
 21
18.4999084473
 31
0.0
  0
LINE
  5
343
330
2E8
100
AcDbEntity
  8
WORKLAYER
  6
Continuous
 62
     7
100
AcDbLine
 10
37.8011947647
 20
20.9999084473
 30
0.0
 11
38.3014999405
 21
20.9999084473
 31
0.0
  0
LINE
  5
344
330
2E8
100
AcDbEntity
  8
WORKLAYER
  6
Continuous
 62
     7
100
AcDbLine
 10
38.3014999405
 20
20.9999084473
 30
0.0
 11
38.3014999405
 21
14.9999084473
 31
0.0
  0
LINE
  5
345
330
2E8
100
AcDbEntity
  8
WORKLAYER
  6
Continuous
 62
     7
100
AcDbLine
 10
38.3014999405
 20
14.9999084473
 30
0.0
 11
37.8011947647
 21
14.9999084473
 31
0.0
  0
LINE
  5
346
330
2E8
100
AcDbEntity
  8
WORKLAYER
  6
Continuous
 62
     7
100
AcDbLine
 10
37.8011947647
 20
27.9999084473
 30
0.0
 11
38.3014999405
 21
27.9999084473
 31
0.0
  0
LINE
  5
347
330
2E8
100
AcDbEntity
  8
WORKLAYER
  6
Continuous
 62
     7
100
AcDbLine
 10
38.3014999405
 20
27.9999084473
 30
0.0
 11
38.3014999405
 21
21.9999084473
 31
0.0
  0
LINE
  5
348
330
2E8
100
AcDbEntity
  8
WORKLAYER
  6
Continuous
 62
     7
100
AcDbLine
 10
38.3014999405
 20
21.9999084473
 30
0.0
 11
37.8011947647
 21
21.9999084473
 31
0.0
  0
LINE
  5
349
330
2E8
100
AcDbEntity
  8
VIEW
  6
Continuous
 62
     7
100
AcDbLine
 10
94.6958938614
 20
3.0
 30
0.0
 11
94.6958938614
 21
33.0
 31
0.0
  0
LINE
  5
34A
330
2E8
100
AcDbEntity
  8
VIEW
  6
Continuous
 62
     7
100
AcDbLine
 10
93.0957962051
 20
28.6000976563
 30
0.0
 11
94.6958938614
 21
28.6000976563
 31
0.0
  0
LINE
  5
34B
330
2E8
100
AcDbEntity
  8
VIEW
  6
Continuous
 62
     7
100
AcDbLine
 10
94.6958938614
 20
27.200012207
 30
0.0
 11
93.0957962051
 21
27.200012207
 31
0.0
  0
LINE
  5
34C
330
2E8
100
AcDbEntity
  8
VIEW
  6
Continuous
 62
     7
100
AcDbLine
 10
93.0957962051
 20
24.200012207
 30
0.0
 11
94.6958938614
 21
24.200012207
 31
0.0
  0
LINE
  5
34D
330
2E8
100
AcDbEntity
  8
VIEW
  6
Continuous
 62
     7
100
AcDbLine
 10
94.6958938614
 20
9.200012207
 30
0.0
 11
93.0957962051
 21
9.200012207
 31
0.0
  0
LINE
  5
34E
330
2E8
100
AcDbEntity
  8
VIEW
  6
Continuous
 62
     7
100
AcDbLine
 10
93.0957962051
 20
16.4000244141
 30
0.0
 11
94.6958938614
 21
16.4000244141
 31
0.0
  0
LINE
  5
34F
330
2E8
100
AcDbEntity
  8
VIEW
  6
Continuous
 62
     7
100
AcDbLine
 10
93.0957962051
 20
19.4000244141
 30
0.0
 11
94.6958938614
 21
19.4000244141
 31
0.0
  0
LINE
  5
350
330
2E8
100
AcDbEntity
  8
VIEW
  6
Continuous
 62
     7
100
AcDbLine
 10
94.6958938614
 20
15.0
 30
0.0
 11
93.0957962051
 21
15.0
 31
0.0
  0
LINE
  5
351
330
2E8
100
AcDbEntity
  8
VIEW
  6
Continuous
 62
     7
100
AcDbLine
 10
93.0957962051
 20
11.9000244141
 30
0.0
 11
94.6958938614
 21
11.9000244141
 31
0.0
  0
LINE
  5
352
330
2E8
100
AcDbEntity
  8
VIEW
  6
Continuous
 62
     7
100
AcDbLine
 10
94.6958938614
 20
10.5
 30
0.0
 11
93.0957962051
 21
10.5
 31
0.0
  0
LINE
  5
353
330
2E8
100
AcDbEntity
  8
VIEW
  6
Continuous
 62
     7
100
AcDbLine
 10
93.0957962051
 20
33.0
 30
0.0
 11
93.0957962051
 21
3.0
 31
0.0
  0
LINE
  5
354
330
2E8
100
AcDbEntity
  8
VIEW
  6
Continuous
 62
     7
100
AcDbLine
 10
68.6613937393
 20
13.0
 30
0.0
 11
68.6613937393
 21
23.0
 31
0.0
  0
LINE
  5
355
330
2E8
100
AcDbEntity
  8
VIEW
  6
Continuous
 62
     7
100
AcDbLine
 10
64.6613937393
 20
14.0
 30
0.0
 11
64.6613937393
 21
22.0
 31
0.0
  0
LINE
  5
356
330
2E8
100
AcDbEntity
  8
VIEW
  6
Continuous
 62
     7
100
AcDbLine
 10
67.6613937393
 20
22.0
 30
0.0
 11
67.6613937393
 21
14.0
 31
0.0
  0
LINE
  5
357
330
2E8
100
AcDbEntity
  8
VIEW
  6
Continuous
 62
     7
100
AcDbLine
 10
55.8011947647
 20
13.0
 30
0.0
 11
57.5139938369
 21
13.0
 31
0.0
  0
LINE
  5
358
330
2E8
100
AcDbEntity
  8
VIEW
  6
Continuous
 62
     7
100
AcDbLine
 10
59.5000930801
 20
13.0
 30
0.0
 11
68.6613937393
 21
13.0
 31
0.0
  0
LINE
  5
359
330
2E8
100
AcDbEntity
  8
VIEW
  6
Continuous
 62
     7
100
AcDbLine
 10
68.6613937393
 20
23.0
 30
0.0
 11
59.5000930801
 21
23.0
 31
0.0
  0
LINE
  5
35A
330
2E8
100
AcDbEntity
  8
VIEW
  6
Continuous
 62
     7
100
AcDbLine
 10
57.5139938369
 20
23.0
 30
0.0
 11
55.8011947647
 21
23.0
 31
0.0
  0
LINE
  5
35B
330
2E8
100
AcDbEntity
  8
VIEW
  6
Continuous
 62
     7
100
AcDbLine
 10
67.6613937393
 20
14.0
 30
0.0
 11
59.5000930801
 21
14.0
 31
0.0
  0
LINE
  5
35C
330
2E8
100
AcDbEntity
  8
VIEW
  6
Continuous
 62
     7
100
AcDbLine
 10
57.5139938369
 20
14.0
 30
0.0
 11
55.8011947647
 21
14.0
 31
0.0
  0
LINE
  5
35D
330
2E8
100
AcDbEntity
  8
VIEW
  6
Continuous
 62
     7
100
AcDbLine
 10
55.8011947647
 20
22.0
 30
0.0
 11
57.5139938369
 21
22.0
 31
0.0
  0
LINE
  5
35E
330
2E8
100
AcDbEntity
  8
VIEW
  6
Continuous
 62
     7
100
AcDbLine
 10
59.5000930801
 20
22.0
 30
0.0
 11
67.6613937393
 21
22.0
 31
0.0
  0
LINE
  5
35F
330
2E8
100
AcDbEntity
  8
VIEW
  6
Continuous
 62
     7
100
AcDbLine
 10
59.5455947891
 20
33.0
 30
0.0
 11
108.5000930801
 21
33.0
 31
0.0
  0
LINE
  5
360
330
2E8
100
AcDbEntity
  8
VIEW
  6
Continuous
 62
     7
100
AcDbLine
 10
61.0002914444
 20
32.3001098633
 30
0.0
 11
61.0002914444
 21
33.0
 31
0.0
  0
LINE
  5
361
330
2E8
100
AcDbEntity
  8
VIEW
  6
Continuous
 62
     7
100
AcDbLine
 10
59.7456985489
 20
32.4000244141
 30
0.0
 11
61.0002914444
 21
32.4000244141
 31
0.0
  0
LINE
  5
362
330
2E8
100
AcDbEntity
  8
VIEW
  6
Continuous
 62
     7
100
AcDbLine
 10
61.0002914444
 20
3.0
 30
0.0
 11
61.0002914444
 21
6.200012207
 31
0.0
  0
LINE
  5
363
330
2E8
100
AcDbEntity
  8
VIEW
  6
Continuous
 62
     7
100
AcDbLine
 10
61.0002914444
 20
32.3001098633
 30
0.0
 11
61.0002914444
 21
32.200012207
 31
0.0
  0
LINE
  5
364
330
2E8
100
AcDbEntity
  8
VIEW
  6
Continuous
 62
     7
100
AcDbLine
 10
61.0002914444
 20
6.0
 30
0.0
 11
59.5000930801
 21
6.0
 31
0.0
  0
LINE
  5
365
330
2E8
100
AcDbEntity
  8
VIEW
  6
Continuous
 62
     7
100
AcDbLine
 10
55.939195253
 20
6.0
 30
0.0
 11
55.8011947647
 21
6.0
 31
0.0
  0
LINE
  5
366
330
2E8
100
AcDbEntity
  8
VIEW
  6
Continuous
 62
     7
100
AcDbLine
 10
108.5000930801
 20
3.0
 30
0.0
 11
59.5455947891
 21
3.0
 31
0.0
  0
LINE
  5
367
330
2E8
100
AcDbEntity
  8
WORKLAYER
  6
Continuous
 62
     7
100
AcDbLine
 10
109.2001052871
 20
32.3000183105
 30
0.0
 11
109.2001052871
 21
3.700012207
 31
0.0
  0
LINE
  5
368
330
2E8
100
AcDbEntity
  8
VIEW
  6
Continuous
 62
     7
100
AcDbLine
 10
59.5455947891
 20
3.0
 30
0.0
 11
0.0000930801
 21
3.0
 31
0.0
  0
LINE
  5
369
330
2E8
100
AcDbEntity
  8
VIEW
  6
Continuous
 62
     7
100
AcDbLine
 10
58.3421035782
 20
31.0
 30
0.0
 11
58.3423019424
 21
32.8000183105
 31
0.0
  0
LINE
  5
36A
330
2E8
100
AcDbEntity
  8
VIEW
  6
Continuous
 62
     7
100
AcDbLine
 10
58.3423019424
 20
3.200012207
 30
0.0
 11
58.3421035782
 21
5.0
 31
0.0
  0
LINE
  5
36B
330
2E8
100
AcDbEntity
  8
VIEW
  6
Continuous
 62
     7
100
AcDbLine
 10
59.6743942276
 20
31.5999145508
 30
0.0
 11
59.6743972823
 21
32.8000175649
 31
0.0
  0
LINE
  5
36C
330
2E8
100
AcDbEntity
  8
VIEW
  6
Continuous
 62
     7
100
AcDbLine
 10
59.7455917373
 20
3.200012207
 30
0.0
 11
59.7456985489
 21
5.8000183105
 31
0.0
  0
LINE
  5
36D
330
2E8
100
AcDbEntity
  8
VIEW
  6
Continuous
 62
     7
100
AcDbLine
 10
59.7456985489
 20
30.200012207
 30
0.0
 11
59.7455917373
 21
32.8000183105
 31
0.0
  0
LINE
  5
36E
330
2E8
100
AcDbEntity
  8
VIEW
  6
Continuous
 62
     7
100
AcDbLine
 10
0.0000930801
 20
33.0
 30
0.0
 11
59.5455947891
 21
33.0
 31
0.0
  0
LINE
  5
36F
330
2E8
100
AcDbEntity
  8
VIEW
  6
Continuous
 62
     7
100
AcDbLine
 10
28.5999923721
 20
12.8000183105
 30
0.0
 11
30.5999923721
 21
12.8000183105
 31
0.0
  0
LINE
  5
370
330
2E8
100
AcDbEntity
  8
VIEW
  6
Continuous
 62
     7
100
AcDbLine
 10
30.5999923721
 20
12.8000183105
 30
0.0
 11
30.5999923721
 21
23.200012207
 31
0.0
  0
LINE
  5
371
330
2E8
100
AcDbEntity
  8
VIEW
  6
Continuous
 62
     7
100
AcDbLine
 10
30.5999923721
 20
23.200012207
 30
0.0
 11
28.5999923721
 21
23.200012207
 31
0.0
  0
LINE
  5
372
330
2E8
100
AcDbEntity
  8
VIEW
  6
Continuous
 62
     7
100
AcDbLine
 10
28.5999923721
 20
23.200012207
 30
0.0
 11
28.5999923721
 21
12.8000183105
 31
0.0
  0
LINE
  5
373
330
2E8
100
AcDbEntity
  8
VIEW
  6
Continuous
 62
     7
100
AcDbLine
 10
45.8011947647
 20
28.0999145508
 30
0.0
 11
45.8011947647
 21
31.0
 31
0.0
  0
LINE
  5
374
330
2E8
100
AcDbEntity
  8
VIEW
  6
Continuous
 62
     7
100
AcDbLine
 10
46.8011947647
 20
28.0999145508
 30
0.0
 11
37.3013931289
 21
28.0999145508
 31
0.0
  0
LINE
  5
375
330
2E8
100
AcDbEntity
  8
VIEW
  6
Continuous
 62
     7
100
AcDbLine
 10
37.3013931289
 20
21.9000244141
 30
0.0
 11
37.3013931289
 21
28.0999145508
 31
0.0
  0
LINE
  5
376
330
2E8
100
AcDbEntity
  8
VIEW
  6
Continuous
 62
     7
100
AcDbLine
 10
46.8011947647
 20
21.9000244141
 30
0.0
 11
37.3013931289
 21
21.9000244141
 31
0.0
  0
LINE
  5
377
330
2E8
100
AcDbEntity
  8
VIEW
  6
Continuous
 62
     7
100
AcDbLine
 10
45.8011947647
 20
21.0999145508
 30
0.0
 11
45.8011947647
 21
21.9000244141
 31
0.0
  0
LINE
  5
378
330
2E8
100
AcDbEntity
  8
VIEW
  6
Continuous
 62
     7
100
AcDbLine
 10
46.8011947647
 20
21.0999145508
 30
0.0
 11
37.3013931289
 21
21.0999145508
 31
0.0
  0
LINE
  5
379
330
2E8
100
AcDbEntity
  8
VIEW
  6
Continuous
 62
     7
100
AcDbLine
 10
37.3013931289
 20
14.9000244141
 30
0.0
 11
37.3013931289
 21
21.0999145508
 31
0.0
  0
LINE
  5
37A
330
2E8
100
AcDbEntity
  8
VIEW
  6
Continuous
 62
     7
100
AcDbLine
 10
46.8011947647
 20
14.9000244141
 30
0.0
 11
37.3013931289
 21
14.9000244141
 31
0.0
  0
LINE
  5
37B
330
2E8
100
AcDbEntity
  8
VIEW
  6
Continuous
 62
     7
100
AcDbLine
 10
45.8011947647
 20
14.0999145508
 30
0.0
 11
45.8011947647
 21
14.9000244141
 31
0.0
  0
LINE
  5
37C
330
2E8
100
AcDbEntity
  8
VIEW
  6
Continuous
 62
     7
100
AcDbLine
 10
46.8011947647
 20
14.0999145508
 30
0.0
 11
37.3013931289
 21
14.0999145508
 31
0.0
  0
LINE
  5
37D
330
2E8
100
AcDbEntity
  8
VIEW
  6
Continuous
 62
     7
100
AcDbLine
 10
37.3013931289
 20
7.9000244141
 30
0.0
 11
37.3013931289
 21
14.0999145508
 31
0.0
  0
LINE
  5
37E
330
2E8
100
AcDbEntity
  8
VIEW
  6
Continuous
 62
     7
100
AcDbLine
 10
46.8011947647
 20
7.9000244141
 30
0.0
 11
37.3013931289
 21
7.9000244141
 31
0.0
  0
LINE
  5
37F
330
2E8
100
AcDbEntity
  8
VIEW
  6
Continuous
 62
     7
100
AcDbLine
 10
45.8011947647
 20
5.0
 30
0.0
 11
45.8011947647
 21
7.9000244141
 31
0.0
  0
LINE
  5
380
330
2E8
100
AcDbEntity
  8
VIEW
  6
Continuous
 62
     7
100
AcDbLine
 10
25.0000930801
 20
33.0
 30
0.0
 11
25.0000930801
 21
3.0
 31
0.0
  0
LINE
  5
381
330
2E8
100
AcDbEntity
  8
VIEW
  6
Continuous
 62
     7
100
AcDbLine
 10
46.8011947647
 20
31.0
 30
0.0
 11
46.8011947647
 21
25.4000244141
 31
0.0
  0
LINE
  5
382
330
2E8
100
AcDbEntity
  8
VIEW
  6
Continuous
 62
     7
100
AcDbLine
 10
37.8011947647
 20
28.0999145508
 30
0.0
 11
37.8011947647
 21
21.9000244141
 31
0.0
  0
LINE
  5
383
330
2E8
100
AcDbEntity
  8
VIEW
  6
Continuous
 62
     7
100
AcDbLine
 10
37.8011947647
 20
21.0999145508
 30
0.0
 11
37.8011947647
 21
14.9000244141
 31
0.0
  0
LINE
  5
384
330
2E8
100
AcDbEntity
  8
VIEW
  6
Continuous
 62
     7
100
AcDbLine
 10
37.8011947647
 20
14.0999145508
 30
0.0
 11
37.8011947647
 21
7.9000244141
 31
0.0
  0
LINE
  5
385
330
2E8
100
AcDbEntity
  8
VIEW
  6
Continuous
 62
     7
100
AcDbLine
 10
46.8011947647
 20
10.5999145508
 30
0.0
 11
46.8011947647
 21
5.0
 31
0.0
  0
LINE
  5
386
330
2E8
100
AcDbEntity
  8
VIEW
  6
Continuous
 62
     7
100
AcDbLine
 10
45.8011947647
 20
5.0
 30
0.0
 11
58.7482009903
 21
5.0
 31
0.0
  0
LINE
  5
387
330
2E8
100
AcDbEntity
  8
VIEW
  6
Continuous
 62
     7
100
AcDbLine
 10
58.7482009903
 20
31.0
 30
0.0
 11
58.7482009903
 21
31.5999145508
 31
0.0
  0
LINE
  5
388
330
2E8
100
AcDbEntity
  8
VIEW
  6
Continuous
 62
     7
100
AcDbLine
 10
58.7482009903
 20
31.5999145508
 30
0.0
 11
59.6740890518
 21
31.5999145508
 31
0.0
  0
LINE
  5
389
330
2E8
100
AcDbEntity
  8
VIEW
  6
Continuous
 62
     7
100
AcDbLine
 10
45.8011947647
 20
31.0
 30
0.0
 11
58.7482009903
 21
31.0
 31
0.0
  0
LINE
  5
38A
330
2E8
100
AcDbEntity
  8
VIEW
  6
Continuous
 62
     7
100
AcDbLine
 10
58.7482009903
 20
4.4000244141
 30
0.0
 11
58.7482009903
 21
5.0
 31
0.0
  0
LINE
  5
38B
330
2E8
100
AcDbEntity
  8
VIEW
  6
Continuous
 62
     7
100
AcDbLine
 10
59.7029891983
 20
4.4000244141
 30
0.0
 11
58.7482009903
 21
4.4000244141
 31
0.0
  0
LINE
  5
38C
330
2E8
100
AcDbEntity
  8
VIEW
  6
Continuous
 62
     7
100
AcDbLine
 10
59.7029891983
 20
5.8000183105
 30
0.0
 11
59.7029891983
 21
4.4000244141
 31
0.0
  0
LINE
  5
38D
330
2E8
100
AcDbEntity
  8
VIEW
  6
Continuous
 62
     7
100
AcDbLine
 10
46.3011947647
 20
25.4000244141
 30
0.0
 11
46.3011947647
 21
28.0999145508
 31
0.0
  0
LINE
  5
38E
330
2E8
100
AcDbEntity
  8
VIEW
  6
Continuous
 62
     7
100
AcDbLine
 10
55.3011947647
 20
25.4000244141
 30
0.0
 11
46.3011947647
 21
25.4000244141
 31
0.0
  0
LINE
  5
38F
330
2E8
100
AcDbEntity
  8
VIEW
  6
Continuous
 62
     7
100
AcDbLine
 10
54.3011947647
 20
24.5999145508
 30
0.0
 11
54.3011947647
 21
25.4000244141
 31
0.0
  0
LINE
  5
390
330
2E8
100
AcDbEntity
  8
VIEW
  6
Continuous
 62
     7
100
AcDbLine
 10
55.3011947647
 20
24.5999145508
 30
0.0
 11
46.3011947647
 21
24.5999145508
 31
0.0
  0
LINE
  5
391
330
2E8
100
AcDbEntity
  8
VIEW
  6
Continuous
 62
     7
100
AcDbLine
 10
46.3011947647
 20
21.9000244141
 30
0.0
 11
46.3011947647
 21
24.5999145508
 31
0.0
  0
LINE
  5
392
330
2E8
100
AcDbEntity
  8
VIEW
  6
Continuous
 62
     7
100
AcDbLine
 10
46.8011947647
 20
24.5999145508
 30
0.0
 11
46.8011947647
 21
18.4000244141
 31
0.0
  0
LINE
  5
393
330
2E8
100
AcDbEntity
  8
VIEW
  6
Continuous
 62
     7
100
AcDbLine
 10
55.3011947647
 20
25.4000244141
 30
0.0
 11
55.3011947647
 21
24.5999145508
 31
0.0
  0
LINE
  5
394
330
2E8
100
AcDbEntity
  8
VIEW
  6
Continuous
 62
     7
100
AcDbLine
 10
54.3011947647
 20
17.5999145508
 30
0.0
 11
54.3011947647
 21
18.4000244141
 31
0.0
  0
LINE
  5
395
330
2E8
100
AcDbEntity
  8
VIEW
  6
Continuous
 62
     7
100
AcDbLine
 10
55.3011947647
 20
17.5999145508
 30
0.0
 11
46.3011947647
 21
17.5999145508
 31
0.0
  0
LINE
  5
396
330
2E8
100
AcDbEntity
  8
VIEW
  6
Continuous
 62
     7
100
AcDbLine
 10
46.3011947647
 20
14.9000244141
 30
0.0
 11
46.3011947647
 21
17.5999145508
 31
0.0
  0
LINE
  5
397
330
2E8
100
AcDbEntity
  8
VIEW
  6
Continuous
 62
     7
100
AcDbLine
 10
46.3011947647
 20
18.4000244141
 30
0.0
 11
46.3011947647
 21
21.0999145508
 31
0.0
  0
LINE
  5
398
330
2E8
100
AcDbEntity
  8
VIEW
  6
Continuous
 62
     7
100
AcDbLine
 10
55.3011947647
 20
18.4000244141
 30
0.0
 11
46.3011947647
 21
18.4000244141
 31
0.0
  0
LINE
  5
399
330
2E8
100
AcDbEntity
  8
VIEW
  6
Continuous
 62
     7
100
AcDbLine
 10
46.8011947647
 20
17.5999145508
 30
0.0
 11
46.8011947647
 21
11.4000244141
 31
0.0
  0
LINE
  5
39A
330
2E8
100
AcDbEntity
  8
VIEW
  6
Continuous
 62
     7
100
AcDbLine
 10
55.3011947647
 20
18.4000244141
 30
0.0
 11
55.3011947647
 21
17.5999145508
 31
0.0
  0
LINE
  5
39B
330
2E8
100
AcDbEntity
  8
VIEW
  6
Continuous
 62
     7
100
AcDbLine
 10
54.3011947647
 20
10.5999145508
 30
0.0
 11
54.3011947647
 21
11.4000244141
 31
0.0
  0
LINE
  5
39C
330
2E8
100
AcDbEntity
  8
VIEW
  6
Continuous
 62
     7
100
AcDbLine
 10
55.3011947647
 20
10.5999145508
 30
0.0
 11
46.3011947647
 21
10.5999145508
 31
0.0
  0
LINE
  5
39D
330
2E8
100
AcDbEntity
  8
VIEW
  6
Continuous
 62
     7
100
AcDbLine
 10
46.3011947647
 20
7.9000244141
 30
0.0
 11
46.3011947647
 21
10.5999145508
 31
0.0
  0
LINE
  5
39E
330
2E8
100
AcDbEntity
  8
VIEW
  6
Continuous
 62
     7
100
AcDbLine
 10
46.3011947647
 20
11.4000244141
 30
0.0
 11
46.3011947647
 21
14.0999145508
 31
0.0
  0
LINE
  5
39F
330
2E8
100
AcDbEntity
  8
VIEW
  6
Continuous
 62
     7
100
AcDbLine
 10
55.3011947647
 20
11.4000244141
 30
0.0
 11
46.3011947647
 21
11.4000244141
 31
0.0
  0
LINE
  5
3A0
330
2E8
100
AcDbEntity
  8
VIEW
  6
Continuous
 62
     7
100
AcDbLine
 10
55.3011947647
 20
11.4000244141
 30
0.0
 11
55.3011947647
 21
10.5999145508
 31
0.0
  0
LINE
  5
3A1
330
2E8
100
AcDbEntity
  8
VIEW
  6
Continuous
 62
     7
100
AcDbLine
 10
25.0000930801
 20
32.3000183105
 30
0.0
 11
24.7000900283
 21
32.3000183105
 31
0.0
  0
LINE
  5
3A2
330
2E8
100
AcDbEntity
  8
VIEW
  6
Continuous
 62
     7
100
AcDbLine
 10
25.0000930801
 20
3.700012207
 30
0.0
 11
24.7000900283
 21
3.700012207
 31
0.0
  0
LINE
  5
3A3
330
2E8
100
AcDbEntity
  8
VIEW
  6
Continuous
 62
     7
100
AcDbLine
 10
55.8011947647
 20
31.0
 30
0.0
 11
55.8011947647
 21
5.0
 31
0.0
  0
LINE
  5
3A4
330
2E8
100
AcDbEntity
  8
VIEW
  6
Continuous
 62
     7
100
AcDbLine
 10
55.8011947647
 20
5.8000183105
 30
0.0
 11
55.939195253
 21
5.8000183105
 31
0.0
  0
LINE
  5
3A5
330
2E8
100
AcDbEntity
  8
VIEW
  6
Continuous
 62
     7
100
AcDbLine
 10
59.5000930801
 20
5.8000183105
 30
0.0
 11
59.7029891983
 21
5.8000183105
 31
0.0
  0
LINE
  5
3A6
330
2E8
100
AcDbEntity
  8
VIEW
  6
Continuous
 62
     7
100
AcDbLine
 10
59.4743972793
 20
33.0
 30
0.0
 11
59.5455947891
 21
33.0
 31
0.0
  0
LINE
  5
3A7
330
2E8
100
AcDbEntity
  8
VIEW
  6
Continuous
 62
     7
100
AcDbLine
 10
55.8011947647
 20
30.200012207
 30
0.0
 11
55.939195253
 21
30.200012207
 31
0.0
  0
LINE
  5
3A8
330
2E8
100
AcDbEntity
  8
VIEW
  6
Continuous
 62
     7
100
AcDbLine
 10
59.5000930801
 20
30.200012207
 30
0.0
 11
59.7456985489
 21
30.200012207
 31
0.0
  0
LINE
  5
3A9
330
2E8
100
AcDbEntity
  8
VIEW
  6
Continuous
 62
     7
100
AcDbLine
 10
0.0000930801
 20
33.0
 30
0.0
 11
24.7000900283
 21
33.0
 31
0.0
  0
LINE
  5
3AA
330
2E8
100
AcDbEntity
  8
VIEW
  6
Continuous
 62
     7
100
AcDbLine
 10
2.6000991836
 20
3.0
 30
0.0
 11
2.6000991836
 21
0.5
 31
0.0
  0
LINE
  5
3AB
330
2E8
100
AcDbEntity
  8
VIEW
  6
Continuous
 62
     7
100
AcDbLine
 10
5.4001022354
 20
0.5
 30
0.0
 11
5.4001022354
 21
3.0
 31
0.0
  0
LINE
  5
3AC
330
2E8
100
AcDbEntity
  8
VIEW
  6
Continuous
 62
     7
100
AcDbLine
 10
10.7000900283
 20
32.8000183105
 30
0.0
 11
10.7000900283
 21
33.0
 31
0.0
  0
LINE
  5
3AD
330
2E8
100
AcDbEntity
  8
VIEW
  6
Continuous
 62
     7
100
AcDbLine
 10
0.0000930801
 20
32.8000183105
 30
0.0
 11
0.0000930801
 21
33.0
 31
0.0
  0
LINE
  5
3AE
330
2E8
100
AcDbEntity
  8
VIEW
  6
Continuous
 62
     7
100
AcDbLine
 10
10.7000900283
 20
3.0
 30
0.0
 11
10.7000900283
 21
3.2001037598
 31
0.0
  0
LINE
  5
3AF
330
2E8
100
AcDbEntity
  8
VIEW
  6
Continuous
 62
     7
100
AcDbLine
 10
0.0000930801
 20
3.0
 30
0.0
 11
0.0000930801
 21
3.2001037598
 31
0.0
  0
LINE
  5
3B0
330
2E8
100
AcDbEntity
  8
VIEW
  6
Continuous
 62
     7
100
AcDbLine
 10
19.3000961319
 20
12.1501159668
 30
0.0
 11
19.3000961319
 21
3.4501037598
 31
0.0
  0
LINE
  5
3B1
330
2E8
100
AcDbEntity
  8
VIEW
  6
Continuous
 62
     7
100
AcDbLine
 10
8.7000900283
 20
12.1501159668
 30
0.0
 11
19.3000961319
 21
12.1501159668
 31
0.0
  0
LINE
  5
3B2
330
2E8
100
AcDbEntity
  8
VIEW
  6
Continuous
 62
     7
100
AcDbLine
 10
8.7000900283
 20
3.4501037598
 30
0.0
 11
8.7000900283
 21
12.1501159668
 31
0.0
  0
LINE
  5
3B3
330
2E8
100
AcDbEntity
  8
VIEW
  6
Continuous
 62
     7
100
AcDbLine
 10
10.7000900283
 20
3.4501037598
 30
0.0
 11
8.7000900283
 21
3.4501037598
 31
0.0
  0
LINE
  5
3B4
330
2E8
100
AcDbEntity
  8
VIEW
  6
Continuous
 62
     7
100
AcDbLine
 10
10.7000900283
 20
3.2001037598
 30
0.0
 11
10.7000900283
 21
3.4501037598
 31
0.0
  0
LINE
  5
3B5
330
2E8
100
AcDbEntity
  8
VIEW
  6
Continuous
 62
     7
100
AcDbLine
 10
4.0000930801
 20
10.0
 30
0.0
 11
1.7000900283
 21
10.0
 31
0.0
  0
LINE
  5
3B6
330
2E8
100
AcDbEntity
  8
VIEW
  6
Continuous
 62
     7
100
AcDbLine
 10
4.0000930801
 20
26.0
 30
0.0
 11
4.0000930801
 21
10.0
 31
0.0
  0
LINE
  5
3B7
330
2E8
100
AcDbEntity
  8
VIEW
  6
Continuous
 62
     7
100
AcDbLine
 10
10.7000900283
 20
27.3500976563
 30
0.0
 11
10.7000900283
 21
32.8000183105
 31
0.0
  0
LINE
  5
3B8
330
2E8
100
AcDbEntity
  8
VIEW
  6
Continuous
 62
     7
100
AcDbLine
 10
8.7000900283
 20
27.3500976563
 30
0.0
 11
10.7000900283
 21
27.3500976563
 31
0.0
  0
LINE
  5
3B9
330
2E8
100
AcDbEntity
  8
VIEW
  6
Continuous
 62
     7
100
AcDbLine
 10
8.7000900283
 20
18.6501159668
 30
0.0
 11
8.7000900283
 21
27.3500976563
 31
0.0
  0
LINE
  5
3BA
330
2E8
100
AcDbEntity
  8
VIEW
  6
Continuous
 62
     7
100
AcDbLine
 10
19.3000961319
 20
18.6501159668
 30
0.0
 11
8.7000900283
 21
18.6501159668
 31
0.0
  0
LINE
  5
3BB
330
2E8
100
AcDbEntity
  8
VIEW
  6
Continuous
 62
     7
100
AcDbLine
 10
19.3000961319
 20
27.3500976563
 30
0.0
 11
19.3000961319
 21
18.6501159668
 31
0.0
  0
LINE
  5
3BC
330
2E8
100
AcDbEntity
  8
VIEW
  6
Continuous
 62
     7
100
AcDbLine
 10
17.3000961319
 20
27.3500976563
 30
0.0
 11
19.3000961319
 21
27.3500976563
 31
0.0
  0
LINE
  5
3BD
330
2E8
100
AcDbEntity
  8
VIEW
  6
Continuous
 62
     7
100
AcDbLine
 10
17.3000961319
 20
32.8000183105
 30
0.0
 11
17.3000961319
 21
27.3500976563
 31
0.0
  0
LINE
  5
3BE
330
2E8
100
AcDbEntity
  8
VIEW
  6
Continuous
 62
     7
100
AcDbLine
 10
24.7000900283
 20
33.0
 30
0.0
 11
24.7000900283
 21
3.0
 31
0.0
  0
LINE
  5
3BF
330
2E8
100
AcDbEntity
  8
VIEW
  6
Continuous
 62
     7
100
AcDbLine
 10
17.3000961319
 20
3.4501037598
 30
0.0
 11
17.3000961319
 21
3.2001037598
 31
0.0
  0
LINE
  5
3C0
330
2E8
100
AcDbEntity
  8
VIEW
  6
Continuous
 62
     7
100
AcDbLine
 10
19.3000961319
 20
3.4501037598
 30
0.0
 11
17.3000961319
 21
3.4501037598
 31
0.0
  0
LINE
  5
3C1
330
2E8
100
AcDbEntity
  8
VIEW
  6
Continuous
 62
     7
100
AcDbLine
 10
1.7000900283
 20
12.0
 30
0.0
 11
1.7000900283
 21
10.0
 31
0.0
  0
LINE
  5
3C2
330
2E8
100
AcDbEntity
  8
VIEW
  6
Continuous
 62
     7
100
AcDbLine
 10
0.0000930801
 20
12.0
 30
0.0
 11
0.0000930801
 21
3.0
 31
0.0
  0
LINE
  5
3C3
330
2E8
100
AcDbEntity
  8
VIEW
  6
Continuous
 62
     7
100
AcDbLine
 10
0.0000930801
 20
33.0
 30
0.0
 11
0.0000930801
 21
24.0
 31
0.0
  0
LINE
  5
3C4
330
2E8
100
AcDbEntity
  8
VIEW
  6
Continuous
 62
     7
100
AcDbLine
 10
1.7000900283
 20
26.0
 30
0.0
 11
4.0000930801
 21
26.0
 31
0.0
  0
LINE
  5
3C5
330
2E8
100
AcDbEntity
  8
VIEW
  6
Continuous
 62
     7
100
AcDbLine
 10
1.7000900283
 20
26.0
 30
0.0
 11
1.7000900283
 21
24.0
 31
0.0
  0
LINE
  5
3C6
330
2E8
100
AcDbEntity
  8
VIEW
  6
Continuous
 62
     7
100
AcDbLine
 10
10.9001022354
 20
4.2001037598
 30
0.0
 11
10.9001022354
 21
3.2001037598
 31
0.0
  0
LINE
  5
3C7
330
2E8
100
AcDbEntity
  8
VIEW
  6
Continuous
 62
     7
100
AcDbLine
 10
10.7000900283
 20
3.4501037598
 30
0.0
 11
10.9001022354
 21
3.5751037598
 31
0.0
  0
LINE
  5
3C8
330
2E8
100
AcDbEntity
  8
VIEW
  6
Continuous
 62
     7
100
AcDbLine
 10
8.9001022354
 20
3.5751037598
 30
0.0
 11
8.7000900283
 21
3.4501037598
 31
0.0
  0
LINE
  5
3C9
330
2E8
100
AcDbEntity
  8
VIEW
  6
Continuous
 62
     7
100
AcDbLine
 10
8.9001022354
 20
4.2001037598
 30
0.0
 11
10.9001022354
 21
4.2001037598
 31
0.0
  0
LINE
  5
3CA
330
2E8
100
AcDbEntity
  8
VIEW
  6
Continuous
 62
     7
100
AcDbLine
 10
19.1000991836
 20
11.4001159668
 30
0.0
 11
8.9001022354
 21
11.4001159668
 31
0.0
  0
LINE
  5
3CB
330
2E8
100
AcDbEntity
  8
VIEW
  6
Continuous
 62
     7
100
AcDbLine
 10
8.7000900283
 20
12.1501159668
 30
0.0
 11
8.9001022354
 21
12.0251159668
 31
0.0
  0
LINE
  5
3CC
330
2E8
100
AcDbEntity
  8
VIEW
  6
Continuous
 62
     7
100
AcDbLine
 10
19.1000991836
 20
12.0251159668
 30
0.0
 11
19.3000961319
 21
12.1501159668
 31
0.0
  0
LINE
  5
3CD
330
2E8
100
AcDbEntity
  8
VIEW
  6
Continuous
 62
     7
100
AcDbLine
 10
10.7000900283
 20
33.0
 30
0.0
 11
10.9001022354
 21
32.8000183105
 31
0.0
  0
LINE
  5
3CE
330
2E8
100
AcDbEntity
  8
VIEW
  6
Continuous
 62
     7
100
AcDbLine
 10
10.9001022354
 20
26.6000976563
 30
0.0
 11
8.9001022354
 21
26.6000976563
 31
0.0
  0
LINE
  5
3CF
330
2E8
100
AcDbEntity
  8
VIEW
  6
Continuous
 62
     7
100
AcDbLine
 10
8.7000900283
 20
27.3500976563
 30
0.0
 11
8.9001022354
 21
27.2250976563
 31
0.0
  0
LINE
  5
3D0
330
2E8
100
AcDbEntity
  8
VIEW
  6
Continuous
 62
     7
100
AcDbLine
 10
10.9001022354
 20
27.2250976563
 30
0.0
 11
10.7000900283
 21
27.3500976563
 31
0.0
  0
LINE
  5
3D1
330
2E8
100
AcDbEntity
  8
VIEW
  6
Continuous
 62
     7
100
AcDbLine
 10
8.9001022354
 20
19.4001159668
 30
0.0
 11
19.1000991836
 21
19.4001159668
 31
0.0
  0
LINE
  5
3D2
330
2E8
100
AcDbEntity
  8
VIEW
  6
Continuous
 62
     7
100
AcDbLine
 10
19.3000961319
 20
18.6501159668
 30
0.0
 11
19.1000991836
 21
18.7751159668
 31
0.0
  0
LINE
  5
3D3
330
2E8
100
AcDbEntity
  8
VIEW
  6
Continuous
 62
     7
100
AcDbLine
 10
8.9001022354
 20
18.7751159668
 30
0.0
 11
8.7000900283
 21
18.6501159668
 31
0.0
  0
LINE
  5
3D4
330
2E8
100
AcDbEntity
  8
VIEW
  6
Continuous
 62
     7
100
AcDbLine
 10
10.9001022354
 20
3.2001037598
 30
0.0
 11
10.7000900283
 21
3.0
 31
0.0
  0
LINE
  5
3D5
330
2E8
100
AcDbEntity
  8
VIEW
  6
Continuous
 62
     7
100
AcDbLine
 10
8.9001022354
 20
27.2250976563
 30
0.0
 11
8.9001022354
 21
18.7751159668
 31
0.0
  0
LINE
  5
3D6
330
2E8
100
AcDbEntity
  8
VIEW
  6
Continuous
 62
     7
100
AcDbLine
 10
10.9001022354
 20
32.8000183105
 30
0.0
 11
10.9001022354
 21
26.6000976563
 31
0.0
  0
LINE
  5
3D7
330
2E8
100
AcDbEntity
  8
VIEW
  6
Continuous
 62
     7
100
AcDbLine
 10
8.9001022354
 20
12.0251159668
 30
0.0
 11
8.9001022354
 21
3.5751037598
 31
0.0
  0
LINE
  5
3D8
330
2E8
100
AcDbEntity
  8
VIEW
  6
Continuous
 62
     7
100
AcDbLine
 10
17.1000991836
 20
32.8000183105
 30
0.0
 11
17.3000961319
 21
33.0
 31
0.0
  0
LINE
  5
3D9
330
2E8
100
AcDbEntity
  8
VIEW
  6
Continuous
 62
     7
100
AcDbLine
 10
17.3000961319
 20
33.0
 30
0.0
 11
17.3000961319
 21
32.8000183105
 31
0.0
  0
LINE
  5
3DA
330
2E8
100
AcDbEntity
  8
VIEW
  6
Continuous
 62
     7
100
AcDbLine
 10
17.1000991836
 20
4.2001037598
 30
0.0
 11
19.1000991836
 21
4.2001037598
 31
0.0
  0
LINE
  5
3DB
330
2E8
100
AcDbEntity
  8
VIEW
  6
Continuous
 62
     7
100
AcDbLine
 10
19.3000961319
 20
3.4501037598
 30
0.0
 11
19.1000991836
 21
3.5751037598
 31
0.0
  0
LINE
  5
3DC
330
2E8
100
AcDbEntity
  8
VIEW
  6
Continuous
 62
     7
100
AcDbLine
 10
17.1000991836
 20
3.5751037598
 30
0.0
 11
17.3000961319
 21
3.4501037598
 31
0.0
  0
LINE
  5
3DD
330
2E8
100
AcDbEntity
  8
VIEW
  6
Continuous
 62
     7
100
AcDbLine
 10
17.3000961319
 20
3.0
 30
0.0
 11
17.1000991836
 21
3.2001037598
 31
0.0
  0
LINE
  5
3DE
330
2E8
100
AcDbEntity
  8
VIEW
  6
Continuous
 62
     7
100
AcDbLine
 10
17.3000961319
 20
3.2001037598
 30
0.0
 11
17.3000961319
 21
3.0
 31
0.0
  0
LINE
  5
3DF
330
2E8
100
AcDbEntity
  8
VIEW
  6
Continuous
 62
     7
100
AcDbLine
 10
17.1000991836
 20
26.6000976563
 30
0.0
 11
17.1000991836
 21
32.8000183105
 31
0.0
  0
LINE
  5
3E0
330
2E8
100
AcDbEntity
  8
VIEW
  6
Continuous
 62
     7
100
AcDbLine
 10
17.3000961319
 20
27.3500976563
 30
0.0
 11
17.1000991836
 21
27.2250976563
 31
0.0
  0
LINE
  5
3E1
330
2E8
100
AcDbEntity
  8
VIEW
  6
Continuous
 62
     7
100
AcDbLine
 10
19.1000991836
 20
27.2250976563
 30
0.0
 11
19.3000961319
 21
27.3500976563
 31
0.0
  0
LINE
  5
3E2
330
2E8
100
AcDbEntity
  8
VIEW
  6
Continuous
 62
     7
100
AcDbLine
 10
19.1000991836
 20
26.6000976563
 30
0.0
 11
17.1000991836
 21
26.6000976563
 31
0.0
  0
LINE
  5
3E3
330
2E8
100
AcDbEntity
  8
VIEW
  6
Continuous
 62
     7
100
AcDbLine
 10
24.7000900283
 20
3.0
 30
0.0
 11
0.0000930801
 21
3.0
 31
0.0
  0
LINE
  5
3E4
330
2E8
100
AcDbEntity
  8
VIEW
  6
Continuous
 62
     7
100
AcDbLine
 10
17.1000991836
 20
3.2001037598
 30
0.0
 11
17.1000991836
 21
4.2001037598
 31
0.0
  0
LINE
  5
3E5
330
2E8
100
AcDbEntity
  8
VIEW
  6
Continuous
 62
     7
100
AcDbLine
 10
19.1000991836
 20
18.7751159668
 30
0.0
 11
19.1000991836
 21
27.2250976563
 31
0.0
  0
LINE
  5
3E6
330
2E8
100
AcDbEntity
  8
VIEW
  6
Continuous
 62
     7
100
AcDbLine
 10
19.1000991836
 20
3.5751037598
 30
0.0
 11
19.1000991836
 21
12.0251159668
 31
0.0
  0
LINE
  5
3E7
330
2E8
100
AcDbEntity
  8
VIEW
  6
Continuous
 62
     7
100
AcDbLine
 10
28.8000961319
 20
13.0
 30
0.0
 11
28.8000961319
 21
23.0
 31
0.0
  0
LINE
  5
3E8
330
2E8
100
AcDbEntity
  8
VIEW
  6
Continuous
 62
     7
100
AcDbLine
 10
29.1000991836
 20
23.0
 30
0.0
 11
29.1000991836
 21
13.0
 31
0.0
  0
LINE
  5
3E9
330
2E8
100
AcDbEntity
  8
VIEW
  6
Continuous
 62
     7
100
AcDbLine
 10
30.4001022354
 20
23.0
 30
0.0
 11
30.4001022354
 21
13.0
 31
0.0
  0
LINE
  5
3EA
330
2E8
100
AcDbEntity
  8
VIEW
  6
Continuous
 62
     7
100
AcDbLine
 10
29.4001022354
 20
13.0
 30
0.0
 11
29.4001022354
 21
23.0
 31
0.0
  0
LINE
  5
3EB
330
2E8
100
AcDbEntity
  8
VIEW
  6
Continuous
 62
     7
100
AcDbLine
 10
30.4001022354
 20
13.0
 30
0.0
 11
28.5999923721
 21
13.0
 31
0.0
  0
LINE
  5
3EC
330
2E8
100
AcDbEntity
  8
VIEW
  6
Continuous
 62
     7
100
AcDbLine
 10
25.0000930801
 20
13.0
 30
0.0
 11
24.7000900283
 21
13.0
 31
0.0
  0
LINE
  5
3ED
330
2E8
100
AcDbEntity
  8
VIEW
  6
Continuous
 62
     7
100
AcDbLine
 10
24.7000900283
 20
23.0
 30
0.0
 11
25.0000930801
 21
23.0
 31
0.0
  0
LINE
  5
3EE
330
2E8
100
AcDbEntity
  8
VIEW
  6
Continuous
 62
     7
100
AcDbLine
 10
28.5999923721
 20
23.0
 30
0.0
 11
30.4001022354
 21
23.0
 31
0.0
  0
LINE
  5
3EF
330
2E8
100
AcDbEntity
  8
VIEW
  6
Continuous
 62
     7
100
AcDbLine
 10
10.9001022354
 20
29.8191223145
 30
0.0
 11
11.0000015274
 21
29.8191223145
 31
0.0
  0
LINE
  5
3F0
330
2E8
100
AcDbEntity
  8
VIEW
  6
Continuous
 62
     7
100
AcDbLine
 10
17.0000015274
 20
29.8191223145
 30
0.0
 11
17.1000991836
 21
29.8191223145
 31
0.0
  0
LINE
  5
3F1
330
2E8
100
AcDbEntity
  8
VIEW
  6
Continuous
 62
     7
100
AcDbLine
 10
24.7000900283
 20
32.0
 30
0.0
 11
25.0000930801
 21
32.0
 31
0.0
  0
LINE
  5
3F2
330
2E8
100
AcDbEntity
  8
VIEW
  6
Continuous
 62
     7
100
AcDbLine
 10
25.0000930801
 20
4.0
 30
0.0
 11
24.7000900283
 21
4.0
 31
0.0
  0
LINE
  5
3F3
330
2E8
100
AcDbEntity
  8
VIEW
  6
Continuous
 62
     7
100
AcDbLine
 10
4.9001022354
 20
0.0
 30
0.0
 11
3.1000991836
 21
0.0
 31
0.0
  0
LINE
  5
3F4
330
2E8
100
AcDbEntity
  8
VIEW
  6
Continuous
 62
     7
100
AcDbLine
 10
2.0000930801
 20
12.0
 30
0.0
 11
2.0000930801
 21
10.0
 31
0.0
  0
LINE
  5
3F5
330
2E8
100
AcDbEntity
  8
VIEW
  6
Continuous
 62
     7
100
AcDbLine
 10
2.0000930801
 20
26.0
 30
0.0
 11
2.0000930801
 21
24.0
 31
0.0
  0
LINE
  5
3F6
330
2E8
100
AcDbEntity
  8
VIEW
  6
Continuous
 62
     7
100
AcDbLine
 10
4.0000930801
 20
24.0
 30
0.0
 11
0.0000930801
 21
24.0
 31
0.0
  0
LINE
  5
3F7
330
2E8
100
AcDbEntity
  8
VIEW
  6
Continuous
 62
     7
100
AcDbLine
 10
0.0000930801
 20
12.0
 30
0.0
 11
4.0000930801
 21
12.0
 31
0.0
  0
LINE
  5
3F8
330
2E8
100
AcDbEntity
  8
VIEW
  6
Continuous
 62
     7
100
AcDbLine
 10
3.9001022354
 20
24.0
 30
0.0
 11
3.9001022354
 21
12.0
 31
0.0
  0
LINE
  5
3F9
330
2E8
100
AcDbEntity
  8
VIEW
  6
Continuous
 62
     7
100
AcDbLine
 10
0.5000930801
 20
23.3003234863
 30
0.0
 11
0.5000930801
 21
12.699798584
 31
0.0
  0
LINE
  5
3FA
330
2E8
100
AcDbEntity
  8
VIEW
  6
Continuous
 62
     7
100
AcDbLine
 10
0.0000015274
 20
12.699798584
 30
0.0
 11
0.0000015274
 21
23.3003234863
 31
0.0
  0
LINE
  5
3FB
330
2E8
100
AcDbEntity
  8
VIEW
  6
Continuous
 62
     7
100
AcDbLine
 10
0.1999984756
 20
23.5003051758
 30
0.0
 11
2.4499984756
 21
23.5003051758
 31
0.0
  0
LINE
  5
3FC
330
2E8
100
AcDbEntity
  8
VIEW
  6
Continuous
 62
     7
100
AcDbLine
 10
2.4499984756
 20
12.4998168945
 30
0.0
 11
0.1999984756
 21
12.4998168945
 31
0.0
  0
LINE
  5
3FD
330
2E8
100
AcDbEntity
  8
VIEW
  6
Continuous
 62
     7
100
AcDbLine
 10
1.7500930801
 20
12.4998168945
 30
0.0
 11
1.7500930801
 21
23.5003051758
 31
0.0
  0
LINE
  5
3FE
330
2E8
100
AcDbEntity
  8
VIEW
  6
Continuous
 62
     7
100
AcDbLine
 10
2.4499984756
 20
23.5003051758
 30
0.0
 11
2.4499984756
 21
12.4998168945
 31
0.0
  0
LINE
  5
3FF
330
2E8
100
AcDbEntity
  8
VIEW
  6
Continuous
 62
     7
100
AcDbLine
 10
2.1999984756
 20
12.0
 30
0.0
 11
2.1999984756
 21
12.4998168945
 31
0.0
  0
LINE
  5
400
330
2E8
100
AcDbEntity
  8
VIEW
  6
Continuous
 62
     7
100
AcDbLine
 10
2.1999984756
 20
23.5003051758
 30
0.0
 11
2.1999984756
 21
24.0
 31
0.0
  0
LINE
  5
401
330
2E8
100
AcDbEntity
  8
VIEW
  6
Continuous
 62
     7
100
AcDbLine
 10
2.5000930801
 20
24.0
 30
0.0
 11
2.5000930801
 21
12.0
 31
0.0
  0
LINE
  5
402
330
2E8
100
AcDbEntity
  8
VIEW
  6
Continuous
 62
     7
100
AcDbLine
 10
3.9001022354
 20
19.5
 30
0.0
 11
4.0000930801
 21
19.5
 31
0.0
  0
LINE
  5
403
330
2E8
100
AcDbEntity
  8
VIEW
  6
Continuous
 62
     7
100
AcDbLine
 10
4.0000930801
 20
16.5
 30
0.0
 11
3.9001022354
 21
16.5
 31
0.0
  0
LINE
  5
404
330
2E8
100
AcDbEntity
  8
VIEW
  6
Continuous
 62
     7
100
AcDbLine
 10
59.5000930801
 20
4.5
 30
0.0
 11
59.5000930801
 21
31.5
 31
0.0
  0
LINE
  5
405
330
2E8
100
AcDbEntity
  8
VIEW
  6
Continuous
 62
     7
100
AcDbLine
 10
55.939195253
 20
6.4692993164
 30
0.0
 11
55.939195253
 21
5.6693115234
 31
0.0
  0
LINE
  5
406
330
2E8
100
AcDbEntity
  8
VIEW
  6
Continuous
 62
     7
100
AcDbLine
 10
55.939195253
 20
30.3307189941
 30
0.0
 11
55.939195253
 21
29.5307006836
 31
0.0
  0
LINE
  5
407
330
2E8
100
AcDbEntity
  8
VIEW
  6
Continuous
 62
     7
100
AcDbLine
 10
57.5139938369
 20
29.5307006836
 30
0.0
 11
57.5139938369
 21
6.4692993164
 31
0.0
  0
LINE
  5
408
330
2E8
100
AcDbEntity
  8
VIEW
  6
Continuous
 62
     7
100
AcDbLine
 10
56.830903627
 20
5.6693115234
 30
0.0
 11
56.830903627
 21
5.0
 31
0.0
  0
LINE
  5
409
330
2E8
100
AcDbEntity
  8
VIEW
  6
Continuous
 62
     7
100
AcDbLine
 10
58.4308944717
 20
5.0
 30
0.0
 11
58.4308944717
 21
5.6693115234
 31
0.0
  0
LINE
  5
40A
330
2E8
100
AcDbEntity
  8
VIEW
  6
Continuous
 62
     7
100
AcDbLine
 10
58.4308944717
 20
30.3307189941
 30
0.0
 11
58.4308944717
 21
31.0
 31
0.0
  0
LINE
  5
40B
330
2E8
100
AcDbEntity
  8
VIEW
  6
Continuous
 62
     7
100
AcDbLine
 10
56.830903627
 20
31.0
 30
0.0
 11
56.830903627
 21
30.3307189941
 31
0.0
  0
LINE
  5
40C
330
2E8
100
AcDbEntity
  8
VIEW
  6
Continuous
 62
     7
100
AcDbLine
 10
58.8000961319
 20
31.5
 30
0.0
 11
58.8000961319
 21
31.5999145508
 31
0.0
  0
LINE
  5
40D
330
2E8
100
AcDbEntity
  8
VIEW
  6
Continuous
 62
     7
100
AcDbLine
 10
58.8000961319
 20
4.4000244141
 30
0.0
 11
58.8000961319
 21
4.5
 31
0.0
  0
LINE
  5
40E
330
2E8
100
AcDbEntity
  8
VIEW
  6
Continuous
 62
     7
100
AcDbLine
 10
58.057389833
 20
6.4692993164
 30
0.0
 11
55.939195253
 21
6.4692993164
 31
0.0
  0
LINE
  5
40F
330
2E8
100
AcDbEntity
  8
VIEW
  6
Continuous
 62
     7
100
AcDbLine
 10
55.939195253
 20
29.5307006836
 30
0.0
 11
58.057389833
 21
29.5307006836
 31
0.0
  0
LINE
  5
410
330
2E8
100
AcDbEntity
  8
VIEW
  6
Continuous
 62
     7
100
AcDbLine
 10
59.0097976699
 20
30.3307189941
 30
0.0
 11
55.939195253
 21
30.3307189941
 31
0.0
  0
LINE
  5
411
330
2E8
100
AcDbEntity
  8
VIEW
  6
Continuous
 62
     7
100
AcDbLine
 10
55.939195253
 20
5.6693115234
 30
0.0
 11
59.0097976699
 21
5.6693115234
 31
0.0
  0
LINE
  5
412
330
2E8
100
AcDbEntity
  8
VIEW
  6
Continuous
 62
     7
100
AcDbLine
 10
59.0097976699
 20
5.6693115234
 30
0.0
 11
59.0097976699
 21
4.5
 31
0.0
  0
LINE
  5
413
330
2E8
100
AcDbEntity
  8
VIEW
  6
Continuous
 62
     7
100
AcDbLine
 10
59.0097976699
 20
31.5
 30
0.0
 11
59.0097976699
 21
30.3307189941
 31
0.0
  0
LINE
  5
414
330
2E8
100
AcDbEntity
  8
VIEW
  6
Continuous
 62
     7
100
AcDbLine
 10
59.5000930801
 20
4.5
 30
0.0
 11
58.7482009903
 21
4.5
 31
0.0
  0
LINE
  5
415
330
2E8
100
AcDbEntity
  8
VIEW
  6
Continuous
 62
     7
100
AcDbLine
 10
56.4158035293
 20
5.0
 30
0.0
 11
56.4158035293
 21
5.6693115234
 31
0.0
  0
LINE
  5
416
330
2E8
100
AcDbEntity
  8
VIEW
  6
Continuous
 62
     7
100
AcDbLine
 10
59.5000930801
 20
31.5
 30
0.0
 11
58.7482009903
 21
31.5
 31
0.0
  0
LINE
  5
417
330
2E8
100
AcDbEntity
  8
VIEW
  6
Continuous
 62
     7
100
AcDbLine
 10
56.4158035293
 20
30.3307189941
 30
0.0
 11
56.4158035293
 21
31.0
 31
0.0
  0
LINE
  5
418
330
2E8
100
AcDbEntity
  8
WORKLAYER
  6
Continuous
 62
     7
100
AcDbLine
 10
38.6786972061
 20
10.2999267578
 30
0.0
 11
38.3014999405
 21
10.2999267578
 31
0.0
  0
LINE
  5
419
330
2E8
100
AcDbEntity
  8
WORKLAYER
  6
Continuous
 62
     7
100
AcDbLine
 10
38.3014999405
 20
10.2999267578
 30
0.0
 11
38.3014999405
 21
11.700012207
 31
0.0
  0
LINE
  5
41A
330
2E8
100
AcDbEntity
  8
WORKLAYER
  6
Continuous
 62
     7
100
AcDbLine
 10
38.3014999405
 20
11.700012207
 30
0.0
 11
38.6786972061
 21
11.699798584
 31
0.0
  0
LINE
  5
41B
330
2E8
100
AcDbEntity
  8
WORKLAYER
  6
Continuous
 62
     7
100
AcDbLine
 10
39.6897903457
 20
10.4999084473
 30
0.0
 11
39.3014999405
 21
10.4999084473
 31
0.0
  0
LINE
  5
41C
330
2E8
100
AcDbEntity
  8
WORKLAYER
  6
Continuous
 62
     7
100
AcDbLine
 10
39.3014999405
 20
10.4999084473
 30
0.0
 11
39.3014999405
 21
11.4999084473
 31
0.0
  0
LINE
  5
41D
330
2E8
100
AcDbEntity
  8
WORKLAYER
  6
Continuous
 62
     7
100
AcDbLine
 10
39.3014999405
 20
11.4999084473
 30
0.0
 11
39.6897903457
 21
11.4999084473
 31
0.0
  0
LINE
  5
41E
330
2E8
100
AcDbEntity
  8
WORKLAYER
  6
Continuous
 62
     7
100
AcDbLine
 10
39.3014999405
 20
13.9002990723
 30
0.0
 11
38.3014999405
 21
13.9002990723
 31
0.0
  0
LINE
  5
41F
330
2E8
100
AcDbEntity
  8
WORKLAYER
  6
Continuous
 62
     7
100
AcDbLine
 10
39.3013931289
 20
8.1000976563
 30
0.0
 11
38.3014999405
 21
8.1000976563
 31
0.0
  0
LINE
  5
420
330
2E8
100
AcDbEntity
  8
WORKLAYER
  6
Continuous
 62
     7
100
AcDbLine
 10
46.8011947647
 20
10.4999084473
 30
0.0
 11
47.3014999405
 21
10.4999084473
 31
0.0
  0
LINE
  5
421
330
2E8
100
AcDbEntity
  8
WORKLAYER
  6
Continuous
 62
     7
100
AcDbLine
 10
47.3014999405
 20
10.4999084473
 30
0.0
 11
47.3014999405
 21
5.0
 31
0.0
  0
LINE
  5
422
330
2E8
100
AcDbEntity
  8
WORKLAYER
  6
Continuous
 62
     7
100
AcDbLine
 10
47.3014999405
 20
31.0
 30
0.0
 11
47.3014999405
 21
25.4999084473
 31
0.0
  0
LINE
  5
423
330
2E8
100
AcDbEntity
  8
WORKLAYER
  6
Continuous
 62
     7
100
AcDbLine
 10
47.3014999405
 20
25.4999084473
 30
0.0
 11
46.8011947647
 21
25.4999084473
 31
0.0
  0
LINE
  5
424
330
2E8
100
AcDbEntity
  8
WORKLAYER
  6
Continuous
 62
     7
100
AcDbLine
 10
38.6786972061
 20
24.2999267578
 30
0.0
 11
38.3014999405
 21
24.2999267578
 31
0.0
  0
LINE
  5
425
330
2E8
100
AcDbEntity
  8
WORKLAYER
  6
Continuous
 62
     7
100
AcDbLine
 10
38.3014999405
 20
24.2999267578
 30
0.0
 11
38.3014999405
 21
25.700012207
 31
0.0
  0
LINE
  5
426
330
2E8
100
AcDbEntity
  8
WORKLAYER
  6
Continuous
 62
     7
100
AcDbLine
 10
38.3014999405
 20
25.700012207
 30
0.0
 11
38.6786972061
 21
25.699798584
 31
0.0
  0
LINE
  5
427
330
2E8
100
AcDbEntity
  8
WORKLAYER
  6
Continuous
 62
     7
100
AcDbLine
 10
39.6897903457
 20
24.4999084473
 30
0.0
 11
39.3014999405
 21
24.4999084473
 31
0.0
  0
LINE
  5
428
330
2E8
100
AcDbEntity
  8
WORKLAYER
  6
Continuous
 62
     7
100
AcDbLine
 10
39.3014999405
 20
24.4999084473
 30
0.0
 11
39.3014999405
 21
25.4999084473
 31
0.0
  0
LINE
  5
429
330
2E8
100
AcDbEntity
  8
WORKLAYER
  6
Continuous
 62
     7
100
AcDbLine
 10
39.3014999405
 20
25.4999084473
 30
0.0
 11
39.6897903457
 21
25.4999084473
 31
0.0
  0
LINE
  5
42A
330
2E8
100
AcDbEntity
  8
WORKLAYER
  6
Continuous
 62
     7
100
AcDbLine
 10
39.3014999405
 20
27.9002990723
 30
0.0
 11
38.3014999405
 21
27.9002990723
 31
0.0
  0
LINE
  5
42B
330
2E8
100
AcDbEntity
  8
WORKLAYER
  6
Continuous
 62
     7
100
AcDbLine
 10
39.3013931289
 20
22.1000976563
 30
0.0
 11
38.3014999405
 21
22.1000976563
 31
0.0
  0
LINE
  5
42C
330
2E8
100
AcDbEntity
  8
WORKLAYER
  6
Continuous
 62
     7
100
AcDbLine
 10
40.5057998672
 20
27.6504211426
 30
0.0
 11
39.6897903457
 21
27.6500244141
 31
0.0
  0
LINE
  5
42D
330
2E8
100
AcDbEntity
  8
WORKLAYER
  6
Continuous
 62
     7
100
AcDbLine
 10
40.5057998672
 20
22.3502197266
 30
0.0
 11
39.6911941543
 21
22.3505249023
 31
0.0
  0
LINE
  5
42E
330
2E8
100
AcDbEntity
  8
WORKLAYER
  6
Continuous
 62
     7
100
AcDbLine
 10
39.6911941543
 20
27.6500244141
 30
0.0
 11
39.6911941543
 21
22.3505249023
 31
0.0
  0
LINE
  5
42F
330
2E8
100
AcDbEntity
  8
WORKLAYER
  6
Continuous
 62
     7
100
AcDbLine
 10
47.6786972061
 20
6.7999267578
 30
0.0
 11
47.3014999405
 21
6.7999267578
 31
0.0
  0
LINE
  5
430
330
2E8
100
AcDbEntity
  8
WORKLAYER
  6
Continuous
 62
     7
100
AcDbLine
 10
47.3014999405
 20
6.7999267578
 30
0.0
 11
47.3014999405
 21
8.200012207
 31
0.0
  0
LINE
  5
431
330
2E8
100
AcDbEntity
  8
WORKLAYER
  6
Continuous
 62
     7
100
AcDbLine
 10
47.3014999405
 20
8.200012207
 30
0.0
 11
47.6786972061
 21
8.199798584
 31
0.0
  0
LINE
  5
432
330
2E8
100
AcDbEntity
  8
WORKLAYER
  6
Continuous
 62
     7
100
AcDbLine
 10
48.6897903457
 20
6.9999084473
 30
0.0
 11
48.3014999405
 21
6.9999084473
 31
0.0
  0
LINE
  5
433
330
2E8
100
AcDbEntity
  8
WORKLAYER
  6
Continuous
 62
     7
100
AcDbLine
 10
48.3014999405
 20
6.9999084473
 30
0.0
 11
48.3014999405
 21
7.9999084473
 31
0.0
  0
LINE
  5
434
330
2E8
100
AcDbEntity
  8
WORKLAYER
  6
Continuous
 62
     7
100
AcDbLine
 10
48.3014999405
 20
7.9999084473
 30
0.0
 11
48.6897903457
 21
7.9999084473
 31
0.0
  0
LINE
  5
435
330
2E8
100
AcDbEntity
  8
WORKLAYER
  6
Continuous
 62
     7
100
AcDbLine
 10
48.3014999405
 20
10.4002990723
 30
0.0
 11
47.3014999405
 21
10.4002990723
 31
0.0
  0
LINE
  5
436
330
2E8
100
AcDbEntity
  8
WORKLAYER
  6
PHANTOM
 62
     7
100
AcDbLine
 10
145.3610855117
 20
23.6650085449
 30
0.0
 11
155.3610855117
 21
23.6650085449
 31
0.0
  0
LINE
  5
437
330
2E8
100
AcDbEntity
  8
WORKLAYER
  6
PHANTOM
 62
     7
100
AcDbLine
 10
155.3610855117
 20
23.6650085449
 30
0.0
 11
156.3610855117
 21
22.6650085449
 31
0.0
  0
LINE
  5
438
330
2E8
100
AcDbEntity
  8
WORKLAYER
  6
PHANTOM
 62
     7
100
AcDbLine
 10
125.4974075332
 20
26.2002258301
 30
0.0
 11
141.4974075332
 21
26.2002258301
 31
0.0
  0
LINE
  5
439
330
2E8
100
AcDbEntity
  8
WORKLAYER
  6
PHANTOM
 62
     7
100
AcDbLine
 10
125.4974075332
 20
27.2002258301
 30
0.0
 11
125.4974075332
 21
7.2002258301
 31
0.0
  0
LINE
  5
43A
330
2E8
100
AcDbEntity
  8
WORKLAYER
  6
PHANTOM
 62
     7
100
AcDbLine
 10
125.4974075332
 20
8.2002258301
 30
0.0
 11
141.4974075332
 21
8.2002258301
 31
0.0
  0
LINE
  5
43B
330
2E8
100
AcDbEntity
  8
WORKLAYER
  6
PHANTOM
 62
     7
100
AcDbLine
 10
141.4974075332
 20
26.2002258301
 30
0.0
 11
141.4974075332
 21
8.2002258301
 31
0.0
  0
LINE
  5
43C
330
2E8
100
AcDbEntity
  8
WORKLAYER
  6
PHANTOM
 62
     7
100
AcDbLine
 10
125.4974075332
 20
27.2002258301
 30
0.0
 11
120.4974075332
 21
27.2002258301
 31
0.0
  0
LINE
  5
43D
330
2E8
100
AcDbEntity
  8
WORKLAYER
  6
PHANTOM
 62
     7
100
AcDbLine
 10
120.4974075332
 20
27.2002258301
 30
0.0
 11
119.4974075332
 21
26.2002258301
 31
0.0
  0
LINE
  5
43E
330
2E8
100
AcDbEntity
  8
WORKLAYER
  6
PHANTOM
 62
     7
100
AcDbLine
 10
125.4974075332
 20
7.2002258301
 30
0.0
 11
120.4974075332
 21
7.2002258301
 31
0.0
  0
LINE
  5
43F
330
2E8
100
AcDbEntity
  8
WORKLAYER
  6
PHANTOM
 62
     7
100
AcDbLine
 10
119.4974075332
 20
8.2002258301
 30
0.0
 11
120.4974075332
 21
7.2002258301
 31
0.0
  0
LINE
  5
440
330
2E8
100
AcDbEntity
  8
WORKLAYER
  6
PHANTOM
 62
     7
100
AcDbLine
 10
118.5000015274
 20
27.2002258301
 30
0.0
 11
109.2001052871
 21
27.2002258301
 31
0.0
  0
LINE
  5
441
330
2E8
100
AcDbEntity
  8
WORKLAYER
  6
PHANTOM
 62
     7
100
AcDbLine
 10
118.5000015274
 20
27.2002258301
 30
0.0
 11
119.5000015274
 21
26.2002258301
 31
0.0
  0
LINE
  5
442
330
2E8
100
AcDbEntity
  8
WORKLAYER
  6
PHANTOM
 62
     7
100
AcDbLine
 10
118.5000015274
 20
7.2002258301
 30
0.0
 11
109.2001052871
 21
7.2002258301
 31
0.0
  0
LINE
  5
443
330
2E8
100
AcDbEntity
  8
WORKLAYER
  6
PHANTOM
 62
     7
100
AcDbLine
 10
118.5000015274
 20
7.2002258301
 30
0.0
 11
119.5000015274
 21
8.2002258301
 31
0.0
  0
LINE
  5
444
330
2E8
100
AcDbEntity
  8
WORKLAYER
  6
PHANTOM
 62
     7
100
AcDbLine
 10
141.4974075332
 20
26.2002258301
 30
0.0
 11
145.3610855117
 21
25.1650085449
 31
0.0
  0
LINE
  5
445
330
2E8
100
AcDbEntity
  8
WORKLAYER
  6
PHANTOM
 62
     7
100
AcDbLine
 10
141.4974075332
 20
8.2002258301
 30
0.0
 11
145.3610855117
 21
9.2355041504
 31
0.0
  0
LINE
  5
446
330
2E8
100
AcDbEntity
  8
WORKLAYER
  6
PHANTOM
 62
     7
100
AcDbLine
 10
145.3610855117
 20
25.1650085449
 30
0.0
 11
145.3610855117
 21
23.6650085449
 31
0.0
  0
LINE
  5
447
330
2E8
100
AcDbEntity
  8
WORKLAYER
  6
PHANTOM
 62
     7
100
AcDbLine
 10
145.3610855117
 20
9.2355041504
 30
0.0
 11
145.3610855117
 21
10.7355041504
 31
0.0
  0
LINE
  5
448
330
2E8
100
AcDbEntity
  8
WORKLAYER
  6
PHANTOM
 62
     7
100
AcDbLine
 10
145.3610855117
 20
10.7355041504
 30
0.0
 11
155.3610855117
 21
10.7355041504
 31
0.0
  0
LINE
  5
449
330
2E8
100
AcDbEntity
  8
WORKLAYER
  6
PHANTOM
 62
     7
100
AcDbLine
 10
155.3610855117
 20
10.7355041504
 30
0.0
 11
156.3610855117
 21
11.7355041504
 31
0.0
  0
LINE
  5
44A
330
2E8
100
AcDbEntity
  8
WORKLAYER
  6
PHANTOM
 62
     7
100
AcDbLine
 10
155.3610855117
 20
23.6650085449
 30
0.0
 11
155.3610855117
 21
10.7355041504
 31
0.0
  0
LINE
  5
44B
330
2E8
100
AcDbEntity
  8
WORKLAYER
  6
PHANTOM
 62
     7
100
AcDbLine
 10
156.3610855117
 20
22.6650085449
 30
0.0
 11
156.3610855117
 21
11.7355041504
 31
0.0
  0
LINE
  5
44C
330
2E8
100
AcDbEntity
  8
WORKLAYER
  6
PHANTOM
 62
     7
100
AcDbLine
 10
156.3610855117
 20
22.6650085449
 30
0.0
 11
158.3610855117
 21
22.6650085449
 31
0.0
  0
LINE
  5
44D
330
2E8
100
AcDbEntity
  8
WORKLAYER
  6
PHANTOM
 62
     7
100
AcDbLine
 10
156.3610855117
 20
11.7355041504
 30
0.0
 11
158.3610855117
 21
11.7355041504
 31
0.0
  0
LINE
  5
44E
330
2E8
100
AcDbEntity
  8
WORKLAYER
  6
PHANTOM
 62
     7
100
AcDbLine
 10
158.3610855117
 20
23.6650085449
 30
0.0
 11
162.3610855117
 21
23.6650085449
 31
0.0
  0
LINE
  5
44F
330
2E8
100
AcDbEntity
  8
WORKLAYER
  6
PHANTOM
 62
     7
100
AcDbLine
 10
162.3610855117
 20
23.6650085449
 30
0.0
 11
163.3610855117
 21
22.6650085449
 31
0.0
  0
LINE
  5
450
330
2E8
100
AcDbEntity
  8
WORKLAYER
  6
PHANTOM
 62
     7
100
AcDbLine
 10
158.3610855117
 20
10.7355041504
 30
0.0
 11
162.3610855117
 21
10.7355041504
 31
0.0
  0
LINE
  5
451
330
2E8
100
AcDbEntity
  8
WORKLAYER
  6
PHANTOM
 62
     7
100
AcDbLine
 10
158.3610855117
 20
23.6650085449
 30
0.0
 11
158.3610855117
 21
10.7355041504
 31
0.0
  0
LINE
  5
452
330
2E8
100
AcDbEntity
  8
WORKLAYER
  6
PHANTOM
 62
     7
100
AcDbLine
 10
163.3610855117
 20
22.6650085449
 30
0.0
 11
163.3610855117
 21
22.2002258301
 31
0.0
  0
LINE
  5
453
330
2E8
100
AcDbEntity
  8
WORKLAYER
  6
PHANTOM
 62
     7
100
AcDbLine
 10
163.3610855117
 20
11.7355041504
 30
0.0
 11
162.3610855117
 21
10.7355041504
 31
0.0
  0
LINE
  5
454
330
2E8
100
AcDbEntity
  8
WORKLAYER
  6
PHANTOM
 62
     7
100
AcDbLine
 10
163.3610855117
 20
22.2002258301
 30
0.0
 11
162.3610855117
 21
21.2002258301
 31
0.0
  0
LINE
  5
455
330
2E8
100
AcDbEntity
  8
WORKLAYER
  6
PHANTOM
 62
     7
100
AcDbLine
 10
158.3610855117
 20
21.2002258301
 30
0.0
 11
162.3610855117
 21
21.2002258301
 31
0.0
  0
LINE
  5
456
330
2E8
100
AcDbEntity
  8
WORKLAYER
  6
PHANTOM
 62
     7
100
AcDbLine
 10
158.3610855117
 20
14.2002258301
 30
0.0
 11
162.3610855117
 21
14.2002258301
 31
0.0
  0
LINE
  5
457
330
2E8
100
AcDbEntity
  8
WORKLAYER
  6
PHANTOM
 62
     7
100
AcDbLine
 10
158.3610855117
 20
20.2002258301
 30
0.0
 11
162.3610855117
 21
20.2002258301
 31
0.0
  0
LINE
  5
458
330
2E8
100
AcDbEntity
  8
WORKLAYER
  6
PHANTOM
 62
     7
100
AcDbLine
 10
162.3610855117
 20
20.2002258301
 30
0.0
 11
163.3610855117
 21
19.2002258301
 31
0.0
  0
LINE
  5
459
330
2E8
100
AcDbEntity
  8
WORKLAYER
  6
PHANTOM
 62
     7
100
AcDbLine
 10
158.3610855117
 20
13.2002258301
 30
0.0
 11
162.3610855117
 21
13.2002258301
 31
0.0
  0
LINE
  5
45A
330
2E8
100
AcDbEntity
  8
WORKLAYER
  6
PHANTOM
 62
     7
100
AcDbLine
 10
162.3610855117
 20
13.2002258301
 30
0.0
 11
163.3610855117
 21
12.2002258301
 31
0.0
  0
LINE
  5
45B
330
2E8
100
AcDbEntity
  8
WORKLAYER
  6
PHANTOM
 62
     7
100
AcDbLine
 10
163.3610855117
 20
19.2002258301
 30
0.0
 11
163.3610855117
 21
15.2002258301
 31
0.0
  0
LINE
  5
45C
330
2E8
100
AcDbEntity
  8
WORKLAYER
  6
PHANTOM
 62
     7
100
AcDbLine
 10
163.3610855117
 20
15.2002258301
 30
0.0
 11
162.3610855117
 21
14.2002258301
 31
0.0
  0
LINE
  5
45D
330
2E8
100
AcDbEntity
  8
WORKLAYER
  6
PHANTOM
 62
     7
100
AcDbLine
 10
163.3610855117
 20
12.2002258301
 30
0.0
 11
163.3610855117
 21
11.7355041504
 31
0.0
  0
LINE
  5
45E
330
2E8
100
AcDbEntity
  8
WORKLAYER
  6
PHANTOM
 62
     7
100
AcDbLine
 10
162.3610855117
 20
21.2002258301
 30
0.0
 11
162.3610855117
 21
20.2002258301
 31
0.0
  0
LINE
  5
45F
330
2E8
100
AcDbEntity
  8
WORKLAYER
  6
PHANTOM
 62
     7
100
AcDbLine
 10
162.3610855117
 20
14.2002258301
 30
0.0
 11
162.3610855117
 21
13.2002258301
 31
0.0
  0
LINE
  5
460
330
2E8
100
AcDbEntity
  8
WORKLAYER
  6
PHANTOM
 62
     7
100
AcDbLine
 10
163.3610855117
 20
22.2002258301
 30
0.0
 11
163.3610855117
 21
12.2002258301
 31
0.0
  0
LINE
  5
461
330
2E8
100
AcDbEntity
  8
WORKLAYER
  6
Continuous
 62
     7
100
AcDbLine
 10
47.6786972061
 20
13.7999267578
 30
0.0
 11
47.3014999405
 21
13.7999267578
 31
0.0
  0
LINE
  5
462
330
2E8
100
AcDbEntity
  8
WORKLAYER
  6
Continuous
 62
     7
100
AcDbLine
 10
47.3014999405
 20
13.7999267578
 30
0.0
 11
47.3014999405
 21
15.200012207
 31
0.0
  0
LINE
  5
463
330
2E8
100
AcDbEntity
  8
WORKLAYER
  6
Continuous
 62
     7
100
AcDbLine
 10
47.3014999405
 20
15.200012207
 30
0.0
 11
47.6786972061
 21
15.199798584
 31
0.0
  0
LINE
  5
464
330
2E8
100
AcDbEntity
  8
WORKLAYER
  6
Continuous
 62
     7
100
AcDbLine
 10
48.6897903457
 20
13.9999084473
 30
0.0
 11
48.3014999405
 21
13.9999084473
 31
0.0
  0
LINE
  5
465
330
2E8
100
AcDbEntity
  8
WORKLAYER
  6
Continuous
 62
     7
100
AcDbLine
 10
48.3014999405
 20
13.9999084473
 30
0.0
 11
48.3014999405
 21
14.9999084473
 31
0.0
  0
LINE
  5
466
330
2E8
100
AcDbEntity
  8
WORKLAYER
  6
Continuous
 62
     7
100
AcDbLine
 10
48.3014999405
 20
14.9999084473
 30
0.0
 11
48.6897903457
 21
14.9999084473
 31
0.0
  0
LINE
  5
467
330
2E8
100
AcDbEntity
  8
WORKLAYER
  6
Continuous
 62
     7
100
AcDbLine
 10
48.3014999405
 20
17.4002990723
 30
0.0
 11
47.3014999405
 21
17.4002990723
 31
0.0
  0
LINE
  5
468
330
2E8
100
AcDbEntity
  8
WORKLAYER
  6
Continuous
 62
     7
100
AcDbLine
 10
48.3013931289
 20
11.6000976563
 30
0.0
 11
47.3014999405
 21
11.6000976563
 31
0.0
  0
LINE
  5
469
330
2E8
100
AcDbEntity
  8
WORKLAYER
  6
Continuous
 62
     7
100
AcDbLine
 10
40.5057998672
 20
13.6504211426
 30
0.0
 11
39.6897903457
 21
13.6500244141
 31
0.0
  0
LINE
  5
46A
330
2E8
100
AcDbEntity
  8
WORKLAYER
  6
Continuous
 62
     7
100
AcDbLine
 10
40.5057998672
 20
8.3502197266
 30
0.0
 11
39.6911941543
 21
8.3505249023
 31
0.0
  0
LINE
  5
46B
330
2E8
100
AcDbEntity
  8
WORKLAYER
  6
Continuous
 62
     7
100
AcDbLine
 10
39.6911941543
 20
13.6500244141
 30
0.0
 11
39.6911941543
 21
8.3505249023
 31
0.0
  0
LINE
  5
46C
330
2E8
100
AcDbEntity
  8
VIEW
  6
Continuous
 62
     7
100
AcDbLine
 10
85.6958938614
 20
3.0
 30
0.0
 11
85.6958938614
 21
33.0
 31
0.0
  0
LINE
  5
46D
330
2E8
100
AcDbEntity
  8
VIEW
  6
Continuous
 62
     7
100
AcDbLine
 10
84.0957962051
 20
16.4000244141
 30
0.0
 11
85.6958938614
 21
16.4000244141
 31
0.0
  0
LINE
  5
46E
330
2E8
100
AcDbEntity
  8
VIEW
  6
Continuous
 62
     7
100
AcDbLine
 10
84.0957962051
 20
19.4000244141
 30
0.0
 11
85.6958938614
 21
19.4000244141
 31
0.0
  0
LINE
  5
46F
330
2E8
100
AcDbEntity
  8
VIEW
  6
Continuous
 62
     7
100
AcDbLine
 10
85.6958938614
 20
15.0
 30
0.0
 11
84.0957962051
 21
15.0
 31
0.0
  0
LINE
  5
470
330
2E8
100
AcDbEntity
  8
VIEW
  6
Continuous
 62
     7
100
AcDbLine
 10
84.0957962051
 20
11.9000244141
 30
0.0
 11
85.6958938614
 21
11.9000244141
 31
0.0
  0
LINE
  5
471
330
2E8
100
AcDbEntity
  8
VIEW
  6
Continuous
 62
     7
100
AcDbLine
 10
85.6958938614
 20
10.5
 30
0.0
 11
84.0957962051
 21
10.5
 31
0.0
  0
LINE
  5
472
330
2E8
100
AcDbEntity
  8
VIEW
  6
Continuous
 62
     7
100
AcDbLine
 10
84.0957962051
 20
33.0
 30
0.0
 11
84.0957962051
 21
3.0
 31
0.0
  0
LINE
  5
473
330
2E8
100
AcDbEntity
  8
VIEW
  6
Continuous
 62
     7
100
AcDbLine
 10
84.0957962051
 20
28.6000976563
 30
0.0
 11
85.6958938614
 21
28.6000976563
 31
0.0
  0
LINE
  5
474
330
2E8
100
AcDbEntity
  8
VIEW
  6
Continuous
 62
     7
100
AcDbLine
 10
85.6958938614
 20
27.200012207
 30
0.0
 11
84.0957962051
 21
27.200012207
 31
0.0
  0
LINE
  5
475
330
2E8
100
AcDbEntity
  8
VIEW
  6
Continuous
 62
     7
100
AcDbLine
 10
84.0957962051
 20
24.200012207
 30
0.0
 11
85.6958938614
 21
24.200012207
 31
0.0
  0
LINE
  5
476
330
2E8
100
AcDbEntity
  8
VIEW
  6
Continuous
 62
     7
100
AcDbLine
 10
85.6958938614
 20
9.200012207
 30
0.0
 11
84.0957962051
 21
9.200012207
 31
0.0
  0
LINE
  5
477
330
2E8
100
AcDbEntity
  8
VIEW
  6
Continuous
 62
     7
100
AcDbLine
 10
76.6958938614
 20
3.0
 30
0.0
 11
76.6958938614
 21
33.0
 31
0.0
  0
LINE
  5
478
330
2E8
100
AcDbEntity
  8
VIEW
  6
Continuous
 62
     7
100
AcDbLine
 10
75.0957962051
 20
16.4000244141
 30
0.0
 11
76.6958938614
 21
16.4000244141
 31
0.0
  0
LINE
  5
479
330
2E8
100
AcDbEntity
  8
VIEW
  6
Continuous
 62
     7
100
AcDbLine
 10
75.0957962051
 20
19.4000244141
 30
0.0
 11
76.6958938614
 21
19.4000244141
 31
0.0
  0
LINE
  5
47A
330
2E8
100
AcDbEntity
  8
VIEW
  6
Continuous
 62
     7
100
AcDbLine
 10
76.6958938614
 20
15.0
 30
0.0
 11
75.0957962051
 21
15.0
 31
0.0
  0
LINE
  5
47B
330
2E8
100
AcDbEntity
  8
VIEW
  6
Continuous
 62
     7
100
AcDbLine
 10
75.0957962051
 20
11.9000244141
 30
0.0
 11
76.6958938614
 21
11.9000244141
 31
0.0
  0
LINE
  5
47C
330
2E8
100
AcDbEntity
  8
VIEW
  6
Continuous
 62
     7
100
AcDbLine
 10
76.6958938614
 20
10.5
 30
0.0
 11
75.0957962051
 21
10.5
 31
0.0
  0
LINE
  5
47D
330
2E8
100
AcDbEntity
  8
VIEW
  6
Continuous
 62
     7
100
AcDbLine
 10
75.0957962051
 20
33.0
 30
0.0
 11
75.0957962051
 21
3.0
 31
0.0
  0
LINE
  5
47E
330
2E8
100
AcDbEntity
  8
VIEW
  6
Continuous
 62
     7
100
AcDbLine
 10
75.0957962051
 20
28.6000976563
 30
0.0
 11
76.6958938614
 21
28.6000976563
 31
0.0
  0
LINE
  5
47F
330
2E8
100
AcDbEntity
  8
VIEW
  6
Continuous
 62
     7
100
AcDbLine
 10
76.6958938614
 20
27.200012207
 30
0.0
 11
75.0957962051
 21
27.200012207
 31
0.0
  0
LINE
  5
480
330
2E8
100
AcDbEntity
  8
VIEW
  6
Continuous
 62
     7
100
AcDbLine
 10
75.0957962051
 20
24.200012207
 30
0.0
 11
76.6958938614
 21
24.200012207
 31
0.0
  0
LINE
  5
481
330
2E8
100
AcDbEntity
  8
VIEW
  6
Continuous
 62
     7
100
AcDbLine
 10
76.6958938614
 20
9.200012207
 30
0.0
 11
75.0957962051
 21
9.200012207
 31
0.0
  0
LINE
  5
482
330
2E8
100
AcDbEntity
  8
VIEW
  6
Continuous
 62
     7
100
AcDbLine
 10
82.6958938614
 20
3.0
 30
0.0
 11
82.6958938614
 21
33.0
 31
0.0
  0
LINE
  5
483
330
2E8
100
AcDbEntity
  8
VIEW
  6
Continuous
 62
     7
100
AcDbLine
 10
81.0957962051
 20
16.4000244141
 30
0.0
 11
82.6958938614
 21
16.4000244141
 31
0.0
  0
LINE
  5
484
330
2E8
100
AcDbEntity
  8
VIEW
  6
Continuous
 62
     7
100
AcDbLine
 10
81.0957962051
 20
19.4000244141
 30
0.0
 11
82.6958938614
 21
19.4000244141
 31
0.0
  0
LINE
  5
485
330
2E8
100
AcDbEntity
  8
VIEW
  6
Continuous
 62
     7
100
AcDbLine
 10
82.6958938614
 20
15.0
 30
0.0
 11
81.0957962051
 21
15.0
 31
0.0
  0
LINE
  5
486
330
2E8
100
AcDbEntity
  8
VIEW
  6
Continuous
 62
     7
100
AcDbLine
 10
81.0957962051
 20
11.9000244141
 30
0.0
 11
82.6958938614
 21
11.9000244141
 31
0.0
  0
LINE
  5
487
330
2E8
100
AcDbEntity
  8
VIEW
  6
Continuous
 62
     7
100
AcDbLine
 10
82.6958938614
 20
10.5
 30
0.0
 11
81.0957962051
 21
10.5
 31
0.0
  0
LINE
  5
488
330
2E8
100
AcDbEntity
  8
VIEW
  6
Continuous
 62
     7
100
AcDbLine
 10
81.0957962051
 20
33.0
 30
0.0
 11
81.0957962051
 21
3.0
 31
0.0
  0
LINE
  5
489
330
2E8
100
AcDbEntity
  8
VIEW
  6
Continuous
 62
     7
100
AcDbLine
 10
81.0957962051
 20
28.6000976563
 30
0.0
 11
82.6958938614
 21
28.6000976563
 31
0.0
  0
LINE
  5
48A
330
2E8
100
AcDbEntity
  8
VIEW
  6
Continuous
 62
     7
100
AcDbLine
 10
82.6958938614
 20
27.200012207
 30
0.0
 11
81.0957962051
 21
27.200012207
 31
0.0
  0
LINE
  5
48B
330
2E8
100
AcDbEntity
  8
VIEW
  6
Continuous
 62
     7
100
AcDbLine
 10
81.0957962051
 20
24.200012207
 30
0.0
 11
82.6958938614
 21
24.200012207
 31
0.0
  0
LINE
  5
48C
330
2E8
100
AcDbEntity
  8
VIEW
  6
Continuous
 62
     7
100
AcDbLine
 10
82.6958938614
 20
9.200012207
 30
0.0
 11
81.0957962051
 21
9.200012207
 31
0.0
  0
LINE
  5
48D
330
2E8
100
AcDbEntity
  8
VIEW
  6
Continuous
 62
     7
100
AcDbLine
 10
79.6958938614
 20
3.0
 30
0.0
 11
79.6958938614
 21
33.0
 31
0.0
  0
LINE
  5
48E
330
2E8
100
AcDbEntity
  8
VIEW
  6
Continuous
 62
     7
100
AcDbLine
 10
78.0957962051
 20
16.4000244141
 30
0.0
 11
79.6958938614
 21
16.4000244141
 31
0.0
  0
LINE
  5
48F
330
2E8
100
AcDbEntity
  8
VIEW
  6
Continuous
 62
     7
100
AcDbLine
 10
78.0957962051
 20
19.4000244141
 30
0.0
 11
79.6958938614
 21
19.4000244141
 31
0.0
  0
LINE
  5
490
330
2E8
100
AcDbEntity
  8
VIEW
  6
Continuous
 62
     7
100
AcDbLine
 10
79.6958938614
 20
15.0
 30
0.0
 11
78.0957962051
 21
15.0
 31
0.0
  0
LINE
  5
491
330
2E8
100
AcDbEntity
  8
VIEW
  6
Continuous
 62
     7
100
AcDbLine
 10
78.0957962051
 20
11.9000244141
 30
0.0
 11
79.6958938614
 21
11.9000244141
 31
0.0
  0
LINE
  5
492
330
2E8
100
AcDbEntity
  8
VIEW
  6
Continuous
 62
     7
100
AcDbLine
 10
79.6958938614
 20
10.5
 30
0.0
 11
78.0957962051
 21
10.5
 31
0.0
  0
LINE
  5
493
330
2E8
100
AcDbEntity
  8
VIEW
  6
Continuous
 62
     7
100
AcDbLine
 10
78.0957962051
 20
33.0
 30
0.0
 11
78.0957962051
 21
3.0
 31
0.0
  0
LINE
  5
494
330
2E8
100
AcDbEntity
  8
VIEW
  6
Continuous
 62
     7
100
AcDbLine
 10
78.0957962051
 20
28.6000976563
 30
0.0
 11
79.6958938614
 21
28.6000976563
 31
0.0
  0
LINE
  5
495
330
2E8
100
AcDbEntity
  8
VIEW
  6
Continuous
 62
     7
100
AcDbLine
 10
79.6958938614
 20
27.200012207
 30
0.0
 11
78.0957962051
 21
27.200012207
 31
0.0
  0
LINE
  5
496
330
2E8
100
AcDbEntity
  8
VIEW
  6
Continuous
 62
     7
100
AcDbLine
 10
78.0957962051
 20
24.200012207
 30
0.0
 11
79.6958938614
 21
24.200012207
 31
0.0
  0
LINE
  5
497
330
2E8
100
AcDbEntity
  8
VIEW
  6
Continuous
 62
     7
100
AcDbLine
 10
79.6958938614
 20
9.200012207
 30
0.0
 11
78.0957962051
 21
9.200012207
 31
0.0
  0
LINE
  5
498
330
2E8
100
AcDbEntity
  8
VIEW
  6
Continuous
 62
     7
100
AcDbLine
 10
91.6958938614
 20
3.0
 30
0.0
 11
91.6958938614
 21
33.0
 31
0.0
  0
LINE
  5
499
330
2E8
100
AcDbEntity
  8
VIEW
  6
Continuous
 62
     7
100
AcDbLine
 10
91.6958938614
 20
27.200012207
 30
0.0
 11
90.0957962051
 21
27.200012207
 31
0.0
  0
LINE
  5
49A
330
2E8
100
AcDbEntity
  8
VIEW
  6
Continuous
 62
     7
100
AcDbLine
 10
90.0957962051
 20
24.200012207
 30
0.0
 11
91.6958938614
 21
24.200012207
 31
0.0
  0
LINE
  5
49B
330
2E8
100
AcDbEntity
  8
VIEW
  6
Continuous
 62
     7
100
AcDbLine
 10
91.6958938614
 20
9.200012207
 30
0.0
 11
90.0957962051
 21
9.200012207
 31
0.0
  0
LINE
  5
49C
330
2E8
100
AcDbEntity
  8
VIEW
  6
Continuous
 62
     7
100
AcDbLine
 10
90.0957962051
 20
16.4000244141
 30
0.0
 11
91.6958938614
 21
16.4000244141
 31
0.0
  0
LINE
  5
49D
330
2E8
100
AcDbEntity
  8
VIEW
  6
Continuous
 62
     7
100
AcDbLine
 10
90.0957962051
 20
19.4000244141
 30
0.0
 11
91.6958938614
 21
19.4000244141
 31
0.0
  0
LINE
  5
49E
330
2E8
100
AcDbEntity
  8
VIEW
  6
Continuous
 62
     7
100
AcDbLine
 10
91.6958938614
 20
15.0
 30
0.0
 11
90.0957962051
 21
15.0
 31
0.0
  0
LINE
  5
49F
330
2E8
100
AcDbEntity
  8
VIEW
  6
Continuous
 62
     7
100
AcDbLine
 10
90.0957962051
 20
11.9000244141
 30
0.0
 11
91.6958938614
 21
11.9000244141
 31
0.0
  0
LINE
  5
4A0
330
2E8
100
AcDbEntity
  8
VIEW
  6
Continuous
 62
     7
100
AcDbLine
 10
91.6958938614
 20
10.5
 30
0.0
 11
90.0957962051
 21
10.5
 31
0.0
  0
LINE
  5
4A1
330
2E8
100
AcDbEntity
  8
VIEW
  6
Continuous
 62
     7
100
AcDbLine
 10
90.0957962051
 20
33.0
 30
0.0
 11
90.0957962051
 21
3.0
 31
0.0
  0
LINE
  5
4A2
330
2E8
100
AcDbEntity
  8
VIEW
  6
Continuous
 62
     7
100
AcDbLine
 10
90.0957962051
 20
28.6000976563
 30
0.0
 11
91.6958938614
 21
28.6000976563
 31
0.0
  0
LINE
  5
4A3
330
2E8
100
AcDbEntity
  8
VIEW
  6
Continuous
 62
     7
100
AcDbLine
 10
73.6958938614
 20
3.0
 30
0.0
 11
73.6958938614
 21
33.0
 31
0.0
  0
LINE
  5
4A4
330
2E8
100
AcDbEntity
  8
VIEW
  6
Continuous
 62
     7
100
AcDbLine
 10
72.0957962051
 20
16.4000244141
 30
0.0
 11
73.6958938614
 21
16.4000244141
 31
0.0
  0
LINE
  5
4A5
330
2E8
100
AcDbEntity
  8
VIEW
  6
Continuous
 62
     7
100
AcDbLine
 10
72.0957962051
 20
19.4000244141
 30
0.0
 11
73.6958938614
 21
19.4000244141
 31
0.0
  0
LINE
  5
4A6
330
2E8
100
AcDbEntity
  8
VIEW
  6
Continuous
 62
     7
100
AcDbLine
 10
73.6958938614
 20
15.0
 30
0.0
 11
72.0957962051
 21
15.0
 31
0.0
  0
LINE
  5
4A7
330
2E8
100
AcDbEntity
  8
VIEW
  6
Continuous
 62
     7
100
AcDbLine
 10
72.0957962051
 20
11.9000244141
 30
0.0
 11
73.6958938614
 21
11.9000244141
 31
0.0
  0
LINE
  5
4A8
330
2E8
100
AcDbEntity
  8
VIEW
  6
Continuous
 62
     7
100
AcDbLine
 10
73.6958938614
 20
10.5
 30
0.0
 11
72.0957962051
 21
10.5
 31
0.0
  0
LINE
  5
4A9
330
2E8
100
AcDbEntity
  8
VIEW
  6
Continuous
 62
     7
100
AcDbLine
 10
72.0957962051
 20
33.0
 30
0.0
 11
72.0957962051
 21
3.0
 31
0.0
  0
LINE
  5
4AA
330
2E8
100
AcDbEntity
  8
VIEW
  6
Continuous
 62
     7
100
AcDbLine
 10
72.0957962051
 20
28.6000976563
 30
0.0
 11
73.6958938614
 21
28.6000976563
 31
0.0
  0
LINE
  5
4AB
330
2E8
100
AcDbEntity
  8
VIEW
  6
Continuous
 62
     7
100
AcDbLine
 10
73.6958938614
 20
27.200012207
 30
0.0
 11
72.0957962051
 21
27.200012207
 31
0.0
  0
LINE
  5
4AC
330
2E8
100
AcDbEntity
  8
VIEW
  6
Continuous
 62
     7
100
AcDbLine
 10
72.0957962051
 20
24.200012207
 30
0.0
 11
73.6958938614
 21
24.200012207
 31
0.0
  0
LINE
  5
4AD
330
2E8
100
AcDbEntity
  8
VIEW
  6
Continuous
 62
     7
100
AcDbLine
 10
73.6958938614
 20
9.200012207
 30
0.0
 11
72.0957962051
 21
9.200012207
 31
0.0
  0
LINE
  5
4AE
330
2E8
100
AcDbEntity
  8
VIEW
  6
Continuous
 62
     7
100
AcDbLine
 10
97.6958938614
 20
3.0
 30
0.0
 11
97.6958938614
 21
33.0
 31
0.0
  0
LINE
  5
4AF
330
2E8
100
AcDbEntity
  8
VIEW
  6
Continuous
 62
     7
100
AcDbLine
 10
96.0957962051
 20
28.6000976563
 30
0.0
 11
97.6958938614
 21
28.6000976563
 31
0.0
  0
LINE
  5
4B0
330
2E8
100
AcDbEntity
  8
VIEW
  6
Continuous
 62
     7
100
AcDbLine
 10
97.6958938614
 20
27.200012207
 30
0.0
 11
96.0957962051
 21
27.200012207
 31
0.0
  0
LINE
  5
4B1
330
2E8
100
AcDbEntity
  8
VIEW
  6
Continuous
 62
     7
100
AcDbLine
 10
96.0957962051
 20
24.200012207
 30
0.0
 11
97.6958938614
 21
24.200012207
 31
0.0
  0
LINE
  5
4B2
330
2E8
100
AcDbEntity
  8
VIEW
  6
Continuous
 62
     7
100
AcDbLine
 10
97.6958938614
 20
9.200012207
 30
0.0
 11
96.0957962051
 21
9.200012207
 31
0.0
  0
LINE
  5
4B3
330
2E8
100
AcDbEntity
  8
VIEW
  6
Continuous
 62
     7
100
AcDbLine
 10
96.0957962051
 20
16.4000244141
 30
0.0
 11
97.6958938614
 21
16.4000244141
 31
0.0
  0
LINE
  5
4B4
330
2E8
100
AcDbEntity
  8
VIEW
  6
Continuous
 62
     7
100
AcDbLine
 10
96.0957962051
 20
19.4000244141
 30
0.0
 11
97.6958938614
 21
19.4000244141
 31
0.0
  0
LINE
  5
4B5
330
2E8
100
AcDbEntity
  8
VIEW
  6
Continuous
 62
     7
100
AcDbLine
 10
97.6958938614
 20
15.0
 30
0.0
 11
96.0957962051
 21
15.0
 31
0.0
  0
LINE
  5
4B6
330
2E8
100
AcDbEntity
  8
VIEW
  6
Continuous
 62
     7
100
AcDbLine
 10
96.0957962051
 20
11.9000244141
 30
0.0
 11
97.6958938614
 21
11.9000244141
 31
0.0
  0
LINE
  5
4B7
330
2E8
100
AcDbEntity
  8
VIEW
  6
Continuous
 62
     7
100
AcDbLine
 10
97.6958938614
 20
10.5
 30
0.0
 11
96.0957962051
 21
10.5
 31
0.0
  0
LINE
  5
4B8
330
2E8
100
AcDbEntity
  8
VIEW
  6
Continuous
 62
     7
100
AcDbLine
 10
96.0957962051
 20
33.0
 30
0.0
 11
96.0957962051
 21
3.0
 31
0.0
  0
LINE
  5
4B9
330
2E8
100
AcDbEntity
  8
VIEW
  6
Continuous
 62
     7
100
AcDbLine
 10
88.6958938614
 20
3.0
 30
0.0
 11
88.6958938614
 21
33.0
 31
0.0
  0
LINE
  5
4BA
330
2E8
100
AcDbEntity
  8
VIEW
  6
Continuous
 62
     7
100
AcDbLine
 10
87.0957962051
 20
16.4000244141
 30
0.0
 11
88.6958938614
 21
16.4000244141
 31
0.0
  0
LINE
  5
4BB
330
2E8
100
AcDbEntity
  8
VIEW
  6
Continuous
 62
     7
100
AcDbLine
 10
87.0957962051
 20
19.4000244141
 30
0.0
 11
88.6958938614
 21
19.4000244141
 31
0.0
  0
LINE
  5
4BC
330
2E8
100
AcDbEntity
  8
VIEW
  6
Continuous
 62
     7
100
AcDbLine
 10
88.6958938614
 20
15.0
 30
0.0
 11
87.0957962051
 21
15.0
 31
0.0
  0
LINE
  5
4BD
330
2E8
100
AcDbEntity
  8
VIEW
  6
Continuous
 62
     7
100
AcDbLine
 10
87.0957962051
 20
11.9000244141
 30
0.0
 11
88.6958938614
 21
11.9000244141
 31
0.0
  0
LINE
  5
4BE
330
2E8
100
AcDbEntity
  8
VIEW
  6
Continuous
 62
     7
100
AcDbLine
 10
88.6958938614
 20
10.5
 30
0.0
 11
87.0957962051
 21
10.5
 31
0.0
  0
LINE
  5
4BF
330
2E8
100
AcDbEntity
  8
VIEW
  6
Continuous
 62
     7
100
AcDbLine
 10
87.0957962051
 20
33.0
 30
0.0
 11
87.0957962051
 21
3.0
 31
0.0
  0
LINE
  5
4C0
330
2E8
100
AcDbEntity
  8
VIEW
  6
Continuous
 62
     7
100
AcDbLine
 10
87.0957962051
 20
28.6000976563
 30
0.0
 11
88.6958938614
 21
28.6000976563
 31
0.0
  0
LINE
  5
4C1
330
2E8
100
AcDbEntity
  8
VIEW
  6
Continuous
 62
     7
100
AcDbLine
 10
88.6958938614
 20
27.200012207
 30
0.0
 11
87.0957962051
 21
27.200012207
 31
0.0
  0
LINE
  5
4C2
330
2E8
100
AcDbEntity
  8
VIEW
  6
Continuous
 62
     7
100
AcDbLine
 10
87.0957962051
 20
24.200012207
 30
0.0
 11
88.6958938614
 21
24.200012207
 31
0.0
  0
LINE
  5
4C3
330
2E8
100
AcDbEntity
  8
VIEW
  6
Continuous
 62
     7
100
AcDbLine
 10
88.6958938614
 20
9.200012207
 30
0.0
 11
87.0957962051
 21
9.200012207
 31
0.0
  0
LINE
  5
4C4
330
2E8
100
AcDbEntity
  8
WORKLAYER
  6
Continuous
 62
     7
100
AcDbLine
 10
49.5057998672
 20
24.1504211426
 30
0.0
 11
48.6897903457
 21
24.1500244141
 31
0.0
  0
LINE
  5
4C5
330
2E8
100
AcDbEntity
  8
WORKLAYER
  6
Continuous
 62
     7
100
AcDbLine
 10
49.5057998672
 20
18.8502197266
 30
0.0
 11
48.6911941543
 21
18.8505249023
 31
0.0
  0
LINE
  5
4C6
330
2E8
100
AcDbEntity
  8
WORKLAYER
  6
Continuous
 62
     7
100
AcDbLine
 10
48.6911941543
 20
24.1500244141
 30
0.0
 11
48.6911941543
 21
18.8505249023
 31
0.0
  0
LINE
  5
4C7
330
2E8
100
AcDbEntity
  8
WORKLAYER
  6
Continuous
 62
     7
100
AcDbLine
 10
49.5057998672
 20
17.1504211426
 30
0.0
 11
48.6897903457
 21
17.1500244141
 31
0.0
  0
LINE
  5
4C8
330
2E8
100
AcDbEntity
  8
WORKLAYER
  6
Continuous
 62
     7
100
AcDbLine
 10
49.5057998672
 20
11.8502197266
 30
0.0
 11
48.6911941543
 21
11.8505249023
 31
0.0
  0
LINE
  5
4C9
330
2E8
100
AcDbEntity
  8
WORKLAYER
  6
Continuous
 62
     7
100
AcDbLine
 10
48.6911941543
 20
17.1500244141
 30
0.0
 11
48.6911941543
 21
11.8505249023
 31
0.0
  0
LINE
  5
4CA
330
2E8
100
AcDbEntity
  8
WORKLAYER
  6
Continuous
 62
     7
100
AcDbLine
 10
40.5057998672
 20
20.6504211426
 30
0.0
 11
39.6897903457
 21
20.6500244141
 31
0.0
  0
LINE
  5
4CB
330
2E8
100
AcDbEntity
  8
WORKLAYER
  6
Continuous
 62
     7
100
AcDbLine
 10
40.5057998672
 20
15.3502197266
 30
0.0
 11
39.6911941543
 21
15.3505249023
 31
0.0
  0
LINE
  5
4CC
330
2E8
100
AcDbEntity
  8
WORKLAYER
  6
Continuous
 62
     7
100
AcDbLine
 10
39.6911941543
 20
20.6500244141
 30
0.0
 11
39.6911941543
 21
15.3505249023
 31
0.0
  0
LINE
  5
4CD
330
2E8
100
AcDbEntity
  8
WORKLAYER
  6
Continuous
 62
     7
100
AcDbLine
 10
38.6786972061
 20
17.2999267578
 30
0.0
 11
38.3014999405
 21
17.2999267578
 31
0.0
  0
LINE
  5
4CE
330
2E8
100
AcDbEntity
  8
WORKLAYER
  6
Continuous
 62
     7
100
AcDbLine
 10
38.3014999405
 20
17.2999267578
 30
0.0
 11
38.3014999405
 21
18.700012207
 31
0.0
  0
LINE
  5
4CF
330
2E8
100
AcDbEntity
  8
WORKLAYER
  6
Continuous
 62
     7
100
AcDbLine
 10
38.3014999405
 20
18.700012207
 30
0.0
 11
38.6786972061
 21
18.699798584
 31
0.0
  0
LINE
  5
4D0
330
2E8
100
AcDbEntity
  8
WORKLAYER
  6
Continuous
 62
     7
100
AcDbLine
 10
39.6897903457
 20
17.4999084473
 30
0.0
 11
39.3014999405
 21
17.4999084473
 31
0.0
  0
LINE
  5
4D1
330
2E8
100
AcDbEntity
  8
WORKLAYER
  6
Continuous
 62
     7
100
AcDbLine
 10
39.3014999405
 20
17.4999084473
 30
0.0
 11
39.3014999405
 21
18.4999084473
 31
0.0
  0
LINE
  5
4D2
330
2E8
100
AcDbEntity
  8
WORKLAYER
  6
Continuous
 62
     7
100
AcDbLine
 10
39.3014999405
 20
18.4999084473
 30
0.0
 11
39.6897903457
 21
18.4999084473
 31
0.0
  0
LINE
  5
4D3
330
2E8
100
AcDbEntity
  8
WORKLAYER
  6
Continuous
 62
     7
100
AcDbLine
 10
39.3014999405
 20
20.9002990723
 30
0.0
 11
38.3014999405
 21
20.9002990723
 31
0.0
  0
LINE
  5
4D4
330
2E8
100
AcDbEntity
  8
WORKLAYER
  6
Continuous
 62
     7
100
AcDbLine
 10
39.3013931289
 20
15.1000976563
 30
0.0
 11
38.3014999405
 21
15.1000976563
 31
0.0
  0
LINE
  5
4D5
330
2E8
100
AcDbEntity
  8
WORKLAYER
  6
Continuous
 62
     7
100
AcDbLine
 10
117.5000930801
 20
23.2001037598
 30
0.0
 11
117.5000930801
 21
11.2001037598
 31
0.0
  0
LINE
  5
4D6
330
2E8
100
AcDbEntity
  8
WORKLAYER
  6
Continuous
 62
     7
100
AcDbLine
 10
117.5000930801
 20
23.2001037598
 30
0.0
 11
109.2001968399
 21
23.2001037598
 31
0.0
  0
LINE
  5
4D7
330
2E8
100
AcDbEntity
  8
WORKLAYER
  6
Continuous
 62
     7
100
AcDbLine
 10
117.5000930801
 20
11.2001037598
 30
0.0
 11
109.2001968399
 21
11.2001037598
 31
0.0
  0
LINE
  5
4D8
330
2E8
100
AcDbEntity
  8
WORKLAYER
  6
Continuous
 62
     7
100
AcDbLine
 10
117.5000930801
 20
22.3251037598
 30
0.0
 11
109.2001968399
 21
22.3251037598
 31
0.0
  0
LINE
  5
4D9
330
2E8
100
AcDbEntity
  8
WORKLAYER
  6
Continuous
 62
     7
100
AcDbLine
 10
117.5000930801
 20
12.0751037598
 30
0.0
 11
109.2001968399
 21
12.0751037598
 31
0.0
  0
LINE
  5
4DA
330
2E8
100
AcDbEntity
  8
WORKLAYER
  6
PHANTOM
 62
     7
100
AcDbLine
 10
163.3610855117
 20
19.7002258301
 30
0.0
 11
195.8610855117
 21
19.7002258301
 31
0.0
  0
LINE
  5
4DB
330
2E8
100
AcDbEntity
  8
WORKLAYER
  6
PHANTOM
 62
     7
100
AcDbLine
 10
163.3610855117
 20
14.7002258301
 30
0.0
 11
195.8610855117
 21
14.7002258301
 31
0.0
  0
LINE
  5
4DC
330
2E8
100
AcDbEntity
  8
WORKLAYER
  6
PHANTOM
 62
     7
100
AcDbLine
 10
195.8610855117
 20
14.7002258301
 30
0.0
 11
195.6129164749
 21
14.8829787903
 31
0.0
  0
LINE
  5
4DD
330
2E8
100
AcDbEntity
  8
WORKLAYER
  6
PHANTOM
 62
     7
100
AcDbLine
 10
195.6129164749
 20
14.8829787903
 30
0.0
 11
195.370818666
 21
15.0647849121
 31
0.0
  0
LINE
  5
4DE
330
2E8
100
AcDbEntity
  8
WORKLAYER
  6
PHANTOM
 62
     7
100
AcDbLine
 10
195.370818666
 20
15.0647849121
 30
0.0
 11
195.1408688064
 21
15.2446772156
 31
0.0
  0
LINE
  5
4DF
330
2E8
100
AcDbEntity
  8
WORKLAYER
  6
PHANTOM
 62
     7
100
AcDbLine
 10
195.1408688064
 20
15.2446772156
 30
0.0
 11
194.9291436172
 21
15.4216887207
 31
0.0
  0
LINE
  5
4E0
330
2E8
100
AcDbEntity
  8
WORKLAYER
  6
PHANTOM
 62
     7
100
AcDbLine
 10
194.9291436172
 20
15.4216887207
 30
0.0
 11
194.7417198196
 21
15.5948524475
 31
0.0
  0
LINE
  5
4E1
330
2E8
100
AcDbEntity
  8
WORKLAYER
  6
PHANTOM
 62
     7
100
AcDbLine
 10
194.7417198196
 20
15.5948524475
 30
0.0
 11
194.5846741348
 21
15.763201416
 31
0.0
  0
LINE
  5
4E2
330
2E8
100
AcDbEntity
  8
WORKLAYER
  6
PHANTOM
 62
     7
100
AcDbLine
 10
194.5846741348
 20
15.763201416
 30
0.0
 11
194.464083284
 21
15.9257686462
 31
0.0
  0
LINE
  5
4E3
330
2E8
100
AcDbEntity
  8
WORKLAYER
  6
PHANTOM
 62
     7
100
AcDbLine
 10
194.464083284
 20
15.9257686462
 30
0.0
 11
194.3860239883
 21
16.0815871582
 31
0.0
  0
LINE
  5
4E4
330
2E8
100
AcDbEntity
  8
WORKLAYER
  6
PHANTOM
 62
     7
100
AcDbLine
 10
194.3860239883
 20
16.0815871582
 30
0.0
 11
194.356572969
 21
16.2296899719
 31
0.0
  0
LINE
  5
4E5
330
2E8
100
AcDbEntity
  8
WORKLAYER
  6
PHANTOM
 62
     7
100
AcDbLine
 10
194.356572969
 20
16.2296899719
 30
0.0
 11
194.3818069473
 21
16.3691101074
 31
0.0
  0
LINE
  5
4E6
330
2E8
100
AcDbEntity
  8
WORKLAYER
  6
PHANTOM
 62
     7
100
AcDbLine
 10
194.3818069473
 20
16.3691101074
 30
0.0
 11
194.4844671646
 21
16.5205921021
 31
0.0
  0
LINE
  5
4E7
330
2E8
100
AcDbEntity
  8
WORKLAYER
  6
PHANTOM
 62
     7
100
AcDbLine
 10
194.4844671646
 20
16.5205921021
 30
0.0
 11
194.6542813125
 21
16.6622783203
 31
0.0
  0
LINE
  5
4E8
330
2E8
100
AcDbEntity
  8
WORKLAYER
  6
PHANTOM
 62
     7
100
AcDbLine
 10
194.6542813125
 20
16.6622783203
 30
0.0
 11
194.875408937
 21
16.7975236206
 31
0.0
  0
LINE
  5
4E9
330
2E8
100
AcDbEntity
  8
WORKLAYER
  6
PHANTOM
 62
     7
100
AcDbLine
 10
194.875408937
 20
16.7975236206
 30
0.0
 11
195.132009584
 21
16.9296828613
 31
0.0
  0
LINE
  5
4EA
330
2E8
100
AcDbEntity
  8
WORKLAYER
  6
PHANTOM
 62
     7
100
AcDbLine
 10
195.132009584
 20
16.9296828613
 30
0.0
 11
195.4082427993
 21
17.0621109009
 31
0.0
  0
LINE
  5
4EB
330
2E8
100
AcDbEntity
  8
WORKLAYER
  6
PHANTOM
 62
     7
100
AcDbLine
 10
195.4082427993
 20
17.0621109009
 30
0.0
 11
195.6882681289
 21
17.1981625977
 31
0.0
  0
LINE
  5
4EC
330
2E8
100
AcDbEntity
  8
WORKLAYER
  6
PHANTOM
 62
     7
100
AcDbLine
 10
195.6882681289
 20
17.1981625977
 30
0.0
 11
195.9562451187
 21
17.3411928101
 31
0.0
  0
LINE
  5
4ED
330
2E8
100
AcDbEntity
  8
WORKLAYER
  6
PHANTOM
 62
     7
100
AcDbLine
 10
195.9562451187
 20
17.3411928101
 30
0.0
 11
196.1963333145
 21
17.4945563965
 31
0.0
  0
LINE
  5
4EE
330
2E8
100
AcDbEntity
  8
WORKLAYER
  6
PHANTOM
 62
     7
100
AcDbLine
 10
196.1963333145
 20
17.4945563965
 30
0.0
 11
196.3926922622
 21
17.6616082153
 31
0.0
  0
LINE
  5
4EF
330
2E8
100
AcDbEntity
  8
WORKLAYER
  6
PHANTOM
 62
     7
100
AcDbLine
 10
196.3926922622
 20
17.6616082153
 30
0.0
 11
196.5294815078
 21
17.845703125
 31
0.0
  0
LINE
  5
4F0
330
2E8
100
AcDbEntity
  8
WORKLAYER
  6
PHANTOM
 62
     7
100
AcDbLine
 10
196.5294815078
 20
17.845703125
 30
0.0
 11
196.5855841385
 21
17.9978679199
 31
0.0
  0
LINE
  5
4F1
330
2E8
100
AcDbEntity
  8
WORKLAYER
  6
PHANTOM
 62
     7
100
AcDbLine
 10
196.5855841385
 20
17.9978679199
 30
0.0
 11
196.6028667617
 21
18.1605422363
 31
0.0
  0
LINE
  5
4F2
330
2E8
100
AcDbEntity
  8
WORKLAYER
  6
PHANTOM
 62
     7
100
AcDbLine
 10
196.6028667617
 20
18.1605422363
 30
0.0
 11
196.5856416946
 21
18.33255896
 31
0.0
  0
LINE
  5
4F3
330
2E8
100
AcDbEntity
  8
WORKLAYER
  6
PHANTOM
 62
     7
100
AcDbLine
 10
196.5856416946
 20
18.33255896
 30
0.0
 11
196.5382212539
 21
18.5127509766
 31
0.0
  0
LINE
  5
4F4
330
2E8
100
AcDbEntity
  8
WORKLAYER
  6
PHANTOM
 62
     7
100
AcDbLine
 10
196.5382212539
 20
18.5127509766
 30
0.0
 11
196.4649177566
 21
18.6999511719
 31
0.0
  0
LINE
  5
4F5
330
2E8
100
AcDbEntity
  8
WORKLAYER
  6
PHANTOM
 62
     7
100
AcDbLine
 10
196.4649177566
 20
18.6999511719
 30
0.0
 11
196.3700435196
 21
18.8929924316
 31
0.0
  0
LINE
  5
4F6
330
2E8
100
AcDbEntity
  8
WORKLAYER
  6
PHANTOM
 62
     7
100
AcDbLine
 10
196.3700435196
 20
18.8929924316
 30
0.0
 11
196.2579108596
 21
19.0907076416
 31
0.0
  0
LINE
  5
4F7
330
2E8
100
AcDbEntity
  8
WORKLAYER
  6
PHANTOM
 62
     7
100
AcDbLine
 10
196.2579108596
 20
19.0907076416
 30
0.0
 11
196.1328320938
 21
19.2919296875
 31
0.0
  0
LINE
  5
4F8
330
2E8
100
AcDbEntity
  8
WORKLAYER
  6
PHANTOM
 62
     7
100
AcDbLine
 10
196.1328320938
 20
19.2919296875
 30
0.0
 11
195.9991195388
 21
19.4954914551
 31
0.0
  0
LINE
  5
4F9
330
2E8
100
AcDbEntity
  8
WORKLAYER
  6
PHANTOM
 62
     7
100
AcDbLine
 10
195.9991195388
 20
19.4954914551
 30
0.0
 11
195.8610855117
 21
19.7002258301
 31
0.0
  0
ENDBLK
  5
2EA
330
2E8
100
AcDbEntity
  8
0
100
AcDbBlockEnd
  0
BLOCK
  5
4FE
330
4FD
100
AcDbEntity
  8
0
100
AcDbBlockBegin
  2
_OPEN30
 70
     0
 71
     0
 10
0.0
 20
0.0
 30
0.0
  3
_OPEN30
  1

  0
LINE
  5
500
330
4FD
100
AcDbEntity
  8
0
  6
ByBlock
 62
     0
370
    -2
100
AcDbLine
 10
-1.0
 20
0.267949
 30
0.0
 11
0.0
 21
0.0
 31
0.0
  0
LINE
  5
501
330
4FD
100
AcDbEntity
  8
0
  6
ByBlock
 62
     0
370
    -2
100
AcDbLine
 10
0.0
 20
0.0
 30
0.0
 11
-1.0
 21
-0.267949
 31
0.0
  0
LINE
  5
502
330
4FD
100
AcDbEntity
  8
0
  6
ByBlock
 62
     0
370
    -2
100
AcDbLine
 10
0.0
 20
0.0
 30
0.0
 11
-1.0
 21
0.0
 31
0.0
  0
ENDBLK
  5
4FF
330
4FD
100
AcDbEntity
  8
0
100
AcDbBlockEnd
  0
BLOCK
  5
504
330
503
100
AcDbEntity
  8
0
100
AcDbBlockBegin
  2
*D5
 70
     1
 71
     0
 10
0.0
 20
0.0
 30
0.0
  3
*D5
  1

  0
INSERT
  5
506
330
503
100
AcDbEntity
  8
WORKLAYER
100
AcDbBlockReference
  2
_OPEN30
 10
46.3988924683
 20
198.610836835
 30
0.1
 41
3.0
 42
3.0
 50
180.0
  0
INSERT
  5
507
330
503
100
AcDbEntity
  8
WORKLAYER
100
AcDbBlockReference
  2
_OPEN30
 10
155.5990755618
 20
198.610836835
 30
0.1
 41
3.0
 42
3.0
 50
0.0
  0
LINE
  5
508
330
503
100
AcDbEntity
  8
WORKLAYER
100
AcDbLine
 10
46.3988924683
 20
185.9772248151
 30
0.0
 11
46.3988924683
 21
199.610836835
 31
0.0
  0
LINE
  5
509
330
503
100
AcDbEntity
  8
WORKLAYER
100
AcDbLine
 10
155.5990755618
 20
161.7770142438
 30
0.0
 11
155.5990755618
 21
199.610836835
 31
0.0
  0
LINE
  5
50A
330
503
100
AcDbEntity
  8
WORKLAYER
100
AcDbLine
 10
46.3988924683
 20
198.610836835
 30
0.0
 11
155.5990755618
 21
198.610836835
 31
0.0
  0
MTEXT
  5
50C
330
503
100
AcDbEntity
  8
WORKLAYER
100
AcDbMText
 10
94.6347344011
 20
203.1225736914
 30
0.0
 40
3.5
 41
0.0
 71
     1
 72
     1
  1
109.2
  7
SLDTEXTSTYLE0
 73
     1
 44
1.0
  0
ENDBLK
  5
505
330
503
100
AcDbEntity
  8
0
100
AcDbBlockEnd
  0
BLOCK
  5
50F
330
50E
100
AcDbEntity
  8
0
100
AcDbBlockBegin
  2
*D6
 70
     1
 71
     0
 10
0.0
 20
0.0
 30
0.0
  3
*D6
  1

  0
INSERT
  5
511
330
50E
100
AcDbEntity
  8
WORKLAYER
100
AcDbBlockReference
  2
_OPEN30
 10
46.3988924683
 20
213.0930323515
 30
0.1
 41
3.0
 42
3.0
 50
180.0
  0
INSERT
  5
512
330
50E
100
AcDbEntity
  8
WORKLAYER
100
AcDbBlockReference
  2
_OPEN30
 10
163.898984021
 20
213.0930323515
 30
0.1
 41
3.0
 42
3.0
 50
0.0
  0
LINE
  5
513
330
50E
100
AcDbEntity
  8
WORKLAYER
100
AcDbLine
 10
46.3988924683
 20
185.9772248151
 30
0.0
 11
46.3988924683
 21
214.0930323515
 31
0.0
  0
LINE
  5
514
330
50E
100
AcDbEntity
  8
WORKLAYER
100
AcDbLine
 10
163.898984021
 20
113.4772248151
 30
0.0
 11
163.898984021
 21
214.0930323515
 31
0.0
  0
LINE
  5
515
330
50E
100
AcDbEntity
  8
WORKLAYER
100
AcDbLine
 10
46.3988924683
 20
213.0930323515
 30
0.0
 11
163.898984021
 21
213.0930323515
 31
0.0
  0
MTEXT
  5
516
330
50E
100
AcDbEntity
  8
WORKLAYER
100
AcDbMText
 10
94.6347344011
 20
217.6047692079
 30
0.0
 40
3.5
 41
0.0
 71
     1
 72
     1
  1
117.5
  7
SLDTEXTSTYLE0
 73
     1
 44
1.0
  0
ENDBLK
  5
510
330
50E
100
AcDbEntity
  8
0
100
AcDbBlockEnd
  0
BLOCK
  5
51A
330
519
100
AcDbEntity
  8
0
100
AcDbBlockBegin
  2
*D7
 70
     1
 71
     0
 10
0.0
 20
0.0
 30
0.0
  3
*D7
  1

  0
INSERT
  5
51C
330
519
100
AcDbEntity
  8
WORKLAYER
100
AcDbBlockReference
  2
_OPEN30
 10
34.5328773148
 20
184.9772248151
 30
0.1
 41
3.0
 42
3.0
 50
90.0
  0
INSERT
  5
51D
330
519
100
AcDbEntity
  8
WORKLAYER
100
AcDbBlockReference
  2
_OPEN30
 10
34.5328773148
 20
59.9771180036
 30
0.1
 41
3.0
 42
3.0
 50
270.0
  0
LINE
  5
51E
330
519
100
AcDbEntity
  8
WORKLAYER
100
AcDbLine
 10
45.3988924683
 20
184.9772248151
 30
0.0
 11
33.5328773148
 21
184.9772248151
 31
0.0
  0
LINE
  5
51F
330
519
100
AcDbEntity
  8
WORKLAYER
100
AcDbLine
 10
45.3988924683
 20
59.9771180036
 30
0.0
 11
33.5328773148
 21
59.9771180036
 31
0.0
  0
LINE
  5
520
330
519
100
AcDbEntity
  8
WORKLAYER
100
AcDbLine
 10
34.5328773148
 20
184.9772248151
 30
0.0
 11
34.5328773148
 21
59.9771180036
 31
0.0
  0
MTEXT
  5
521
330
519
100
AcDbEntity
  8
WORKLAYER
100
AcDbMText
 10
30.0211404584
 20
123.4640448577
 30
0.0
 40
3.5
 41
0.0
 71
     1
 72
     1
  1
125
  7
SLDTEXTSTYLE0
 11
-7.044195017643634E-15
 21
1.0
 31
0.0
 73
     1
 44
1.0
  0
ENDBLK
  5
51B
330
519
100
AcDbEntity
  8
0
100
AcDbBlockEnd
  0
BLOCK
  5
525
330
524
100
AcDbEntity
  8
0
100
AcDbBlockBegin
  2
*D8
 70
     1
 71
     0
 10
0.0
 20
0.0
 30
0.0
  3
*D8
  1

  0
INSERT
  5
527
330
524
100
AcDbEntity
  8
WORKLAYER
100
AcDbBlockReference
  2
_OPEN30
 10
34.5328773148
 20
59.9771180036
 30
0.1
 41
3.0
 42
3.0
 50
270.0
  0
INSERT
  5
528
330
524
100
AcDbEntity
  8
WORKLAYER
100
AcDbBlockReference
  2
_OPEN30
 10
34.5328773148
 20
54.9770188214
 30
0.1
 41
3.0
 42
3.0
 50
90.0
  0
LINE
  5
529
330
524
100
AcDbEntity
  8
WORKLAYER
100
AcDbLine
 10
45.3988924683
 20
59.9771180036
 30
0.0
 11
33.5328773148
 21
59.9771180036
 31
0.0
  0
LINE
  5
52A
330
524
100
AcDbEntity
  8
WORKLAYER
100
AcDbLine
 10
45.6488924683
 20
54.9770188214
 30
0.0
 11
33.5328773148
 21
54.9770188214
 31
0.0
  0
LINE
  5
52B
330
524
100
AcDbEntity
  8
WORKLAYER
100
AcDbLine
 10
34.5328773148
 20
59.9771180036
 30
0.0
 11
34.5328773148
 21
63.9771180036
 31
0.0
  0
LINE
  5
52C
330
524
100
AcDbEntity
  8
WORKLAYER
100
AcDbLine
 10
34.5328773148
 20
59.9771180036
 30
0.0
 11
34.5328773148
 21
54.9770188214
 31
0.0
  0
LINE
  5
52D
330
524
100
AcDbEntity
  8
WORKLAYER
100
AcDbLine
 10
34.5328773148
 20
54.9770188214
 30
0.0
 11
34.5328773148
 21
48.4501945762
 31
0.0
  0
MTEXT
  5
52E
330
524
100
AcDbEntity
  8
WORKLAYER
100
AcDbMText
 10
30.0211404584
 20
50.0376945762
 30
0.0
 40
3.5
 41
0.0
 71
     1
 72
     1
  1
5
  7
SLDTEXTSTYLE0
 11
-7.044195017643634E-15
 21
1.0
 31
0.0
 73
     1
 44
1.0
  0
ENDBLK
  5
526
330
524
100
AcDbEntity
  8
0
100
AcDbBlockEnd
  0
BLOCK
  5
531
330
530
100
AcDbEntity
  8
0
100
AcDbBlockBegin
  2
*D9
 70
     1
 71
     0
 10
0.0
 20
0.0
 30
0.0
  3
*D9
  1

  0
INSERT
  5
533
330
530
100
AcDbEntity
  8
WORKLAYER
100
AcDbBlockReference
  2
_OPEN30
 10
46.3988924683
 20
225.1084682798
 30
0.1
 41
3.0
 42
3.0
 50
180.0
  0
INSERT
  5
534
330
530
100
AcDbEntity
  8
WORKLAYER
100
AcDbBlockReference
  2
_OPEN30
 10
209.7599764526
 20
225.1084682798
 30
0.1
 41
3.0
 42
3.0
 50
0.0
  0
LINE
  5
535
330
530
100
AcDbEntity
  8
WORKLAYER
100
AcDbLine
 10
46.3988924683
 20
185.9772248151
 30
0.0
 11
46.3988924683
 21
226.1084682798
 31
0.0
  0
LINE
  5
536
330
530
100
AcDbEntity
  8
WORKLAYER
100
AcDbLine
 10
209.7599764526
 20
112.9296173932
 30
0.0
 11
209.7599764526
 21
226.1084682798
 31
0.0
  0
LINE
  5
537
330
530
100
AcDbEntity
  8
WORKLAYER
100
AcDbLine
 10
46.3988924683
 20
225.1084682798
 30
0.0
 11
209.7599764526
 21
225.1084682798
 31
0.0
  0
MTEXT
  5
538
330
530
100
AcDbEntity
  8
WORKLAYER
100
AcDbMText
 10
123.0892388397
 20
229.6202051362
 30
0.0
 40
3.5
 41
0.0
 71
     1
 72
     1
  1
163
  7
SLDTEXTSTYLE0
 73
     1
 44
1.0
  0
ENDBLK
  5
532
330
530
100
AcDbEntity
  8
0
100
AcDbBlockEnd
  0
BLOCK
  5
53B
330
53A
100
AcDbEntity
  8
0
100
AcDbBlockBegin
  2
*D10
 70
     1
 71
     0
 10
0.0
 20
0.0
 30
0.0
  3
*D10
  1

  0
ARC
  5
53D
330
53A
100
AcDbEntity
  8
WORKLAYER
100
AcDbCircle
 10
224.8740709537
 20
227.1424668391
 30
0.0
 40
4.548159044661502
100
AcDbArc
 50
153.4349488229
 51
206.5650511771
  0
ARC
  5
53E
330
53A
100
AcDbEntity
  8
WORKLAYER
100
AcDbCircle
 10
226.8427601198
 20
227.1424668391
 30
0.0
 40
4.548159044661502
100
AcDbArc
 50
333.4349488229
 51
26.5650511771
  0
INSERT
  5
53F
330
53A
100
AcDbEntity
  8
WORKLAYER
100
AcDbBlockReference
  2
_OPEN30
 10
242.2599764526
 20
225.1084682798
 30
0.1
 41
3.0
 42
3.0
 50
0.0
  0
INSERT
  5
540
330
53A
100
AcDbEntity
  8
WORKLAYER
100
AcDbBlockReference
  2
_OPEN30
 10
209.7599764526
 20
225.1084682798
 30
0.1
 41
3.0
 42
3.0
 50
180.0
  0
LINE
  5
541
330
53A
100
AcDbEntity
  8
WORKLAYER
100
AcDbLine
 10
242.2599764526
 20
82.4648194196
 30
0.0
 11
242.2599764526
 21
226.1084682798
 31
0.0
  0
LINE
  5
542
330
53A
100
AcDbEntity
  8
WORKLAYER
100
AcDbLine
 10
209.7599764526
 20
112.9296173932
 30
0.0
 11
209.7599764526
 21
226.1084682798
 31
0.0
  0
LINE
  5
543
330
53A
100
AcDbEntity
  8
WORKLAYER
100
AcDbLine
 10
242.2599764526
 20
225.1084682798
 30
0.0
 11
209.7599764526
 21
225.1084682798
 31
0.0
  0
MTEXT
  5
544
330
53A
100
AcDbEntity
  8
WORKLAYER
100
AcDbMText
 10
222.3935738352
 20
229.6202051362
 30
0.0
 40
3.5
 41
0.0
 71
     1
 72
     1
  1
32.5
  7
SLDTEXTSTYLE0
 73
     1
 44
1.0
  0
ENDBLK
  5
53C
330
53A
100
AcDbEntity
  8
0
100
AcDbBlockEnd
  0
BLOCK
  5
547
330
546
100
AcDbEntity
  8
0
100
AcDbBlockBegin
  2
*D11
 70
     1
 71
     0
 10
0.0
 20
0.0
 30
0.0
  3
*D11
  1

  0
INSERT
  5
549
330
546
100
AcDbEntity
  8
WORKLAYER
100
AcDbBlockReference
  2
_OPEN30
 10
285.9514362153
 20
208.0678685403
 30
0.1
 41
3.0
 42
3.0
 50
180.0
  0
INSERT
  5
54A
330
546
100
AcDbEntity
  8
WORKLAYER
100
AcDbBlockReference
  2
_OPEN30
 10
282.9514224839
 20
208.0678685403
 30
0.1
 41
3.0
 42
3.0
 50
0.0
  0
LINE
  5
54B
330
546
100
AcDbEntity
  8
WORKLAYER
100
AcDbLine
 10
285.9514362153
 20
185.7770218732
 30
0.0
 11
285.9514362153
 21
209.0678685403
 31
0.0
  0
LINE
  5
54C
330
546
100
AcDbEntity
  8
WORKLAYER
100
AcDbLine
 10
282.9514224839
 20
179.3769211652
 30
0.0
 11
282.9514224839
 21
209.0678685403
 31
0.0
  0
LINE
  5
54D
330
546
100
AcDbEntity
  8
WORKLAYER
100
AcDbLine
 10
285.9514362153
 20
208.0678685403
 30
0.0
 11
289.9514362153
 21
208.0678685403
 31
0.0
  0
LINE
  5
54E
330
546
100
AcDbEntity
  8
WORKLAYER
100
AcDbLine
 10
285.9514362153
 20
208.0678685403
 30
0.0
 11
282.9514224839
 21
208.0678685403
 31
0.0
  0
LINE
  5
54F
330
546
100
AcDbEntity
  8
WORKLAYER
100
AcDbLine
 10
282.9514224839
 20
208.0678685403
 30
0.0
 11
270.5550578246
 21
208.0678685403
 31
0.0
  0
MTEXT
  5
550
330
546
100
AcDbEntity
  8
WORKLAYER
100
AcDbMText
 10
272.1425578246
 20
212.5796053966
 30
0.0
 40
3.5
 41
0.0
 71
     1
 72
     1
  1
3
  7
SLDTEXTSTYLE0
 73
     1
 44
1.0
  0
ENDBLK
  5
548
330
546
100
AcDbEntity
  8
0
100
AcDbBlockEnd
  0
BLOCK
  5
553
330
552
100
AcDbEntity
  8
0
100
AcDbBlockBegin
  2
*D12
 70
     1
 71
     0
 10
0.0
 20
0.0
 30
0.0
  3
*D12
  1

  0
INSERT
  5
555
330
552
100
AcDbEntity
  8
WORKLAYER
100
AcDbBlockReference
  2
_OPEN30
 10
285.9514362153
 20
208.0678685403
 30
0.1
 41
3.0
 42
3.0
 50
180.0
  0
INSERT
  5
556
330
552
100
AcDbEntity
  8
WORKLAYER
100
AcDbBlockReference
  2
_OPEN30
 10
315.9513492447
 20
208.0678685403
 30
0.1
 41
3.0
 42
3.0
 50
0.0
  0
LINE
  5
557
330
552
100
AcDbEntity
  8
WORKLAYER
100
AcDbLine
 10
285.9514362153
 20
185.7770218732
 30
0.0
 11
285.9514362153
 21
209.0678685403
 31
0.0
  0
LINE
  5
558
330
552
100
AcDbEntity
  8
WORKLAYER
100
AcDbLine
 10
315.9513492447
 20
185.7770218732
 30
0.0
 11
315.9513492447
 21
209.0678685403
 31
0.0
  0
LINE
  5
559
330
552
100
AcDbEntity
  8
WORKLAYER
100
AcDbLine
 10
285.9514362153
 20
208.0678685403
 30
0.0
 11
315.9513492447
 21
208.0678685403
 31
0.0
  0
MTEXT
  5
55A
330
552
100
AcDbEntity
  8
WORKLAYER
100
AcDbMText
 10
298.8120896785
 20
212.5796053966
 30
0.0
 40
3.5
 41
0.0
 71
     1
 72
     1
  1
30
  7
SLDTEXTSTYLE0
 73
     1
 44
1.0
  0
ENDBLK
  5
554
330
552
100
AcDbEntity
  8
0
100
AcDbBlockEnd
  0
ENDSEC
  0
SECTION
  2
ENTITIES
  0
VIEWPORT
  5
4FA
330
1B
100
AcDbEntity
 67
     1
  8
0
100
AcDbViewport
 10
210.0
 20
148.5
 30
0.0
 40
444.36
 41
314.226
 68
     1
 69
     1
 12
210.0
 22
148.5
 13
0.0
 23
0.0
 14
10.0
 24
10.0
 15
10.0
 25
10.0
 16
0.0
 26
0.0
 36
1.0
 17
0.0
 27
0.0
 37
0.0
 42
50.0
 43
0.0
 44
0.0
 45
314.226
 50
0.0
 51
0.0
 72
   100
 90
   557152
  1

281
     0
 71
     1
 74
     0
110
0.0
120
0.0
130
0.0
111
1.0
121
0.0
131
0.0
112
0.0
122
1.0
132
0.0
 79
     0
146
0.0
  0
DIMENSION
  5
4FB
330
1B
100
AcDbEntity
 67
     1
  8
WORKLAYER
100
AcDbDimension
  2
*D5
 10
155.5990755618
 20
198.610836835
 30
0.0
 11
99.1209779766
 21
198.610836835
 31
0.0
 70
   160
 71
     2
 42
-1.0
  3
SLDDIMSTYLE0
100
AcDbAlignedDimension
 13
46.3988924683
 23
184.9772248151
 33
0.0
 14
155.5990755618
 24
160.7770142438
 34
0.0
100
AcDbRotatedDimension
  0
DIMENSION
  5
50D
330
1B
100
AcDbEntity
 67
     1
  8
WORKLAYER
100
AcDbDimension
  2
*D6
 10
163.898984021
 20
213.0930323515
 30
0.0
 11
99.1209779766
 21
213.0930323515
 31
0.0
 70
   160
 71
     2
 42
-1.0
  3
SLDDIMSTYLE0
100
AcDbAlignedDimension
 13
46.3988924683
 23
184.9772248151
 33
0.0
 14
163.898984021
 24
112.4772248151
 34
0.0
100
AcDbRotatedDimension
  0
DIMENSION
  5
517
330
1B
100
AcDbEntity
 67
     1
  8
WORKLAYER
100
AcDbDimension
  2
*D7
 10
34.5328773148
 20
59.9771180036
 30
0.0
 11
34.5328773148
 21
126.5150426966
 31
0.0
 70
   160
 71
     2
 42
-1.0
  3
SLDDIMSTYLE1
100
AcDbAlignedDimension
 13
46.3988924683
 23
184.9772248151
 33
0.0
 14
46.3988924683
 24
59.9771180036
 34
0.0
 50
90.0
100
AcDbRotatedDimension
  0
DIMENSION
  5
522
330
1B
100
AcDbEntity
 67
     1
  8
WORKLAYER
100
AcDbDimension
  2
*D8
 10
34.5328773148
 20
54.9770188214
 30
0.0
 11
34.5328773148
 21
51.0546938558
 31
0.0
 70
   160
 71
     2
 42
-1.0
  3
SLDDIMSTYLE2
100
AcDbAlignedDimension
 13
46.3988924683
 23
59.9771180036
 33
0.0
 14
46.6488924683
 24
54.9770188214
 34
0.0
 50
90.0
100
AcDbRotatedDimension
  0
DIMENSION
  5
52F
330
1B
100
AcDbEntity
 67
     1
  8
WORKLAYER
100
AcDbDimension
  2
*D9
 10
209.7599764526
 20
225.1084682798
 30
0.0
 11
126.1402366786
 21
225.1084682798
 31
0.0
 70
   160
 71
     2
 42
-1.0
  3
SLDDIMSTYLE1
100
AcDbAlignedDimension
 13
46.3988924683
 23
184.9772248151
 33
0.0
 14
209.7599764526
 24
111.9296173932
 34
0.0
100
AcDbRotatedDimension
  0
DIMENSION
  5
539
330
1B
100
AcDbEntity
 67
     1
  8
WORKLAYER
100
AcDbDimension
  2
*D10
 10
209.7599764526
 20
225.1084682798
 30
0.0
 11
225.8584155368
 21
225.1084682798
 31
0.0
 70
   160
  1
(<>)
 71
     2
 42
-1.0
  3
SLDDIMSTYLE0
100
AcDbAlignedDimension
 13
242.2599764526
 23
81.4648194196
 33
0.0
 14
209.7599764526
 24
111.9296173932
 34
0.0
100
AcDbRotatedDimension
  0
DIMENSION
  5
545
330
1B
100
AcDbEntity
 67
     1
  8
WORKLAYER
100
AcDbDimension
  2
*D11
 10
282.9514224839
 20
208.0678685403
 30
0.0
 11
273.1595571043
 21
208.0678685403
 31
0.0
 70
   160
 71
     2
 42
-1.0
  3
SLDDIMSTYLE2
100
AcDbAlignedDimension
 13
285.9514362153
 23
184.7770218732
 33
0.0
 14
282.9514224839
 24
178.3769211652
 34
0.0
100
AcDbRotatedDimension
  0
DIMENSION
  5
551
330
1B
100
AcDbEntity
 67
     1
  8
WORKLAYER
100
AcDbDimension
  2
*D12
 10
315.9513492447
 20
208.0678685403
 30
0.0
 11
300.8460882378
 21
208.0678685403
 31
0.0
 70
   160
 71
     2
 42
-1.0
  3
SLDDIMSTYLE1
100
AcDbAlignedDimension
 13
285.9514362153
 23
184.7770218732
 33
0.0
 14
315.9513492447
 24
184.7770218732
 34
0.0
100
AcDbRotatedDimension
  0
MTEXT
  5
55B
330
1B
100
AcDbEntity
 67
     1
  8
WORKLAYER
100
AcDbMText
 10
210.8486275757
 20
28.8883355803
 30
0.0
 40
8.0
 41
0.0
 71
     1
 72
     1
  1
RKC INSTRUMENT INC.
  7
SLDTEXTSTYLE0
 73
     1
 44
1.0
  0
MTEXT
  5
55C
330
1B
100
AcDbEntity
 67
     1
  8
WORKLAYER
100
AcDbMText
 10
210.6613820534
 20
42.2654740479
 30
0.0
 40
8.0
 41
0.0
 71
     1
 72
     1
  1
MODEL:COM-JH(DEVICENET MICRO CONNECTOR)
  7
SLDTEXTSTYLE0
 73
     1
 44
1.0
  0
INSERT
  5
55D
330
1B
100
AcDbEntity
 67
     1
  8
0
  6
Continuous
 62
     7
100
AcDbBlockReference
  2
ﾌﾞﾛｯｸ96
 10
46.3988924683
 20
54.9770188214
 30
0.0
  0
INSERT
  5
55E
330
1B
100
AcDbEntity
 67
     1
  8
0
  6
Continuous
 62
     7
100
AcDbBlockReference
  2
ﾌﾞﾛｯｸ97
 10
46.3987993882
 20
245.3833635118
 30
0.0
  0
INSERT
  5
55F
330
1B
100
AcDbEntity
 67
     1
  8
0
  6
Continuous
 62
     7
100
AcDbBlockReference
  2
ﾌﾞﾛｯｸ95
 10
282.9514224839
 20
54.9770188214
 30
0.0
  0
ENDSEC
  0
SECTION
  2
OBJECTS
  0
DICTIONARY
  5
C
330
0
100
AcDbDictionary
281
     1
  3
ACAD_GROUP
350
D
  3
ACAD_LAYOUT
350
1A
  3
ACAD_MLINESTYLE
350
17
  3
ACAD_PLOTSETTINGS
350
19
  3
ACAD_PLOTSTYLENAME
350
E
  3
ACAD_TABLESTYLE
350
560
  3
ACAD_VISUALSTYLE
350
2A
  3
AcDbVariableDictionary
350
561
  0
DICTIONARY
  5
D
102
{ACAD_REACTORS
330
C
102
}
330
C
100
AcDbDictionary
281
     1
  0
DICTIONARY
  5
1A
102
{ACAD_REACTORS
330
C
102
}
330
C
100
AcDbDictionary
281
     1
  3
Model
350
22
  3
SW_Model_1
350
1E
  0
DICTIONARY
  5
17
102
{ACAD_REACTORS
330
C
102
}
330
C
100
AcDbDictionary
281
     1
  3
Standard
350
18
  0
DICTIONARY
  5
19
102
{ACAD_REACTORS
330
C
102
}
330
C
100
AcDbDictionary
281
     1
  0
ACDBDICTIONARYWDFLT
  5
E
102
{ACAD_REACTORS
330
C
102
}
330
C
100
AcDbDictionary
281
     1
  3
Normal
350
F
100
AcDbDictionaryWithDefault
340
F
  0
DICTIONARY
  5
560
102
{ACAD_REACTORS
330
C
102
}
330
C
100
AcDbDictionary
281
     1
  0
DICTIONARY
  5
2A
102
{ACAD_REACTORS
330
C
102
}
330
C
100
AcDbDictionary
281
     1
  3
2dWireframe
350
2F
  3
3D Hidden
350
31
  3
3dWireframe
350
30
  3
Basic
350
32
  3
Brighten
350
36
  3
ColorChange
350
3A
  3
Conceptual
350
34
  3
Dim
350
35
  3
Facepattern
350
39
  3
Flat
350
2B
  3
FlatWithEdges
350
2C
  3
Gouraud
350
2D
  3
GouraudWithEdges
350
2E
  3
Linepattern
350
38
  3
Realistic
350
33
  3
Thicken
350
37
  0
DICTIONARY
  5
561
102
{ACAD_REACTORS
330
C
102
}
330
C
100
AcDbDictionary
281
     1
  3
PSOLHEIGHT
350
563
  3
PSOLWIDTH
350
562
  0
LAYOUT
  5
22
102
{ACAD_REACTORS
330
1A
102
}
330
1A
100
AcDbPlotSettings
  1

  2
none_device
  4

  6

 40
0.0
 41
0.0
 42
0.0
 43
0.0
 44
0.0
 45
0.0
 46
0.0
 47
0.0
 48
0.0
 49
0.0
140
0.0
141
0.0
142
1.0
143
1.0
 70
  1712
 72
     0
 73
     0
 74
     0
  7

 75
     0
147
1.0
148
0.0
149
0.0
100
AcDbLayout
  1
Model
 70
     1
 71
     0
 10
0.0
 20
0.0
 11
420.0
 21
297.0
 12
0.0
 22
0.0
 32
0.0
 14
0.0
 24
0.0
 34
0.0
 15
420.0
 25
297.0
 35
0.0
146
0.0
 13
0.0
 23
0.0
 33
0.0
 16
1.0
 26
0.0
 36
0.0
 17
0.0
 27
1.0
 37
0.0
 76
     0
330
1F
331
29
  0
LAYOUT
  5
1E
102
{ACAD_REACTORS
330
1A
102
}
330
1A
100
AcDbPlotSettings
  1

  2
none_device
  4
ISO_A3_(420.00_x_297.00_MM)
  6

 40
7.5
 41
20.0
 42
7.5
 43
20.0
 44
420.0
 45
297.0
 46
0.0
 47
0.0
 48
0.0
 49
0.0
140
0.0
141
0.0
142
1.0
143
1.0
 70
  4832
 72
     1
 73
     0
 74
     1
  7

 75
     0
147
1.0
148
0.0
149
0.0
100
AcDbLayout
  1
SW_Model_1
 70
     1
 71
     1
 10
0.0
 20
0.0
 11
420.0
 21
297.0
 12
0.0
 22
0.0
 32
0.0
 14
0.0
 24
0.0
 34
0.0
 15
420.0
 25
297.0
 35
0.0
146
0.0
 13
0.0
 23
0.0
 33
0.0
 16
1.0
 26
0.0
 36
0.0
 17
0.0
 27
1.0
 37
0.0
 76
     0
330
1B
331
4FA
  0
MLINESTYLE
  5
18
102
{ACAD_REACTORS
330
17
102
}
330
17
100
AcDbMlineStyle
  2
Standard
 70
     0
  3

 62
   256
 51
90.0
 52
90.0
 71
     2
 49
0.5
 62
   256
  6
BYLAYER
 49
-0.5
 62
   256
  6
BYLAYER
  0
ACDBPLACEHOLDER
  5
F
102
{ACAD_REACTORS
330
E
102
}
330
E
  0
VISUALSTYLE
  5
2F
102
{ACAD_REACTORS
330
2A
102
}
330
2A
100
AcDbVisualStyle
  2
2dWireframe
 70
     4
 71
     0
 72
     2
 73
     0
 90
        0
 40
-0.6
 41
-30.0
 62
     5
 63
     7
 74
     1
 91
        4
 64
     7
 65
   257
 75
     1
175
     1
 42
1.0
 92
        0
 66
   257
 43
1.0
 76
     1
 77
     6
 78
     2
 67
     7
 79
     5
170
     0
171
     0
290
     0
174
     0
 93
        1
 44
0.0
173
     0
291
     0
 45
0.0
1001
ACAD
1000
AcDbSavedByObjectVersion
1070
     0
  0
VISUALSTYLE
  5
31
102
{ACAD_REACTORS
330
2A
102
}
330
2A
100
AcDbVisualStyle
  2
3D Hidden
 70
     6
 71
     1
 72
     2
 73
     2
 90
        0
 40
-0.6
 41
-30.0
 62
     5
 63
     7
 74
     2
 91
        2
 64
     7
 65
   257
 75
     2
175
     1
 42
40.0
 92
        0
 66
   257
 43
1.0
 76
     1
 77
     6
 78
     2
 67
     7
 79
     3
170
     0
171
     0
290
     0
174
     0
 93
        1
 44
0.0
173
     0
291
     0
 45
0.0
1001
ACAD
1000
AcDbSavedByObjectVersion
1070
     0
  0
VISUALSTYLE
  5
30
102
{ACAD_REACTORS
330
2A
102
}
330
2A
100
AcDbVisualStyle
  2
3dWireframe
 70
     5
 71
     0
 72
     2
 73
     0
 90
        0
 40
-0.6
 41
-30.0
 62
     5
 63
     7
 74
     1
 91
        4
 64
     7
 65
   257
 75
     1
175
     1
 42
1.0
 92
        0
 66
   257
 43
1.0
 76
     1
 77
     6
 78
     2
 67
     7
 79
     5
170
     0
171
     0
290
     0
174
     0
 93
        1
 44
0.0
173
     0
291
     0
 45
0.0
1001
ACAD
1000
AcDbSavedByObjectVersion
1070
     0
  0
VISUALSTYLE
  5
32
102
{ACAD_REACTORS
330
2A
102
}
330
2A
100
AcDbVisualStyle
  2
Basic
 70
     7
 71
     1
 72
     0
 73
     1
 90
        0
 40
-0.6
 41
-30.0
 62
     5
 63
     7
 74
     0
 91
        4
 64
     7
 65
   257
 75
     1
175
     1
 42
1.0
 92
        8
 66
     7
 43
1.0
 76
     1
 77
     6
 78
     2
 67
     7
 79
     5
170
     0
171
     0
290
     0
174
     0
 93
        1
 44
0.0
173
     0
291
     1
 45
0.0
1001
ACAD
1000
AcDbSavedByObjectVersion
1070
     0
  0
VISUALSTYLE
  5
36
102
{ACAD_REACTORS
330
2A
102
}
330
2A
100
AcDbVisualStyle
  2
Brighten
 70
    12
 71
     2
 72
     2
 73
     0
 90
        0
 40
-0.6
 41
-30.0
 62
     5
 63
     7
 74
     1
 91
        4
 64
     7
 65
   257
 75
     1
175
     1
 42
1.0
 92
        8
 66
     7
 43
1.0
 76
     1
 77
     6
 78
     2
 67
     7
 79
     5
170
     0
171
     0
290
     0
174
     0
 93
        1
 44
50.0
173
     0
291
     1
 45
0.0
1001
ACAD
1000
AcDbSavedByObjectVersion
1070
     0
  0
VISUALSTYLE
  5
3A
102
{ACAD_REACTORS
330
2A
102
}
330
2A
100
AcDbVisualStyle
  2
ColorChange
 70
    16
 71
     2
 72
     2
 73
     3
 90
        0
 40
-0.6
 41
-30.0
 62
     5
 63
     8
 74
     1
 91
        4
 64
     7
 65
   257
 75
     1
175
     1
 42
1.0
 92
        8
 66
     8
 43
1.0
 76
     1
 77
     6
 78
     2
 67
     7
 79
     5
170
     0
171
     0
290
     0
174
     0
 93
        1
 44
0.0
173
     0
291
     1
 45
0.0
1001
ACAD
1000
AcDbSavedByObjectVersion
1070
     0
  0
VISUALSTYLE
  5
34
102
{ACAD_REACTORS
330
2A
102
}
330
2A
100
AcDbVisualStyle
  2
Conceptual
 70
     9
 71
     3
 72
     2
 73
     0
 90
        0
 40
-0.6
 41
-30.0
 62
     5
 63
     7
 74
     2
 91
        2
 64
     7
 65
   257
 75
     1
175
     1
 42
40.0
 92
        8
 66
     7
 43
1.0
 76
     1
 77
     6
 78
     2
 67
     7
 79
     3
170
     0
171
     0
290
     0
174
     0
 93
        1
 44
0.0
173
     0
291
     0
 45
0.0
1001
ACAD
1000
AcDbSavedByObjectVersion
1070
     0
  0
VISUALSTYLE
  5
35
102
{ACAD_REACTORS
330
2A
102
}
330
2A
100
AcDbVisualStyle
  2
Dim
 70
    11
 71
     2
 72
     2
 73
     0
 90
        0
 40
-0.6
 41
-30.0
 62
     5
 63
     7
 74
     1
 91
        4
 64
     7
 65
   257
 75
     1
175
     1
 42
1.0
 92
        8
 66
     7
 43
1.0
 76
     1
 77
     6
 78
     2
 67
     7
 79
     5
170
     0
171
     0
290
     0
174
     0
 93
        1
 44
-50.0
173
     0
291
     1
 45
0.0
1001
ACAD
1000
AcDbSavedByObjectVersion
1070
     0
  0
VISUALSTYLE
  5
39
102
{ACAD_REACTORS
330
2A
102
}
330
2A
100
AcDbVisualStyle
  2
Facepattern
 70
    15
 71
     2
 72
     2
 73
     0
 90
        0
 40
-0.6
 41
-30.0
 62
     5
 63
     7
 74
     1
 91
        4
 64
     7
 65
   257
 75
     1
175
     1
 42
1.0
 92
        8
 66
     7
 43
1.0
 76
     1
 77
     6
 78
     2
 67
     7
 79
     5
170
     0
171
     0
290
     0
174
     0
 93
        1
 44
0.0
173
     0
291
     1
 45
0.0
1001
ACAD
1000
AcDbSavedByObjectVersion
1070
     0
  0
VISUALSTYLE
  5
2B
102
{ACAD_REACTORS
330
2A
102
}
330
2A
100
AcDbVisualStyle
  2
Flat
 70
     0
 71
     2
 72
     1
 73
     1
 90
        2
 40
-0.6
 41
30.0
 62
     5
 63
     7
 74
     0
 91
        4
 64
     7
 65
   257
 75
     1
175
     1
 42
1.0
 92
        8
 66
     7
 43
1.0
 76
     1
 77
     6
 78
     2
 67
     7
 79
     5
170
     0
171
     0
290
     0
174
     0
 93
       13
 44
0.0
173
     0
291
     1
 45
0.0
1001
ACAD
1000
AcDbSavedByObjectVersion
1070
     0
  0
VISUALSTYLE
  5
2C
102
{ACAD_REACTORS
330
2A
102
}
330
2A
100
AcDbVisualStyle
  2
FlatWithEdges
 70
     1
 71
     2
 72
     1
 73
     1
 90
        2
 40
-0.6
 41
30.0
 62
     5
 63
     7
 74
     1
 91
        4
 64
     7
 65
   257
 75
     1
175
     1
 42
1.0
 92
        0
 66
   257
 43
1.0
 76
     1
 77
     6
 78
     2
 67
     7
 79
     5
170
     0
171
     0
290
     0
174
     0
 93
       13
 44
0.0
173
     0
291
     1
 45
0.0
1001
ACAD
1000
AcDbSavedByObjectVersion
1070
     0
  0
VISUALSTYLE
  5
2D
102
{ACAD_REACTORS
330
2A
102
}
330
2A
100
AcDbVisualStyle
  2
Gouraud
 70
     2
 71
     2
 72
     2
 73
     1
 90
        2
 40
-0.6
 41
30.0
 62
     5
 63
     7
 74
     0
 91
        4
 64
     7
 65
   257
 75
     1
175
     1
 42
1.0
 92
        0
 66
     7
 43
1.0
 76
     1
 77
     6
 78
     2
 67
     7
 79
     5
170
     0
171
     0
290
     0
174
     0
 93
       13
 44
0.0
173
     0
291
     1
 45
0.0
1001
ACAD
1000
AcDbSavedByObjectVersion
1070
     0
  0
VISUALSTYLE
  5
2E
102
{ACAD_REACTORS
330
2A
102
}
330
2A
100
AcDbVisualStyle
  2
GouraudWithEdges
 70
     3
 71
     2
 72
     2
 73
     1
 90
        2
 40
-0.6
 41
30.0
 62
     5
 63
     7
 74
     1
 91
        4
 64
     7
 65
   257
 75
     1
175
     1
 42
1.0
 92
        0
 66
   257
 43
1.0
 76
     1
 77
     6
 78
     2
 67
     7
 79
     5
170
     0
171
     0
290
     0
174
     0
 93
       13
 44
0.0
173
     0
291
     1
 45
0.0
1001
ACAD
1000
AcDbSavedByObjectVersion
1070
     0
  0
VISUALSTYLE
  5
38
102
{ACAD_REACTORS
330
2A
102
}
330
2A
100
AcDbVisualStyle
  2
Linepattern
 70
    14
 71
     2
 72
     2
 73
     0
 90
        0
 40
-0.6
 41
-30.0
 62
     5
 63
     7
 74
     1
 91
        4
 64
     7
 65
   257
 75
     7
175
     7
 42
1.0
 92
        8
 66
     7
 43
1.0
 76
     1
 77
     6
 78
     2
 67
     7
 79
     5
170
     0
171
     0
290
     0
174
     0
 93
        1
 44
0.0
173
     0
291
     1
 45
0.0
1001
ACAD
1000
AcDbSavedByObjectVersion
1070
     0
  0
VISUALSTYLE
  5
33
102
{ACAD_REACTORS
330
2A
102
}
330
2A
100
AcDbVisualStyle
  2
Realistic
 70
     8
 71
     2
 72
     2
 73
     0
 90
        0
 40
-0.6
 41
-30.0
 62
     5
 63
     7
 74
     1
 91
        0
 64
     7
 65
   257
 75
     1
175
     1
 42
1.0
 92
        8
 66
     8
 43
1.0
 76
     1
 77
     6
 78
     2
 67
     7
 79
     5
170
     0
171
     0
290
     0
174
     0
 93
       13
 44
0.0
173
     0
291
     0
 45
0.0
1001
ACAD
1000
AcDbSavedByObjectVersion
1070
     0
  0
VISUALSTYLE
  5
37
102
{ACAD_REACTORS
330
2A
102
}
330
2A
100
AcDbVisualStyle
  2
Thicken
 70
    13
 71
     2
 72
     2
 73
     0
 90
        0
 40
-0.6
 41
-30.0
 62
     5
 63
     7
 74
     1
 91
        4
 64
     7
 65
   257
 75
     1
175
     1
 42
1.0
 92
       12
 66
     7
 43
1.0
 76
     1
 77
     6
 78
     2
 67
     7
 79
     5
170
     0
171
     0
290
     0
174
     0
 93
        1
 44
0.0
173
     0
291
     1
 45
0.0
1001
ACAD
1000
AcDbSavedByObjectVersion
1070
     0
  0
DICTIONARYVAR
  5
563
102
{ACAD_REACTORS
330
561
102
}
330
561
100
DictionaryVariables
280
     0
  1
80.000000
  0
DICTIONARYVAR
  5
562
102
{ACAD_REACTORS
330
561
102
}
330
561
100
DictionaryVariables
280
     0
  1
5.000000
  0
ENDSEC
  0
EOF
