  0
SECTION
  2
HEADER
  9
$ACADVER
  1
AC1015
  9
$ACADMAINTVER
 70
     6
  9
$DWGCODEPAGE
  3
DOS932
  9
$INSBASE
 10
0.0
 20
0.0
 30
0.0
  9
$EXTMIN
 10
0.0
 20
0.0
 30
0.0
  9
$EXTMAX
 10
297.0
 20
210.0
 30
0.0
  9
$LIMMIN
 10
0.0
 20
0.0
  9
$LIMMAX
 10
297.0
 20
210.0
  9
$ORTHOMODE
 70
     0
  9
$REGENMODE
 70
     1
  9
$FILLMODE
 70
     1
  9
$QTEXTMODE
 70
     0
  9
$MIRRTEXT
 70
     1
  9
$LTSCALE
 40
1.0
  9
$ATTMODE
 70
     1
  9
$TEXTSIZE
 40
3.5
  9
$TRACEWID
 40
1.0
  9
$TEXTSTYLE
  7
Standard
  9
$CLAYER
  8
0
  9
$CELTYPE
  6
ByLayer
  9
$CECOLOR
 62
   256
  9
$CELTSCALE
 40
1.0
  9
$DISPSILH
 70
     0
  9
$DIMSCALE
 40
1.0
  9
$DIMASZ
 40
3.0
  9
$DIMEXO
 40
1.0
  9
$DIMDLI
 40
3.75
  9
$DIMRND
 40
0.0
  9
$DIMDLE
 40
0.0
  9
$DIMEXE
 40
1.0
  9
$DIMTP
 40
0.0
  9
$DIMTM
 40
0.0
  9
$DIMTXT
 40
3.5
  9
$DIMCEN
 40
2.5
  9
$DIMTSZ
 40
0.0
  9
$DIMTOL
 70
     0
  9
$DIMLIM
 70
     0
  9
$DIMTIH
 70
     1
  9
$DIMTOH
 70
     1
  9
$DIMSE1
 70
     0
  9
$DIMSE2
 70
     0
  9
$DIMTAD
 70
     1
  9
$DIMZIN
 70
     1
  9
$DIMBLK
  1

  9
$DIMASO
 70
     1
  9
$DIMSHO
 70
     1
  9
$DIMPOST
  1

  9
$DIMAPOST
  1

  9
$DIMALT
 70
     0
  9
$DIMALTD
 70
     3
  9
$DIMALTF
 40
0.0393700787
  9
$DIMLFAC
 40
1.0
  9
$DIMTOFL
 70
     1
  9
$DIMTVP
 40
0.0
  9
$DIMTIX
 70
     0
  9
$DIMSOXD
 70
     0
  9
$DIMSAH
 70
     0
  9
$DIMBLK1
  1

  9
$DIMBLK2
  1

  9
$DIMSTYLE
  2
ISO-25
  9
$DIMCLRD
 70
     0
  9
$DIMCLRE
 70
     0
  9
$DIMCLRT
 70
     0
  9
$DIMTFAC
 40
1.0
  9
$DIMGAP
 40
1.524
  9
$DIMJUST
 70
     0
  9
$DIMSD1
 70
     0
  9
$DIMSD2
 70
     0
  9
$DIMTOLJ
 70
     0
  9
$DIMTZIN
 70
     1
  9
$DIMALTZ
 70
     0
  9
$DIMALTTZ
 70
     0
  9
$DIMUPT
 70
     0
  9
$DIMDEC
 70
     2
  9
$DIMTDEC
 70
     2
  9
$DIMALTU
 70
     2
  9
$DIMALTTD
 70
     3
  9
$DIMTXSTY
  7
Standard
  9
$DIMAUNIT
 70
     0
  9
$DIMADEC
 70
     0
  9
$DIMALTRND
 40
0.0
  9
$DIMAZIN
 70
     0
  9
$DIMDSEP
 70
    44
  9
$DIMATFIT
 70
     3
  9
$DIMFRAC
 70
     0
  9
$DIMLDRBLK
  1

  9
$DIMLUNIT
 70
     2
  9
$DIMLWD
 70
    -2
  9
$DIMLWE
 70
    -2
  9
$DIMTMOVE
 70
     0
  9
$LUNITS
 70
     2
  9
$LUPREC
 70
     4
  9
$SKETCHINC
 40
1.0
  9
$FILLETRAD
 40
10.0
  9
$AUNITS
 70
     0
  9
$AUPREC
 70
     0
  9
$MENU
  1
.
  9
$ELEVATION
 40
0.0
  9
$PELEVATION
 40
0.0
  9
$THICKNESS
 40
0.0
  9
$LIMCHECK
 70
     0
  9
$CHAMFERA
 40
10.0
  9
$CHAMFERB
 40
10.0
  9
$CHAMFERC
 40
20.0
  9
$CHAMFERD
 40
0.0
  9
$SKPOLY
 70
     0
  9
$TDCREATE
 40
2455049.678204653
  9
$TDUCREATE
 40
2455049.303204653
  9
$TDUPDATE
 40
2455049.678204664
  9
$TDUUPDATE
 40
2455049.303204664
  9
$TDINDWG
 40
0.0000000116
  9
$TDUSRTIMER
 40
0.0000000116
  9
$USRTIMER
 70
     1
  9
$ANGBASE
 50
0.0
  9
$ANGDIR
 70
     0
  9
$PDMODE
 70
     0
  9
$PDSIZE
 40
-1.0
  9
$PLINEWID
 40
0.0
  9
$SPLFRAME
 70
     0
  9
$SPLINETYPE
 70
     6
  9
$SPLINESEGS
 70
     8
  9
$HANDSEED
  5
51F
  9
$SURFTAB1
 70
     6
  9
$SURFTAB2
 70
     6
  9
$SURFTYPE
 70
     6
  9
$SURFU
 70
     6
  9
$SURFV
 70
     6
  9
$UCSBASE
  2

  9
$UCSNAME
  2

  9
$UCSORG
 10
0.0
 20
0.0
 30
0.0
  9
$UCSXDIR
 10
1.0
 20
0.0
 30
0.0
  9
$UCSYDIR
 10
0.0
 20
1.0
 30
0.0
  9
$UCSORTHOREF
  2

  9
$UCSORTHOVIEW
 70
     0
  9
$UCSORGTOP
 10
0.0
 20
0.0
 30
0.0
  9
$UCSORGBOTTOM
 10
0.0
 20
0.0
 30
0.0
  9
$UCSORGLEFT
 10
0.0
 20
0.0
 30
0.0
  9
$UCSORGRIGHT
 10
0.0
 20
0.0
 30
0.0
  9
$UCSORGFRONT
 10
0.0
 20
0.0
 30
0.0
  9
$UCSORGBACK
 10
0.0
 20
0.0
 30
0.0
  9
$PUCSBASE
  2

  9
$PUCSNAME
  2

  9
$PUCSORG
 10
0.0
 20
0.0
 30
0.0
  9
$PUCSXDIR
 10
1.0
 20
0.0
 30
0.0
  9
$PUCSYDIR
 10
0.0
 20
1.0
 30
0.0
  9
$PUCSORTHOREF
  2

  9
$PUCSORTHOVIEW
 70
     0
  9
$PUCSORGTOP
 10
0.0
 20
0.0
 30
0.0
  9
$PUCSORGBOTTOM
 10
0.0
 20
0.0
 30
0.0
  9
$PUCSORGLEFT
 10
0.0
 20
0.0
 30
0.0
  9
$PUCSORGRIGHT
 10
0.0
 20
0.0
 30
0.0
  9
$PUCSORGFRONT
 10
0.0
 20
0.0
 30
0.0
  9
$PUCSORGBACK
 10
0.0
 20
0.0
 30
0.0
  9
$USERI1
 70
     0
  9
$USERI2
 70
     0
  9
$USERI3
 70
     0
  9
$USERI4
 70
     0
  9
$USERI5
 70
     0
  9
$USERR1
 40
0.0
  9
$USERR2
 40
0.0
  9
$USERR3
 40
0.0
  9
$USERR4
 40
0.0
  9
$USERR5
 40
0.0
  9
$WORLDVIEW
 70
     1
  9
$SHADEDGE
 70
     3
  9
$SHADEDIF
 70
    70
  9
$TILEMODE
 70
     1
  9
$MAXACTVP
 70
    64
  9
$PINSBASE
 10
0.0
 20
0.0
 30
0.0
  9
$PLIMCHECK
 70
     0
  9
$PEXTMIN
 10
1.0000000000E+20
 20
1.0000000000E+20
 30
1.0000000000E+20
  9
$PEXTMAX
 10
-1.0000000000E+20
 20
-1.0000000000E+20
 30
-1.0000000000E+20
  9
$PLIMMIN
 10
0.0
 20
0.0
  9
$PLIMMAX
 10
420.0
 20
297.0
  9
$UNITMODE
 70
     0
  9
$VISRETAIN
 70
     1
  9
$PLINEGEN
 70
     0
  9
$PSLTSCALE
 70
     1
  9
$TREEDEPTH
 70
  3020
  9
$CMLSTYLE
  2
Standard
  9
$CMLJUST
 70
     0
  9
$CMLSCALE
 40
20.0
  9
$PROXYGRAPHICS
 70
     1
  9
$MEASUREMENT
 70
     1
  9
$CELWEIGHT
370
    -1
  9
$ENDCAPS
280
     0
  9
$JOINSTYLE
280
     0
  9
$LWDISPLAY
290
     1
  9
$INSUNITS
 70
     4
  9
$HYPERLINKBASE
  1

  9
$STYLESHEET
  1

  9
$XEDIT
290
     1
  9
$CEPSNTYPE
380
     0
  9
$PSTYLEMODE
290
     1
  9
$FINGERPRINTGUID
  2
{4B8D1153-9F1E-4F7C-B943-15458161D003}
  9
$VERSIONGUID
  2
{FAEB1C32-E019-11D5-929B-00C0DF256EC4}
  9
$EXTNAMES
290
     1
  9
$PSVPSCALE
 40
0.0
  9
$OLESTARTUP
290
     0
  0
ENDSEC
  0
SECTION
  2
CLASSES
  0
CLASS
  1
ACDBDICTIONARYWDFLT
  2
AcDbDictionaryWithDefault
  3
ObjectDBX Classes
 90
        0
280
     0
281
     0
  0
CLASS
  1
VISUALSTYLE
  2
AcDbVisualStyle
  3
ObjectDBX Classes
 90
     4095
280
     0
281
     0
  0
CLASS
  1
DICTIONARYVAR
  2
AcDbDictionaryVar
  3
ObjectDBX Classes
 90
        0
280
     0
281
     0
  0
CLASS
  1
ACDBPLACEHOLDER
  2
AcDbPlaceHolder
  3
ObjectDBX Classes
 90
        0
280
     0
281
     0
  0
CLASS
  1
LAYOUT
  2
AcDbLayout
  3
ObjectDBX Classes
 90
        0
280
     0
281
     0
  0
ENDSEC
  0
SECTION
  2
TABLES
  0
TABLE
  2
VPORT
  5
8
330
0
100
AcDbSymbolTable
 70
     1
  0
VPORT
  5
29
330
8
100
AcDbSymbolTableRecord
100
AcDbViewportTableRecord
  2
*Active
 70
     0
 10
0.0
 20
0.0
 11
1.0
 21
1.0
 12
148.5
 22
105.0
 13
0.0
 23
0.0
 14
10.0
 24
10.0
 15
10.0
 25
10.0
 16
0.0
 26
0.0
 36
1.0
 17
0.0
 27
0.0
 37
0.0
 40
210.0
 41
1.4142857143
 42
50.0
 43
0.0
 44
0.0
 50
0.0
 51
0.0
 71
     0
 72
  2000
 73
     1
 74
     3
 75
     0
 76
     0
 77
     0
 78
     0
281
     0
 65
     1
110
0.0
120
0.0
130
0.0
111
1.0
121
0.0
131
0.0
112
0.0
122
1.0
132
0.0
 79
     0
146
0.0
  0
ENDTAB
  0
TABLE
  2
LTYPE
  5
5
330
0
100
AcDbSymbolTable
 70
     6
  0
LTYPE
  5
14
330
5
100
AcDbSymbolTableRecord
100
AcDbLinetypeTableRecord
  2
ByBlock
 70
     0
  3

 72
    65
 73
     0
 40
0.0
  0
LTYPE
  5
15
330
5
100
AcDbSymbolTableRecord
100
AcDbLinetypeTableRecord
  2
ByLayer
 70
     0
  3

 72
    65
 73
     0
 40
0.0
  0
LTYPE
  5
16
330
5
100
AcDbSymbolTableRecord
100
AcDbLinetypeTableRecord
  2
Continuous
 70
     0
  3
Solid line
 72
    65
 73
     0
 40
0.0
  0
LTYPE
  5
3B
330
5
100
AcDbSymbolTableRecord
100
AcDbLinetypeTableRecord
  2
HIDDEN
 70
     0
  3
Hidden __ __ __ __ __ __ __ __ __ __ __ __ __ __
 72
    65
 73
     2
 40
1.905
 49
1.27
 74
     0
 49
-0.635
 74
     0
  0
LTYPE
  5
3C
330
5
100
AcDbSymbolTableRecord
100
AcDbLinetypeTableRecord
  2
PHANTOM
 70
     0
  3
Phantom ______  __  __  ______  __  __  ______
 72
    65
 73
     6
 40
12.7
 49
6.35
 74
     0
 49
-1.27
 74
     0
 49
1.27
 74
     0
 49
-1.27
 74
     0
 49
1.27
 74
     0
 49
-1.27
 74
     0
  0
LTYPE
  5
3D
330
5
100
AcDbSymbolTableRecord
100
AcDbLinetypeTableRecord
  2
CENTER
 70
     0
  3
Center ____ _ ____ _ ____ _ ____ _ ____ _ ____
 72
    65
 73
     4
 40
10.16
 49
6.35
 74
     0
 49
-1.27
 74
     0
 49
1.27
 74
     0
 49
-1.27
 74
     0
  0
LTYPE
  5
3E
330
5
100
AcDbSymbolTableRecord
100
AcDbLinetypeTableRecord
  2
CENTERX2
 70
     0
  3
Center (2x) ________  __  ________  __  _____
 72
    65
 73
     4
 40
20.32
 49
12.7
 74
     0
 49
-2.54
 74
     0
 49
2.54
 74
     0
 49
-2.54
 74
     0
  0
LTYPE
  5
3F
330
5
100
AcDbSymbolTableRecord
100
AcDbLinetypeTableRecord
  2
DOT2
 70
     0
  3
Dot (.5x) ........................................
 72
    65
 73
     2
 40
0.635
 49
0.0
 74
     0
 49
-0.635
 74
     0
  0
ENDTAB
  0
TABLE
  2
LAYER
  5
2
330
0
100
AcDbSymbolTable
 70
     9
  0
LAYER
  5
10
330
2
100
AcDbSymbolTableRecord
100
AcDbLayerTableRecord
  2
0
 70
     0
 62
     7
  6
Continuous
370
    -3
390
F
  0
LAYER
  5
40
330
2
100
AcDbSymbolTableRecord
100
AcDbLayerTableRecord
  2
SLD-0
 70
     0
 62
     3
  6
Continuous
370
    15
390
F
  0
LAYER
  5
41
330
2
100
AcDbSymbolTableRecord
100
AcDbLayerTableRecord
  2
OBJECT
 70
     0
 62
   179
  6
Continuous
370
    -3
390
F
  0
LAYER
  5
42
330
2
100
AcDbSymbolTableRecord
100
AcDbLayerTableRecord
  2
VIEWPORT
 70
     0
 62
  -179
  6
Continuous
370
    -3
390
F
  0
LAYER
  5
43
330
2
100
AcDbSymbolTableRecord
100
AcDbLayerTableRecord
  2
WORKLAYER
 70
     0
 62
   179
  6
Continuous
370
    -3
390
F
  0
LAYER
  5
44
330
2
100
AcDbSymbolTableRecord
100
AcDbLayerTableRecord
  2
SLD-DEFPOINTS
 70
     0
 62
   179
  6
Continuous
370
    -3
390
F
  0
LAYER
  5
45
330
2
100
AcDbSymbolTableRecord
100
AcDbLayerTableRecord
  2
DIM
 70
     0
 62
     2
  6
Continuous
370
    15
390
F
  0
LAYER
  5
46
330
2
100
AcDbSymbolTableRecord
100
AcDbLayerTableRecord
  2
NOTES
 70
     0
 62
     3
  6
Continuous
370
    15
390
F
  0
LAYER
  5
47
330
2
100
AcDbSymbolTableRecord
100
AcDbLayerTableRecord
  2
FORMAT
 70
     0
 62
     7
  6
Continuous
370
    -3
390
F
  0
ENDTAB
  0
TABLE
  2
STYLE
  5
3
330
0
100
AcDbSymbolTable
 70
     2
  0
STYLE
  5
11
330
3
100
AcDbSymbolTableRecord
100
AcDbTextStyleTableRecord
  2
Standard
 70
     0
 40
0.0
 41
1.0
 50
0.0
 71
     0
 42
2.5
  3
txt
  4
bigfont
  0
STYLE
  5
493
330
3
100
AcDbSymbolTableRecord
100
AcDbTextStyleTableRecord
  2
SLDTEXTSTYLE0
 70
     0
 40
0.0
 41
0.7
 50
0.0
 71
     0
 42
0.2
  3
TXT
  4
bigfont
  0
ENDTAB
  0
TABLE
  2
VIEW
  5
6
330
0
100
AcDbSymbolTable
 70
     0
  0
ENDTAB
  0
TABLE
  2
UCS
  5
7
330
0
100
AcDbSymbolTable
 70
     0
  0
ENDTAB
  0
TABLE
  2
APPID
  5
9
330
0
100
AcDbSymbolTable
 70
     1
  0
APPID
  5
12
330
9
100
AcDbSymbolTableRecord
100
AcDbRegAppTableRecord
  2
ACAD
 70
     0
  0
ENDTAB
  0
TABLE
  2
DIMSTYLE
  5
A
330
0
100
AcDbSymbolTable
 70
     5
100
AcDbDimStyleTable
  0
DIMSTYLE
105
27
330
A
100
AcDbSymbolTableRecord
100
AcDbDimStyleTableRecord
  2
ISO-25
 70
     0
 41
2.5
 42
0.625
 43
3.75
 44
1.25
 73
     0
 74
     0
 77
     1
 78
     8
140
2.5
141
2.5
143
0.0393700787
147
0.625
171
     3
172
     1
271
     2
272
     2
274
     3
278
    44
283
     0
284
     8
340
11
  0
DIMSTYLE
105
484
102
{ACAD_REACTORS
330
483
330
495
330
4AA
330
4B4
102
}
330
A
100
AcDbSymbolTableRecord
100
AcDbDimStyleTableRecord
  2
SLDDIMSTYLE0
 70
     0
 41
3.0
 44
0.0
 73
     0
 77
     1
 78
    12
140
3.5
147
0.875
173
     1
271
     1
272
     1
284
    12
340
11
341
485
343
485
344
485
  0
DIMSTYLE
105
4A0
102
{ACAD_REACTORS
330
49F
330
4DF
102
}
330
A
100
AcDbSymbolTableRecord
100
AcDbDimStyleTableRecord
  2
SLDDIMSTYLE1
 70
     0
 41
3.0
 44
0.0
 73
     0
 77
     1
 78
    12
140
3.5
147
0.875
173
     1
271
     0
272
     0
284
    12
340
11
341
485
343
485
344
485
  0
DIMSTYLE
105
4D3
102
{ACAD_REACTORS
330
4D2
102
}
330
A
100
AcDbSymbolTableRecord
100
AcDbDimStyleTableRecord
  2
SLDDIMSTYLE2
 70
     0
 41
3.0
 44
0.0
 73
     0
 77
     1
 78
    12
140
3.5
147
0.875
173
     1
271
     1
272
     1
284
    12
340
11
341
485
343
485
344
485
  0
DIMSTYLE
105
4F5
330
A
100
AcDbSymbolTableRecord
100
AcDbDimStyleTableRecord
  2
SLDDIMSTYLE3
 70
     0
 41
3.0
 44
0.0
140
3.0
147
0.75
173
     1
271
     0
272
     0
340
11
  0
ENDTAB
  0
TABLE
  2
BLOCK_RECORD
  5
1
330
0
100
AcDbSymbolTable
 70
    17
  0
BLOCK_RECORD
  5
1F
330
1
100
AcDbSymbolTableRecord
100
AcDbBlockTableRecord
  2
*Model_Space
340
22
  0
BLOCK_RECORD
  5
1B
330
1
100
AcDbSymbolTableRecord
100
AcDbBlockTableRecord
  2
*Paper_Space
340
1E
  0
BLOCK_RECORD
  5
23
330
1
100
AcDbSymbolTableRecord
100
AcDbBlockTableRecord
  2
*Paper_Space0
340
26
  0
BLOCK_RECORD
  5
48
330
1
100
AcDbSymbolTableRecord
100
AcDbBlockTableRecord
  2
ﾌﾞﾛｯｸ5
340
0
102
{BLKREFS
331
4C7
102
}
  0
BLOCK_RECORD
  5
1AD
330
1
100
AcDbSymbolTableRecord
100
AcDbBlockTableRecord
  2
ﾌﾞﾛｯｸ6
340
0
102
{BLKREFS
331
4C5
102
}
  0
BLOCK_RECORD
  5
24B
330
1
100
AcDbSymbolTableRecord
100
AcDbBlockTableRecord
  2
ﾌﾞﾛｯｸ7
340
0
102
{BLKREFS
331
4C6
102
}
  0
BLOCK_RECORD
  5
485
330
1
100
AcDbSymbolTableRecord
100
AcDbBlockTableRecord
  2
_OPEN30
340
0
102
{BLKREFS
331
48E
331
48F
331
499
331
49A
331
4A4
331
4A5
331
4AE
331
4AF
331
4B8
331
4B9
331
4D7
331
4D8
331
4E3
331
4E4
102
}
  0
BLOCK_RECORD
  5
48B
330
1
100
AcDbSymbolTableRecord
100
AcDbBlockTableRecord
  2
*D5
340
0
  0
BLOCK_RECORD
  5
496
330
1
100
AcDbSymbolTableRecord
100
AcDbBlockTableRecord
  2
*D6
340
0
  0
BLOCK_RECORD
  5
4A1
330
1
100
AcDbSymbolTableRecord
100
AcDbBlockTableRecord
  2
*D7
340
0
  0
BLOCK_RECORD
  5
4AB
330
1
100
AcDbSymbolTableRecord
100
AcDbBlockTableRecord
  2
*D8
340
0
  0
BLOCK_RECORD
  5
4B5
330
1
100
AcDbSymbolTableRecord
100
AcDbBlockTableRecord
  2
*D9
340
0
  0
BLOCK_RECORD
  5
4BF
330
1
100
AcDbSymbolTableRecord
100
AcDbBlockTableRecord
  2
SW_NOTE_0
340
0
102
{BLKREFS
331
4C4
102
}
  0
BLOCK_RECORD
  5
4D4
330
1
100
AcDbSymbolTableRecord
100
AcDbBlockTableRecord
  2
*D11
340
0
  0
BLOCK_RECORD
  5
4E0
330
1
100
AcDbSymbolTableRecord
100
AcDbBlockTableRecord
  2
*D12
340
0
  0
BLOCK_RECORD
  5
4EA
330
1
100
AcDbSymbolTableRecord
100
AcDbBlockTableRecord
  2
SW_NOTE_1
340
0
102
{BLKREFS
331
4F4
102
}
  0
BLOCK_RECORD
  5
4F7
330
1
100
AcDbSymbolTableRecord
100
AcDbBlockTableRecord
  2
SW_CENTERMARKSYMBOL_0
340
0
102
{BLKREFS
331
502
102
}
  0
BLOCK_RECORD
  5
503
330
1
100
AcDbSymbolTableRecord
100
AcDbBlockTableRecord
  2
SW_CENTERMARKSYMBOL_1
340
0
102
{BLKREFS
331
50E
102
}
  0
BLOCK_RECORD
  5
50F
330
1
100
AcDbSymbolTableRecord
100
AcDbBlockTableRecord
  2
SW_CENTERMARKSYMBOL_2
340
0
102
{BLKREFS
331
51A
102
}
  0
ENDTAB
  0
ENDSEC
  0
SECTION
  2
BLOCKS
  0
BLOCK
  5
20
330
1F
100
AcDbEntity
  8
0
100
AcDbBlockBegin
  2
*Model_Space
 70
     0
 71
     0
 10
0.0
 20
0.0
 30
0.0
  3
*Model_Space
  1

  0
ENDBLK
  5
21
330
1F
100
AcDbEntity
  8
0
100
AcDbBlockEnd
  0
BLOCK
  5
1C
330
1B
100
AcDbEntity
 67
     1
  8
0
100
AcDbBlockBegin
  2
*Paper_Space
 70
     0
 71
     0
 10
0.0
 20
0.0
 30
0.0
  3
*Paper_Space
  1

  0
ENDBLK
  5
1D
330
1B
100
AcDbEntity
 67
     1
  8
0
100
AcDbBlockEnd
  0
BLOCK
  5
24
330
23
100
AcDbEntity
  8
0
100
AcDbBlockBegin
  2
*Paper_Space0
 70
     0
 71
     0
 10
0.0
 20
0.0
 30
0.0
  3
*Paper_Space0
  1

  0
ENDBLK
  5
25
330
23
100
AcDbEntity
  8
0
100
AcDbBlockEnd
  0
BLOCK
  5
49
330
48
100
AcDbEntity
  8
0
100
AcDbBlockBegin
  2
ﾌﾞﾛｯｸ5
 70
     0
 71
     0
 10
0.0
 20
0.0
 30
0.0
  3
ﾌﾞﾛｯｸ5
  1

  0
ARC
  5
4B
330
48
100
AcDbEntity
  8
SLD-0
 62
     7
100
AcDbCircle
 10
8.8
 20
26.2
 30
0.0
 40
1.000000000000002
100
AcDbArc
 50
0.0
 51
90.0
  0
ARC
  5
4C
330
48
100
AcDbEntity
  8
SLD-0
 62
     7
100
AcDbCircle
 10
6.8
 20
67.0
 30
0.0
 40
1.000000000000014
100
AcDbArc
 50
270.0
 51
0.0
  0
ARC
  5
4D
330
48
100
AcDbEntity
  8
SLD-0
 62
     7
100
AcDbCircle
 10
6.5
 20
67.0
 30
0.0
 40
1.000000000000014
100
AcDbArc
 50
180.0
 51
270.0
  0
ARC
  5
4E
330
48
100
AcDbEntity
  8
SLD-0
 62
     7
100
AcDbCircle
 10
6.0
 20
88.1
 30
0.0
 40
1.000000000000112
100
AcDbArc
 50
180.0
 51
270.0
  0
ARC
  5
4F
330
48
100
AcDbEntity
  8
SLD-0
 62
     7
100
AcDbCircle
 10
7.0
 20
73.3776430753
 30
0.0
 40
1.500000000000133
100
AcDbArc
 50
106.389540334
 51
180.0
  0
ARC
  5
50
330
48
100
AcDbEntity
  8
SLD-0
 62
     7
100
AcDbCircle
 10
9.8
 20
64.2
 30
0.0
 40
1.000000000000014
100
AcDbArc
 50
90.0
 51
180.0
  0
ARC
  5
51
330
48
100
AcDbEntity
  8
SLD-0
 62
     7
100
AcDbCircle
 10
9.8
 20
63.2
 30
0.0
 40
1.0
100
AcDbArc
 50
180.0
 51
270.0
  0
ARC
  5
52
330
48
100
AcDbEntity
  8
SLD-0
 62
     7
100
AcDbCircle
 10
6.0
 20
31.1
 30
0.0
 40
1.000000000000112
100
AcDbArc
 50
90.0
 51
180.0
  0
ARC
  5
53
330
48
100
AcDbEntity
  8
SLD-0
 62
     7
100
AcDbCircle
 10
9.4195498156
 20
33.8
 30
0.0
 40
0.5
100
AcDbArc
 50
190.0
 51
270.0
  0
ARC
  5
54
330
48
100
AcDbEntity
  8
SLD-0
 62
     7
100
AcDbCircle
 10
5.5
 20
31.8444625978
 30
0.0
 40
0.5000000000000028
100
AcDbArc
 50
125.8591382741
 51
180.0
  0
ARC
  5
55
330
48
100
AcDbEntity
  8
SLD-0
 62
     7
100
AcDbCircle
 10
13.5
 20
9.5
 30
0.0
 40
1.000000000000002
100
AcDbArc
 50
180.0
 51
270.0
  0
ARC
  5
56
330
48
100
AcDbEntity
  8
SLD-0
 62
     7
100
AcDbCircle
 10
8.5
 20
12.0
 30
0.0
 40
2.000000000000001
100
AcDbArc
 50
180.0
 51
270.0
  0
ARC
  5
57
330
48
100
AcDbEntity
  8
SLD-0
 62
     7
100
AcDbCircle
 10
8.8
 20
14.0
 30
0.0
 40
1.0
100
AcDbArc
 50
270.0
 51
0.0
  0
ARC
  5
58
330
48
100
AcDbEntity
  8
SLD-0
 62
     7
370
     0
100
AcDbCircle
 10
-11.5565
 20
49.8
 30
0.0
 40
153.0439999999996
100
AcDbArc
 50
346.4049450627
 51
13.5950549373
  0
ARC
  5
59
330
48
100
AcDbEntity
  8
SLD-0
 62
     7
100
AcDbCircle
 10
101.2
 20
87.8844273264
 30
0.0
 40
0.5000000000001137
100
AcDbArc
 50
0.0
 51
89.5
  0
ARC
  5
5A
330
48
100
AcDbEntity
  8
SLD-0
 62
     7
100
AcDbCircle
 10
101.2
 20
75.718088608
 30
0.0
 40
0.5000000000001137
100
AcDbArc
 50
270.5
 51
0.0
  0
ARC
  5
5B
330
48
100
AcDbEntity
  8
SLD-0
 62
     7
100
AcDbCircle
 10
101.2
 20
74.4334772758
 30
0.0
 40
0.500000000000186
100
AcDbArc
 50
0.0
 51
89.5
  0
ARC
  5
5C
330
48
100
AcDbEntity
  8
SLD-0
 62
     7
370
     0
100
AcDbCircle
 10
124.0875
 20
65.3834842356
 30
0.0
 40
0.7000000000002942
100
AcDbArc
 50
0.0
 51
89.5
  0
ARC
  5
5D
330
48
100
AcDbEntity
  8
SLD-0
 62
     7
370
     0
100
AcDbCircle
 10
134.2834609042
 20
85.0690762489
 30
0.0
 40
2.999999999999849
100
AcDbArc
 50
13.5950549374
 51
89.45
  0
ARC
  5
5E
330
48
100
AcDbEntity
  8
SLD-0
 62
     7
100
AcDbCircle
 10
130.7803932188
 20
45.9203905834
 30
0.0
 40
0.5000000000000148
100
AcDbArc
 50
46.9871196217
 51
79.5042404311
  0
ARC
  5
5F
330
48
100
AcDbEntity
  8
SLD-0
 62
     7
100
AcDbCircle
 10
124.0875
 20
65.3834842356
 30
0.0
 40
0.4999999999998863
100
AcDbArc
 50
360.0
 51
89.5
  0
ARC
  5
60
330
48
100
AcDbEntity
  8
SLD-0
 62
     7
100
AcDbCircle
 10
126.5875
 20
57.545
 30
0.0
 40
2.0
100
AcDbArc
 50
154.1580672368
 51
180.0
  0
ARC
  5
61
330
48
100
AcDbEntity
  8
SLD-0
 62
     7
100
AcDbCircle
 10
130.151156268
 20
50.6590270875
 30
0.0
 40
1.566193792107634
100
AcDbArc
 50
60.1403724921
 51
62.6182820743
  0
ARC
  5
62
330
48
100
AcDbEntity
  8
SLD-0
 62
     7
100
AcDbCircle
 10
129.5107887203
 20
49.5448570225
 30
0.0
 40
2.851279511520313
100
AcDbArc
 50
58.6367138867
 51
60.1275532093
  0
ARC
  5
63
330
48
100
AcDbEntity
  8
SLD-0
 62
     7
100
AcDbCircle
 10
123.9559452742
 20
40.6021470207
 30
0.0
 40
13.37890571262888
100
AcDbArc
 50
57.6164669443
 51
58.0469308391
  0
ARC
  5
64
330
48
100
AcDbEntity
  8
SLD-0
 62
     7
100
AcDbCircle
 10
130.6413963979
 20
51.5094624767
 30
0.0
 40
0.5909281862191703
100
AcDbArc
 50
83.9181623763
 51
90.0297236788
  0
ARC
  5
65
330
48
100
AcDbEntity
  8
SLD-0
 62
     7
100
AcDbCircle
 10
130.6462408207
 20
51.5486838518
 30
0.0
 40
0.5514147013563278
100
AcDbArc
 50
77.6319563161
 51
83.9869171726
  0
ARC
  5
66
330
48
100
AcDbEntity
  8
SLD-0
 62
     7
100
AcDbCircle
 10
130.6619492344
 20
51.6163936812
 30
0.0
 40
0.4819124289501581
100
AcDbArc
 50
70.771627326
 51
77.7319502842
  0
ARC
  5
67
330
48
100
AcDbEntity
  8
SLD-0
 62
     7
100
AcDbCircle
 10
130.6915698493
 20
51.6983618902
 30
0.0
 40
0.3947630639799273
100
AcDbArc
 50
62.8881882352
 51
70.9128835273
  0
ARC
  5
68
330
48
100
AcDbEntity
  8
SLD-0
 62
     7
100
AcDbCircle
 10
130.7803932188
 20
51.0003905834
 30
0.0
 40
0.4999999999999826
100
AcDbArc
 50
46.9871196217
 51
79.5042404311
  0
ARC
  5
69
330
48
100
AcDbEntity
  8
SLD-0
 62
     7
100
AcDbCircle
 10
130.7803932188
 20
51.0003905834
 30
0.0
 40
0.4999999999999798
100
AcDbArc
 50
79.5042404311
 51
90.0
  0
ARC
  5
6A
330
48
100
AcDbEntity
  8
SLD-0
 62
     7
100
AcDbCircle
 10
130.7803932188
 20
51.0003905834
 30
0.0
 40
0.5000000000001096
100
AcDbArc
 50
45.0
 51
46.9871196217
  0
ARC
  5
6B
330
48
100
AcDbEntity
  8
SLD-0
 62
     7
100
AcDbCircle
 10
132.3946067812
 20
50.8003905834
 30
0.0
 40
0.5000000000000091
100
AcDbArc
 50
225.0
 51
270.0
  0
ARC
  5
6C
330
48
100
AcDbEntity
  8
SLD-0
 62
     7
100
AcDbCircle
 10
132.3946067812
 20
48.2603905834
 30
0.0
 40
0.5
100
AcDbArc
 50
225.0
 51
270.0
  0
ARC
  5
6D
330
48
100
AcDbEntity
  8
SLD-0
 62
     7
100
AcDbCircle
 10
130.6413963979
 20
48.9694624767
 30
0.0
 40
0.5909281862191135
100
AcDbArc
 50
83.9181623763
 51
90.0297236788
  0
ARC
  5
6E
330
48
100
AcDbEntity
  8
SLD-0
 62
     7
100
AcDbCircle
 10
130.6462408207
 20
49.0086838518
 30
0.0
 40
0.5514147013562722
100
AcDbArc
 50
77.6319563161
 51
83.9869171726
  0
ARC
  5
6F
330
48
100
AcDbEntity
  8
SLD-0
 62
     7
100
AcDbCircle
 10
130.6619492344
 20
49.0763936812
 30
0.0
 40
0.4819124289503178
100
AcDbArc
 50
70.771627326
 51
77.7319502842
  0
ARC
  5
70
330
48
100
AcDbEntity
  8
SLD-0
 62
     7
100
AcDbCircle
 10
130.6915698493
 20
49.1583618902
 30
0.0
 40
0.3947630639797269
100
AcDbArc
 50
62.8881882353
 51
70.9128835273
  0
ARC
  5
71
330
48
100
AcDbEntity
  8
SLD-0
 62
     7
100
AcDbCircle
 10
130.151156268
 20
48.1190270875
 30
0.0
 40
1.566193792107682
100
AcDbArc
 50
60.1403724919
 51
62.6182820741
  0
ARC
  5
72
330
48
100
AcDbEntity
  8
SLD-0
 62
     7
100
AcDbCircle
 10
129.5107887203
 20
47.0048570225
 30
0.0
 40
2.851279511520286
100
AcDbArc
 50
58.6367138867
 51
60.1275532093
  0
ARC
  5
73
330
48
100
AcDbEntity
  8
SLD-0
 62
     7
100
AcDbCircle
 10
123.9559452742
 20
38.0621470207
 30
0.0
 40
13.37890571262898
100
AcDbArc
 50
57.6164669443
 51
58.0469308391
  0
ARC
  5
74
330
48
100
AcDbEntity
  8
SLD-0
 62
     7
100
AcDbCircle
 10
130.151156268
 20
45.5790270875
 30
0.0
 40
1.566193792107601
100
AcDbArc
 50
60.1403724921
 51
62.6182820744
  0
ARC
  5
75
330
48
100
AcDbEntity
  8
SLD-0
 62
     7
100
AcDbCircle
 10
129.5107887203
 20
44.4648570225
 30
0.0
 40
2.851279511520337
100
AcDbArc
 50
58.6367138867
 51
60.1275532093
  0
ARC
  5
76
330
48
100
AcDbEntity
  8
SLD-0
 62
     7
100
AcDbCircle
 10
123.9559452742
 20
35.5221470207
 30
0.0
 40
13.37890571262881
100
AcDbArc
 50
57.6164669443
 51
58.0469308391
  0
ARC
  5
77
330
48
100
AcDbEntity
  8
SLD-0
 62
     7
100
AcDbCircle
 10
130.6413963979
 20
46.4294624767
 30
0.0
 40
0.5909281862192272
100
AcDbArc
 50
83.9181623763
 51
90.0297236788
  0
ARC
  5
78
330
48
100
AcDbEntity
  8
SLD-0
 62
     7
100
AcDbCircle
 10
130.6462408207
 20
46.4686838518
 30
0.0
 40
0.5514147013563232
100
AcDbArc
 50
77.6319563161
 51
83.9869171726
  0
ARC
  5
79
330
48
100
AcDbEntity
  8
SLD-0
 62
     7
100
AcDbCircle
 10
130.6619492344
 20
46.5363936812
 30
0.0
 40
0.4819124289501355
100
AcDbArc
 50
70.771627326
 51
77.7319502842
  0
ARC
  5
7A
330
48
100
AcDbEntity
  8
SLD-0
 62
     7
100
AcDbCircle
 10
130.6915698493
 20
46.6183618902
 30
0.0
 40
0.3947630639797376
100
AcDbArc
 50
62.8881882351
 51
70.9128835272
  0
ARC
  5
7B
330
48
100
AcDbEntity
  8
SLD-0
 62
     7
100
AcDbCircle
 10
130.7803932188
 20
45.9203905834
 30
0.0
 40
0.5000000000000148
100
AcDbArc
 50
79.5042404311
 51
90.0
  0
ARC
  5
7C
330
48
100
AcDbEntity
  8
SLD-0
 62
     7
100
AcDbCircle
 10
130.7803932188
 20
48.4603905834
 30
0.0
 40
0.5000000000000085
100
AcDbArc
 50
45.0
 51
46.9871196217
  0
ARC
  5
7D
330
48
100
AcDbEntity
  8
SLD-0
 62
     7
100
AcDbCircle
 10
130.7803932188
 20
48.4603905834
 30
0.0
 40
0.5
100
AcDbArc
 50
79.5042404311
 51
90.0
  0
ARC
  5
7E
330
48
100
AcDbEntity
  8
SLD-0
 62
     7
100
AcDbCircle
 10
130.7803932188
 20
48.4603905834
 30
0.0
 40
0.5000000000000085
100
AcDbArc
 50
46.9871196217
 51
79.5042404311
  0
ARC
  5
7F
330
48
100
AcDbEntity
  8
SLD-0
 62
     7
370
     0
100
AcDbCircle
 10
140.3543851826
 20
56.1608882273
 30
0.0
 40
1.000000000000052
100
AcDbArc
 50
270.5
 51
2.3977167539
  0
ARC
  5
80
330
48
100
AcDbEntity
  8
SLD-0
 62
     7
100
AcDbCircle
 10
126.5875
 20
39.005
 30
0.0
 40
2.0
100
AcDbArc
 50
180.0
 51
205.8419327632
  0
ARC
  5
81
330
48
100
AcDbEntity
  8
SLD-0
 62
     7
100
AcDbCircle
 10
132.3946067812
 20
43.1803905834
 30
0.0
 40
0.5
100
AcDbArc
 50
225.0
 51
270.0
  0
ARC
  5
82
330
48
100
AcDbEntity
  8
SLD-0
 62
     7
100
AcDbCircle
 10
132.3946067812
 20
45.7203905834
 30
0.0
 40
0.5000000000001137
100
AcDbArc
 50
225.0
 51
270.0
  0
ARC
  5
83
330
48
100
AcDbEntity
  8
SLD-0
 62
     7
100
AcDbCircle
 10
130.7803932188
 20
45.9203905834
 30
0.0
 40
0.5000000000000085
100
AcDbArc
 50
45.0
 51
46.9871196217
  0
ARC
  5
84
330
48
100
AcDbEntity
  8
SLD-0
 62
     7
100
AcDbCircle
 10
130.6413963979
 20
43.8894624767
 30
0.0
 40
0.5909281862190935
100
AcDbArc
 50
83.9181623763
 51
90.0297236788
  0
ARC
  5
85
330
48
100
AcDbEntity
  8
SLD-0
 62
     7
100
AcDbCircle
 10
130.6462408207
 20
43.9286838518
 30
0.0
 40
0.5514147013562667
100
AcDbArc
 50
77.6319563161
 51
83.9869171726
  0
ARC
  5
86
330
48
100
AcDbEntity
  8
SLD-0
 62
     7
100
AcDbCircle
 10
130.6619492344
 20
43.9963936812
 30
0.0
 40
0.4819124289501288
100
AcDbArc
 50
70.771627326
 51
77.7319502842
  0
ARC
  5
87
330
48
100
AcDbEntity
  8
SLD-0
 62
     7
100
AcDbCircle
 10
130.6915698493
 20
44.0783618902
 30
0.0
 40
0.394763063979872
100
AcDbArc
 50
62.888188235
 51
70.9128835271
  0
ARC
  5
88
330
48
100
AcDbEntity
  8
SLD-0
 62
     7
100
AcDbCircle
 10
130.151156268
 20
43.0390270875
 30
0.0
 40
1.566193792107657
100
AcDbArc
 50
60.140372492
 51
62.6182820742
  0
ARC
  5
89
330
48
100
AcDbEntity
  8
SLD-0
 62
     7
100
AcDbCircle
 10
129.5107887203
 20
41.9248570225
 30
0.0
 40
2.851279511520335
100
AcDbArc
 50
58.6367138867
 51
60.1275532093
  0
ARC
  5
8A
330
48
100
AcDbEntity
  8
SLD-0
 62
     7
100
AcDbCircle
 10
123.9559452742
 20
32.9821470207
 30
0.0
 40
13.37890571262896
100
AcDbArc
 50
57.6164669443
 51
58.0469308391
  0
ARC
  5
8B
330
48
100
AcDbEntity
  8
SLD-0
 62
     7
100
AcDbCircle
 10
130.7803932188
 20
43.3803905834
 30
0.0
 40
0.5000000000000085
100
AcDbArc
 50
45.0
 51
46.9871196217
  0
ARC
  5
8C
330
48
100
AcDbEntity
  8
SLD-0
 62
     7
100
AcDbCircle
 10
130.7803932188
 20
43.3803905834
 30
0.0
 40
0.5000000000000323
100
AcDbArc
 50
79.5042404311
 51
90.0
  0
ARC
  5
8D
330
48
100
AcDbEntity
  8
SLD-0
 62
     7
100
AcDbCircle
 10
130.7803932188
 20
43.3803905834
 30
0.0
 40
0.5000000000000323
100
AcDbArc
 50
46.9871196217
 51
79.5042404311
  0
ARC
  5
8E
330
48
100
AcDbEntity
  8
SLD-0
 62
     7
370
     0
100
AcDbCircle
 10
140.1960588673
 20
40.3904934655
 30
0.0
 40
1.000000000000029
100
AcDbArc
 50
356.4518840285
 51
89.5
  0
ARC
  5
8F
330
48
100
AcDbEntity
  8
SLD-0
 62
     7
370
     0
100
AcDbCircle
 10
104.8638454783
 20
24.3925227309
 30
0.0
 40
0.6624999999999773
100
AcDbArc
 50
152.9967854797
 51
171.2982356698
  0
ARC
  5
90
330
48
100
AcDbEntity
  8
SLD-0
 62
     7
370
     0
100
AcDbCircle
 10
104.8638454783
 20
24.3925227309
 30
0.0
 40
0.6624999999999203
100
AcDbArc
 50
9.7017643302
 51
28.0032145203
  0
ARC
  5
91
330
48
100
AcDbEntity
  8
SLD-0
 62
     7
100
AcDbCircle
 10
101.2
 20
23.881911392
 30
0.0
 40
0.5000000000001137
100
AcDbArc
 50
0.0
 51
89.5
  0
ARC
  5
92
330
48
100
AcDbEntity
  8
SLD-0
 62
     7
370
     0
100
AcDbCircle
 10
102.4
 20
23.9769474971
 30
0.0
 40
0.5000000000003411
100
AcDbArc
 50
90.5
 51
180.0
  0
ARC
  5
93
330
48
100
AcDbEntity
  8
SLD-0
 62
     7
100
AcDbCircle
 10
101.2
 20
11.7155726736
 30
0.0
 40
0.5000000000000017
100
AcDbArc
 50
270.5
 51
0.0
  0
ARC
  5
94
330
48
100
AcDbEntity
  8
SLD-0
 62
     7
370
     0
100
AcDbCircle
 10
124.0875
 20
25.3662571363
 30
0.0
 40
0.7000000000000891
100
AcDbArc
 50
270.5
 51
0.0
  0
ARC
  5
95
330
48
100
AcDbEntity
  8
SLD-0
 62
     7
100
AcDbCircle
 10
124.0875
 20
25.3662571363
 30
0.0
 40
0.5000000000004974
100
AcDbArc
 50
270.5000000001
 51
360.0
  0
ARC
  5
96
330
48
100
AcDbEntity
  8
SLD-0
 62
     7
370
     0
100
AcDbCircle
 10
134.2834609042
 20
14.5309237511
 30
0.0
 40
2.999999999999947
100
AcDbArc
 50
270.55
 51
346.4049450626
  0
LINE
  5
97
330
48
100
AcDbEntity
  8
SLD-0
 62
     7
100
AcDbLine
 10
9.8
 20
88.6
 30
0.0
 11
76.3
 21
88.6
 31
0.0
  0
LINE
  5
98
330
48
100
AcDbEntity
  8
SLD-0
 62
     7
100
AcDbLine
 10
9.8
 20
11.0
 30
0.0
 11
76.3
 21
11.0
 31
0.0
  0
LINE
  5
99
330
48
100
AcDbEntity
  8
SLD-0
  6
CENTERX2
 62
     7
370
     0
100
AcDbLine
 10
0.0
 20
49.8000006293
 30
0.0
 11
150.25
 21
49.8000006293
 31
0.0
  0
LINE
  5
9A
330
48
100
AcDbEntity
  8
SLD-0
 62
     7
100
AcDbLine
 10
9.8
 20
14.0
 30
0.0
 11
9.8
 21
28.8
 31
0.0
  0
LINE
  5
9B
330
48
100
AcDbEntity
  8
SLD-0
 62
     7
100
AcDbLine
 10
5.0
 20
0.0
 30
0.0
 11
5.0
 21
31.1
 31
0.0
  0
LINE
  5
9C
330
48
100
AcDbEntity
  8
SLD-0
 62
     7
100
AcDbLine
 10
9.8
 20
88.6
 30
0.0
 11
9.8
 21
11.0
 31
0.0
  0
LINE
  5
9D
330
48
100
AcDbEntity
  8
SLD-0
 62
     7
100
AcDbLine
 10
32.3
 20
88.6
 30
0.0
 11
32.3
 21
11.0
 31
0.0
  0
LINE
  5
9E
330
48
100
AcDbEntity
  8
SLD-0
 62
     7
100
AcDbLine
 10
32.55
 20
88.6
 30
0.0
 11
32.55
 21
11.0
 31
0.0
  0
LINE
  5
9F
330
48
100
AcDbEntity
  8
SLD-0
 62
     7
100
AcDbLine
 10
22.3
 20
88.6
 30
0.0
 11
22.3
 21
11.0
 31
0.0
  0
LINE
  5
A0
330
48
100
AcDbEntity
  8
SLD-0
 62
     7
100
AcDbLine
 10
22.55
 20
88.6
 30
0.0
 11
22.55
 21
11.0
 31
0.0
  0
LINE
  5
A1
330
48
100
AcDbEntity
  8
SLD-0
 62
     7
100
AcDbLine
 10
24.05
 20
88.6
 30
0.0
 11
24.05
 21
11.0
 31
0.0
  0
LINE
  5
A2
330
48
100
AcDbEntity
  8
SLD-0
 62
     7
100
AcDbLine
 10
24.3
 20
88.6
 30
0.0
 11
24.3
 21
11.0
 31
0.0
  0
LINE
  5
A3
330
48
100
AcDbEntity
  8
SLD-0
 62
     7
100
AcDbLine
 10
15.8
 20
88.6
 30
0.0
 11
15.8
 21
11.0
 31
0.0
  0
LINE
  5
A4
330
48
100
AcDbEntity
  8
SLD-0
 62
     7
100
AcDbLine
 10
10.0
 20
65.2
 30
0.0
 11
10.0
 21
67.5
 31
0.0
  0
LINE
  5
A5
330
48
100
AcDbEntity
  8
SLD-0
 62
     7
100
AcDbLine
 10
13.0
 20
88.6
 30
0.0
 11
6.5
 21
88.6
 31
0.0
  0
LINE
  5
A6
330
48
100
AcDbEntity
  8
SLD-0
 62
     7
100
AcDbLine
 10
6.5
 20
88.6
 30
0.0
 11
6.5
 21
100.0
 31
0.0
  0
LINE
  5
A7
330
48
100
AcDbEntity
  8
SLD-0
 62
     7
100
AcDbLine
 10
5.0
 20
88.1
 30
0.0
 11
5.0
 21
100.0
 31
0.0
  0
LINE
  5
A8
330
48
100
AcDbEntity
  8
SLD-0
 62
     7
100
AcDbLine
 10
6.5
 20
100.0
 30
0.0
 11
5.0
 21
100.0
 31
0.0
  0
LINE
  5
A9
330
48
100
AcDbEntity
  8
SLD-0
 62
     7
100
AcDbLine
 10
6.0
 20
87.1
 30
0.0
 11
9.8
 21
87.1
 31
0.0
  0
LINE
  5
AA
330
48
100
AcDbEntity
  8
SLD-0
 62
     7
100
AcDbLine
 10
5.5
 20
67.0
 30
0.0
 11
5.5
 21
73.3776430753
 31
0.0
  0
LINE
  5
AB
330
48
100
AcDbEntity
  8
SLD-0
 62
     7
100
AcDbLine
 10
6.576750514
 20
74.8166913277
 30
0.0
 11
9.8
 21
75.7647058824
 31
0.0
  0
LINE
  5
AC
330
48
100
AcDbEntity
  8
SLD-0
 62
     7
100
AcDbLine
 10
7.8
 20
67.0
 30
0.0
 11
7.8
 21
67.5
 31
0.0
  0
LINE
  5
AD
330
48
100
AcDbEntity
  8
SLD-0
 62
     7
100
AcDbLine
 10
9.8
 20
67.5
 30
0.0
 11
7.8
 21
67.5
 31
0.0
  0
LINE
  5
AE
330
48
100
AcDbEntity
  8
SLD-0
 62
     7
100
AcDbLine
 10
8.8
 20
63.2
 30
0.0
 11
8.8
 21
64.2
 31
0.0
  0
LINE
  5
AF
330
48
100
AcDbEntity
  8
SLD-0
 62
     7
100
AcDbLine
 10
6.8
 20
66.0
 30
0.0
 11
6.5
 21
66.0
 31
0.0
  0
LINE
  5
B0
330
48
100
AcDbEntity
  8
SLD-0
 62
     7
100
AcDbLine
 10
9.2
 20
35.5
 30
0.0
 11
9.2
 21
37.0
 31
0.0
  0
LINE
  5
B1
330
48
100
AcDbEntity
  8
SLD-0
 62
     7
100
AcDbLine
 10
9.2
 20
35.5
 30
0.0
 11
9.2
 21
37.0
 31
0.0
  0
LINE
  5
B2
330
48
100
AcDbEntity
  8
SLD-0
 62
     7
100
AcDbLine
 10
9.2
 20
37.0
 30
0.0
 11
9.8
 21
37.0
 31
0.0
  0
LINE
  5
B3
330
48
100
AcDbEntity
  8
SLD-0
 62
     7
100
AcDbLine
 10
5.0
 20
31.1
 30
0.0
 11
5.0
 21
31.8444625978
 31
0.0
  0
LINE
  5
B4
330
48
100
AcDbEntity
  8
SLD-0
 62
     7
100
AcDbLine
 10
8.9271459391
 20
33.7131759112
 30
0.0
 11
8.7355095289
 21
34.8
 31
0.0
  0
LINE
  5
B5
330
48
100
AcDbEntity
  8
SLD-0
 62
     7
100
AcDbLine
 10
9.8
 20
35.5
 30
0.0
 11
9.2
 21
35.5
 31
0.0
  0
LINE
  5
B6
330
48
100
AcDbEntity
  8
SLD-0
 62
     7
100
AcDbLine
 10
9.8
 20
33.3
 30
0.0
 11
9.4195498156
 21
33.3
 31
0.0
  0
LINE
  5
B7
330
48
100
AcDbEntity
  8
SLD-0
 62
     7
100
AcDbLine
 10
5.2071027455
 20
32.2496924071
 30
0.0
 11
8.7355095289
 21
34.8
 31
0.0
  0
LINE
  5
B8
330
48
100
AcDbEntity
  8
SLD-0
 62
     7
100
AcDbLine
 10
9.8
 20
32.1
 30
0.0
 11
6.0
 21
32.1
 31
0.0
  0
LINE
  5
B9
330
48
100
AcDbEntity
  8
SLD-0
 62
     7
100
AcDbLine
 10
6.5
 20
27.2
 30
0.0
 11
6.5
 21
30.6
 31
0.0
  0
LINE
  5
BA
330
48
100
AcDbEntity
  8
SLD-0
 62
     7
100
AcDbLine
 10
6.5
 20
30.6
 30
0.0
 11
9.8
 21
30.6
 31
0.0
  0
LINE
  5
BB
330
48
100
AcDbEntity
  8
SLD-0
 62
     7
100
AcDbLine
 10
8.8
 20
27.2
 30
0.0
 11
5.0
 21
27.2
 31
0.0
  0
LINE
  5
BC
330
48
100
AcDbEntity
  8
SLD-0
 62
     7
100
AcDbLine
 10
9.8
 20
28.8
 30
0.0
 11
6.5
 21
28.8
 31
0.0
  0
LINE
  5
BD
330
48
100
AcDbEntity
  8
SLD-0
 62
     7
100
AcDbLine
 10
6.5
 20
0.0
 30
0.0
 11
6.5
 21
13.0
 31
0.0
  0
LINE
  5
BE
330
48
100
AcDbEntity
  8
SLD-0
 62
     7
100
AcDbLine
 10
8.5
 20
10.0
 30
0.0
 11
16.5
 21
10.0
 31
0.0
  0
LINE
  5
BF
330
48
100
AcDbEntity
  8
SLD-0
 62
     7
100
AcDbLine
 10
5.0
 20
13.0
 30
0.0
 11
8.8
 21
13.0
 31
0.0
  0
LINE
  5
C0
330
48
100
AcDbEntity
  8
SLD-0
 62
     7
100
AcDbLine
 10
6.5
 20
10.0
 30
0.0
 11
5.0
 21
10.0
 31
0.0
  0
LINE
  5
C1
330
48
100
AcDbEntity
  8
SLD-0
 62
     7
100
AcDbLine
 10
13.5
 20
8.5
 30
0.0
 11
16.5
 21
8.5
 31
0.0
  0
LINE
  5
C2
330
48
100
AcDbEntity
  8
SLD-0
 62
     7
100
AcDbLine
 10
16.5
 20
10.0
 30
0.0
 11
16.5
 21
8.5
 31
0.0
  0
LINE
  5
C3
330
48
100
AcDbEntity
  8
SLD-0
 62
     7
100
AcDbLine
 10
12.5
 20
9.5
 30
0.0
 11
12.5
 21
10.0
 31
0.0
  0
LINE
  5
C4
330
48
100
AcDbEntity
  8
SLD-0
 62
     7
100
AcDbLine
 10
6.5
 20
0.0
 30
0.0
 11
5.0
 21
0.0
 31
0.0
  0
LINE
  5
C5
330
48
100
AcDbEntity
  8
SLD-0
 62
     7
100
AcDbLine
 10
124.5875
 20
25.3662571363
 30
0.0
 11
124.5875
 21
65.3834842356
 31
0.0
  0
LINE
  5
C6
330
48
100
AcDbEntity
  8
SLD-0
 62
     7
370
     0
100
AcDbLine
 10
124.7875
 20
41.525
 30
0.0
 11
124.7875
 21
25.3662571363
 31
0.0
  0
LINE
  5
C7
330
48
100
AcDbEntity
  8
SLD-0
 62
     7
100
AcDbLine
 10
93.4
 20
37.2554065923
 30
0.0
 11
93.4
 21
24.45
 31
0.0
  0
LINE
  5
C8
330
48
100
AcDbEntity
  8
SLD-0
 62
     7
100
AcDbLine
 10
93.55
 20
24.599741372
 30
0.0
 11
93.55
 21
37.1
 31
0.0
  0
LINE
  5
C9
330
48
100
AcDbEntity
  8
SLD-0
 62
     7
100
AcDbLine
 10
76.3
 20
11.0
 30
0.0
 11
76.3
 21
88.6
 31
0.0
  0
LINE
  5
CA
330
48
100
AcDbEntity
  8
SLD-0
 62
     7
100
AcDbLine
 10
76.5
 20
11.0
 30
0.0
 11
76.5
 21
88.6
 31
0.0
  0
LINE
  5
CB
330
48
100
AcDbEntity
  8
SLD-0
 62
     7
100
AcDbLine
 10
52.3
 20
88.6
 30
0.0
 11
52.3
 21
11.0
 31
0.0
  0
LINE
  5
CC
330
48
100
AcDbEntity
  8
SLD-0
 62
     7
100
AcDbLine
 10
52.55
 20
88.6
 30
0.0
 11
52.55
 21
11.0
 31
0.0
  0
LINE
  5
CD
330
48
100
AcDbEntity
  8
SLD-0
 62
     7
100
AcDbLine
 10
54.05
 20
88.6
 30
0.0
 11
54.05
 21
11.0
 31
0.0
  0
LINE
  5
CE
330
48
100
AcDbEntity
  8
SLD-0
 62
     7
100
AcDbLine
 10
54.3
 20
88.6
 30
0.0
 11
54.3
 21
11.0
 31
0.0
  0
LINE
  5
CF
330
48
100
AcDbEntity
  8
SLD-0
 62
     7
100
AcDbLine
 10
62.55
 20
88.6
 30
0.0
 11
62.55
 21
11.0
 31
0.0
  0
LINE
  5
D0
330
48
100
AcDbEntity
  8
SLD-0
 62
     7
100
AcDbLine
 10
62.3
 20
88.6
 30
0.0
 11
62.3
 21
11.0
 31
0.0
  0
LINE
  5
D1
330
48
100
AcDbEntity
  8
SLD-0
 62
     7
100
AcDbLine
 10
64.05
 20
88.6
 30
0.0
 11
64.05
 21
11.0
 31
0.0
  0
LINE
  5
D2
330
48
100
AcDbEntity
  8
SLD-0
 62
     7
100
AcDbLine
 10
64.3
 20
88.6
 30
0.0
 11
64.3
 21
11.0
 31
0.0
  0
LINE
  5
D3
330
48
100
AcDbEntity
  8
SLD-0
 62
     7
100
AcDbLine
 10
72.3
 20
88.6
 30
0.0
 11
72.3
 21
11.0
 31
0.0
  0
LINE
  5
D4
330
48
100
AcDbEntity
  8
SLD-0
 62
     7
100
AcDbLine
 10
76.3
 20
88.6
 30
0.0
 11
76.3
 21
11.0
 31
0.0
  0
LINE
  5
D5
330
48
100
AcDbEntity
  8
SLD-0
 62
     7
100
AcDbLine
 10
42.3
 20
88.6
 30
0.0
 11
42.3
 21
11.0
 31
0.0
  0
LINE
  5
D6
330
48
100
AcDbEntity
  8
SLD-0
 62
     7
100
AcDbLine
 10
44.3
 20
88.6
 30
0.0
 11
44.3
 21
11.0
 31
0.0
  0
LINE
  5
D7
330
48
100
AcDbEntity
  8
SLD-0
 62
     7
100
AcDbLine
 10
34.3
 20
88.6
 30
0.0
 11
34.3
 21
11.0
 31
0.0
  0
LINE
  5
D8
330
48
100
AcDbEntity
  8
SLD-0
 62
     7
100
AcDbLine
 10
42.55
 20
88.6
 30
0.0
 11
42.55
 21
11.0
 31
0.0
  0
LINE
  5
D9
330
48
100
AcDbEntity
  8
SLD-0
 62
     7
100
AcDbLine
 10
44.05
 20
88.6
 30
0.0
 11
44.05
 21
11.0
 31
0.0
  0
LINE
  5
DA
330
48
100
AcDbEntity
  8
SLD-0
 62
     7
100
AcDbLine
 10
34.05
 20
88.6
 30
0.0
 11
34.05
 21
11.0
 31
0.0
  0
LINE
  5
DB
330
48
100
AcDbEntity
  8
SLD-0
 62
     7
370
     0
100
AcDbLine
 10
124.0936085748
 20
66.0834575818
 30
0.0
 11
101.9
 21
66.2771382696
 31
0.0
  0
LINE
  5
DC
330
48
100
AcDbEntity
  8
SLD-0
 62
     7
370
     0
100
AcDbLine
 10
101.9
 20
88.3800829317
 30
0.0
 11
134.3122583946
 21
88.0689380298
 31
0.0
  0
LINE
  5
DD
330
48
100
AcDbEntity
  8
SLD-0
 62
     7
100
AcDbLine
 10
101.7
 20
66.0788760275
 30
0.0
 11
124.0918632677
 21
65.8834651972
 31
0.0
  0
LINE
  5
DE
330
48
100
AcDbEntity
  8
SLD-0
 62
     7
100
AcDbLine
 10
93.4
 20
53.4445934077
 30
0.0
 11
93.4
 21
75.15
 31
0.0
  0
LINE
  5
DF
330
48
100
AcDbEntity
  8
SLD-0
 62
     7
100
AcDbLine
 10
93.55
 20
75.0002568536
 30
0.0
 11
93.55
 21
53.6
 31
0.0
  0
LINE
  5
E0
330
48
100
AcDbEntity
  8
SLD-0
 62
     7
100
AcDbLine
 10
101.7
 20
74.4334772758
 30
0.0
 11
101.7
 21
66.0788760275
 31
0.0
  0
LINE
  5
E1
330
48
100
AcDbEntity
  8
SLD-0
 62
     7
100
AcDbLine
 10
101.7
 20
75.718088608
 30
0.0
 11
101.7
 21
87.8844273264
 31
0.0
  0
LINE
  5
E2
330
48
100
AcDbEntity
  8
SLD-0
 62
     7
370
     0
100
AcDbLine
 10
101.9
 20
88.3800829317
 30
0.0
 11
101.9
 21
66.2771382696
 31
0.0
  0
LINE
  5
E3
330
48
100
AcDbEntity
  8
SLD-0
 62
     7
100
AcDbLine
 10
76.5
 20
88.6
 30
0.0
 11
101.2043632677
 21
88.3844082879
 31
0.0
  0
LINE
  5
E4
330
48
100
AcDbEntity
  8
SLD-0
 62
     7
100
AcDbLine
 10
76.5
 20
88.6
 30
0.0
 11
76.3
 21
88.6
 31
0.0
  0
LINE
  5
E5
330
48
100
AcDbEntity
  8
SLD-0
 62
     7
100
AcDbLine
 10
101.2043632677
 20
75.2181076464
 30
0.0
 11
93.4
 21
75.15
 31
0.0
  0
LINE
  5
E6
330
48
100
AcDbEntity
  8
SLD-0
 62
     7
100
AcDbLine
 10
93.55
 20
75.0002568536
 30
0.0
 11
101.2043632677
 21
74.9334582373
 31
0.0
  0
LINE
  5
E7
330
48
100
AcDbEntity
  8
SLD-0
 62
     7
100
AcDbLine
 10
95.9
 20
52.4445934077
 30
0.0
 11
95.9
 21
38.2554065923
 31
0.0
  0
LINE
  5
E8
330
48
100
AcDbEntity
  8
SLD-0
 62
     7
100
AcDbLine
 10
96.05
 20
52.6
 30
0.0
 11
96.05
 21
38.1
 31
0.0
  0
LINE
  5
E9
330
48
100
AcDbEntity
  8
SLD-0
 62
     7
100
AcDbLine
 10
97.8
 20
62.75
 30
0.0
 11
95.55
 21
62.75
 31
0.0
  0
LINE
  5
EA
330
48
100
AcDbEntity
  8
SLD-0
 62
     7
100
AcDbLine
 10
98.05
 20
63.0
 30
0.0
 11
95.55
 21
63.0
 31
0.0
  0
LINE
  5
EB
330
48
100
AcDbEntity
  8
SLD-0
 62
     7
100
AcDbLine
 10
95.55
 20
56.75
 30
0.0
 11
97.8
 21
56.75
 31
0.0
  0
LINE
  5
EC
330
48
100
AcDbEntity
  8
SLD-0
 62
     7
100
AcDbLine
 10
95.55
 20
56.5
 30
0.0
 11
98.05
 21
56.5
 31
0.0
  0
LINE
  5
ED
330
48
100
AcDbEntity
  8
SLD-0
 62
     7
100
AcDbLine
 10
96.3
 20
56.75
 30
0.0
 11
96.3
 21
62.75
 31
0.0
  0
LINE
  5
EE
330
48
100
AcDbEntity
  8
SLD-0
 62
     7
100
AcDbLine
 10
95.8
 20
56.75
 30
0.0
 11
95.8
 21
62.75
 31
0.0
  0
LINE
  5
EF
330
48
100
AcDbEntity
  8
SLD-0
 62
     7
100
AcDbLine
 10
95.55
 20
63.0
 30
0.0
 11
95.55
 21
56.5
 31
0.0
  0
LINE
  5
F0
330
48
100
AcDbEntity
  8
SLD-0
 62
     7
100
AcDbLine
 10
93.55
 20
53.6
 30
0.0
 11
96.05
 21
52.6
 31
0.0
  0
LINE
  5
F1
330
48
100
AcDbEntity
  8
SLD-0
 62
     7
100
AcDbLine
 10
93.4
 20
53.4445934077
 30
0.0
 11
95.9
 21
52.4445934077
 31
0.0
  0
LINE
  5
F2
330
48
100
AcDbEntity
  8
SLD-0
 62
     7
100
AcDbLine
 10
97.8
 20
56.75
 30
0.0
 11
97.8
 21
62.75
 31
0.0
  0
LINE
  5
F3
330
48
100
AcDbEntity
  8
SLD-0
 62
     7
100
AcDbLine
 10
98.05
 20
56.5
 30
0.0
 11
98.05
 21
63.0
 31
0.0
  0
LINE
  5
F4
330
48
100
AcDbEntity
  8
SLD-0
 62
     7
100
AcDbLine
 10
97.8
 20
33.95
 30
0.0
 11
95.55
 21
33.95
 31
0.0
  0
LINE
  5
F5
330
48
100
AcDbEntity
  8
SLD-0
 62
     7
100
AcDbLine
 10
95.55
 20
34.2
 30
0.0
 11
98.05
 21
34.2
 31
0.0
  0
LINE
  5
F6
330
48
100
AcDbEntity
  8
SLD-0
  6
Continuous
 62
     7
100
AcDbLine
 10
97.8
 20
27.95
 30
0.0
 11
95.55
 21
27.95
 31
0.0
  0
LINE
  5
F7
330
48
100
AcDbEntity
  8
SLD-0
 62
     7
100
AcDbLine
 10
98.05
 20
27.7
 30
0.0
 11
95.55
 21
27.7
 31
0.0
  0
LINE
  5
F8
330
48
100
AcDbEntity
  8
SLD-0
 62
     7
100
AcDbLine
 10
95.9
 20
38.2554065923
 30
0.0
 11
93.4
 21
37.2554065923
 31
0.0
  0
LINE
  5
F9
330
48
100
AcDbEntity
  8
SLD-0
 62
     7
100
AcDbLine
 10
96.05
 20
38.1
 30
0.0
 11
93.55
 21
37.1
 31
0.0
  0
LINE
  5
FA
330
48
100
AcDbEntity
  8
SLD-0
 62
     7
100
AcDbLine
 10
96.3
 20
27.95
 30
0.0
 11
96.3
 21
33.95
 31
0.0
  0
LINE
  5
FB
330
48
100
AcDbEntity
  8
SLD-0
 62
     7
100
AcDbLine
 10
95.8
 20
27.95
 30
0.0
 11
95.8
 21
33.95
 31
0.0
  0
LINE
  5
FC
330
48
100
AcDbEntity
  8
SLD-0
 62
     7
100
AcDbLine
 10
95.55
 20
27.7
 30
0.0
 11
95.55
 21
34.2
 31
0.0
  0
LINE
  5
FD
330
48
100
AcDbEntity
  8
SLD-0
 62
     7
100
AcDbLine
 10
97.8
 20
27.95
 30
0.0
 11
97.8
 21
33.95
 31
0.0
  0
LINE
  5
FE
330
48
100
AcDbEntity
  8
SLD-0
 62
     7
100
AcDbLine
 10
98.05
 20
34.2
 30
0.0
 11
98.05
 21
27.7
 31
0.0
  0
LINE
  5
FF
330
48
100
AcDbEntity
  8
SLD-0
 62
     7
100
AcDbLine
 10
133.2875
 20
46.8203905834
 30
0.0
 11
133.2875
 21
45.4203905834
 31
0.0
  0
LINE
  5
100
330
48
100
AcDbEntity
  8
SLD-0
 62
     7
100
AcDbLine
 10
133.4875
 20
45.2203905834
 30
0.0
 11
133.4875
 21
47.0203905834
 31
0.0
  0
LINE
  5
101
330
48
100
AcDbEntity
  8
SLD-0
 62
     7
370
     0
100
AcDbLine
 10
133.4875
 20
55.1009237498
 30
0.0
 11
133.4875
 21
41.4490762502
 31
0.0
  0
LINE
  5
102
330
48
100
AcDbEntity
  8
SLD-0
 62
     7
100
AcDbLine
 10
128.9875
 20
46.4070426033
 30
0.0
 11
130.2741520199
 21
45.1203905834
 31
0.0
  0
LINE
  5
103
330
48
100
AcDbEntity
  8
SLD-0
 62
     7
100
AcDbLine
 10
131.1214745962
 20
46.8203905834
 30
0.0
 11
131.1214745962
 21
46.2859907666
 31
0.0
  0
LINE
  5
104
330
48
100
AcDbEntity
  8
SLD-0
 62
     7
100
AcDbLine
 10
125.2756197846
 20
44.6203905834
 30
0.0
 11
125.2756197846
 21
47.1603905834
 31
0.0
  0
LINE
  5
105
330
48
100
AcDbEntity
  8
SLD-0
 62
     7
100
AcDbLine
 10
125.7375
 20
47.1603905834
 30
0.0
 11
125.7375
 21
44.6203905834
 31
0.0
  0
LINE
  5
106
330
48
100
AcDbEntity
  8
SLD-0
 62
     7
100
AcDbLine
 10
124.9292096231
 20
47.1603905834
 30
0.0
 11
124.9292096231
 21
44.6203905834
 31
0.0
  0
LINE
  5
107
330
48
100
AcDbEntity
  8
SLD-0
 62
     7
370
     0
100
AcDbLine
 10
140.3631117181
 20
55.1609263042
 30
0.0
 11
124.7875
 21
55.025
 31
0.0
  0
LINE
  5
108
330
48
100
AcDbEntity
  8
SLD-0
 62
     7
370
     0
100
AcDbLine
 10
124.7875
 20
65.3834842356
 30
0.0
 11
124.7875
 21
55.025
 31
0.0
  0
LINE
  5
109
330
48
100
AcDbEntity
  8
SLD-0
 62
     7
100
AcDbLine
 10
130.6410898385
 20
47.0203905834
 30
0.0
 11
128.9875
 21
47.0203905834
 31
0.0
  0
LINE
  5
10A
330
48
100
AcDbEntity
  8
SLD-0
 62
     7
100
AcDbLine
 10
130.7803932188
 20
46.4203905834
 30
0.0
 11
128.9875
 21
46.4203905834
 31
0.0
  0
LINE
  5
10B
330
48
100
AcDbEntity
  8
SLD-0
 62
     7
100
AcDbLine
 10
130.7803932188
 20
48.9603905834
 30
0.0
 11
128.9875
 21
48.9603905834
 31
0.0
  0
LINE
  5
10C
330
48
100
AcDbEntity
  8
SLD-0
 62
     7
100
AcDbLine
 10
130.6410898385
 20
49.5603905834
 30
0.0
 11
128.9875
 21
49.5603905834
 31
0.0
  0
LINE
  5
10D
330
48
100
AcDbEntity
  8
SLD-0
 62
     7
100
AcDbLine
 10
130.6410898385
 20
52.1003905834
 30
0.0
 11
128.9875
 21
52.1003905834
 31
0.0
  0
LINE
  5
10E
330
48
100
AcDbEntity
  8
SLD-0
 62
     7
100
AcDbLine
 10
130.7803932188
 20
51.5003905834
 30
0.0
 11
128.9875
 21
51.5003905834
 31
0.0
  0
LINE
  5
10F
330
48
100
AcDbEntity
  8
SLD-0
 62
     7
100
AcDbLine
 10
129.8192382998
 20
52.2403905834
 30
0.0
 11
128.9875
 21
52.2403905834
 31
0.0
  0
LINE
  5
110
330
48
100
AcDbEntity
  8
SLD-0
 62
     7
100
AcDbLine
 10
128.9875
 20
51.4870426033
 30
0.0
 11
130.2741520199
 21
50.2003905834
 31
0.0
  0
LINE
  5
111
330
48
100
AcDbEntity
  8
SLD-0
 62
     7
100
AcDbLine
 10
129.8192382998
 20
47.1603905834
 30
0.0
 11
128.9875
 21
47.1603905834
 31
0.0
  0
LINE
  5
112
330
48
100
AcDbEntity
  8
SLD-0
 62
     7
100
AcDbLine
 10
128.9875
 20
48.9470426033
 30
0.0
 11
130.2741520199
 21
47.6603905834
 31
0.0
  0
LINE
  5
113
330
48
100
AcDbEntity
  8
SLD-0
 62
     7
100
AcDbLine
 10
129.8192382998
 20
49.7003905834
 30
0.0
 11
128.9875
 21
49.7003905834
 31
0.0
  0
LINE
  5
114
330
48
100
AcDbEntity
  8
SLD-0
 62
     7
100
AcDbLine
 10
133.4875
 20
47.1603905834
 30
0.0
 11
124.5875
 21
47.1603905834
 31
0.0
  0
LINE
  5
115
330
48
100
AcDbEntity
  8
SLD-0
 62
     7
100
AcDbLine
 10
133.4875
 20
47.1603905834
 30
0.0
 11
124.5875
 21
47.1603905834
 31
0.0
  0
LINE
  5
116
330
48
100
AcDbEntity
  8
SLD-0
 62
     7
100
AcDbLine
 10
133.4875
 20
49.7003905834
 30
0.0
 11
124.5875
 21
49.7003905834
 31
0.0
  0
LINE
  5
117
330
48
100
AcDbEntity
  8
SLD-0
 62
     7
100
AcDbLine
 10
133.4875
 20
47.1603905834
 30
0.0
 11
124.5875
 21
47.1603905834
 31
0.0
  0
LINE
  5
118
330
48
100
AcDbEntity
  8
SLD-0
 62
     7
100
AcDbLine
 10
133.4875
 20
49.7003905834
 30
0.0
 11
124.5875
 21
49.7003905834
 31
0.0
  0
LINE
  5
119
330
48
100
AcDbEntity
  8
SLD-0
 62
     7
100
AcDbLine
 10
133.4875
 20
55.025
 30
0.0
 11
124.5875
 21
55.025
 31
0.0
  0
LINE
  5
11A
330
48
100
AcDbEntity
  8
SLD-0
 62
     7
100
AcDbLine
 10
133.4875
 20
52.2403905834
 30
0.0
 11
124.5875
 21
52.2403905834
 31
0.0
  0
LINE
  5
11B
330
48
100
AcDbEntity
  8
SLD-0
 62
     7
100
AcDbLine
 10
133.4875
 20
54.7803905834
 30
0.0
 11
124.5875
 21
54.7803905834
 31
0.0
  0
LINE
  5
11C
330
48
100
AcDbEntity
  8
SLD-0
 62
     7
100
AcDbLine
 10
125.2756197846
 20
49.7003905834
 30
0.0
 11
125.2756197846
 21
52.2403905834
 31
0.0
  0
LINE
  5
11D
330
48
100
AcDbEntity
  8
SLD-0
 62
     7
100
AcDbLine
 10
125.7375
 20
52.2403905834
 30
0.0
 11
125.7375
 21
49.7003905834
 31
0.0
  0
LINE
  5
11E
330
48
100
AcDbEntity
  8
SLD-0
 62
     7
100
AcDbLine
 10
124.9292096231
 20
52.2403905834
 30
0.0
 11
124.9292096231
 21
49.7003905834
 31
0.0
  0
LINE
  5
11F
330
48
100
AcDbEntity
  8
SLD-0
 62
     7
100
AcDbLine
 10
128.9875
 20
52.2403905834
 30
0.0
 11
128.9875
 21
52.1003905834
 31
0.0
  0
LINE
  5
120
330
48
100
AcDbEntity
  8
SLD-0
 62
     7
100
AcDbLine
 10
128.9875
 20
51.5003905834
 30
0.0
 11
128.9875
 21
51.4870426033
 31
0.0
  0
LINE
  5
121
330
48
100
AcDbEntity
  8
SLD-0
 62
     7
100
AcDbLine
 10
124.5875
 20
52.2403905834
 30
0.0
 11
124.7875
 21
52.2403905834
 31
0.0
  0
LINE
  5
122
330
48
100
AcDbEntity
  8
SLD-0
 62
     7
100
AcDbLine
 10
125.2756197846
 20
52.2403905834
 30
0.0
 11
125.7375
 21
52.2403905834
 31
0.0
  0
LINE
  5
123
330
48
100
AcDbEntity
  8
SLD-0
 62
     7
100
AcDbLine
 10
124.9292096231
 20
52.2403905834
 30
0.0
 11
125.2756197846
 21
52.2403905834
 31
0.0
  0
LINE
  5
124
330
48
100
AcDbEntity
  8
SLD-0
 62
     7
100
AcDbLine
 10
126.4841679003
 20
51.5003905834
 30
0.0
 11
126.4841679003
 21
52.1003905834
 31
0.0
  0
LINE
  5
125
330
48
100
AcDbEntity
  8
SLD-0
 62
     7
100
AcDbLine
 10
124.7875
 20
52.2403905834
 30
0.0
 11
124.9292096231
 21
52.2403905834
 31
0.0
  0
LINE
  5
126
330
48
100
AcDbEntity
  8
SLD-0
 62
     7
100
AcDbLine
 10
125.7375
 20
52.2403905834
 30
0.0
 11
128.9875
 21
52.2403905834
 31
0.0
  0
LINE
  5
127
330
48
100
AcDbEntity
  8
SLD-0
 62
     7
100
AcDbLine
 10
128.9875
 20
52.1003905834
 30
0.0
 11
126.4841679003
 21
52.1003905834
 31
0.0
  0
LINE
  5
128
330
48
100
AcDbEntity
  8
SLD-0
 62
     7
100
AcDbLine
 10
128.9875
 20
51.5003905834
 30
0.0
 11
126.4841679003
 21
51.5003905834
 31
0.0
  0
LINE
  5
129
330
48
100
AcDbEntity
  8
SLD-0
 62
     7
100
AcDbLine
 10
128.9875
 20
47.1603905834
 30
0.0
 11
128.9875
 21
47.0203905834
 31
0.0
  0
LINE
  5
12A
330
48
100
AcDbEntity
  8
SLD-0
 62
     7
100
AcDbLine
 10
128.9875
 20
46.4203905834
 30
0.0
 11
128.9875
 21
46.4070426033
 31
0.0
  0
LINE
  5
12B
330
48
100
AcDbEntity
  8
SLD-0
 62
     7
100
AcDbLine
 10
128.9875
 20
48.9603905834
 30
0.0
 11
128.9875
 21
48.9470426033
 31
0.0
  0
LINE
  5
12C
330
48
100
AcDbEntity
  8
SLD-0
 62
     7
100
AcDbLine
 10
128.9875
 20
49.7003905834
 30
0.0
 11
128.9875
 21
49.5603905834
 31
0.0
  0
LINE
  5
12D
330
48
100
AcDbEntity
  8
SLD-0
 62
     7
100
AcDbLine
 10
124.5875
 20
47.1603905834
 30
0.0
 11
124.7875
 21
47.1603905834
 31
0.0
  0
LINE
  5
12E
330
48
100
AcDbEntity
  8
SLD-0
 62
     7
100
AcDbLine
 10
124.5875
 20
49.7003905834
 30
0.0
 11
124.7875
 21
49.7003905834
 31
0.0
  0
LINE
  5
12F
330
48
100
AcDbEntity
  8
SLD-0
 62
     7
100
AcDbLine
 10
125.2756197846
 20
47.1603905834
 30
0.0
 11
125.7375
 21
47.1603905834
 31
0.0
  0
LINE
  5
130
330
48
100
AcDbEntity
  8
SLD-0
 62
     7
100
AcDbLine
 10
124.9292096231
 20
47.1603905834
 30
0.0
 11
125.2756197846
 21
47.1603905834
 31
0.0
  0
LINE
  5
131
330
48
100
AcDbEntity
  8
SLD-0
 62
     7
100
AcDbLine
 10
126.4841679003
 20
46.4203905834
 30
0.0
 11
126.4841679003
 21
47.0203905834
 31
0.0
  0
LINE
  5
132
330
48
100
AcDbEntity
  8
SLD-0
 62
     7
100
AcDbLine
 10
124.7875
 20
47.1603905834
 30
0.0
 11
124.9292096231
 21
47.1603905834
 31
0.0
  0
LINE
  5
133
330
48
100
AcDbEntity
  8
SLD-0
 62
     7
100
AcDbLine
 10
124.7875
 20
49.7003905834
 30
0.0
 11
124.9292096231
 21
49.7003905834
 31
0.0
  0
LINE
  5
134
330
48
100
AcDbEntity
  8
SLD-0
 62
     7
100
AcDbLine
 10
126.4841679003
 20
48.9603905834
 30
0.0
 11
126.4841679003
 21
49.5603905834
 31
0.0
  0
LINE
  5
135
330
48
100
AcDbEntity
  8
SLD-0
 62
     7
100
AcDbLine
 10
124.9292096231
 20
49.7003905834
 30
0.0
 11
125.2756197846
 21
49.7003905834
 31
0.0
  0
LINE
  5
136
330
48
100
AcDbEntity
  8
SLD-0
 62
     7
100
AcDbLine
 10
125.2756197846
 20
49.7003905834
 30
0.0
 11
125.7375
 21
49.7003905834
 31
0.0
  0
LINE
  5
137
330
48
100
AcDbEntity
  8
SLD-0
 62
     7
100
AcDbLine
 10
124.9292096231
 20
49.7003905834
 30
0.0
 11
124.9292096231
 21
47.1603905834
 31
0.0
  0
LINE
  5
138
330
48
100
AcDbEntity
  8
SLD-0
 62
     7
100
AcDbLine
 10
125.7375
 20
49.7003905834
 30
0.0
 11
125.7375
 21
47.1603905834
 31
0.0
  0
LINE
  5
139
330
48
100
AcDbEntity
  8
SLD-0
 62
     7
100
AcDbLine
 10
125.2756197846
 20
47.1603905834
 30
0.0
 11
125.2756197846
 21
49.7003905834
 31
0.0
  0
LINE
  5
13A
330
48
100
AcDbEntity
  8
SLD-0
 62
     7
100
AcDbLine
 10
125.7375
 20
47.1603905834
 30
0.0
 11
128.9875
 21
47.1603905834
 31
0.0
  0
LINE
  5
13B
330
48
100
AcDbEntity
  8
SLD-0
 62
     7
100
AcDbLine
 10
128.9875
 20
47.0203905834
 30
0.0
 11
126.4841679003
 21
47.0203905834
 31
0.0
  0
LINE
  5
13C
330
48
100
AcDbEntity
  8
SLD-0
 62
     7
100
AcDbLine
 10
128.9875
 20
46.4203905834
 30
0.0
 11
126.4841679003
 21
46.4203905834
 31
0.0
  0
LINE
  5
13D
330
48
100
AcDbEntity
  8
SLD-0
 62
     7
100
AcDbLine
 10
128.9875
 20
48.9603905834
 30
0.0
 11
126.4841679003
 21
48.9603905834
 31
0.0
  0
LINE
  5
13E
330
48
100
AcDbEntity
  8
SLD-0
 62
     7
100
AcDbLine
 10
128.9875
 20
49.5603905834
 30
0.0
 11
126.4841679003
 21
49.5603905834
 31
0.0
  0
LINE
  5
13F
330
48
100
AcDbEntity
  8
SLD-0
 62
     7
100
AcDbLine
 10
125.7375
 20
49.7003905834
 30
0.0
 11
128.9875
 21
49.7003905834
 31
0.0
  0
LINE
  5
140
330
48
100
AcDbEntity
  8
SLD-0
 62
     7
100
AcDbLine
 10
133.2875
 20
51.9003905834
 30
0.0
 11
133.2875
 21
50.5003905834
 31
0.0
  0
LINE
  5
141
330
48
100
AcDbEntity
  8
SLD-0
 62
     7
100
AcDbLine
 10
133.4875
 20
50.3003905834
 30
0.0
 11
133.4875
 21
52.1003905834
 31
0.0
  0
LINE
  5
142
330
48
100
AcDbEntity
  8
SLD-0
 62
     7
100
AcDbLine
 10
131.9875
 20
50.5003905834
 30
0.0
 11
131.1339466094
 21
51.353943974
 31
0.0
  0
LINE
  5
143
330
48
100
AcDbEntity
  8
SLD-0
 62
     7
100
AcDbLine
 10
133.4875
 20
52.1003905834
 30
0.0
 11
133.4875
 21
52.2403905834
 31
0.0
  0
LINE
  5
144
330
48
100
AcDbEntity
  8
SLD-0
 62
     7
100
AcDbLine
 10
133.4875
 20
52.1003905834
 30
0.0
 11
133.2875
 21
51.9003905834
 31
0.0
  0
LINE
  5
145
330
48
100
AcDbEntity
  8
SLD-0
 62
     7
100
AcDbLine
 10
131.7557617002
 20
52.2403905834
 30
0.0
 11
129.8192382998
 21
52.2403905834
 31
0.0
  0
LINE
  5
146
330
48
100
AcDbEntity
  8
SLD-0
 62
     7
100
AcDbLine
 10
131.0363893227
 20
51.9539059215
 30
0.0
 11
130.9947730345
 21
51.9795203274
 31
0.0
  0
LINE
  5
147
330
48
100
AcDbEntity
  8
SLD-0
 62
     7
100
AcDbLine
 10
131.1214745962
 20
51.9003905834
 30
0.0
 11
131.1214745962
 21
51.3659907666
 31
0.0
  0
LINE
  5
148
330
48
100
AcDbEntity
  8
SLD-0
 62
     7
100
AcDbLine
 10
130.8714745962
 20
52.0497479439
 30
0.0
 11
130.8714745962
 21
51.4920247794
 31
0.0
  0
LINE
  5
149
330
48
100
AcDbEntity
  8
SLD-0
 62
     7
100
AcDbLine
 10
130.6410898385
 20
52.1003905834
 30
0.0
 11
133.4875
 21
52.1003905834
 31
0.0
  0
LINE
  5
14A
330
48
100
AcDbEntity
  8
SLD-0
 62
     7
100
AcDbLine
 10
133.4875
 20
52.2403905834
 30
0.0
 11
131.7557617002
 21
52.2403905834
 31
0.0
  0
LINE
  5
14B
330
48
100
AcDbEntity
  8
SLD-0
 62
     7
100
AcDbLine
 10
131.1214745962
 20
51.9003905834
 30
0.0
 11
133.2875
 21
51.9003905834
 31
0.0
  0
LINE
  5
14C
330
48
100
AcDbEntity
  8
SLD-0
 62
     7
100
AcDbLine
 10
133.4875
 20
49.7003905834
 30
0.0
 11
133.4875
 21
50.2003905834
 31
0.0
  0
LINE
  5
14D
330
48
100
AcDbEntity
  8
SLD-0
 62
     7
100
AcDbLine
 10
133.4875
 20
50.3003905834
 30
0.0
 11
132.3946067812
 21
50.3003905834
 31
0.0
  0
LINE
  5
14E
330
48
100
AcDbEntity
  8
SLD-0
 62
     7
100
AcDbLine
 10
133.4875
 20
50.2003905834
 30
0.0
 11
133.4875
 21
50.3003905834
 31
0.0
  0
LINE
  5
14F
330
48
100
AcDbEntity
  8
SLD-0
 62
     7
100
AcDbLine
 10
133.0875
 20
50.2003905834
 30
0.0
 11
133.4875
 21
50.2003905834
 31
0.0
  0
LINE
  5
150
330
48
100
AcDbEntity
  8
SLD-0
 62
     7
100
AcDbLine
 10
133.2875
 20
50.5003905834
 30
0.0
 11
131.9875
 21
50.5003905834
 31
0.0
  0
LINE
  5
151
330
48
100
AcDbEntity
  8
SLD-0
 62
     7
100
AcDbLine
 10
131.9875
 20
50.5003905834
 30
0.0
 11
132.0410533906
 21
50.4468371928
 31
0.0
  0
LINE
  5
152
330
48
100
AcDbEntity
  8
SLD-0
 62
     7
100
AcDbLine
 10
133.4875
 20
50.3003905834
 30
0.0
 11
133.2875
 21
50.5003905834
 31
0.0
  0
LINE
  5
153
330
48
100
AcDbEntity
  8
SLD-0
 62
     7
100
AcDbLine
 10
133.4875
 20
47.0203905834
 30
0.0
 11
133.4875
 21
47.1603905834
 31
0.0
  0
LINE
  5
154
330
48
100
AcDbEntity
  8
SLD-0
 62
     7
100
AcDbLine
 10
133.4875
 20
47.0203905834
 30
0.0
 11
133.2875
 21
46.8203905834
 31
0.0
  0
LINE
  5
155
330
48
100
AcDbEntity
  8
SLD-0
 62
     7
100
AcDbLine
 10
133.4875
 20
47.7603905834
 30
0.0
 11
133.2875
 21
47.9603905834
 31
0.0
  0
LINE
  5
156
330
48
100
AcDbEntity
  8
SLD-0
 62
     7
100
AcDbLine
 10
133.4875
 20
47.7603905834
 30
0.0
 11
133.4875
 21
49.5603905834
 31
0.0
  0
LINE
  5
157
330
48
100
AcDbEntity
  8
SLD-0
 62
     7
100
AcDbLine
 10
131.9875
 20
47.9603905834
 30
0.0
 11
132.0410533906
 21
47.9068371928
 31
0.0
  0
LINE
  5
158
330
48
100
AcDbEntity
  8
SLD-0
 62
     7
100
AcDbLine
 10
133.4875
 20
49.5603905834
 30
0.0
 11
133.2875
 21
49.3603905834
 31
0.0
  0
LINE
  5
159
330
48
100
AcDbEntity
  8
SLD-0
 62
     7
100
AcDbLine
 10
133.4875
 20
49.5603905834
 30
0.0
 11
133.4875
 21
49.7003905834
 31
0.0
  0
LINE
  5
15A
330
48
100
AcDbEntity
  8
SLD-0
 62
     7
100
AcDbLine
 10
133.2875
 20
49.3603905834
 30
0.0
 11
133.2875
 21
47.9603905834
 31
0.0
  0
LINE
  5
15B
330
48
100
AcDbEntity
  8
SLD-0
 62
     7
100
AcDbLine
 10
133.2875
 20
47.9603905834
 30
0.0
 11
131.9875
 21
47.9603905834
 31
0.0
  0
LINE
  5
15C
330
48
100
AcDbEntity
  8
SLD-0
 62
     7
100
AcDbLine
 10
133.0875
 20
47.6603905834
 30
0.0
 11
133.4875
 21
47.6603905834
 31
0.0
  0
LINE
  5
15D
330
48
100
AcDbEntity
  8
SLD-0
 62
     7
100
AcDbLine
 10
133.4875
 20
47.6603905834
 30
0.0
 11
133.4875
 21
47.7603905834
 31
0.0
  0
LINE
  5
15E
330
48
100
AcDbEntity
  8
SLD-0
 62
     7
100
AcDbLine
 10
133.4875
 20
47.7603905834
 30
0.0
 11
132.3946067812
 21
47.7603905834
 31
0.0
  0
LINE
  5
15F
330
48
100
AcDbEntity
  8
SLD-0
 62
     7
100
AcDbLine
 10
133.4875
 20
47.1603905834
 30
0.0
 11
133.4875
 21
47.6603905834
 31
0.0
  0
LINE
  5
160
330
48
100
AcDbEntity
  8
SLD-0
 62
     7
100
AcDbLine
 10
131.7557617002
 20
47.1603905834
 30
0.0
 11
129.8192382998
 21
47.1603905834
 31
0.0
  0
LINE
  5
161
330
48
100
AcDbEntity
  8
SLD-0
 62
     7
100
AcDbLine
 10
131.7557617002
 20
49.7003905834
 30
0.0
 11
129.8192382998
 21
49.7003905834
 31
0.0
  0
LINE
  5
162
330
48
100
AcDbEntity
  8
SLD-0
 62
     7
100
AcDbLine
 10
131.0363893227
 20
49.4139059215
 30
0.0
 11
130.9947730345
 21
49.4395203274
 31
0.0
  0
LINE
  5
163
330
48
100
AcDbEntity
  8
SLD-0
 62
     7
100
AcDbLine
 10
131.0363893227
 20
46.8739059215
 30
0.0
 11
130.9947730345
 21
46.8995203274
 31
0.0
  0
LINE
  5
164
330
48
100
AcDbEntity
  8
SLD-0
 62
     7
100
AcDbLine
 10
130.8714745962
 20
46.9697479439
 30
0.0
 11
130.8714745962
 21
46.4120247794
 31
0.0
  0
LINE
  5
165
330
48
100
AcDbEntity
  8
SLD-0
 62
     7
100
AcDbLine
 10
130.8714745962
 20
49.5097479439
 30
0.0
 11
130.8714745962
 21
48.9520247794
 31
0.0
  0
LINE
  5
166
330
48
100
AcDbEntity
  8
SLD-0
 62
     7
100
AcDbLine
 10
131.1214745962
 20
49.3603905834
 30
0.0
 11
131.1214745962
 21
48.8259907666
 31
0.0
  0
LINE
  5
167
330
48
100
AcDbEntity
  8
SLD-0
 62
     7
100
AcDbLine
 10
133.0875
 20
47.6603905834
 30
0.0
 11
130.2741520199
 21
47.6603905834
 31
0.0
  0
LINE
  5
168
330
48
100
AcDbEntity
  8
SLD-0
 62
     7
100
AcDbLine
 10
133.0875
 20
50.2003905834
 30
0.0
 11
130.2741520199
 21
50.2003905834
 31
0.0
  0
LINE
  5
169
330
48
100
AcDbEntity
  8
SLD-0
 62
     7
100
AcDbLine
 10
130.6410898385
 20
47.0203905834
 30
0.0
 11
133.4875
 21
47.0203905834
 31
0.0
  0
LINE
  5
16A
330
48
100
AcDbEntity
  8
SLD-0
 62
     7
100
AcDbLine
 10
133.4875
 20
47.1603905834
 30
0.0
 11
131.7557617002
 21
47.1603905834
 31
0.0
  0
LINE
  5
16B
330
48
100
AcDbEntity
  8
SLD-0
 62
     7
100
AcDbLine
 10
131.1214745962
 20
46.8203905834
 30
0.0
 11
133.2875
 21
46.8203905834
 31
0.0
  0
LINE
  5
16C
330
48
100
AcDbEntity
  8
SLD-0
 62
     7
100
AcDbLine
 10
131.9875
 20
47.9603905834
 30
0.0
 11
131.1339466094
 21
48.813943974
 31
0.0
  0
LINE
  5
16D
330
48
100
AcDbEntity
  8
SLD-0
 62
     7
100
AcDbLine
 10
131.1214745962
 20
49.3603905834
 30
0.0
 11
133.2875
 21
49.3603905834
 31
0.0
  0
LINE
  5
16E
330
48
100
AcDbEntity
  8
SLD-0
 62
     7
100
AcDbLine
 10
133.4875
 20
49.7003905834
 30
0.0
 11
131.7557617002
 21
49.7003905834
 31
0.0
  0
LINE
  5
16F
330
48
100
AcDbEntity
  8
SLD-0
 62
     7
100
AcDbLine
 10
130.6410898385
 20
49.5603905834
 30
0.0
 11
133.4875
 21
49.5603905834
 31
0.0
  0
LINE
  5
170
330
48
100
AcDbEntity
  8
SLD-0
 62
     7
370
     0
100
AcDbLine
 10
140.2047854028
 20
41.3904553886
 30
0.0
 11
124.7875
 21
41.525
 31
0.0
  0
LINE
  5
171
330
48
100
AcDbEntity
  8
SLD-0
 62
     7
100
AcDbLine
 10
130.7803932188
 20
43.8803905834
 30
0.0
 11
128.9875
 21
43.8803905834
 31
0.0
  0
LINE
  5
172
330
48
100
AcDbEntity
  8
SLD-0
 62
     7
100
AcDbLine
 10
130.6410898385
 20
44.4803905834
 30
0.0
 11
128.9875
 21
44.4803905834
 31
0.0
  0
LINE
  5
173
330
48
100
AcDbEntity
  8
SLD-0
 62
     7
100
AcDbLine
 10
129.8192382998
 20
44.6203905834
 30
0.0
 11
128.9875
 21
44.6203905834
 31
0.0
  0
LINE
  5
174
330
48
100
AcDbEntity
  8
SLD-0
 62
     7
100
AcDbLine
 10
128.9875
 20
43.8670426033
 30
0.0
 11
130.2741520199
 21
42.5803905834
 31
0.0
  0
LINE
  5
175
330
48
100
AcDbEntity
  8
SLD-0
 62
     7
100
AcDbLine
 10
133.4875
 20
42.0803905834
 30
0.0
 11
124.5875
 21
42.0803905834
 31
0.0
  0
LINE
  5
176
330
48
100
AcDbEntity
  8
SLD-0
 62
     7
100
AcDbLine
 10
133.4875
 20
44.6203905834
 30
0.0
 11
124.5875
 21
44.6203905834
 31
0.0
  0
LINE
  5
177
330
48
100
AcDbEntity
  8
SLD-0
 62
     7
100
AcDbLine
 10
133.4875
 20
44.6203905834
 30
0.0
 11
124.5875
 21
44.6203905834
 31
0.0
  0
LINE
  5
178
330
48
100
AcDbEntity
  8
SLD-0
 62
     7
100
AcDbLine
 10
133.4875
 20
44.6203905834
 30
0.0
 11
124.5875
 21
44.6203905834
 31
0.0
  0
LINE
  5
179
330
48
100
AcDbEntity
  8
SLD-0
 62
     7
100
AcDbLine
 10
133.4875
 20
44.6203905834
 30
0.0
 11
124.5875
 21
44.6203905834
 31
0.0
  0
LINE
  5
17A
330
48
100
AcDbEntity
  8
SLD-0
 62
     7
100
AcDbLine
 10
133.4875
 20
41.525
 30
0.0
 11
124.5875
 21
41.525
 31
0.0
  0
LINE
  5
17B
330
48
100
AcDbEntity
  8
SLD-0
 62
     7
100
AcDbLine
 10
128.9875
 20
43.8803905834
 30
0.0
 11
128.9875
 21
43.8670426033
 31
0.0
  0
LINE
  5
17C
330
48
100
AcDbEntity
  8
SLD-0
 62
     7
100
AcDbLine
 10
128.9875
 20
44.6203905834
 30
0.0
 11
128.9875
 21
44.4803905834
 31
0.0
  0
LINE
  5
17D
330
48
100
AcDbEntity
  8
SLD-0
 62
     7
100
AcDbLine
 10
124.5875
 20
44.6203905834
 30
0.0
 11
124.7875
 21
44.6203905834
 31
0.0
  0
LINE
  5
17E
330
48
100
AcDbEntity
  8
SLD-0
 62
     7
100
AcDbLine
 10
124.7875
 20
44.6203905834
 30
0.0
 11
124.9292096231
 21
44.6203905834
 31
0.0
  0
LINE
  5
17F
330
48
100
AcDbEntity
  8
SLD-0
 62
     7
100
AcDbLine
 10
126.4841679003
 20
43.8803905834
 30
0.0
 11
126.4841679003
 21
44.4803905834
 31
0.0
  0
LINE
  5
180
330
48
100
AcDbEntity
  8
SLD-0
 62
     7
100
AcDbLine
 10
124.9292096231
 20
44.6203905834
 30
0.0
 11
125.2756197846
 21
44.6203905834
 31
0.0
  0
LINE
  5
181
330
48
100
AcDbEntity
  8
SLD-0
 62
     7
100
AcDbLine
 10
125.2756197846
 20
44.6203905834
 30
0.0
 11
125.7375
 21
44.6203905834
 31
0.0
  0
LINE
  5
182
330
48
100
AcDbEntity
  8
SLD-0
 62
     7
100
AcDbLine
 10
124.9292096231
 20
44.6203905834
 30
0.0
 11
124.9292096231
 21
42.0803905834
 31
0.0
  0
LINE
  5
183
330
48
100
AcDbEntity
  8
SLD-0
 62
     7
100
AcDbLine
 10
125.7375
 20
44.6203905834
 30
0.0
 11
125.7375
 21
42.0803905834
 31
0.0
  0
LINE
  5
184
330
48
100
AcDbEntity
  8
SLD-0
 62
     7
100
AcDbLine
 10
125.2756197846
 20
42.0803905834
 30
0.0
 11
125.2756197846
 21
44.6203905834
 31
0.0
  0
LINE
  5
185
330
48
100
AcDbEntity
  8
SLD-0
 62
     7
100
AcDbLine
 10
128.9875
 20
43.8803905834
 30
0.0
 11
126.4841679003
 21
43.8803905834
 31
0.0
  0
LINE
  5
186
330
48
100
AcDbEntity
  8
SLD-0
 62
     7
100
AcDbLine
 10
128.9875
 20
44.4803905834
 30
0.0
 11
126.4841679003
 21
44.4803905834
 31
0.0
  0
LINE
  5
187
330
48
100
AcDbEntity
  8
SLD-0
 62
     7
100
AcDbLine
 10
125.7375
 20
44.6203905834
 30
0.0
 11
128.9875
 21
44.6203905834
 31
0.0
  0
LINE
  5
188
330
48
100
AcDbEntity
  8
SLD-0
 62
     7
100
AcDbLine
 10
133.4875
 20
42.6803905834
 30
0.0
 11
133.2875
 21
42.8803905834
 31
0.0
  0
LINE
  5
189
330
48
100
AcDbEntity
  8
SLD-0
 62
     7
100
AcDbLine
 10
131.9875
 20
42.8803905834
 30
0.0
 11
132.0410533906
 21
42.8268371928
 31
0.0
  0
LINE
  5
18A
330
48
100
AcDbEntity
  8
SLD-0
 62
     7
100
AcDbLine
 10
133.2875
 20
42.8803905834
 30
0.0
 11
131.9875
 21
42.8803905834
 31
0.0
  0
LINE
  5
18B
330
48
100
AcDbEntity
  8
SLD-0
 62
     7
100
AcDbLine
 10
133.0875
 20
42.5803905834
 30
0.0
 11
133.4875
 21
42.5803905834
 31
0.0
  0
LINE
  5
18C
330
48
100
AcDbEntity
  8
SLD-0
 62
     7
100
AcDbLine
 10
133.4875
 20
42.5803905834
 30
0.0
 11
133.4875
 21
42.6803905834
 31
0.0
  0
LINE
  5
18D
330
48
100
AcDbEntity
  8
SLD-0
 62
     7
100
AcDbLine
 10
133.4875
 20
42.6803905834
 30
0.0
 11
132.3946067812
 21
42.6803905834
 31
0.0
  0
LINE
  5
18E
330
48
100
AcDbEntity
  8
SLD-0
 62
     7
100
AcDbLine
 10
133.4875
 20
42.0803905834
 30
0.0
 11
133.4875
 21
42.5803905834
 31
0.0
  0
LINE
  5
18F
330
48
100
AcDbEntity
  8
SLD-0
 62
     7
100
AcDbLine
 10
133.4875
 20
44.4803905834
 30
0.0
 11
133.2875
 21
44.2803905834
 31
0.0
  0
LINE
  5
190
330
48
100
AcDbEntity
  8
SLD-0
 62
     7
100
AcDbLine
 10
133.4875
 20
44.4803905834
 30
0.0
 11
133.4875
 21
44.6203905834
 31
0.0
  0
LINE
  5
191
330
48
100
AcDbEntity
  8
SLD-0
 62
     7
100
AcDbLine
 10
133.4875
 20
42.6803905834
 30
0.0
 11
133.4875
 21
44.4803905834
 31
0.0
  0
LINE
  5
192
330
48
100
AcDbEntity
  8
SLD-0
 62
     7
100
AcDbLine
 10
133.2875
 20
44.2803905834
 30
0.0
 11
133.2875
 21
42.8803905834
 31
0.0
  0
LINE
  5
193
330
48
100
AcDbEntity
  8
SLD-0
 62
     7
100
AcDbLine
 10
133.4875
 20
44.6203905834
 30
0.0
 11
133.4875
 21
45.1203905834
 31
0.0
  0
LINE
  5
194
330
48
100
AcDbEntity
  8
SLD-0
 62
     7
100
AcDbLine
 10
133.4875
 20
45.2203905834
 30
0.0
 11
132.3946067812
 21
45.2203905834
 31
0.0
  0
LINE
  5
195
330
48
100
AcDbEntity
  8
SLD-0
 62
     7
100
AcDbLine
 10
133.4875
 20
45.1203905834
 30
0.0
 11
133.4875
 21
45.2203905834
 31
0.0
  0
LINE
  5
196
330
48
100
AcDbEntity
  8
SLD-0
 62
     7
100
AcDbLine
 10
133.0875
 20
45.1203905834
 30
0.0
 11
133.4875
 21
45.1203905834
 31
0.0
  0
LINE
  5
197
330
48
100
AcDbEntity
  8
SLD-0
 62
     7
100
AcDbLine
 10
133.2875
 20
45.4203905834
 30
0.0
 11
131.9875
 21
45.4203905834
 31
0.0
  0
LINE
  5
198
330
48
100
AcDbEntity
  8
SLD-0
 62
     7
100
AcDbLine
 10
131.9875
 20
45.4203905834
 30
0.0
 11
132.0410533906
 21
45.3668371928
 31
0.0
  0
LINE
  5
199
330
48
100
AcDbEntity
  8
SLD-0
 62
     7
100
AcDbLine
 10
133.4875
 20
45.2203905834
 30
0.0
 11
133.2875
 21
45.4203905834
 31
0.0
  0
LINE
  5
19A
330
48
100
AcDbEntity
  8
SLD-0
 62
     7
100
AcDbLine
 10
131.7557617002
 20
44.6203905834
 30
0.0
 11
129.8192382998
 21
44.6203905834
 31
0.0
  0
LINE
  5
19B
330
48
100
AcDbEntity
  8
SLD-0
 62
     7
100
AcDbLine
 10
131.0363893227
 20
44.3339059215
 30
0.0
 11
130.9947730345
 21
44.3595203274
 31
0.0
  0
LINE
  5
19C
330
48
100
AcDbEntity
  8
SLD-0
 62
     7
100
AcDbLine
 10
130.8714745962
 20
44.4297479439
 30
0.0
 11
130.8714745962
 21
43.8720247794
 31
0.0
  0
LINE
  5
19D
330
48
100
AcDbEntity
  8
SLD-0
 62
     7
100
AcDbLine
 10
131.1214745962
 20
44.2803905834
 30
0.0
 11
131.1214745962
 21
43.7459907666
 31
0.0
  0
LINE
  5
19E
330
48
100
AcDbEntity
  8
SLD-0
 62
     7
100
AcDbLine
 10
131.9875
 20
45.4203905834
 30
0.0
 11
131.1339466094
 21
46.273943974
 31
0.0
  0
LINE
  5
19F
330
48
100
AcDbEntity
  8
SLD-0
 62
     7
100
AcDbLine
 10
133.0875
 20
42.5803905834
 30
0.0
 11
130.2741520199
 21
42.5803905834
 31
0.0
  0
LINE
  5
1A0
330
48
100
AcDbEntity
  8
SLD-0
 62
     7
100
AcDbLine
 10
133.0875
 20
45.1203905834
 30
0.0
 11
130.2741520199
 21
45.1203905834
 31
0.0
  0
LINE
  5
1A1
330
48
100
AcDbEntity
  8
SLD-0
 62
     7
100
AcDbLine
 10
131.1214745962
 20
44.2803905834
 30
0.0
 11
133.2875
 21
44.2803905834
 31
0.0
  0
LINE
  5
1A2
330
48
100
AcDbEntity
  8
SLD-0
 62
     7
100
AcDbLine
 10
133.4875
 20
44.6203905834
 30
0.0
 11
131.7557617002
 21
44.6203905834
 31
0.0
  0
LINE
  5
1A3
330
48
100
AcDbEntity
  8
SLD-0
 62
     7
100
AcDbLine
 10
130.6410898385
 20
44.4803905834
 30
0.0
 11
133.4875
 21
44.4803905834
 31
0.0
  0
LINE
  5
1A4
330
48
100
AcDbEntity
  8
SLD-0
 62
     7
100
AcDbLine
 10
131.9875
 20
42.8803905834
 30
0.0
 11
131.1339466094
 21
43.733943974
 31
0.0
  0
LINE
  5
1A5
330
48
100
AcDbEntity
  8
SLD-0
 62
     7
370
     0
100
AcDbLine
 10
101.9
 20
11.2199170683
 30
0.0
 11
134.3122583946
 21
11.5310619702
 31
0.0
  0
LINE
  5
1A6
330
48
100
AcDbEntity
  8
SLD-0
 62
     7
370
     0
100
AcDbLine
 10
124.0936085748
 20
24.6662837902
 30
0.0
 11
102.3956367323
 21
24.4769284586
 31
0.0
  0
LINE
  5
1A7
330
48
100
AcDbEntity
  8
SLD-0
 62
     7
100
AcDbLine
 10
124.0918632677
 20
24.8662761748
 30
0.0
 11
93.55
 21
24.599741372
 31
0.0
  0
LINE
  5
1A8
330
48
100
AcDbEntity
  8
SLD-0
 62
     7
100
AcDbLine
 10
93.4
 20
24.45
 30
0.0
 11
101.2043632677
 21
24.3818923536
 31
0.0
  0
LINE
  5
1A9
330
48
100
AcDbEntity
  8
SLD-0
 62
     7
100
AcDbLine
 10
101.2043632677
 20
11.2155917121
 30
0.0
 11
76.5
 21
11.0
 31
0.0
  0
LINE
  5
1AA
330
48
100
AcDbEntity
  8
SLD-0
 62
     7
100
AcDbLine
 10
76.5
 20
11.0
 30
0.0
 11
76.3
 21
11.0
 31
0.0
  0
LINE
  5
1AB
330
48
100
AcDbEntity
  8
SLD-0
 62
     7
370
     0
100
AcDbLine
 10
101.9
 20
23.9769474971
 30
0.0
 11
101.9
 21
11.2199170683
 31
0.0
  0
LINE
  5
1AC
330
48
100
AcDbEntity
  8
SLD-0
 62
     7
100
AcDbLine
 10
101.7
 20
11.7155726736
 30
0.0
 11
101.7
 21
23.881911392
 31
0.0
  0
ENDBLK
  5
4A
330
48
100
AcDbEntity
  8
0
100
AcDbBlockEnd
  0
BLOCK
  5
1AE
330
1AD
100
AcDbEntity
  8
0
100
AcDbBlockBegin
  2
ﾌﾞﾛｯｸ6
 70
     0
 71
     0
 10
0.0
 20
0.0
 30
0.0
  3
ﾌﾞﾛｯｸ6
  1

  0
ARC
  5
1B0
330
1AD
100
AcDbEntity
  8
SLD-0
 62
     7
100
AcDbCircle
 10
84.6
 20
13.8999993707
 30
0.0
 40
9.999999999999968
100
AcDbArc
 50
351.0107006548
 51
8.9892993452
  0
ARC
  5
1B1
330
1AD
100
AcDbEntity
  8
SLD-0
 62
     7
100
AcDbCircle
 10
92.5017403146
 20
15.1499993707
 30
0.0
 40
2.000000000000164
100
AcDbArc
 50
8.9892993452
 51
90.0
  0
ARC
  5
1B2
330
1AD
100
AcDbEntity
  8
SLD-0
 62
     7
370
     0
100
AcDbCircle
 10
99.6276807385
 20
18.5117257208
 30
0.0
 40
0.7276807384975528
100
AcDbArc
 50
91.0
 51
269.0
  0
ARC
  5
1B3
330
1AD
100
AcDbEntity
  8
SLD-0
 62
     7
100
AcDbCircle
 10
96.8909715081
 20
5.5266890886
 30
0.0
 40
1.500000000000002
100
AcDbArc
 50
6.7563270306
 51
90.0
  0
ARC
  5
1B4
330
1AD
100
AcDbEntity
  8
SLD-0
 62
     7
100
AcDbCircle
 10
96.8909715081
 20
3.5266890886
 30
0.0
 40
1.500000000000001
100
AcDbArc
 50
270.0
 51
353.2436729694
  0
ARC
  5
1B5
330
1AD
100
AcDbEntity
  8
SLD-0
 62
     7
100
AcDbCircle
 10
92.5017403146
 20
12.6499993707
 30
0.0
 40
2.000000000000177
100
AcDbArc
 50
270.0
 51
351.0107006548
  0
ARC
  5
1B6
330
1AD
100
AcDbEntity
  8
SLD-0
 62
     7
100
AcDbCircle
 10
88.45
 20
4.5266890886
 30
0.0
 40
9.999999999999847
100
AcDbArc
 50
353.2436729694
 51
6.7563270306
  0
ARC
  5
1B7
330
1AD
100
AcDbEntity
  8
SLD-0
 62
     7
370
     0
100
AcDbCircle
 10
99.6276807385
 20
2.5999993707
 30
0.0
 40
0.7276807384975502
100
AcDbArc
 50
91.0
 51
269.0
  0
ARC
  5
1B8
330
1AD
100
AcDbEntity
  8
SLD-0
 62
     7
370
     0
100
AcDbCircle
 10
114.4758862583
 20
10.7999993707
 30
0.0
 40
27.01161374168033
100
AcDbArc
 50
339.2722272159
 51
20.7277727841
  0
ARC
  5
1B9
330
1AD
100
AcDbEntity
  8
SLD-0
 62
     7
370
     0
100
AcDbCircle
 10
138.8038354125
 20
20.0062439578
 30
0.0
 40
0.9999999999996442
100
AcDbArc
 50
20.727772784
 51
89.5
  0
ARC
  5
1BA
330
1AD
100
AcDbEntity
  8
SLD-0
 62
     7
370
     0
100
AcDbCircle
 10
138.8038354125
 20
1.5937547836
 30
0.0
 40
0.9999999999998374
100
AcDbArc
 50
270.5
 51
339.272227216
  0
LINE
  5
1BB
330
1AD
100
AcDbEntity
  8
SLD-0
 62
     7
100
AcDbLine
 10
34.05
 20
21.45
 30
0.0
 11
32.55
 21
21.45
 31
0.0
  0
LINE
  5
1BC
330
1AD
100
AcDbEntity
  8
SLD-0
 62
     7
100
AcDbLine
 10
34.05
 20
0.05
 30
0.0
 11
32.55
 21
0.05
 31
0.0
  0
LINE
  5
1BD
330
1AD
100
AcDbEntity
  8
SLD-0
  6
CENTERX2
 62
     7
370
     0
100
AcDbLine
 10
0.0
 20
10.8
 30
0.0
 11
150.25
 21
10.8
 31
0.0
  0
LINE
  5
1BE
330
1AD
100
AcDbEntity
  8
SLD-0
 62
     7
100
AcDbLine
 10
32.55
 20
21.45
 30
0.0
 11
32.3
 21
13.0420353982
 31
0.0
  0
LINE
  5
1BF
330
1AD
100
AcDbEntity
  8
SLD-0
 62
     7
100
AcDbLine
 10
24.3
 20
12.9004424779
 30
0.0
 11
24.05
 21
21.45
 31
0.0
  0
LINE
  5
1C0
330
1AD
100
AcDbEntity
  8
SLD-0
 62
     7
100
AcDbLine
 10
22.55
 20
21.45
 30
0.0
 11
22.3
 21
12.8650442478
 31
0.0
  0
LINE
  5
1C1
330
1AD
100
AcDbEntity
  8
SLD-0
 62
     7
100
AcDbLine
 10
15.8
 20
12.85
 30
0.0
 11
15.8
 21
21.45
 31
0.0
  0
LINE
  5
1C2
330
1AD
100
AcDbEntity
  8
SLD-0
 62
     7
100
AcDbLine
 10
13.8
 20
19.5
 30
0.0
 11
13.8
 21
2.0
 31
0.0
  0
LINE
  5
1C3
330
1AD
100
AcDbEntity
  8
SLD-0
 62
     7
100
AcDbLine
 10
15.8
 20
21.45
 30
0.0
 11
9.8
 21
21.45
 31
0.0
  0
LINE
  5
1C4
330
1AD
100
AcDbEntity
  8
SLD-0
 62
     7
100
AcDbLine
 10
11.8
 20
19.5
 30
0.0
 11
13.8
 21
19.5
 31
0.0
  0
LINE
  5
1C5
330
1AD
100
AcDbEntity
  8
SLD-0
 62
     7
100
AcDbLine
 10
9.8
 20
21.45
 30
0.0
 11
9.8
 21
18.5
 31
0.0
  0
LINE
  5
1C6
330
1AD
100
AcDbEntity
  8
SLD-0
 62
     7
100
AcDbLine
 10
11.8
 20
18.5
 30
0.0
 11
11.8
 21
19.5
 31
0.0
  0
LINE
  5
1C7
330
1AD
100
AcDbEntity
  8
SLD-0
 62
     7
100
AcDbLine
 10
9.8
 20
20.0
 30
0.0
 11
9.8
 21
21.5
 31
0.0
  0
LINE
  5
1C8
330
1AD
100
AcDbEntity
  8
SLD-0
 62
     7
100
AcDbLine
 10
9.8
 20
18.5
 30
0.0
 11
11.8
 21
18.5
 31
0.0
  0
LINE
  5
1C9
330
1AD
100
AcDbEntity
  8
SLD-0
 62
     7
100
AcDbLine
 10
24.05
 20
21.45
 30
0.0
 11
22.55
 21
21.45
 31
0.0
  0
LINE
  5
1CA
330
1AD
100
AcDbEntity
  8
SLD-0
 62
     7
100
AcDbLine
 10
9.8
 20
0.05
 30
0.0
 11
15.8
 21
0.05
 31
0.0
  0
LINE
  5
1CB
330
1AD
100
AcDbEntity
  8
SLD-0
 62
     7
100
AcDbLine
 10
13.8
 20
2.0
 30
0.0
 11
11.8
 21
2.0
 31
0.0
  0
LINE
  5
1CC
330
1AD
100
AcDbEntity
  8
SLD-0
 62
     7
100
AcDbLine
 10
9.8
 20
0.0
 30
0.0
 11
9.8
 21
1.5
 31
0.0
  0
LINE
  5
1CD
330
1AD
100
AcDbEntity
  8
SLD-0
 62
     7
100
AcDbLine
 10
9.8
 20
3.0
 30
0.0
 11
9.8
 21
0.05
 31
0.0
  0
LINE
  5
1CE
330
1AD
100
AcDbEntity
  8
SLD-0
 62
     7
100
AcDbLine
 10
11.8
 20
3.0
 30
0.0
 11
9.8
 21
3.0
 31
0.0
  0
LINE
  5
1CF
330
1AD
100
AcDbEntity
  8
SLD-0
 62
     7
100
AcDbLine
 10
11.8
 20
2.0
 30
0.0
 11
11.8
 21
3.0
 31
0.0
  0
LINE
  5
1D0
330
1AD
100
AcDbEntity
  8
SLD-0
 62
     7
100
AcDbLine
 10
24.3
 20
8.5995575221
 30
0.0
 11
24.05
 21
0.05
 31
0.0
  0
LINE
  5
1D1
330
1AD
100
AcDbEntity
  8
SLD-0
 62
     7
100
AcDbLine
 10
22.55
 20
0.05
 30
0.0
 11
22.3
 21
8.6349557522
 31
0.0
  0
LINE
  5
1D2
330
1AD
100
AcDbEntity
  8
SLD-0
 62
     7
100
AcDbLine
 10
15.8
 20
0.05
 30
0.0
 11
15.8
 21
8.75
 31
0.0
  0
LINE
  5
1D3
330
1AD
100
AcDbEntity
  8
SLD-0
 62
     7
100
AcDbLine
 10
32.55
 20
0.05
 30
0.0
 11
32.3
 21
8.4579646018
 31
0.0
  0
LINE
  5
1D4
330
1AD
100
AcDbEntity
  8
SLD-0
 62
     7
100
AcDbLine
 10
22.3
 20
12.9650442478
 30
0.0
 11
15.8
 21
12.85
 31
0.0
  0
LINE
  5
1D5
330
1AD
100
AcDbEntity
  8
SLD-0
 62
     7
100
AcDbLine
 10
22.3
 20
8.6349557522
 30
0.0
 11
15.8
 21
8.75
 31
0.0
  0
LINE
  5
1D6
330
1AD
100
AcDbEntity
  8
SLD-0
 62
     7
100
AcDbLine
 10
24.3
 20
12.9004424779
 30
0.0
 11
32.3
 21
13.0420353982
 31
0.0
  0
LINE
  5
1D7
330
1AD
100
AcDbEntity
  8
SLD-0
 62
     7
100
AcDbLine
 10
32.3
 20
8.4579646018
 30
0.0
 11
24.3
 21
8.5995575221
 31
0.0
  0
LINE
  5
1D8
330
1AD
100
AcDbEntity
  8
SLD-0
 62
     7
100
AcDbLine
 10
24.05
 20
0.05
 30
0.0
 11
22.55
 21
0.05
 31
0.0
  0
LINE
  5
1D9
330
1AD
100
AcDbEntity
  8
SLD-0
 62
     7
370
     0
100
AcDbLine
 10
101.9
 20
0.2716618126
 30
0.0
 11
138.812561948
 21
0.5937928605
 31
0.0
  0
LINE
  5
1DA
330
1AD
100
AcDbEntity
  8
SLD-0
 62
     7
370
     0
100
AcDbLine
 10
101.9
 20
21.3283369288
 30
0.0
 11
138.812561948
 21
21.0062058809
 31
0.0
  0
LINE
  5
1DB
330
1AD
100
AcDbEntity
  8
SLD-0
 62
     7
100
AcDbLine
 10
76.3
 20
21.45
 30
0.0
 11
72.3
 21
21.45
 31
0.0
  0
LINE
  5
1DC
330
1AD
100
AcDbEntity
  8
SLD-0
 62
     7
100
AcDbLine
 10
72.3
 20
0.05
 30
0.0
 11
76.3
 21
0.05
 31
0.0
  0
LINE
  5
1DD
330
1AD
100
AcDbEntity
  8
SLD-0
 62
     7
100
AcDbLine
 10
64.3
 20
13.6084070796
 30
0.0
 11
64.05
 21
21.45
 31
0.0
  0
LINE
  5
1DE
330
1AD
100
AcDbEntity
  8
SLD-0
 62
     7
100
AcDbLine
 10
72.3
 20
21.45
 30
0.0
 11
72.3
 21
13.75
 31
0.0
  0
LINE
  5
1DF
330
1AD
100
AcDbEntity
  8
SLD-0
 62
     7
100
AcDbLine
 10
54.3
 20
13.4314159292
 30
0.0
 11
54.05
 21
21.45
 31
0.0
  0
LINE
  5
1E0
330
1AD
100
AcDbEntity
  8
SLD-0
 62
     7
100
AcDbLine
 10
62.55
 20
21.45
 30
0.0
 11
62.3
 21
13.5730088496
 31
0.0
  0
LINE
  5
1E1
330
1AD
100
AcDbEntity
  8
SLD-0
 62
     7
100
AcDbLine
 10
52.55
 20
21.45
 30
0.0
 11
52.3
 21
13.3960176991
 31
0.0
  0
LINE
  5
1E2
330
1AD
100
AcDbEntity
  8
SLD-0
 62
     7
100
AcDbLine
 10
44.3
 20
13.2544247788
 30
0.0
 11
44.05
 21
21.45
 31
0.0
  0
LINE
  5
1E3
330
1AD
100
AcDbEntity
  8
SLD-0
 62
     7
100
AcDbLine
 10
34.3
 20
13.0774336283
 30
0.0
 11
34.05
 21
21.45
 31
0.0
  0
LINE
  5
1E4
330
1AD
100
AcDbEntity
  8
SLD-0
 62
     7
100
AcDbLine
 10
42.55
 20
21.45
 30
0.0
 11
42.3
 21
13.2190265487
 31
0.0
  0
LINE
  5
1E5
330
1AD
100
AcDbEntity
  8
SLD-0
 62
     7
100
AcDbLine
 10
44.05
 20
21.45
 30
0.0
 11
42.55
 21
21.45
 31
0.0
  0
LINE
  5
1E6
330
1AD
100
AcDbEntity
  8
SLD-0
 62
     7
100
AcDbLine
 10
54.05
 20
21.45
 30
0.0
 11
52.55
 21
21.45
 31
0.0
  0
LINE
  5
1E7
330
1AD
100
AcDbEntity
  8
SLD-0
 62
     7
100
AcDbLine
 10
64.05
 20
21.45
 30
0.0
 11
62.55
 21
21.45
 31
0.0
  0
LINE
  5
1E8
330
1AD
100
AcDbEntity
  8
SLD-0
 62
     7
100
AcDbLine
 10
54.3
 20
13.4314159292
 30
0.0
 11
62.3
 21
13.5730088496
 31
0.0
  0
LINE
  5
1E9
330
1AD
100
AcDbEntity
  8
SLD-0
 62
     7
100
AcDbLine
 10
62.3
 20
7.9269911504
 30
0.0
 11
54.3
 21
8.0685840708
 31
0.0
  0
LINE
  5
1EA
330
1AD
100
AcDbEntity
  8
SLD-0
 62
     7
100
AcDbLine
 10
34.3
 20
8.4225663717
 30
0.0
 11
34.05
 21
0.05
 31
0.0
  0
LINE
  5
1EB
330
1AD
100
AcDbEntity
  8
SLD-0
 62
     7
100
AcDbLine
 10
42.55
 20
0.05
 30
0.0
 11
42.3
 21
8.2809734513
 31
0.0
  0
LINE
  5
1EC
330
1AD
100
AcDbEntity
  8
SLD-0
 62
     7
100
AcDbLine
 10
44.3
 20
8.2455752212
 30
0.0
 11
44.05
 21
0.05
 31
0.0
  0
LINE
  5
1ED
330
1AD
100
AcDbEntity
  8
SLD-0
 62
     7
100
AcDbLine
 10
52.55
 20
0.05
 30
0.0
 11
52.3
 21
8.1039823009
 31
0.0
  0
LINE
  5
1EE
330
1AD
100
AcDbEntity
  8
SLD-0
 62
     7
100
AcDbLine
 10
54.3
 20
8.0685840708
 30
0.0
 11
54.05
 21
0.05
 31
0.0
  0
LINE
  5
1EF
330
1AD
100
AcDbEntity
  8
SLD-0
 62
     7
100
AcDbLine
 10
52.3
 20
8.1039823009
 30
0.0
 11
44.3
 21
8.2455752212
 31
0.0
  0
LINE
  5
1F0
330
1AD
100
AcDbEntity
  8
SLD-0
 62
     7
100
AcDbLine
 10
44.3
 20
13.2544247788
 30
0.0
 11
52.3
 21
13.3960176991
 31
0.0
  0
LINE
  5
1F1
330
1AD
100
AcDbEntity
  8
SLD-0
 62
     7
100
AcDbLine
 10
34.3
 20
13.0774336283
 30
0.0
 11
42.3
 21
13.2190265487
 31
0.0
  0
LINE
  5
1F2
330
1AD
100
AcDbEntity
  8
SLD-0
 62
     7
100
AcDbLine
 10
42.3
 20
8.2809734513
 30
0.0
 11
34.3
 21
8.4225663717
 31
0.0
  0
LINE
  5
1F3
330
1AD
100
AcDbEntity
  8
SLD-0
 62
     7
100
AcDbLine
 10
44.05
 20
0.05
 30
0.0
 11
42.55
 21
0.05
 31
0.0
  0
LINE
  5
1F4
330
1AD
100
AcDbEntity
  8
SLD-0
 62
     7
100
AcDbLine
 10
54.05
 20
0.05
 30
0.0
 11
52.55
 21
0.05
 31
0.0
  0
LINE
  5
1F5
330
1AD
100
AcDbEntity
  8
SLD-0
 62
     7
100
AcDbLine
 10
64.3
 20
7.8915929204
 30
0.0
 11
64.05
 21
0.05
 31
0.0
  0
LINE
  5
1F6
330
1AD
100
AcDbEntity
  8
SLD-0
 62
     7
100
AcDbLine
 10
62.55
 20
0.05
 30
0.0
 11
62.3
 21
7.9269911504
 31
0.0
  0
LINE
  5
1F7
330
1AD
100
AcDbEntity
  8
SLD-0
 62
     7
100
AcDbLine
 10
72.3
 20
7.75
 30
0.0
 11
72.3
 21
0.05
 31
0.0
  0
LINE
  5
1F8
330
1AD
100
AcDbEntity
  8
SLD-0
 62
     7
100
AcDbLine
 10
64.3
 20
13.6084070796
 30
0.0
 11
72.3
 21
13.75
 31
0.0
  0
LINE
  5
1F9
330
1AD
100
AcDbEntity
  8
SLD-0
 62
     7
100
AcDbLine
 10
72.3
 20
7.75
 30
0.0
 11
64.3
 21
7.8915929204
 31
0.0
  0
LINE
  5
1FA
330
1AD
100
AcDbEntity
  8
SLD-0
 62
     7
100
AcDbLine
 10
64.05
 20
0.05
 30
0.0
 11
62.55
 21
0.05
 31
0.0
  0
LINE
  5
1FB
330
1AD
100
AcDbEntity
  8
SLD-0
 62
     7
100
AcDbLine
 10
94.0
 20
14.1999993707
 30
0.0
 11
94.0
 21
13.5999993707
 31
0.0
  0
LINE
  5
1FC
330
1AD
100
AcDbEntity
  8
SLD-0
 62
     7
100
AcDbLine
 10
92.1
 20
17.1499993707
 30
0.0
 11
92.1
 21
10.6499993707
 31
0.0
  0
LINE
  5
1FD
330
1AD
100
AcDbEntity
  8
SLD-0
 62
     7
100
AcDbLine
 10
91.6
 20
17.8999993707
 30
0.0
 11
91.6
 21
9.8999993707
 31
0.0
  0
LINE
  5
1FE
330
1AD
100
AcDbEntity
  8
SLD-0
 62
     7
100
AcDbLine
 10
90.6
 20
19.0799993707
 30
0.0
 11
90.6
 21
8.7199993707
 31
0.0
  0
LINE
  5
1FF
330
1AD
100
AcDbEntity
  8
SLD-0
 62
     7
100
AcDbLine
 10
76.3
 20
20.3499993707
 30
0.0
 11
76.3
 21
1.2500006293
 31
0.0
  0
LINE
  5
200
330
1AD
100
AcDbEntity
  8
SLD-0
 62
     7
100
AcDbLine
 10
78.3
 20
20.3499993707
 30
0.0
 11
78.3
 21
1.2500006293
 31
0.0
  0
LINE
  5
201
330
1AD
100
AcDbEntity
  8
SLD-0
 62
     7
100
AcDbLine
 10
76.3
 20
20.3499993707
 30
0.0
 11
76.3
 21
1.2500006293
 31
0.0
  0
LINE
  5
202
330
1AD
100
AcDbEntity
  8
SLD-0
 62
     7
100
AcDbLine
 10
76.3
 20
0.05
 30
0.0
 11
76.3
 21
21.45
 31
0.0
  0
LINE
  5
203
330
1AD
100
AcDbEntity
  8
SLD-0
 62
     7
370
     0
100
AcDbLine
 10
101.9
 20
3.3499993707
 30
0.0
 11
101.9
 21
17.7617257208
 31
0.0
  0
LINE
  5
204
330
1AD
100
AcDbEntity
  8
SLD-0
 62
     7
100
AcDbLine
 10
93.5493507882
 20
21.4012119405
 30
0.0
 11
101.9
 21
21.3283369288
 31
0.0
  0
LINE
  5
205
330
1AD
100
AcDbEntity
  8
SLD-0
 62
     7
100
AcDbLine
 10
76.5
 20
21.5499993707
 30
0.0
 11
101.7
 21
21.3300823024
 31
0.0
  0
LINE
  5
206
330
1AD
100
AcDbEntity
  8
SLD-0
 62
     7
100
AcDbLine
 10
90.6
 20
19.0799993707
 30
0.0
 11
101.7
 21
19.6617257208
 31
0.0
  0
LINE
  5
207
330
1AD
100
AcDbEntity
  8
SLD-0
 62
     7
100
AcDbLine
 10
76.5
 20
21.5499993707
 30
0.0
 11
76.5
 21
20.3499993707
 31
0.0
  0
LINE
  5
208
330
1AD
100
AcDbEntity
  8
SLD-0
 62
     7
100
AcDbLine
 10
76.5
 20
21.5499993707
 30
0.0
 11
76.5
 21
20.3499993707
 31
0.0
  0
LINE
  5
209
330
1AD
100
AcDbEntity
  8
SLD-0
 62
     7
100
AcDbLine
 10
76.3
 20
20.3499993707
 30
0.0
 11
78.3
 21
20.3499993707
 31
0.0
  0
LINE
  5
20A
330
1AD
100
AcDbEntity
  8
SLD-0
 62
     7
100
AcDbLine
 10
94.595498987
 20
14.1999993707
 30
0.0
 11
94.0
 21
14.1999993707
 31
0.0
  0
LINE
  5
20B
330
1AD
100
AcDbEntity
  8
SLD-0
 62
     7
100
AcDbLine
 10
90.6
 20
17.8999993707
 30
0.0
 11
91.6
 21
17.8999993707
 31
0.0
  0
LINE
  5
20C
330
1AD
100
AcDbEntity
  8
SLD-0
 62
     7
100
AcDbLine
 10
92.5017403146
 20
17.1499993707
 30
0.0
 11
91.6
 21
17.1499993707
 31
0.0
  0
LINE
  5
20D
330
1AD
100
AcDbEntity
  8
SLD-0
 62
     7
370
     0
100
AcDbLine
 10
99.6149809585
 20
19.23929563
 30
0.0
 11
101.9
 21
19.2617257208
 31
0.0
  0
LINE
  5
20E
330
1AD
100
AcDbEntity
  8
SLD-0
 62
     7
100
AcDbLine
 10
101.7
 20
19.6617257208
 30
0.0
 11
101.7
 21
21.3300823024
 31
0.0
  0
LINE
  5
20F
330
1AD
100
AcDbEntity
  8
SLD-0
 62
     7
370
     0
100
AcDbLine
 10
101.9
 20
19.2617257208
 30
0.0
 11
101.9
 21
21.3283369288
 31
0.0
  0
LINE
  5
210
330
1AD
100
AcDbEntity
  8
SLD-0
 62
     7
370
     0
100
AcDbLine
 10
99.6149809585
 20
17.7841558116
 30
0.0
 11
101.9
 21
17.7617257208
 31
0.0
  0
LINE
  5
211
330
1AD
100
AcDbEntity
  8
SLD-0
 62
     7
100
AcDbLine
 10
101.7
 20
7.6033788064
 30
0.0
 11
94.95
 21
7.5444724488
 31
0.0
  0
LINE
  5
212
330
1AD
100
AcDbEntity
  8
SLD-0
 62
     7
100
AcDbLine
 10
101.7
 20
7.6033788064
 30
0.0
 11
90.6
 21
7.5065105739
 31
0.0
  0
LINE
  5
213
330
1AD
100
AcDbEntity
  8
SLD-0
 62
     7
100
AcDbLine
 10
90.6
 20
8.7199993707
 30
0.0
 11
101.7
 21
8.6231311382
 31
0.0
  0
LINE
  5
214
330
1AD
100
AcDbEntity
  8
SLD-0
 62
     7
100
AcDbLine
 10
101.9
 20
0.2716618126
 30
0.0
 11
93.5493507882
 21
0.198786801
 31
0.0
  0
LINE
  5
215
330
1AD
100
AcDbEntity
  8
SLD-0
 62
     7
100
AcDbLine
 10
76.5
 20
0.0499993707
 30
0.0
 11
101.7
 21
0.269916439
 31
0.0
  0
LINE
  5
216
330
1AD
100
AcDbEntity
  8
SLD-0
 62
     7
100
AcDbLine
 10
90.6
 20
1.5468676032
 30
0.0
 11
101.7
 21
1.4499993707
 31
0.0
  0
LINE
  5
217
330
1AD
100
AcDbEntity
  8
SLD-0
 62
     7
100
AcDbLine
 10
94.95
 20
1.5089057283
 30
0.0
 11
94.95
 21
7.5444724488
 31
0.0
  0
LINE
  5
218
330
1AD
100
AcDbEntity
  8
SLD-0
 62
     7
100
AcDbLine
 10
90.6
 20
7.5065105739
 30
0.0
 11
90.6
 21
1.5468676032
 31
0.0
  0
LINE
  5
219
330
1AD
100
AcDbEntity
  8
SLD-0
 62
     7
100
AcDbLine
 10
96.45
 20
7.0266890886
 30
0.0
 11
96.45
 21
2.0266890886
 31
0.0
  0
LINE
  5
21A
330
1AD
100
AcDbEntity
  8
SLD-0
 62
     7
100
AcDbLine
 10
95.95
 20
7.3266890886
 30
0.0
 11
95.95
 21
1.7266890886
 31
0.0
  0
LINE
  5
21B
330
1AD
100
AcDbEntity
  8
SLD-0
 62
     7
100
AcDbLine
 10
94.595498987
 20
13.5999993707
 30
0.0
 11
94.0
 21
13.5999993707
 31
0.0
  0
LINE
  5
21C
330
1AD
100
AcDbEntity
  8
SLD-0
 62
     7
100
AcDbLine
 10
91.6
 20
9.8999993707
 30
0.0
 11
90.6
 21
9.8999993707
 31
0.0
  0
LINE
  5
21D
330
1AD
100
AcDbEntity
  8
SLD-0
 62
     7
100
AcDbLine
 10
92.5017403146
 20
10.6499993707
 30
0.0
 11
91.6
 21
10.6499993707
 31
0.0
  0
LINE
  5
21E
330
1AD
100
AcDbEntity
  8
SLD-0
 62
     7
100
AcDbLine
 10
94.95
 20
7.3266890886
 30
0.0
 11
95.95
 21
7.3266890886
 31
0.0
  0
LINE
  5
21F
330
1AD
100
AcDbEntity
  8
SLD-0
 62
     7
100
AcDbLine
 10
96.8909715081
 20
7.0266890886
 30
0.0
 11
95.95
 21
7.0266890886
 31
0.0
  0
LINE
  5
220
330
1AD
100
AcDbEntity
  8
SLD-0
 62
     7
100
AcDbLine
 10
76.5
 20
1.2500006293
 30
0.0
 11
76.5
 21
0.0499993707
 31
0.0
  0
LINE
  5
221
330
1AD
100
AcDbEntity
  8
SLD-0
 62
     7
100
AcDbLine
 10
76.5
 20
1.2500006293
 30
0.0
 11
76.5
 21
0.0499993707
 31
0.0
  0
LINE
  5
222
330
1AD
100
AcDbEntity
  8
SLD-0
 62
     7
100
AcDbLine
 10
76.5
 20
1.2500006293
 30
0.0
 11
76.5
 21
0.0499993707
 31
0.0
  0
LINE
  5
223
330
1AD
100
AcDbEntity
  8
SLD-0
 62
     7
100
AcDbLine
 10
76.5
 20
1.2500006293
 30
0.0
 11
76.5
 21
0.0499993707
 31
0.0
  0
LINE
  5
224
330
1AD
100
AcDbEntity
  8
SLD-0
 62
     7
100
AcDbLine
 10
76.5
 20
1.2500006293
 30
0.0
 11
76.5
 21
0.0499993707
 31
0.0
  0
LINE
  5
225
330
1AD
100
AcDbEntity
  8
SLD-0
 62
     7
100
AcDbLine
 10
76.5
 20
1.2500006293
 30
0.0
 11
76.5
 21
0.0499993707
 31
0.0
  0
LINE
  5
226
330
1AD
100
AcDbEntity
  8
SLD-0
 62
     7
100
AcDbLine
 10
76.3
 20
1.2500006293
 30
0.0
 11
78.3
 21
1.2500006293
 31
0.0
  0
LINE
  5
227
330
1AD
100
AcDbEntity
  8
SLD-0
 62
     7
100
AcDbLine
 10
95.95
 20
1.7266890886
 30
0.0
 11
94.95
 21
1.7266890886
 31
0.0
  0
LINE
  5
228
330
1AD
100
AcDbEntity
  8
SLD-0
 62
     7
100
AcDbLine
 10
96.8909715081
 20
2.0266890886
 30
0.0
 11
95.95
 21
2.0266890886
 31
0.0
  0
LINE
  5
229
330
1AD
100
AcDbEntity
  8
SLD-0
 62
     7
100
AcDbLine
 10
101.7
 20
8.6231311382
 30
0.0
 11
101.7
 21
7.6033788064
 31
0.0
  0
LINE
  5
22A
330
1AD
100
AcDbEntity
  8
SLD-0
 62
     7
100
AcDbLine
 10
101.7
 20
7.6033788064
 30
0.0
 11
101.7
 21
9.0211239725
 31
0.0
  0
LINE
  5
22B
330
1AD
100
AcDbEntity
  8
SLD-0
 62
     7
100
AcDbLine
 10
101.7
 20
9.0211239725
 30
0.0
 11
101.9
 21
9.0228693461
 31
0.0
  0
LINE
  5
22C
330
1AD
100
AcDbEntity
  8
SLD-0
 62
     7
100
AcDbLine
 10
98.05
 20
4.7266890886
 30
0.0
 11
98.4479998
 21
4.7266890886
 31
0.0
  0
LINE
  5
22D
330
1AD
100
AcDbEntity
  8
SLD-0
 62
     7
100
AcDbLine
 10
98.05
 20
4.3266890886
 30
0.0
 11
98.4479998
 21
4.3266890886
 31
0.0
  0
LINE
  5
22E
330
1AD
100
AcDbEntity
  8
SLD-0
 62
     7
100
AcDbLine
 10
98.05
 20
4.7266890886
 30
0.0
 11
98.05
 21
4.3266890886
 31
0.0
  0
LINE
  5
22F
330
1AD
100
AcDbEntity
  8
SLD-0
 62
     7
370
     0
100
AcDbLine
 10
99.6149809585
 20
1.8724294615
 30
0.0
 11
101.9
 21
1.8499993707
 31
0.0
  0
LINE
  5
230
330
1AD
100
AcDbEntity
  8
SLD-0
 62
     7
370
     0
100
AcDbLine
 10
99.6149809585
 20
3.3275692799
 30
0.0
 11
101.9
 21
3.3499993707
 31
0.0
  0
LINE
  5
231
330
1AD
100
AcDbEntity
  8
SLD-0
 62
     7
100
AcDbLine
 10
101.7
 20
0.269916439
 30
0.0
 11
101.7
 21
1.4499993707
 31
0.0
  0
LINE
  5
232
330
1AD
100
AcDbEntity
  8
SLD-0
 62
     7
370
     0
100
AcDbLine
 10
101.9
 20
0.2716618126
 30
0.0
 11
101.9
 21
1.8499993707
 31
0.0
  0
LINE
  5
233
330
1AD
100
AcDbEntity
  8
SLD-0
 62
     7
100
AcDbLine
 10
101.7
 20
0.269916439
 30
0.0
 11
101.7
 21
1.3499993707
 31
0.0
  0
LINE
  5
234
330
1AD
100
AcDbEntity
  8
SLD-0
  6
Continuous
 62
     7
100
AcDbLine
 10
13.8
 20
19.3655546548
 30
0.0
 11
13.8
 21
2.1655546071
 31
0.0
  0
LINE
  5
235
330
1AD
100
AcDbEntity
  8
SLD-0
  6
Continuous
 62
     7
100
AcDbLine
 10
6.3999999046
 20
0.065554464
 30
0.0
 11
6.3999999046
 21
21.4655545594
 31
0.0
  0
LINE
  5
236
330
1AD
100
AcDbEntity
  8
SLD-0
  6
Continuous
 62
     7
100
AcDbLine
 10
4.8
 20
21.4655545594
 30
0.0
 11
4.8
 21
0.065554464
 31
0.0
  0
LINE
  5
237
330
1AD
100
AcDbEntity
  8
SLD-0
  6
Continuous
 62
     7
100
AcDbLine
 10
13.8
 20
2.1655546071
 30
0.0
 11
12.2000000954
 21
2.1655546071
 31
0.0
  0
LINE
  5
238
330
1AD
100
AcDbEntity
  8
SLD-0
  6
Continuous
 62
     7
100
AcDbLine
 10
6.3999999046
 20
10.2655545117
 30
0.0
 11
13.8
 21
10.2655545117
 31
0.0
  0
LINE
  5
239
330
1AD
100
AcDbEntity
  8
SLD-0
  6
Continuous
 62
     7
100
AcDbLine
 10
12.2000000954
 20
2.1655546071
 30
0.0
 11
12.2000000954
 21
10.2679046036
 31
0.0
  0
LINE
  5
23A
330
1AD
100
AcDbEntity
  8
SLD-0
  6
Continuous
 62
     7
100
AcDbLine
 10
6.3999999046
 20
1.8655546548
 30
0.0
 11
9.5999999523
 21
1.8655546548
 31
0.0
  0
LINE
  5
23B
330
1AD
100
AcDbEntity
  8
SLD-0
  6
Continuous
 62
     7
100
AcDbLine
 10
9.5999999523
 20
0.2655545117
 30
0.0
 11
6.3999999046
 21
0.2655545117
 31
0.0
  0
LINE
  5
23C
330
1AD
100
AcDbEntity
  8
SLD-0
  6
Continuous
 62
     7
100
AcDbLine
 10
6.3999999046
 20
4.8655546548
 30
0.0
 11
12.2000000954
 21
4.8655546548
 31
0.0
  0
LINE
  5
23D
330
1AD
100
AcDbEntity
  8
SLD-0
  6
Continuous
 62
     7
100
AcDbLine
 10
12.2000000954
 20
3.2655545117
 30
0.0
 11
6.3999999046
 21
3.2655545117
 31
0.0
  0
LINE
  5
23E
330
1AD
100
AcDbEntity
  8
SLD-0
  6
Continuous
 62
     7
100
AcDbLine
 10
12.2000000954
 20
3.1655546071
 30
0.0
 11
4.8
 21
3.1655546071
 31
0.0
  0
LINE
  5
23F
330
1AD
100
AcDbEntity
  8
SLD-0
  6
Continuous
 62
     7
100
AcDbLine
 10
4.8
 20
0.065554464
 30
0.0
 11
6.3999999046
 21
0.065554464
 31
0.0
  0
LINE
  5
240
330
1AD
100
AcDbEntity
  8
SLD-0
  6
Continuous
 62
     7
100
AcDbLine
 10
6.3999999046
 20
3.1655546071
 30
0.0
 11
6.3999999046
 21
1.8655546548
 31
0.0
  0
LINE
  5
241
330
1AD
100
AcDbEntity
  8
SLD-0
  6
Continuous
 62
     7
100
AcDbLine
 10
9.5999999523
 20
1.8655546548
 30
0.0
 11
9.5999999523
 21
0.2655545117
 31
0.0
  0
LINE
  5
242
330
1AD
100
AcDbEntity
  8
SLD-0
  6
Continuous
 62
     7
100
AcDbLine
 10
12.2000000954
 20
9.065554464
 30
0.0
 11
6.3999999046
 21
9.065554464
 31
0.0
  0
LINE
  5
243
330
1AD
100
AcDbEntity
  8
SLD-0
  6
Continuous
 62
     7
100
AcDbLine
 10
13.8
 20
19.3655546548
 30
0.0
 11
12.2000000954
 21
19.3655546548
 31
0.0
  0
LINE
  5
244
330
1AD
100
AcDbEntity
  8
SLD-0
  6
Continuous
 62
     7
100
AcDbLine
 10
13.8
 20
18.1655546071
 30
0.0
 11
6.3999999046
 21
18.1655546071
 31
0.0
  0
LINE
  5
245
330
1AD
100
AcDbEntity
  8
SLD-0
  6
Continuous
 62
     7
100
AcDbLine
 10
12.2000000954
 20
18.2655545117
 30
0.0
 11
6.3999999046
 21
18.2655545117
 31
0.0
  0
LINE
  5
246
330
1AD
100
AcDbEntity
  8
SLD-0
  6
Continuous
 62
     7
100
AcDbLine
 10
9.5999999523
 20
19.6655546071
 30
0.0
 11
6.3999999046
 21
19.6655546071
 31
0.0
  0
LINE
  5
247
330
1AD
100
AcDbEntity
  8
SLD-0
  6
Continuous
 62
     7
100
AcDbLine
 10
6.3999999046
 20
21.2655545117
 30
0.0
 11
9.5999999523
 21
21.2655545117
 31
0.0
  0
LINE
  5
248
330
1AD
100
AcDbEntity
  8
SLD-0
  6
Continuous
 62
     7
100
AcDbLine
 10
4.8
 20
21.4655545594
 30
0.0
 11
6.3999999046
 21
21.4655545594
 31
0.0
  0
LINE
  5
249
330
1AD
100
AcDbEntity
  8
SLD-0
  6
Continuous
 62
     7
100
AcDbLine
 10
12.2000000954
 20
19.3655546548
 30
0.0
 11
12.2000000954
 21
18.1655546071
 31
0.0
  0
LINE
  5
24A
330
1AD
100
AcDbEntity
  8
SLD-0
  6
Continuous
 62
     7
100
AcDbLine
 10
9.5999999523
 20
21.2655545117
 30
0.0
 11
9.5999999523
 21
19.6655546071
 31
0.0
  0
ENDBLK
  5
1AF
330
1AD
100
AcDbEntity
  8
0
100
AcDbBlockEnd
  0
BLOCK
  5
24C
330
24B
100
AcDbEntity
  8
0
100
AcDbBlockBegin
  2
ﾌﾞﾛｯｸ7
 70
     0
 71
     0
 10
0.0
 20
0.0
 30
0.0
  3
ﾌﾞﾛｯｸ7
  1

  0
ARC
  5
24E
330
24B
100
AcDbEntity
  8
SLD-0
 62
     7
100
AcDbCircle
 10
19.5376144508
 20
28.3482724288
 30
0.0
 40
0.5
100
AcDbArc
 50
270.0
 51
0.0
  0
ARC
  5
24F
330
24B
100
AcDbEntity
  8
SLD-0
 62
     7
100
AcDbCircle
 10
4.8323830082
 20
28.3482724288
 30
0.0
 40
0.5
100
AcDbArc
 50
180.0
 51
270.0
  0
ARC
  5
250
330
24B
100
AcDbEntity
  8
SLD-0
 62
     7
100
AcDbCircle
 10
10.1835258084
 20
68.5014707176
 30
0.0
 40
1.200000000000033
100
AcDbArc
 50
270.0
 51
0.0
  0
CIRCLE
  5
251
330
24B
100
AcDbEntity
  8
SLD-0
 62
     7
100
AcDbCircle
 10
15.2350015623
 20
84.8
 30
0.0
 40
3.350000000000019
  0
ARC
  5
252
330
24B
100
AcDbEntity
  8
SLD-0
 62
     7
100
AcDbCircle
 10
3.4350015623
 20
100.0
 30
0.0
 40
2.000000000000002
100
AcDbArc
 50
90.0
 51
180.0
  0
ARC
  5
253
330
24B
100
AcDbEntity
  8
SLD-0
 62
     7
100
AcDbCircle
 10
3.4350015623
 20
94.0
 30
0.0
 40
2.000000000000002
100
AcDbArc
 50
180.0
 51
270.0
  0
CIRCLE
  5
254
330
24B
100
AcDbEntity
  8
SLD-0
 62
     7
100
AcDbCircle
 10
17.6450015623
 20
97.0
 30
0.0
 40
2.300000000000022
  0
CIRCLE
  5
255
330
24B
100
AcDbEntity
  8
SLD-0
 62
     7
100
AcDbCircle
 10
6.7250015623
 20
97.0
 30
0.0
 40
2.300000000000024
  0
ARC
  5
256
330
24B
100
AcDbEntity
  8
SLD-0
 62
     7
100
AcDbCircle
 10
20.9350015623
 20
100.0
 30
0.0
 40
2.0
100
AcDbArc
 50
0.0
 51
90.0
  0
ARC
  5
257
330
24B
100
AcDbEntity
  8
SLD-0
 62
     7
100
AcDbCircle
 10
20.9350015623
 20
94.0
 30
0.0
 40
2.0
100
AcDbArc
 50
270.0
 51
0.0
  0
ARC
  5
258
330
24B
100
AcDbEntity
  8
SLD-0
 62
     7
370
     0
100
AcDbCircle
 10
5.6850015623
 20
82.5
 30
0.0
 40
2.999999999999987
100
AcDbArc
 50
152.7732440577
 51
207.2267559423
  0
CIRCLE
  5
259
330
24B
100
AcDbEntity
  8
SLD-0
 62
     7
100
AcDbCircle
 10
13.8207879999
 20
83.3857864376
 30
0.0
 40
0.5
  0
CIRCLE
  5
25A
330
24B
100
AcDbEntity
  8
SLD-0
 62
     7
100
AcDbCircle
 10
6.5639079199
 20
72.2
 30
0.0
 40
2.900000000000014
  0
ARC
  5
25B
330
24B
100
AcDbEntity
  8
SLD-0
 62
     7
100
AcDbCircle
 10
11.8835258084
 20
75.6517275712
 30
0.0
 40
0.5
100
AcDbArc
 50
90.0
 51
180.0
  0
ARC
  5
25C
330
24B
100
AcDbEntity
  8
SLD-0
 62
     7
100
AcDbCircle
 10
10.1835258084
 20
68.5014707176
 30
0.0
 40
0.5
100
AcDbArc
 50
270.0
 51
0.0
  0
ARC
  5
25D
330
24B
100
AcDbEntity
  8
SLD-0
 62
     7
370
     0
100
AcDbCircle
 10
9.8350021916
 20
68.85
 30
0.0
 40
0.5000000000000018
100
AcDbArc
 50
270.0
 51
0.0
  0
ARC
  5
25E
330
24B
100
AcDbEntity
  8
SLD-0
 62
     7
100
AcDbCircle
 10
19.5376144508
 20
75.6517275712
 30
0.0
 40
0.5
100
AcDbArc
 50
0.0
 51
90.0
  0
ARC
  5
25F
330
24B
100
AcDbEntity
  8
SLD-0
 62
     7
100
AcDbCircle
 10
21.2376791841
 20
74.0499982256
 30
0.0
 40
0.5
100
AcDbArc
 50
0.0
 51
90.0
  0
ARC
  5
260
330
24B
100
AcDbEntity
  8
SLD-0
 62
     7
100
AcDbCircle
 10
20.5376144508
 20
75.0499982256
 30
0.0
 40
0.5000000000000568
100
AcDbArc
 50
180.0
 51
270.0
  0
ARC
  5
261
330
24B
100
AcDbEntity
  8
SLD-0
 62
     7
100
AcDbCircle
 10
10.5350015623
 20
47.935
 30
0.0
 40
1.300000000000009
100
AcDbArc
 50
313.0490798002
 51
46.9509201998
  0
ARC
  5
262
330
24B
100
AcDbEntity
  8
SLD-0
 62
     7
100
AcDbCircle
 10
10.5350015623
 20
47.935
 30
0.0
 40
1.300000000000025
100
AcDbArc
 50
133.0490798002
 51
226.9509201998
  0
CIRCLE
  5
263
330
24B
100
AcDbEntity
  8
SLD-0
 62
     7
100
AcDbCircle
 10
10.5350015623
 20
47.935
 30
0.0
 40
0.6499999999999844
  0
ARC
  5
264
330
24B
100
AcDbEntity
  8
SLD-0
 62
     7
100
AcDbCircle
 10
17.8350015623
 20
57.425
 30
0.0
 40
0.5
100
AcDbArc
 50
0.0
 51
90.0
  0
ARC
  5
265
330
24B
100
AcDbEntity
  8
SLD-0
 62
     7
100
AcDbCircle
 10
5.4350015623
 20
59.745
 30
0.0
 40
2.699999999999982
100
AcDbArc
 50
0.0
 51
90.0
  0
ARC
  5
266
330
24B
100
AcDbEntity
  8
SLD-0
 62
     7
100
AcDbCircle
 10
4.8323830082
 20
62.945
 30
0.0
 40
0.5
100
AcDbArc
 50
180.0
 51
270.0
  0
ARC
  5
267
330
24B
100
AcDbEntity
  8
SLD-0
 62
     7
100
AcDbCircle
 10
4.8323830082
 20
66.8014707176
 30
0.0
 40
0.5000000000001137
100
AcDbArc
 50
90.0
 51
180.0
  0
ARC
  5
268
330
24B
100
AcDbEntity
  8
SLD-0
 62
     7
100
AcDbCircle
 10
5.4350015623
 20
59.745
 30
0.0
 40
2.000000000000002
100
AcDbArc
 50
0.0
 51
90.0
  0
ARC
  5
269
330
24B
100
AcDbEntity
  8
SLD-0
 62
     7
100
AcDbCircle
 10
8.6350015623
 20
58.425
 30
0.0
 40
0.5000000000000782
100
AcDbArc
 50
180.0
 51
270.0
  0
ARC
  5
26A
330
24B
100
AcDbEntity
  8
SLD-0
 62
     7
100
AcDbCircle
 10
10.5350015623
 20
53.015
 30
0.0
 40
1.299999999999994
100
AcDbArc
 50
313.0490798002
 51
46.9509201998
  0
ARC
  5
26B
330
24B
100
AcDbEntity
  8
SLD-0
 62
     7
100
AcDbCircle
 10
10.5350015623
 20
53.015
 30
0.0
 40
1.30000000000003
100
AcDbArc
 50
133.0490798002
 51
226.9509201998
  0
CIRCLE
  5
26C
330
24B
100
AcDbEntity
  8
SLD-0
 62
     7
100
AcDbCircle
 10
10.5350015623
 20
53.015
 30
0.0
 40
0.6499999999999844
  0
ARC
  5
26D
330
24B
100
AcDbEntity
  8
SLD-0
 62
     7
100
AcDbCircle
 10
5.0350015623
 20
53.945
 30
0.0
 40
0.200000000000256
100
AcDbArc
 50
90.0
 51
180.0
  0
ARC
  5
26E
330
24B
100
AcDbEntity
  8
SLD-0
 62
     7
100
AcDbCircle
 10
8.5350015623
 20
53.945
 30
0.0
 40
0.2000000000000028
100
AcDbArc
 50
0.0
 51
90.0
  0
ARC
  5
26F
330
24B
100
AcDbEntity
  8
SLD-0
 62
     7
100
AcDbCircle
 10
5.0350015623
 20
48.865
 30
0.0
 40
0.200000000000256
100
AcDbArc
 50
90.0
 51
180.0
  0
ARC
  5
270
330
24B
100
AcDbEntity
  8
SLD-0
 62
     7
100
AcDbCircle
 10
5.0350015623
 20
50.005
 30
0.0
 40
0.200000000000256
100
AcDbArc
 50
180.0
 51
270.0
  0
ARC
  5
271
330
24B
100
AcDbEntity
  8
SLD-0
 62
     7
100
AcDbCircle
 10
5.0350015623
 20
52.545
 30
0.0
 40
0.200000000000256
100
AcDbArc
 50
180.0
 51
270.0
  0
ARC
  5
272
330
24B
100
AcDbEntity
  8
SLD-0
 62
     7
100
AcDbCircle
 10
5.0350015623
 20
51.405
 30
0.0
 40
0.200000000000256
100
AcDbArc
 50
90.0
 51
180.0
  0
ARC
  5
273
330
24B
100
AcDbEntity
  8
SLD-0
 62
     7
100
AcDbCircle
 10
10.5350015623
 20
50.475
 30
0.0
 40
1.300000000000025
100
AcDbArc
 50
133.0490798002
 51
226.9509201998
  0
CIRCLE
  5
274
330
24B
100
AcDbEntity
  8
SLD-0
 62
     7
100
AcDbCircle
 10
10.5350015623
 20
50.475
 30
0.0
 40
0.6499999999999844
  0
ARC
  5
275
330
24B
100
AcDbEntity
  8
SLD-0
 62
     7
100
AcDbCircle
 10
10.5350015623
 20
50.475
 30
0.0
 40
1.300000000000009
100
AcDbArc
 50
313.0490798002
 51
46.9509201998
  0
ARC
  5
276
330
24B
100
AcDbEntity
  8
SLD-0
 62
     7
100
AcDbCircle
 10
8.5350015623
 20
50.005
 30
0.0
 40
0.2000000000000384
100
AcDbArc
 50
270.0
 51
0.0
  0
ARC
  5
277
330
24B
100
AcDbEntity
  8
SLD-0
 62
     7
100
AcDbCircle
 10
8.5350015623
 20
48.865
 30
0.0
 40
0.2000000000000099
100
AcDbArc
 50
0.0
 51
90.0
  0
ARC
  5
278
330
24B
100
AcDbEntity
  8
SLD-0
 62
     7
100
AcDbCircle
 10
8.5350015623
 20
52.545
 30
0.0
 40
0.2000000000000028
100
AcDbArc
 50
270.0
 51
0.0
  0
ARC
  5
279
330
24B
100
AcDbEntity
  8
SLD-0
 62
     7
100
AcDbCircle
 10
8.5350015623
 20
51.405
 30
0.0
 40
0.199999999999978
100
AcDbArc
 50
0.0
 51
90.0
  0
ARC
  5
27A
330
24B
100
AcDbEntity
  8
SLD-0
 62
     7
100
AcDbCircle
 10
8.6350015623
 20
42.525
 30
0.0
 40
0.5
100
AcDbArc
 50
90.0
 51
180.0
  0
ARC
  5
27B
330
24B
100
AcDbEntity
  8
SLD-0
 62
     7
100
AcDbCircle
 10
10.5350015623
 20
45.395
 30
0.0
 40
1.300000000000025
100
AcDbArc
 50
133.0490798002
 51
226.9509201998
  0
CIRCLE
  5
27C
330
24B
100
AcDbEntity
  8
SLD-0
 62
     7
100
AcDbCircle
 10
10.5350015623
 20
45.395
 30
0.0
 40
0.6499999999999844
  0
ARC
  5
27D
330
24B
100
AcDbEntity
  8
SLD-0
 62
     7
100
AcDbCircle
 10
10.5350015623
 20
45.395
 30
0.0
 40
1.299999999999994
100
AcDbArc
 50
313.0490798002
 51
46.9509201998
  0
ARC
  5
27E
330
24B
100
AcDbEntity
  8
SLD-0
 62
     7
100
AcDbCircle
 10
5.0350015623
 20
44.925
 30
0.0
 40
0.200000000000256
100
AcDbArc
 50
180.0
 51
270.0
  0
ARC
  5
27F
330
24B
100
AcDbEntity
  8
SLD-0
 62
     7
100
AcDbCircle
 10
8.5350015623
 20
44.925
 30
0.0
 40
0.199999999999978
100
AcDbArc
 50
270.0
 51
0.0
  0
ARC
  5
280
330
24B
100
AcDbEntity
  8
SLD-0
 62
     7
100
AcDbCircle
 10
5.0350015623
 20
47.465
 30
0.0
 40
0.200000000000256
100
AcDbArc
 50
180.0
 51
270.0
  0
ARC
  5
281
330
24B
100
AcDbEntity
  8
SLD-0
 62
     7
100
AcDbCircle
 10
5.0350015623
 20
46.325
 30
0.0
 40
0.200000000000256
100
AcDbArc
 50
90.0
 51
180.0
  0
ARC
  5
282
330
24B
100
AcDbEntity
  8
SLD-0
 62
     7
100
AcDbCircle
 10
8.5350015623
 20
46.325
 30
0.0
 40
0.2000000000000313
100
AcDbArc
 50
0.0
 51
90.0
  0
ARC
  5
283
330
24B
100
AcDbEntity
  8
SLD-0
 62
     7
100
AcDbCircle
 10
8.5350015623
 20
47.465
 30
0.0
 40
0.2000000000000313
100
AcDbArc
 50
270.0
 51
0.0
  0
ARC
  5
284
330
24B
100
AcDbEntity
  8
SLD-0
 62
     7
100
AcDbCircle
 10
5.4350015623
 20
41.205
 30
0.0
 40
2.000000000000002
100
AcDbArc
 50
270.0
 51
0.0
  0
ARC
  5
285
330
24B
100
AcDbEntity
  8
SLD-0
 62
     7
100
AcDbCircle
 10
5.4350015623
 20
41.205
 30
0.0
 40
2.699999999999982
100
AcDbArc
 50
270.0
 51
0.0
  0
ARC
  5
286
330
24B
100
AcDbEntity
  8
SLD-0
 62
     7
100
AcDbCircle
 10
4.8323830082
 20
38.005
 30
0.0
 40
0.5000000000000071
100
AcDbArc
 50
90.0
 51
180.0
  0
ARC
  5
287
330
24B
100
AcDbEntity
  8
SLD-0
 62
     7
100
AcDbCircle
 10
17.8350015623
 20
43.525
 30
0.0
 40
0.5000000000001101
100
AcDbArc
 50
270.0
 51
0.0
  0
ARC
  5
288
330
24B
100
AcDbEntity
  8
SLD-0
 62
     7
100
AcDbCircle
 10
21.2376791841
 20
29.95
 30
0.0
 40
0.5
100
AcDbArc
 50
270.0
 51
0.0
  0
ARC
  5
289
330
24B
100
AcDbEntity
  8
SLD-0
 62
     7
100
AcDbCircle
 10
20.5376144508
 20
28.95
 30
0.0
 40
0.5
100
AcDbArc
 50
90.0
 51
180.0
  0
ARC
  5
28A
330
24B
100
AcDbEntity
  8
SLD-0
 62
     7
370
     0
100
AcDbCircle
 10
5.6850015623
 20
21.5
 30
0.0
 40
2.999999999999997
100
AcDbArc
 50
152.7732440577
 51
207.2267559423
  0
ARC
  5
28B
330
24B
100
AcDbEntity
  8
SLD-0
 62
     7
100
AcDbCircle
 10
3.4350015623
 20
10.0
 30
0.0
 40
2.000000000000002
100
AcDbArc
 50
90.0
 51
180.0
  0
CIRCLE
  5
28C
330
24B
100
AcDbEntity
  8
SLD-0
 62
     7
100
AcDbCircle
 10
15.2350015623
 20
19.2
 30
0.0
 40
3.350000000000021
  0
CIRCLE
  5
28D
330
24B
100
AcDbEntity
  8
SLD-0
 62
     7
100
AcDbCircle
 10
13.8207879999
 20
17.7857864376
 30
0.0
 40
0.5
  0
ARC
  5
28E
330
24B
100
AcDbEntity
  8
SLD-0
 62
     7
100
AcDbCircle
 10
3.4350015623
 20
4.0
 30
0.0
 40
1.999999999999988
100
AcDbArc
 50
180.0
 51
270.0
  0
ARC
  5
28F
330
24B
100
AcDbEntity
  8
SLD-0
 62
     7
100
AcDbCircle
 10
10.5850015623
 20
4.0
 30
0.0
 40
2.000000000000004
100
AcDbArc
 50
270.0
 51
0.0
  0
CIRCLE
  5
290
330
24B
100
AcDbEntity
  8
SLD-0
 62
     7
370
     0
100
AcDbCircle
 10
12.2324015623
 20
61.101404
 30
0.0
 40
2.19999999999998
  0
CIRCLE
  5
291
330
24B
100
AcDbEntity
  8
SLD-0
 62
     7
370
     0
100
AcDbCircle
 10
12.8325930466
 20
62.0311432984
 30
0.0
 40
0.2499999999999716
  0
CIRCLE
  5
292
330
24B
100
AcDbEntity
  8
SLD-0
 62
     7
370
     0
100
AcDbCircle
 10
11.5242650033
 20
62.0311432984
 30
0.0
 40
0.2499999999999734
  0
ARC
  5
293
330
24B
100
AcDbEntity
  8
SLD-0
 62
     7
100
AcDbCircle
 10
6.7350015623
 20
7.5
 30
0.0
 40
2.300000000000025
100
AcDbArc
 50
0.0
 51
180.0
  0
ARC
  5
294
330
24B
100
AcDbEntity
  8
SLD-0
 62
     7
100
AcDbCircle
 10
6.7350015623
 20
6.5
 30
0.0
 40
2.300000000000025
100
AcDbArc
 50
180.0
 51
0.0
  0
ELLIPSE
  5
295
330
24B
100
AcDbEntity
  8
SLD-0
 62
     7
100
AcDbEllipse
 10
3.6323830082
 20
59.745
 30
0.0
 11
0.0
 21
2.000001731760101
 31
0.0
210
0.0
220
0.0
230
1.0
 40
0.038834528
 41
0.0
 42
1.570796326794897
  0
ELLIPSE
  5
296
330
24B
100
AcDbEntity
  8
SLD-0
 62
     7
100
AcDbEllipse
 10
3.6323830082
 20
41.205
 30
0.0
 11
0.0
 21
-2.000001731760101
 31
0.0
210
0.0
220
0.0
230
1.0
 40
0.038834528
 41
4.71238898038469
 42
6.283185307179586
  0
LINE
  5
297
330
24B
100
AcDbEntity
  8
SLD-0
 62
     7
100
AcDbLine
 10
22.4769500891
 20
27.1033966622
 30
0.0
 11
22.4769500891
 21
28.75
 31
0.0
  0
LINE
  5
298
330
24B
100
AcDbEntity
  8
SLD-0
 62
     7
100
AcDbLine
 10
20.7768853559
 20
27.1033966622
 30
0.0
 11
20.7768853559
 21
28.71
 31
0.0
  0
LINE
  5
299
330
24B
100
AcDbEntity
  8
SLD-0
 62
     7
100
AcDbLine
 10
20.7376144508
 20
27.1033966622
 30
0.0
 11
20.7376144508
 21
28.75
 31
0.0
  0
LINE
  5
29A
330
24B
100
AcDbEntity
  8
SLD-0
 62
     7
100
AcDbLine
 10
22.7862084665
 20
26.75
 30
0.0
 11
22.7862084665
 21
77.2499982256
 31
0.0
  0
LINE
  5
29B
330
24B
100
AcDbEntity
  8
SLD-0
 62
     7
100
AcDbLine
 10
1.5837946581
 20
26.75
 30
0.0
 11
1.5837946581
 21
77.25
 31
0.0
  0
LINE
  5
29C
330
24B
100
AcDbEntity
  8
SLD-0
 62
     7
100
AcDbLine
 10
1.8546548172
 20
27.070601531
 30
0.0
 11
1.8546548172
 21
68.0791398409
 31
0.0
  0
LINE
  5
29D
330
24B
100
AcDbEntity
  8
SLD-0
 62
     7
100
AcDbLine
 10
3.5547138849
 20
27.070601531
 30
0.0
 11
3.5547138849
 21
68.0791398409
 31
0.0
  0
LINE
  5
29E
330
24B
100
AcDbEntity
  8
SLD-0
 62
     7
100
AcDbLine
 10
3.6323830082
 20
27.1482724288
 30
0.0
 11
3.6323830082
 21
39.2049982682
 31
0.0
  0
LINE
  5
29F
330
24B
100
AcDbEntity
  8
SLD-0
  6
CENTERX2
 62
     7
370
     0
100
AcDbLine
 10
12.1850015623
 20
104.0
 30
0.0
 11
12.1850015623
 21
0.0
 31
0.0
  0
LINE
  5
2A0
330
24B
100
AcDbEntity
  8
SLD-0
 62
     7
100
AcDbLine
 10
22.9350015623
 20
90.8
 30
0.0
 11
22.9350015623
 21
13.2
 31
0.0
  0
LINE
  5
2A1
330
24B
100
AcDbEntity
  8
SLD-0
 62
     7
100
AcDbLine
 10
1.4350015623
 20
13.2
 30
0.0
 11
1.4350015623
 21
90.8
 31
0.0
  0
LINE
  5
2A2
330
24B
100
AcDbEntity
  8
SLD-0
  6
CENTERX2
 62
     7
370
     0
100
AcDbLine
 10
6.5639079199
 20
65.6360920801
 30
0.0
 11
6.5639079199
 21
78.7639079199
 31
0.0
  0
LINE
  5
2A3
330
24B
100
AcDbEntity
  8
SLD-0
 62
     7
100
AcDbLine
 10
3.6323830082
 20
68.0014707176
 30
0.0
 11
3.6323830082
 21
61.7450017318
 31
0.0
  0
LINE
  5
2A4
330
24B
100
AcDbEntity
  8
SLD-0
 62
     7
100
AcDbLine
 10
22.4376791841
 20
28.75
 30
0.0
 11
22.4376791841
 21
75.2499982256
 31
0.0
  0
LINE
  5
2A5
330
24B
100
AcDbEntity
  8
SLD-0
 62
     7
100
AcDbLine
 10
21.7376791841
 20
29.95
 30
0.0
 11
21.7376791841
 21
74.0499982256
 31
0.0
  0
LINE
  5
2A6
330
24B
100
AcDbEntity
  8
SLD-0
 62
     7
370
     0
100
AcDbLine
 10
3.0173930991
 20
90.8
 30
0.0
 11
3.0173930991
 21
83.8725396487
 31
0.0
  0
LINE
  5
2A7
330
24B
100
AcDbEntity
  8
SLD-0
  6
CENTERX2
 62
     7
370
     0
100
AcDbLine
 10
15.2350015623
 20
78.2360920801
 30
0.0
 11
15.2350015623
 21
91.3639079199
 31
0.0
  0
LINE
  5
2A8
330
24B
100
AcDbEntity
  8
SLD-0
 62
     7
370
     0
100
AcDbLine
 10
10.1050015623
 20
90.8
 30
0.0
 11
10.1050015623
 21
77.35
 31
0.0
  0
LINE
  5
2A9
330
24B
100
AcDbEntity
  8
SLD-0
 62
     7
370
     0
100
AcDbLine
 10
8.8059894612
 20
90.8
 30
0.0
 11
8.8059894612
 21
77.35
 31
0.0
  0
LINE
  5
2AA
330
24B
100
AcDbEntity
  8
SLD-0
 62
     7
100
AcDbLine
 10
10.4850015623
 20
89.05
 30
0.0
 11
10.4850015623
 21
80.55
 31
0.0
  0
LINE
  5
2AB
330
24B
100
AcDbEntity
  8
SLD-0
 62
     7
100
AcDbLine
 10
20.4650015623
 20
90.8
 30
0.0
 11
20.4650015623
 21
77.35
 31
0.0
  0
LINE
  5
2AC
330
24B
100
AcDbEntity
  8
SLD-0
 62
     7
370
     0
100
AcDbLine
 10
21.0467279123
 20
90.8
 30
0.0
 11
21.0467279123
 21
77.35
 31
0.0
  0
LINE
  5
2AD
330
24B
100
AcDbEntity
  8
SLD-0
 62
     7
100
AcDbLine
 10
19.9850015623
 20
80.55
 30
0.0
 11
19.9850015623
 21
89.05
 31
0.0
  0
LINE
  5
2AE
330
24B
100
AcDbEntity
  8
SLD-0
 62
     7
100
AcDbLine
 10
1.4350015623
 20
90.8
 30
0.0
 11
22.9350015623
 21
90.8
 31
0.0
  0
LINE
  5
2AF
330
24B
100
AcDbEntity
  8
SLD-0
 62
     7
100
AcDbLine
 10
1.4350015623
 20
100.0
 30
0.0
 11
1.4350015623
 21
94.0
 31
0.0
  0
LINE
  5
2B0
330
24B
100
AcDbEntity
  8
SLD-0
  6
CENTERX2
 62
     7
370
     0
100
AcDbLine
 10
17.6450015623
 20
93.7
 30
0.0
 11
17.6450015623
 21
100.3
 31
0.0
  0
LINE
  5
2B1
330
24B
100
AcDbEntity
  8
SLD-0
 62
     7
100
AcDbLine
 10
22.9350015623
 20
100.0
 30
0.0
 11
22.9350015623
 21
94.0
 31
0.0
  0
LINE
  5
2B2
330
24B
100
AcDbEntity
  8
SLD-0
  6
CENTERX2
 62
     7
370
     0
100
AcDbLine
 10
6.7250015623
 20
93.7
 30
0.0
 11
6.7250015623
 21
100.3
 31
0.0
  0
LINE
  5
2B3
330
24B
100
AcDbEntity
  8
SLD-0
 62
     7
100
AcDbLine
 10
3.4350015623
 20
102.0
 30
0.0
 11
20.9350015623
 21
102.0
 31
0.0
  0
LINE
  5
2B4
330
24B
100
AcDbEntity
  8
SLD-0
 62
     7
100
AcDbLine
 10
19.4850015623
 20
89.55
 30
0.0
 11
10.9850015623
 21
89.55
 31
0.0
  0
LINE
  5
2B5
330
24B
100
AcDbEntity
  8
SLD-0
 62
     7
370
     0
100
AcDbLine
 10
10.1050015623
 20
89.6
 30
0.0
 11
20.4650015623
 21
89.6
 31
0.0
  0
LINE
  5
2B6
330
24B
100
AcDbEntity
  8
SLD-0
  6
CENTERX2
 62
     7
370
     0
100
AcDbLine
 10
10.0250015623
 20
97.0
 30
0.0
 11
3.4250015623
 21
97.0
 31
0.0
  0
LINE
  5
2B7
330
24B
100
AcDbEntity
  8
SLD-0
 62
     7
100
AcDbLine
 10
10.9850015623
 20
89.55
 30
0.0
 11
10.4850015623
 21
89.05
 31
0.0
  0
LINE
  5
2B8
330
24B
100
AcDbEntity
  8
SLD-0
 62
     7
370
     0
100
AcDbLine
 10
3.0173930991
 20
89.6
 30
0.0
 11
8.8059894612
 21
89.6
 31
0.0
  0
LINE
  5
2B9
330
24B
100
AcDbEntity
  8
SLD-0
 62
     7
100
AcDbLine
 10
3.4350015623
 20
92.0
 30
0.0
 11
4.6850015623
 21
92.0
 31
0.0
  0
LINE
  5
2BA
330
24B
100
AcDbEntity
  8
SLD-0
 62
     7
100
AcDbLine
 10
4.6850015623
 20
92.0
 30
0.0
 11
4.6850015623
 21
90.8
 31
0.0
  0
LINE
  5
2BB
330
24B
100
AcDbEntity
  8
SLD-0
  6
CENTERX2
 62
     7
370
     0
100
AcDbLine
 10
14.3450015623
 20
97.0
 30
0.0
 11
20.9450015623
 21
97.0
 31
0.0
  0
LINE
  5
2BC
330
24B
100
AcDbEntity
  8
SLD-0
 62
     7
100
AcDbLine
 10
14.5850015623
 20
88.086335345
 30
0.0
 11
14.5850015623
 21
89.55
 31
0.0
  0
LINE
  5
2BD
330
24B
100
AcDbEntity
  8
SLD-0
 62
     7
100
AcDbLine
 10
19.9850015623
 20
89.05
 30
0.0
 11
19.4850015623
 21
89.55
 31
0.0
  0
LINE
  5
2BE
330
24B
100
AcDbEntity
  8
SLD-0
 62
     7
100
AcDbLine
 10
15.8850015623
 20
88.086335345
 30
0.0
 11
15.8850015623
 21
89.55
 31
0.0
  0
LINE
  5
2BF
330
24B
100
AcDbEntity
  8
SLD-0
 62
     7
100
AcDbLine
 10
19.6850015623
 20
92.0
 30
0.0
 11
19.6850015623
 21
90.8
 31
0.0
  0
LINE
  5
2C0
330
24B
100
AcDbEntity
  8
SLD-0
 62
     7
100
AcDbLine
 10
20.9350015623
 20
92.0
 30
0.0
 11
19.6850015623
 21
92.0
 31
0.0
  0
LINE
  5
2C1
330
24B
100
AcDbEntity
  8
SLD-0
 62
     7
100
AcDbLine
 10
1.8546548172
 20
68.0791398409
 30
0.0
 11
3.5547138849
 21
68.0791398409
 31
0.0
  0
LINE
  5
2C2
330
24B
100
AcDbEntity
  8
SLD-0
 62
     7
100
AcDbLine
 10
1.5837946581
 20
77.25
 30
0.0
 11
22.7862084665
 21
77.2499982256
 31
0.0
  0
LINE
  5
2C3
330
24B
100
AcDbEntity
  8
SLD-0
 62
     7
100
AcDbLine
 10
1.4350015623
 20
77.35
 30
0.0
 11
22.9350015623
 21
77.35
 31
0.0
  0
LINE
  5
2C4
330
24B
100
AcDbEntity
  8
SLD-0
 62
     7
370
     0
100
AcDbLine
 10
2.7939079199
 20
76.05
 30
0.0
 11
10.4061204985
 21
76.05
 31
0.0
  0
LINE
  5
2C5
330
24B
100
AcDbEntity
  8
SLD-0
 62
     7
370
     0
100
AcDbLine
 10
2.7939079199
 20
68.35
 30
0.0
 11
9.8350021916
 21
68.35
 31
0.0
  0
LINE
  5
2C6
330
24B
100
AcDbEntity
  8
SLD-0
  6
CENTERX2
 62
     7
370
     0
100
AcDbLine
 10
0.0
 20
72.2
 30
0.0
 11
13.1278158398
 21
72.2
 31
0.0
  0
LINE
  5
2C7
330
24B
100
AcDbEntity
  8
SLD-0
 62
     7
370
     0
100
AcDbLine
 10
2.7939079199
 20
77.25
 30
0.0
 11
2.7939079199
 21
68.2788760275
 31
0.0
  0
LINE
  5
2C8
330
24B
100
AcDbEntity
  8
SLD-0
 62
     7
100
AcDbLine
 10
1.6549186306
 20
68.2788760275
 30
0.0
 11
1.6549186306
 21
77.25
 31
0.0
  0
LINE
  5
2C9
330
24B
100
AcDbEntity
  8
SLD-0
 62
     7
100
AcDbLine
 10
1.6549186306
 20
68.2788760275
 30
0.0
 11
2.7939079199
 21
68.2788760275
 31
0.0
  0
LINE
  5
2CA
330
24B
100
AcDbEntity
  8
SLD-0
 62
     7
100
AcDbLine
 10
1.6549186306
 20
68.2788760275
 30
0.0
 11
1.8546548172
 21
68.0791398409
 31
0.0
  0
LINE
  5
2CB
330
24B
100
AcDbEntity
  8
SLD-0
 62
     7
100
AcDbLine
 10
16.4350015623
 20
77.35
 30
0.0
 11
16.4350015623
 21
78.19
 31
0.0
  0
LINE
  5
2CC
330
24B
100
AcDbEntity
  8
SLD-0
 62
     7
100
AcDbLine
 10
11.4350015623
 20
77.35
 30
0.0
 11
11.4350015623
 21
78.19
 31
0.0
  0
LINE
  5
2CD
330
24B
100
AcDbEntity
  8
SLD-0
 62
     7
370
     0
100
AcDbLine
 10
3.0173930991
 20
81.1274603513
 30
0.0
 11
3.0173930991
 21
77.35
 31
0.0
  0
LINE
  5
2CE
330
24B
100
AcDbEntity
  8
SLD-0
  6
CENTERX2
 62
     7
370
     0
100
AcDbLine
 10
8.6710936424
 20
84.8
 30
0.0
 11
21.7989094822
 21
84.8
 31
0.0
  0
LINE
  5
2CF
330
24B
100
AcDbEntity
  8
SLD-0
 62
     7
100
AcDbLine
 10
14.7350015623
 20
84.3
 30
0.0
 11
11.9225251473
 21
84.3
 31
0.0
  0
LINE
  5
2D0
330
24B
100
AcDbEntity
  8
SLD-0
 62
     7
100
AcDbLine
 10
14.7350015623
 20
85.3
 30
0.0
 11
11.9225251473
 21
85.3
 31
0.0
  0
LINE
  5
2D1
330
24B
100
AcDbEntity
  8
SLD-0
 62
     7
100
AcDbLine
 10
10.9850015623
 20
80.05
 30
0.0
 11
19.4850015623
 21
80.05
 31
0.0
  0
LINE
  5
2D2
330
24B
100
AcDbEntity
  8
SLD-0
 62
     7
100
AcDbLine
 10
10.4850015623
 20
84.15
 30
0.0
 11
11.9486662173
 21
84.15
 31
0.0
  0
LINE
  5
2D3
330
24B
100
AcDbEntity
  8
SLD-0
 62
     7
100
AcDbLine
 10
10.4850015623
 20
85.45
 30
0.0
 11
11.9486662173
 21
85.45
 31
0.0
  0
LINE
  5
2D4
330
24B
100
AcDbEntity
  8
SLD-0
 62
     7
100
AcDbLine
 10
11.4350015623
 20
78.19
 30
0.0
 11
10.1050015623
 21
78.19
 31
0.0
  0
LINE
  5
2D5
330
24B
100
AcDbEntity
  8
SLD-0
 62
     7
100
AcDbLine
 10
10.9850015623
 20
80.05
 30
0.0
 11
10.4850015623
 21
80.55
 31
0.0
  0
LINE
  5
2D6
330
24B
100
AcDbEntity
  8
SLD-0
 62
     7
100
AcDbLine
 10
14.7350015623
 20
82.8
 30
0.0
 11
15.7350015623
 21
82.8
 31
0.0
  0
LINE
  5
2D7
330
24B
100
AcDbEntity
  8
SLD-0
 62
     7
100
AcDbLine
 10
14.7350015623
 20
86.8
 30
0.0
 11
15.7350015623
 21
86.8
 31
0.0
  0
LINE
  5
2D8
330
24B
100
AcDbEntity
  8
SLD-0
 62
     7
100
AcDbLine
 10
14.7350015623
 20
86.8
 30
0.0
 11
14.7350015623
 21
85.3
 31
0.0
  0
LINE
  5
2D9
330
24B
100
AcDbEntity
  8
SLD-0
 62
     7
100
AcDbLine
 10
14.7350015623
 20
84.3
 30
0.0
 11
14.7350015623
 21
82.8
 31
0.0
  0
LINE
  5
2DA
330
24B
100
AcDbEntity
  8
SLD-0
 62
     7
100
AcDbLine
 10
15.7350015623
 20
86.8
 30
0.0
 11
15.7350015623
 21
85.3
 31
0.0
  0
LINE
  5
2DB
330
24B
100
AcDbEntity
  8
SLD-0
 62
     7
100
AcDbLine
 10
18.5213369073
 20
85.45
 30
0.0
 11
19.9850015623
 21
85.45
 31
0.0
  0
LINE
  5
2DC
330
24B
100
AcDbEntity
  8
SLD-0
 62
     7
100
AcDbLine
 10
18.5213369073
 20
84.15
 30
0.0
 11
19.9850015623
 21
84.15
 31
0.0
  0
LINE
  5
2DD
330
24B
100
AcDbEntity
  8
SLD-0
 62
     7
100
AcDbLine
 10
15.7350015623
 20
84.3
 30
0.0
 11
15.7350015623
 21
82.8
 31
0.0
  0
LINE
  5
2DE
330
24B
100
AcDbEntity
  8
SLD-0
 62
     7
100
AcDbLine
 10
18.5474779773
 20
84.3
 30
0.0
 11
15.7350015623
 21
84.3
 31
0.0
  0
LINE
  5
2DF
330
24B
100
AcDbEntity
  8
SLD-0
 62
     7
100
AcDbLine
 10
18.5474779773
 20
85.3
 30
0.0
 11
15.7350015623
 21
85.3
 31
0.0
  0
LINE
  5
2E0
330
24B
100
AcDbEntity
  8
SLD-0
 62
     7
100
AcDbLine
 10
14.5850015623
 20
80.05
 30
0.0
 11
14.5850015623
 21
81.513664655
 31
0.0
  0
LINE
  5
2E1
330
24B
100
AcDbEntity
  8
SLD-0
 62
     7
100
AcDbLine
 10
20.4650015623
 20
78.19
 30
0.0
 11
16.4350015623
 21
78.19
 31
0.0
  0
LINE
  5
2E2
330
24B
100
AcDbEntity
  8
SLD-0
 62
     7
100
AcDbLine
 10
19.4850015623
 20
80.05
 30
0.0
 11
19.9850015623
 21
80.55
 31
0.0
  0
LINE
  5
2E3
330
24B
100
AcDbEntity
  8
SLD-0
 62
     7
100
AcDbLine
 10
15.8850015623
 20
80.05
 30
0.0
 11
15.8850015623
 21
81.513664655
 31
0.0
  0
LINE
  5
2E4
330
24B
100
AcDbEntity
  8
SLD-0
 62
     7
100
AcDbLine
 10
10.6835258084
 20
76.8517275712
 30
0.0
 11
20.7376144508
 21
76.8517275712
 31
0.0
  0
LINE
  5
2E5
330
24B
100
AcDbEntity
  8
SLD-0
 62
     7
100
AcDbLine
 10
11.8835258084
 20
76.1517275712
 30
0.0
 11
19.5376144508
 21
76.1517275712
 31
0.0
  0
LINE
  5
2E6
330
24B
100
AcDbEntity
  8
SLD-0
 62
     7
100
AcDbLine
 10
6.8639079199
 20
74.1
 30
0.0
 11
6.8639079199
 21
72.5
 31
0.0
  0
LINE
  5
2E7
330
24B
100
AcDbEntity
  8
SLD-0
 62
     7
100
AcDbLine
 10
6.2639079199
 20
74.1
 30
0.0
 11
6.2639079199
 21
72.5
 31
0.0
  0
LINE
  5
2E8
330
24B
100
AcDbEntity
  8
SLD-0
 62
     7
370
     0
100
AcDbLine
 10
10.3350021916
 20
76.05
 30
0.0
 11
10.3350021916
 21
68.85
 31
0.0
  0
LINE
  5
2E9
330
24B
100
AcDbEntity
  8
SLD-0
 62
     7
100
AcDbLine
 10
9.9639079199
 20
68.8
 30
0.0
 11
9.9639079199
 21
75.6
 31
0.0
  0
LINE
  5
2EA
330
24B
100
AcDbEntity
  8
SLD-0
 62
     7
100
AcDbLine
 10
10.6835258084
 20
76.8517275712
 30
0.0
 11
10.6835258084
 21
68.5014707176
 31
0.0
  0
LINE
  5
2EB
330
24B
100
AcDbEntity
  8
SLD-0
 62
     7
100
AcDbLine
 10
11.3835258084
 20
75.6517275712
 30
0.0
 11
11.3835258084
 21
68.5014707176
 31
0.0
  0
LINE
  5
2EC
330
24B
100
AcDbEntity
  8
SLD-0
 62
     7
100
AcDbLine
 10
3.1639079199
 20
68.8
 30
0.0
 11
3.1639079199
 21
75.6
 31
0.0
  0
LINE
  5
2ED
330
24B
100
AcDbEntity
  8
SLD-0
 62
     7
100
AcDbLine
 10
6.1639079199
 20
75.0722813233
 30
0.0
 11
6.1639079199
 21
75.6
 31
0.0
  0
LINE
  5
2EE
330
24B
100
AcDbEntity
  8
SLD-0
 62
     7
100
AcDbLine
 10
6.9639079199
 20
75.0722813233
 30
0.0
 11
6.9639079199
 21
75.6
 31
0.0
  0
LINE
  5
2EF
330
24B
100
AcDbEntity
  8
SLD-0
 62
     7
100
AcDbLine
 10
6.2639079199
 20
74.1
 30
0.0
 11
6.8639079199
 21
74.1
 31
0.0
  0
LINE
  5
2F0
330
24B
100
AcDbEntity
  8
SLD-0
 62
     7
100
AcDbLine
 10
9.4361892432
 20
72.6
 30
0.0
 11
9.9639079199
 21
72.6
 31
0.0
  0
LINE
  5
2F1
330
24B
100
AcDbEntity
  8
SLD-0
 62
     7
370
     0
100
AcDbLine
 10
8.988380998
 20
77.25
 30
0.0
 11
8.988380998
 21
76.05
 31
0.0
  0
LINE
  5
2F2
330
24B
100
AcDbEntity
  8
SLD-0
 62
     7
100
AcDbLine
 10
10.4061204985
 20
77.25
 30
0.0
 11
10.4061204985
 21
76.05
 31
0.0
  0
LINE
  5
2F3
330
24B
100
AcDbEntity
  8
SLD-0
 62
     7
100
AcDbLine
 10
10.4061204985
 20
77.25
 30
0.0
 11
10.6835258084
 21
76.8517275712
 31
0.0
  0
LINE
  5
2F4
330
24B
100
AcDbEntity
  8
SLD-0
 62
     7
100
AcDbLine
 10
3.6916265966
 20
72.6
 30
0.0
 11
3.1639079199
 21
72.6
 31
0.0
  0
LINE
  5
2F5
330
24B
100
AcDbEntity
  8
SLD-0
 62
     7
100
AcDbLine
 10
3.1639079199
 20
75.6
 30
0.0
 11
9.9639079199
 21
75.6
 31
0.0
  0
LINE
  5
2F6
330
24B
100
AcDbEntity
  8
SLD-0
 62
     7
100
AcDbLine
 10
9.4483489403
 20
71.9
 30
0.0
 11
6.8639079199
 21
71.9
 31
0.0
  0
LINE
  5
2F7
330
24B
100
AcDbEntity
  8
SLD-0
 62
     7
100
AcDbLine
 10
9.4483489403
 20
72.5
 30
0.0
 11
6.8639079199
 21
72.5
 31
0.0
  0
LINE
  5
2F8
330
24B
100
AcDbEntity
  8
SLD-0
 62
     7
100
AcDbLine
 10
9.4483489403
 20
72.5
 30
0.0
 11
6.8639079199
 21
72.5
 31
0.0
  0
LINE
  5
2F9
330
24B
100
AcDbEntity
  8
SLD-0
 62
     7
100
AcDbLine
 10
6.9639079199
 20
69.3277186767
 30
0.0
 11
6.9639079199
 21
68.8
 31
0.0
  0
LINE
  5
2FA
330
24B
100
AcDbEntity
  8
SLD-0
 62
     7
100
AcDbLine
 10
6.1639079199
 20
69.3277186767
 30
0.0
 11
6.1639079199
 21
68.8
 31
0.0
  0
LINE
  5
2FB
330
24B
100
AcDbEntity
  8
SLD-0
 62
     7
100
AcDbLine
 10
6.2639079199
 20
70.3
 30
0.0
 11
6.8639079199
 21
70.3
 31
0.0
  0
LINE
  5
2FC
330
24B
100
AcDbEntity
  8
SLD-0
 62
     7
100
AcDbLine
 10
6.8639079199
 20
71.9
 30
0.0
 11
6.8639079199
 21
70.3
 31
0.0
  0
LINE
  5
2FD
330
24B
100
AcDbEntity
  8
SLD-0
 62
     7
100
AcDbLine
 10
6.2639079199
 20
71.9
 30
0.0
 11
6.2639079199
 21
70.3
 31
0.0
  0
LINE
  5
2FE
330
24B
100
AcDbEntity
  8
SLD-0
 62
     7
100
AcDbLine
 10
9.4361892432
 20
71.8
 30
0.0
 11
9.9639079199
 21
71.8
 31
0.0
  0
LINE
  5
2FF
330
24B
100
AcDbEntity
  8
SLD-0
 62
     7
100
AcDbLine
 10
9.4361892432
 20
71.8
 30
0.0
 11
9.9639079199
 21
71.8
 31
0.0
  0
LINE
  5
300
330
24B
100
AcDbEntity
  8
SLD-0
 62
     7
100
AcDbLine
 10
3.6916265966
 20
71.8
 30
0.0
 11
3.1639079199
 21
71.8
 31
0.0
  0
LINE
  5
301
330
24B
100
AcDbEntity
  8
SLD-0
 62
     7
100
AcDbLine
 10
3.6916265966
 20
71.8
 30
0.0
 11
3.1639079199
 21
71.8
 31
0.0
  0
LINE
  5
302
330
24B
100
AcDbEntity
  8
SLD-0
 62
     7
100
AcDbLine
 10
3.5547138849
 20
68.0791398409
 30
0.0
 11
3.6323830082
 21
68.0014707176
 31
0.0
  0
LINE
  5
303
330
24B
100
AcDbEntity
  8
SLD-0
 62
     7
100
AcDbLine
 10
3.1639079199
 20
68.8
 30
0.0
 11
9.9639079199
 21
68.8
 31
0.0
  0
LINE
  5
304
330
24B
100
AcDbEntity
  8
SLD-0
 62
     7
100
AcDbLine
 10
6.2639079199
 20
71.9
 30
0.0
 11
3.6794668995
 21
71.9
 31
0.0
  0
LINE
  5
305
330
24B
100
AcDbEntity
  8
SLD-0
 62
     7
100
AcDbLine
 10
6.2639079199
 20
72.5
 30
0.0
 11
3.6794668995
 21
72.5
 31
0.0
  0
LINE
  5
306
330
24B
100
AcDbEntity
  8
SLD-0
 62
     7
100
AcDbLine
 10
6.2639079199
 20
72.5
 30
0.0
 11
3.6794668995
 21
72.5
 31
0.0
  0
LINE
  5
307
330
24B
100
AcDbEntity
  8
SLD-0
 62
     7
100
AcDbLine
 10
3.6323830082
 20
68.0014707176
 30
0.0
 11
10.1835258084
 21
68.0014707176
 31
0.0
  0
LINE
  5
308
330
24B
100
AcDbEntity
  8
SLD-0
 62
     7
100
AcDbLine
 10
20.7768853559
 20
76.8966015634
 30
0.0
 11
20.7768853559
 21
75.2899982256
 31
0.0
  0
LINE
  5
309
330
24B
100
AcDbEntity
  8
SLD-0
 62
     7
100
AcDbLine
 10
22.4769500891
 20
76.8966015634
 30
0.0
 11
22.4769500891
 21
75.2499982256
 31
0.0
  0
LINE
  5
30A
330
24B
100
AcDbEntity
  8
SLD-0
 62
     7
100
AcDbLine
 10
20.7376144508
 20
76.8966015634
 30
0.0
 11
20.7376144508
 21
75.2499982256
 31
0.0
  0
LINE
  5
30B
330
24B
100
AcDbEntity
  8
SLD-0
 62
     7
100
AcDbLine
 10
20.7768853559
 20
75.2899982256
 30
0.0
 11
22.4769500891
 21
75.2899982256
 31
0.0
  0
LINE
  5
30C
330
24B
100
AcDbEntity
  8
SLD-0
 62
     7
100
AcDbLine
 10
20.7376144508
 20
75.2499982256
 30
0.0
 11
22.4769500891
 21
75.2499982256
 31
0.0
  0
LINE
  5
30D
330
24B
100
AcDbEntity
  8
SLD-0
 62
     7
100
AcDbLine
 10
22.4769500891
 20
76.8966015634
 30
0.0
 11
20.7376144508
 21
76.8966015634
 31
0.0
  0
LINE
  5
30E
330
24B
100
AcDbEntity
  8
SLD-0
 62
     7
100
AcDbLine
 10
22.7862084665
 20
77.2499982256
 30
0.0
 11
22.4769500891
 21
76.8966015634
 31
0.0
  0
LINE
  5
30F
330
24B
100
AcDbEntity
  8
SLD-0
 62
     7
100
AcDbLine
 10
20.0376144508
 20
75.6517275712
 30
0.0
 11
20.0376144508
 21
75.0499982256
 31
0.0
  0
LINE
  5
310
330
24B
100
AcDbEntity
  8
SLD-0
 62
     7
100
AcDbLine
 10
20.5376144508
 20
74.5499982256
 30
0.0
 11
21.2376791841
 21
74.5499982256
 31
0.0
  0
LINE
  5
311
330
24B
100
AcDbEntity
  8
SLD-0
 62
     7
100
AcDbLine
 10
17.4350015623
 20
47.015
 30
0.0
 11
17.4350015623
 21
48.115
 31
0.0
  0
LINE
  5
312
330
24B
100
AcDbEntity
  8
SLD-0
 62
     7
100
AcDbLine
 10
17.0350015623
 20
49.205
 30
0.0
 11
17.0350015623
 21
46.665
 31
0.0
  0
LINE
  5
313
330
24B
100
AcDbEntity
  8
SLD-0
 62
     7
100
AcDbLine
 10
5.3600015623
 20
48.565
 30
0.0
 11
5.3600015623
 21
47.765
 31
0.0
  0
LINE
  5
314
330
24B
100
AcDbEntity
  8
SLD-0
 62
     7
100
AcDbLine
 10
4.8350015623
 20
47.465
 30
0.0
 11
4.8350015623
 21
48.865
 31
0.0
  0
LINE
  5
315
330
24B
100
AcDbEntity
  8
SLD-0
 62
     7
100
AcDbLine
 10
5.0350015623
 20
49.065
 30
0.0
 11
5.0350015623
 21
47.265
 31
0.0
  0
LINE
  5
316
330
24B
100
AcDbEntity
  8
SLD-0
 62
     7
100
AcDbLine
 10
8.5350015623
 20
49.065
 30
0.0
 11
8.5350015623
 21
47.265
 31
0.0
  0
LINE
  5
317
330
24B
100
AcDbEntity
  8
SLD-0
 62
     7
100
AcDbLine
 10
8.8350015623
 20
47.165
 30
0.0
 11
8.8350015623
 21
48.4516520199
 31
0.0
  0
LINE
  5
318
330
24B
100
AcDbEntity
  8
SLD-0
 62
     7
100
AcDbLine
 10
8.7350015623
 20
47.465
 30
0.0
 11
8.7350015623
 21
48.465
 31
0.0
  0
LINE
  5
319
330
24B
100
AcDbEntity
  8
SLD-0
 62
     7
100
AcDbLine
 10
8.2100015623
 20
47.765
 30
0.0
 11
8.2100015623
 21
48.565
 31
0.0
  0
LINE
  5
31A
330
24B
100
AcDbEntity
  8
SLD-0
 62
     7
100
AcDbLine
 10
12.7350015623
 20
46.665
 30
0.0
 11
12.7350015623
 21
49.205
 31
0.0
  0
LINE
  5
31B
330
24B
100
AcDbEntity
  8
SLD-0
 62
     7
100
AcDbLine
 10
12.5350015623
 20
46.665
 30
0.0
 11
12.5350015623
 21
49.205
 31
0.0
  0
LINE
  5
31C
330
24B
100
AcDbEntity
  8
SLD-0
 62
     7
100
AcDbLine
 10
17.6350015623
 20
57.225
 30
0.0
 11
17.6350015623
 21
43.725
 31
0.0
  0
LINE
  5
31D
330
24B
100
AcDbEntity
  8
SLD-0
 62
     7
100
AcDbLine
 10
18.3350015623
 20
57.425
 30
0.0
 11
18.3350015623
 21
43.525
 31
0.0
  0
LINE
  5
31E
330
24B
100
AcDbEntity
  8
SLD-0
 62
     7
100
AcDbLine
 10
4.3350015623
 20
57.225
 30
0.0
 11
4.3350015623
 21
43.725
 31
0.0
  0
LINE
  5
31F
330
24B
100
AcDbEntity
  8
SLD-0
 62
     7
100
AcDbLine
 10
7.4350015623
 20
57.225
 30
0.0
 11
7.4350015623
 21
59.745
 31
0.0
  0
LINE
  5
320
330
24B
100
AcDbEntity
  8
SLD-0
 62
     7
100
AcDbLine
 10
17.8350015623
 20
57.925
 30
0.0
 11
8.6350015623
 21
57.925
 31
0.0
  0
LINE
  5
321
330
24B
100
AcDbEntity
  8
SLD-0
 62
     7
100
AcDbLine
 10
4.8323830082
 20
67.3014707176
 30
0.0
 11
10.1835258084
 21
67.3014707176
 31
0.0
  0
LINE
  5
322
330
24B
100
AcDbEntity
  8
SLD-0
 62
     7
100
AcDbLine
 10
4.3323830082
 20
66.8014707176
 30
0.0
 11
4.3323830082
 21
62.945
 31
0.0
  0
LINE
  5
323
330
24B
100
AcDbEntity
  8
SLD-0
 62
     7
100
AcDbLine
 10
5.4350015623
 20
62.445
 30
0.0
 11
4.8323830082
 21
62.445
 31
0.0
  0
LINE
  5
324
330
24B
100
AcDbEntity
  8
SLD-0
 62
     7
100
AcDbLine
 10
8.1350015623
 20
58.425
 30
0.0
 11
8.1350015623
 21
59.745
 31
0.0
  0
LINE
  5
325
330
24B
100
AcDbEntity
  8
SLD-0
 62
     7
100
AcDbLine
 10
5.4350015623
 20
61.745
 30
0.0
 11
3.6350149359
 21
61.745
 31
0.0
  0
LINE
  5
326
330
24B
100
AcDbEntity
  8
SLD-0
 62
     7
100
AcDbLine
 10
17.6350015623
 20
57.225
 30
0.0
 11
4.3350015623
 21
57.225
 31
0.0
  0
LINE
  5
327
330
24B
100
AcDbEntity
  8
SLD-0
 62
     7
100
AcDbLine
 10
15.4032632625
 20
56.825
 30
0.0
 11
13.4667398621
 21
56.825
 31
0.0
  0
LINE
  5
328
330
24B
100
AcDbEntity
  8
SLD-0
 62
     7
100
AcDbLine
 10
12.7350015623
 20
51.745
 30
0.0
 11
17.0350015623
 21
51.745
 31
0.0
  0
LINE
  5
329
330
24B
100
AcDbEntity
  8
SLD-0
 62
     7
100
AcDbLine
 10
12.7350015623
 20
49.205
 30
0.0
 11
17.0350015623
 21
49.205
 31
0.0
  0
LINE
  5
32A
330
24B
100
AcDbEntity
  8
SLD-0
 62
     7
100
AcDbLine
 10
12.7350015623
 20
54.285
 30
0.0
 11
17.0350015623
 21
54.285
 31
0.0
  0
LINE
  5
32B
330
24B
100
AcDbEntity
  8
SLD-0
 62
     7
100
AcDbLine
 10
15.4032632625
 20
49.205
 30
0.0
 11
13.4667398621
 21
49.205
 31
0.0
  0
LINE
  5
32C
330
24B
100
AcDbEntity
  8
SLD-0
 62
     7
100
AcDbLine
 10
15.4032632625
 20
54.285
 30
0.0
 11
13.4667398621
 21
54.285
 31
0.0
  0
LINE
  5
32D
330
24B
100
AcDbEntity
  8
SLD-0
 62
     7
100
AcDbLine
 10
15.4032632625
 20
51.745
 30
0.0
 11
13.4667398621
 21
51.745
 31
0.0
  0
LINE
  5
32E
330
24B
100
AcDbEntity
  8
SLD-0
 62
     7
100
AcDbLine
 10
12.7350015623
 20
51.745
 30
0.0
 11
12.7350015623
 21
54.285
 31
0.0
  0
LINE
  5
32F
330
24B
100
AcDbEntity
  8
SLD-0
 62
     7
100
AcDbLine
 10
4.8350015623
 20
52.545
 30
0.0
 11
4.8350015623
 21
53.945
 31
0.0
  0
LINE
  5
330
330
24B
100
AcDbEntity
  8
SLD-0
 62
     7
100
AcDbLine
 10
5.0350015623
 20
54.145
 30
0.0
 11
5.0350015623
 21
52.345
 31
0.0
  0
LINE
  5
331
330
24B
100
AcDbEntity
  8
SLD-0
 62
     7
100
AcDbLine
 10
8.5350015623
 20
54.145
 30
0.0
 11
8.5350015623
 21
52.345
 31
0.0
  0
LINE
  5
332
330
24B
100
AcDbEntity
  8
SLD-0
 62
     7
100
AcDbLine
 10
8.8350015623
 20
52.245
 30
0.0
 11
8.8350015623
 21
53.5316520199
 31
0.0
  0
LINE
  5
333
330
24B
100
AcDbEntity
  8
SLD-0
 62
     7
100
AcDbLine
 10
8.7350015623
 20
52.545
 30
0.0
 11
8.7350015623
 21
53.545
 31
0.0
  0
LINE
  5
334
330
24B
100
AcDbEntity
  8
SLD-0
 62
     7
100
AcDbLine
 10
12.5350015623
 20
51.745
 30
0.0
 11
12.5350015623
 21
54.285
 31
0.0
  0
LINE
  5
335
330
24B
100
AcDbEntity
  8
SLD-0
 62
     7
100
AcDbLine
 10
8.8350015623
 20
56.825
 30
0.0
 11
7.4350015623
 21
56.825
 31
0.0
  0
LINE
  5
336
330
24B
100
AcDbEntity
  8
SLD-0
 62
     7
100
AcDbLine
 10
6.9667398621
 20
56.825
 30
0.0
 11
7.4350015623
 21
56.825
 31
0.0
  0
LINE
  5
337
330
24B
100
AcDbEntity
  8
SLD-0
 62
     7
100
AcDbLine
 10
6.6350015623
 20
56.825
 30
0.0
 11
6.9667398621
 21
56.825
 31
0.0
  0
LINE
  5
338
330
24B
100
AcDbEntity
  8
SLD-0
 62
     7
100
AcDbLine
 10
6.4350015623
 20
56.825
 30
0.0
 11
6.6350015623
 21
56.825
 31
0.0
  0
LINE
  5
339
330
24B
100
AcDbEntity
  8
SLD-0
 62
     7
100
AcDbLine
 10
11.4667398621
 20
56.825
 30
0.0
 11
12.5350015623
 21
56.825
 31
0.0
  0
LINE
  5
33A
330
24B
100
AcDbEntity
  8
SLD-0
 62
     7
100
AcDbLine
 10
8.9032632625
 20
56.825
 30
0.0
 11
11.4667398621
 21
56.825
 31
0.0
  0
LINE
  5
33B
330
24B
100
AcDbEntity
  8
SLD-0
 62
     7
100
AcDbLine
 10
8.8350015623
 20
56.825
 30
0.0
 11
8.9032632625
 21
56.825
 31
0.0
  0
LINE
  5
33C
330
24B
100
AcDbEntity
  8
SLD-0
 62
     7
100
AcDbLine
 10
13.4032632625
 20
56.825
 30
0.0
 11
13.4667398621
 21
56.825
 31
0.0
  0
LINE
  5
33D
330
24B
100
AcDbEntity
  8
SLD-0
 62
     7
100
AcDbLine
 10
12.7350015623
 20
56.825
 30
0.0
 11
13.4032632625
 21
56.825
 31
0.0
  0
LINE
  5
33E
330
24B
100
AcDbEntity
  8
SLD-0
 62
     7
100
AcDbLine
 10
12.5350015623
 20
56.825
 30
0.0
 11
12.7350015623
 21
56.825
 31
0.0
  0
LINE
  5
33F
330
24B
100
AcDbEntity
  8
SLD-0
 62
     7
100
AcDbLine
 10
8.2100015623
 20
53.645
 30
0.0
 11
5.3600015623
 21
53.645
 31
0.0
  0
LINE
  5
340
330
24B
100
AcDbEntity
  8
SLD-0
 62
     7
100
AcDbLine
 10
5.3600015623
 20
52.845
 30
0.0
 11
8.2100015623
 21
52.845
 31
0.0
  0
LINE
  5
341
330
24B
100
AcDbEntity
  8
SLD-0
 62
     7
100
AcDbLine
 10
8.5350015623
 20
54.145
 30
0.0
 11
7.4350015623
 21
54.145
 31
0.0
  0
LINE
  5
342
330
24B
100
AcDbEntity
  8
SLD-0
 62
     7
100
AcDbLine
 10
8.8350015623
 20
54.285
 30
0.0
 11
7.4350015623
 21
54.285
 31
0.0
  0
LINE
  5
343
330
24B
100
AcDbEntity
  8
SLD-0
 62
     7
100
AcDbLine
 10
7.4350015623
 20
54.285
 30
0.0
 11
7.8350015623
 21
54.285
 31
0.0
  0
LINE
  5
344
330
24B
100
AcDbEntity
  8
SLD-0
 62
     7
100
AcDbLine
 10
5.3600015623
 20
53.645
 30
0.0
 11
5.3600015623
 21
52.845
 31
0.0
  0
LINE
  5
345
330
24B
100
AcDbEntity
  8
SLD-0
 62
     7
100
AcDbLine
 10
7.4350015623
 20
54.145
 30
0.0
 11
5.0350015623
 21
54.145
 31
0.0
  0
LINE
  5
346
330
24B
100
AcDbEntity
  8
SLD-0
 62
     7
100
AcDbLine
 10
6.9667398621
 20
54.285
 30
0.0
 11
7.4350015623
 21
54.285
 31
0.0
  0
LINE
  5
347
330
24B
100
AcDbEntity
  8
SLD-0
 62
     7
100
AcDbLine
 10
6.6350015623
 20
54.145
 30
0.0
 11
6.6350015623
 21
54.285
 31
0.0
  0
LINE
  5
348
330
24B
100
AcDbEntity
  8
SLD-0
 62
     7
100
AcDbLine
 10
6.6350015623
 20
54.285
 30
0.0
 11
6.9667398621
 21
54.285
 31
0.0
  0
LINE
  5
349
330
24B
100
AcDbEntity
  8
SLD-0
 62
     7
100
AcDbLine
 10
6.4350015623
 20
54.285
 30
0.0
 11
6.6350015623
 21
54.285
 31
0.0
  0
LINE
  5
34A
330
24B
100
AcDbEntity
  8
SLD-0
 62
     7
100
AcDbLine
 10
6.4350015623
 20
54.145
 30
0.0
 11
6.4350015623
 21
54.285
 31
0.0
  0
LINE
  5
34B
330
24B
100
AcDbEntity
  8
SLD-0
 62
     7
100
AcDbLine
 10
7.4350015623
 20
54.285
 30
0.0
 11
7.4350015623
 21
54.145
 31
0.0
  0
LINE
  5
34C
330
24B
100
AcDbEntity
  8
SLD-0
 62
     7
100
AcDbLine
 10
6.4350015623
 20
54.285
 30
0.0
 11
6.6350015623
 21
54.285
 31
0.0
  0
LINE
  5
34D
330
24B
100
AcDbEntity
  8
SLD-0
 62
     7
100
AcDbLine
 10
6.6350015623
 20
54.285
 30
0.0
 11
7.4350015623
 21
54.285
 31
0.0
  0
LINE
  5
34E
330
24B
100
AcDbEntity
  8
SLD-0
 62
     7
100
AcDbLine
 10
11.4667398621
 20
54.285
 30
0.0
 11
12.5350015623
 21
54.285
 31
0.0
  0
LINE
  5
34F
330
24B
100
AcDbEntity
  8
SLD-0
 62
     7
100
AcDbLine
 10
7.8350015623
 20
54.285
 30
0.0
 11
12.5350015623
 21
54.285
 31
0.0
  0
LINE
  5
350
330
24B
100
AcDbEntity
  8
SLD-0
 62
     7
100
AcDbLine
 10
11.4224135298
 20
53.965
 30
0.0
 11
9.6475895948
 21
53.965
 31
0.0
  0
LINE
  5
351
330
24B
100
AcDbEntity
  8
SLD-0
 62
     7
100
AcDbLine
 10
8.9032632625
 20
54.285
 30
0.0
 11
11.4667398621
 21
54.285
 31
0.0
  0
LINE
  5
352
330
24B
100
AcDbEntity
  8
SLD-0
 62
     7
100
AcDbLine
 10
8.7350015623
 20
53.545
 30
0.0
 11
8.7350015623
 21
53.945
 31
0.0
  0
LINE
  5
353
330
24B
100
AcDbEntity
  8
SLD-0
 62
     7
100
AcDbLine
 10
8.8350015623
 20
53.545
 30
0.0
 11
8.8350015623
 21
54.145
 31
0.0
  0
LINE
  5
354
330
24B
100
AcDbEntity
  8
SLD-0
 62
     7
100
AcDbLine
 10
8.2100015623
 20
52.845
 30
0.0
 11
8.2100015623
 21
53.645
 31
0.0
  0
LINE
  5
355
330
24B
100
AcDbEntity
  8
SLD-0
 62
     7
100
AcDbLine
 10
8.8350015623
 20
53.545
 30
0.0
 11
8.7350015623
 21
53.545
 31
0.0
  0
LINE
  5
356
330
24B
100
AcDbEntity
  8
SLD-0
 62
     7
100
AcDbLine
 10
8.8350015623
 20
53.5316520199
 30
0.0
 11
8.8350015623
 21
53.545
 31
0.0
  0
LINE
  5
357
330
24B
100
AcDbEntity
  8
SLD-0
 62
     7
100
AcDbLine
 10
8.7350015623
 20
53.5316520199
 30
0.0
 11
8.8350015623
 21
53.5316520199
 31
0.0
  0
LINE
  5
358
330
24B
100
AcDbEntity
  8
SLD-0
 62
     7
100
AcDbLine
 10
8.8350015623
 20
54.145
 30
0.0
 11
8.5350015623
 21
54.145
 31
0.0
  0
LINE
  5
359
330
24B
100
AcDbEntity
  8
SLD-0
 62
     7
100
AcDbLine
 10
8.8350015623
 20
54.145
 30
0.0
 11
8.8350015623
 21
54.285
 31
0.0
  0
LINE
  5
35A
330
24B
100
AcDbEntity
  8
SLD-0
 62
     7
100
AcDbLine
 10
8.8350015623
 20
54.285
 30
0.0
 11
8.9032632625
 21
54.285
 31
0.0
  0
LINE
  5
35B
330
24B
100
AcDbEntity
  8
SLD-0
 62
     7
100
AcDbLine
 10
12.7350015623
 20
54.285
 30
0.0
 11
13.4032632625
 21
54.285
 31
0.0
  0
LINE
  5
35C
330
24B
100
AcDbEntity
  8
SLD-0
 62
     7
100
AcDbLine
 10
12.5350015623
 20
54.285
 30
0.0
 11
12.7350015623
 21
54.285
 31
0.0
  0
LINE
  5
35D
330
24B
100
AcDbEntity
  8
SLD-0
 62
     7
100
AcDbLine
 10
13.4032632625
 20
54.285
 30
0.0
 11
13.4667398621
 21
54.285
 31
0.0
  0
LINE
  5
35E
330
24B
100
AcDbEntity
  8
SLD-0
 62
     7
100
AcDbLine
 10
12.5350015623
 20
54.285
 30
0.0
 11
12.7350015623
 21
54.285
 31
0.0
  0
LINE
  5
35F
330
24B
100
AcDbEntity
  8
SLD-0
 62
     7
100
AcDbLine
 10
6.4350015623
 20
54.285
 30
0.0
 11
6.4350015623
 21
56.825
 31
0.0
  0
LINE
  5
360
330
24B
100
AcDbEntity
  8
SLD-0
 62
     7
100
AcDbLine
 10
5.0350015623
 20
52.345
 30
0.0
 11
8.5350015623
 21
52.345
 31
0.0
  0
LINE
  5
361
330
24B
100
AcDbEntity
  8
SLD-0
 62
     7
100
AcDbLine
 10
7.4350015623
 20
52.245
 30
0.0
 11
7.8350015623
 21
52.245
 31
0.0
  0
LINE
  5
362
330
24B
100
AcDbEntity
  8
SLD-0
 62
     7
100
AcDbLine
 10
7.4350015623
 20
51.745
 30
0.0
 11
7.8350015623
 21
51.745
 31
0.0
  0
LINE
  5
363
330
24B
100
AcDbEntity
  8
SLD-0
 62
     7
100
AcDbLine
 10
5.0350015623
 20
49.805
 30
0.0
 11
8.5350015623
 21
49.805
 31
0.0
  0
LINE
  5
364
330
24B
100
AcDbEntity
  8
SLD-0
 62
     7
100
AcDbLine
 10
8.2100015623
 20
51.105
 30
0.0
 11
5.3600015623
 21
51.105
 31
0.0
  0
LINE
  5
365
330
24B
100
AcDbEntity
  8
SLD-0
 62
     7
100
AcDbLine
 10
5.3600015623
 20
50.305
 30
0.0
 11
8.2100015623
 21
50.305
 31
0.0
  0
LINE
  5
366
330
24B
100
AcDbEntity
  8
SLD-0
 62
     7
100
AcDbLine
 10
7.4350015623
 20
49.705
 30
0.0
 11
7.8350015623
 21
49.705
 31
0.0
  0
LINE
  5
367
330
24B
100
AcDbEntity
  8
SLD-0
 62
     7
100
AcDbLine
 10
7.4350015623
 20
49.205
 30
0.0
 11
7.8350015623
 21
49.205
 31
0.0
  0
LINE
  5
368
330
24B
100
AcDbEntity
  8
SLD-0
 62
     7
100
AcDbLine
 10
8.5350015623
 20
51.605
 30
0.0
 11
7.4350015623
 21
51.605
 31
0.0
  0
LINE
  5
369
330
24B
100
AcDbEntity
  8
SLD-0
 62
     7
100
AcDbLine
 10
8.8350015623
 20
51.745
 30
0.0
 11
7.4350015623
 21
51.745
 31
0.0
  0
LINE
  5
36A
330
24B
100
AcDbEntity
  8
SLD-0
 62
     7
100
AcDbLine
 10
8.2100015623
 20
48.565
 30
0.0
 11
5.3600015623
 21
48.565
 31
0.0
  0
LINE
  5
36B
330
24B
100
AcDbEntity
  8
SLD-0
 62
     7
100
AcDbLine
 10
8.5350015623
 20
49.065
 30
0.0
 11
7.4350015623
 21
49.065
 31
0.0
  0
LINE
  5
36C
330
24B
100
AcDbEntity
  8
SLD-0
 62
     7
100
AcDbLine
 10
8.8350015623
 20
49.205
 30
0.0
 11
7.4350015623
 21
49.205
 31
0.0
  0
LINE
  5
36D
330
24B
100
AcDbEntity
  8
SLD-0
 62
     7
100
AcDbLine
 10
4.8350015623
 20
50.005
 30
0.0
 11
4.8350015623
 21
51.405
 31
0.0
  0
LINE
  5
36E
330
24B
100
AcDbEntity
  8
SLD-0
 62
     7
100
AcDbLine
 10
5.0350015623
 20
51.605
 30
0.0
 11
5.0350015623
 21
49.805
 31
0.0
  0
LINE
  5
36F
330
24B
100
AcDbEntity
  8
SLD-0
 62
     7
100
AcDbLine
 10
5.3600015623
 20
51.105
 30
0.0
 11
5.3600015623
 21
50.305
 31
0.0
  0
LINE
  5
370
330
24B
100
AcDbEntity
  8
SLD-0
 62
     7
100
AcDbLine
 10
7.4350015623
 20
49.065
 30
0.0
 11
5.0350015623
 21
49.065
 31
0.0
  0
LINE
  5
371
330
24B
100
AcDbEntity
  8
SLD-0
 62
     7
100
AcDbLine
 10
6.9667398621
 20
49.205
 30
0.0
 11
7.4350015623
 21
49.205
 31
0.0
  0
LINE
  5
372
330
24B
100
AcDbEntity
  8
SLD-0
 62
     7
100
AcDbLine
 10
6.6350015623
 20
49.065
 30
0.0
 11
6.6350015623
 21
49.205
 31
0.0
  0
LINE
  5
373
330
24B
100
AcDbEntity
  8
SLD-0
 62
     7
100
AcDbLine
 10
6.6350015623
 20
49.205
 30
0.0
 11
6.9667398621
 21
49.205
 31
0.0
  0
LINE
  5
374
330
24B
100
AcDbEntity
  8
SLD-0
 62
     7
100
AcDbLine
 10
6.4350015623
 20
49.205
 30
0.0
 11
6.6350015623
 21
49.205
 31
0.0
  0
LINE
  5
375
330
24B
100
AcDbEntity
  8
SLD-0
 62
     7
100
AcDbLine
 10
6.4350015623
 20
49.065
 30
0.0
 11
6.4350015623
 21
49.205
 31
0.0
  0
LINE
  5
376
330
24B
100
AcDbEntity
  8
SLD-0
 62
     7
100
AcDbLine
 10
7.4350015623
 20
49.205
 30
0.0
 11
7.4350015623
 21
49.065
 31
0.0
  0
LINE
  5
377
330
24B
100
AcDbEntity
  8
SLD-0
 62
     7
100
AcDbLine
 10
6.6350015623
 20
49.205
 30
0.0
 11
7.4350015623
 21
49.205
 31
0.0
  0
LINE
  5
378
330
24B
100
AcDbEntity
  8
SLD-0
 62
     7
100
AcDbLine
 10
6.6350015623
 20
49.205
 30
0.0
 11
6.6350015623
 21
49.805
 31
0.0
  0
LINE
  5
379
330
24B
100
AcDbEntity
  8
SLD-0
 62
     7
100
AcDbLine
 10
6.4350015623
 20
49.205
 30
0.0
 11
6.6350015623
 21
49.205
 31
0.0
  0
LINE
  5
37A
330
24B
100
AcDbEntity
  8
SLD-0
 62
     7
100
AcDbLine
 10
6.4350015623
 20
49.205
 30
0.0
 11
6.4350015623
 21
49.805
 31
0.0
  0
LINE
  5
37B
330
24B
100
AcDbEntity
  8
SLD-0
 62
     7
100
AcDbLine
 10
7.4350015623
 20
49.805
 30
0.0
 11
7.4350015623
 21
49.705
 31
0.0
  0
LINE
  5
37C
330
24B
100
AcDbEntity
  8
SLD-0
 62
     7
100
AcDbLine
 10
7.4350015623
 20
49.205
 30
0.0
 11
7.4350015623
 21
49.705
 31
0.0
  0
LINE
  5
37D
330
24B
100
AcDbEntity
  8
SLD-0
 62
     7
100
AcDbLine
 10
6.6350015623
 20
51.745
 30
0.0
 11
7.4350015623
 21
51.745
 31
0.0
  0
LINE
  5
37E
330
24B
100
AcDbEntity
  8
SLD-0
 62
     7
100
AcDbLine
 10
6.6350015623
 20
51.745
 30
0.0
 11
6.6350015623
 21
52.345
 31
0.0
  0
LINE
  5
37F
330
24B
100
AcDbEntity
  8
SLD-0
 62
     7
100
AcDbLine
 10
6.4350015623
 20
51.745
 30
0.0
 11
6.6350015623
 21
51.745
 31
0.0
  0
LINE
  5
380
330
24B
100
AcDbEntity
  8
SLD-0
 62
     7
100
AcDbLine
 10
6.4350015623
 20
51.745
 30
0.0
 11
6.4350015623
 21
52.345
 31
0.0
  0
LINE
  5
381
330
24B
100
AcDbEntity
  8
SLD-0
 62
     7
100
AcDbLine
 10
7.4350015623
 20
52.345
 30
0.0
 11
7.4350015623
 21
52.245
 31
0.0
  0
LINE
  5
382
330
24B
100
AcDbEntity
  8
SLD-0
 62
     7
100
AcDbLine
 10
7.4350015623
 20
51.745
 30
0.0
 11
7.4350015623
 21
52.245
 31
0.0
  0
LINE
  5
383
330
24B
100
AcDbEntity
  8
SLD-0
 62
     7
100
AcDbLine
 10
7.4350015623
 20
51.605
 30
0.0
 11
5.0350015623
 21
51.605
 31
0.0
  0
LINE
  5
384
330
24B
100
AcDbEntity
  8
SLD-0
 62
     7
100
AcDbLine
 10
6.9667398621
 20
51.745
 30
0.0
 11
7.4350015623
 21
51.745
 31
0.0
  0
LINE
  5
385
330
24B
100
AcDbEntity
  8
SLD-0
 62
     7
100
AcDbLine
 10
6.6350015623
 20
51.605
 30
0.0
 11
6.6350015623
 21
51.745
 31
0.0
  0
LINE
  5
386
330
24B
100
AcDbEntity
  8
SLD-0
 62
     7
100
AcDbLine
 10
6.6350015623
 20
51.745
 30
0.0
 11
6.9667398621
 21
51.745
 31
0.0
  0
LINE
  5
387
330
24B
100
AcDbEntity
  8
SLD-0
 62
     7
100
AcDbLine
 10
6.4350015623
 20
51.745
 30
0.0
 11
6.6350015623
 21
51.745
 31
0.0
  0
LINE
  5
388
330
24B
100
AcDbEntity
  8
SLD-0
 62
     7
100
AcDbLine
 10
6.4350015623
 20
51.605
 30
0.0
 11
6.4350015623
 21
51.745
 31
0.0
  0
LINE
  5
389
330
24B
100
AcDbEntity
  8
SLD-0
 62
     7
100
AcDbLine
 10
7.4350015623
 20
51.745
 30
0.0
 11
7.4350015623
 21
51.605
 31
0.0
  0
LINE
  5
38A
330
24B
100
AcDbEntity
  8
SLD-0
 62
     7
100
AcDbLine
 10
8.5350015623
 20
51.605
 30
0.0
 11
8.5350015623
 21
49.805
 31
0.0
  0
LINE
  5
38B
330
24B
100
AcDbEntity
  8
SLD-0
 62
     7
100
AcDbLine
 10
8.8350015623
 20
49.705
 30
0.0
 11
8.8350015623
 21
50.9916520199
 31
0.0
  0
LINE
  5
38C
330
24B
100
AcDbEntity
  8
SLD-0
 62
     7
100
AcDbLine
 10
8.7350015623
 20
50.005
 30
0.0
 11
8.7350015623
 21
51.005
 31
0.0
  0
LINE
  5
38D
330
24B
100
AcDbEntity
  8
SLD-0
 62
     7
100
AcDbLine
 10
8.2100015623
 20
50.305
 30
0.0
 11
8.2100015623
 21
51.105
 31
0.0
  0
LINE
  5
38E
330
24B
100
AcDbEntity
  8
SLD-0
 62
     7
100
AcDbLine
 10
12.7350015623
 20
49.205
 30
0.0
 11
12.7350015623
 21
51.745
 31
0.0
  0
LINE
  5
38F
330
24B
100
AcDbEntity
  8
SLD-0
 62
     7
100
AcDbLine
 10
12.5350015623
 20
49.205
 30
0.0
 11
12.5350015623
 21
51.745
 31
0.0
  0
LINE
  5
390
330
24B
100
AcDbEntity
  8
SLD-0
 62
     7
100
AcDbLine
 10
7.8350015623
 20
49.205
 30
0.0
 11
12.5350015623
 21
49.205
 31
0.0
  0
LINE
  5
391
330
24B
100
AcDbEntity
  8
SLD-0
 62
     7
100
AcDbLine
 10
11.4667398621
 20
49.205
 30
0.0
 11
12.5350015623
 21
49.205
 31
0.0
  0
LINE
  5
392
330
24B
100
AcDbEntity
  8
SLD-0
 62
     7
100
AcDbLine
 10
11.4224135298
 20
49.525
 30
0.0
 11
9.6475895948
 21
49.525
 31
0.0
  0
LINE
  5
393
330
24B
100
AcDbEntity
  8
SLD-0
 62
     7
100
AcDbLine
 10
7.8350015623
 20
49.705
 30
0.0
 11
7.8350015623
 21
49.205
 31
0.0
  0
LINE
  5
394
330
24B
100
AcDbEntity
  8
SLD-0
 62
     7
100
AcDbLine
 10
8.8350015623
 20
49.705
 30
0.0
 11
7.8350015623
 21
49.705
 31
0.0
  0
LINE
  5
395
330
24B
100
AcDbEntity
  8
SLD-0
 62
     7
100
AcDbLine
 10
11.4224135298
 20
48.885
 30
0.0
 11
9.6475895948
 21
48.885
 31
0.0
  0
LINE
  5
396
330
24B
100
AcDbEntity
  8
SLD-0
 62
     7
100
AcDbLine
 10
8.9032632625
 20
49.205
 30
0.0
 11
11.4667398621
 21
49.205
 31
0.0
  0
LINE
  5
397
330
24B
100
AcDbEntity
  8
SLD-0
 62
     7
100
AcDbLine
 10
8.7350015623
 20
48.465
 30
0.0
 11
8.7350015623
 21
48.865
 31
0.0
  0
LINE
  5
398
330
24B
100
AcDbEntity
  8
SLD-0
 62
     7
100
AcDbLine
 10
8.8350015623
 20
48.465
 30
0.0
 11
8.8350015623
 21
49.065
 31
0.0
  0
LINE
  5
399
330
24B
100
AcDbEntity
  8
SLD-0
 62
     7
100
AcDbLine
 10
8.8350015623
 20
48.465
 30
0.0
 11
8.7350015623
 21
48.465
 31
0.0
  0
LINE
  5
39A
330
24B
100
AcDbEntity
  8
SLD-0
 62
     7
100
AcDbLine
 10
8.8350015623
 20
48.4516520199
 30
0.0
 11
8.8350015623
 21
48.465
 31
0.0
  0
LINE
  5
39B
330
24B
100
AcDbEntity
  8
SLD-0
 62
     7
100
AcDbLine
 10
8.7350015623
 20
48.4516520199
 30
0.0
 11
8.8350015623
 21
48.4516520199
 31
0.0
  0
LINE
  5
39C
330
24B
100
AcDbEntity
  8
SLD-0
 62
     7
100
AcDbLine
 10
8.8350015623
 20
49.065
 30
0.0
 11
8.5350015623
 21
49.065
 31
0.0
  0
LINE
  5
39D
330
24B
100
AcDbEntity
  8
SLD-0
 62
     7
100
AcDbLine
 10
8.8350015623
 20
49.065
 30
0.0
 11
8.8350015623
 21
49.205
 31
0.0
  0
LINE
  5
39E
330
24B
100
AcDbEntity
  8
SLD-0
 62
     7
100
AcDbLine
 10
8.8350015623
 20
49.205
 30
0.0
 11
8.9032632625
 21
49.205
 31
0.0
  0
LINE
  5
39F
330
24B
100
AcDbEntity
  8
SLD-0
 62
     7
100
AcDbLine
 10
12.5350015623
 20
49.205
 30
0.0
 11
12.7350015623
 21
49.205
 31
0.0
  0
LINE
  5
3A0
330
24B
100
AcDbEntity
  8
SLD-0
 62
     7
100
AcDbLine
 10
12.7350015623
 20
49.205
 30
0.0
 11
13.4032632625
 21
49.205
 31
0.0
  0
LINE
  5
3A1
330
24B
100
AcDbEntity
  8
SLD-0
 62
     7
100
AcDbLine
 10
12.5350015623
 20
49.205
 30
0.0
 11
12.7350015623
 21
49.205
 31
0.0
  0
LINE
  5
3A2
330
24B
100
AcDbEntity
  8
SLD-0
 62
     7
100
AcDbLine
 10
13.4032632625
 20
49.205
 30
0.0
 11
13.4667398621
 21
49.205
 31
0.0
  0
LINE
  5
3A3
330
24B
100
AcDbEntity
  8
SLD-0
 62
     7
100
AcDbLine
 10
7.8350015623
 20
51.745
 30
0.0
 11
12.5350015623
 21
51.745
 31
0.0
  0
LINE
  5
3A4
330
24B
100
AcDbEntity
  8
SLD-0
 62
     7
100
AcDbLine
 10
11.4667398621
 20
51.745
 30
0.0
 11
12.5350015623
 21
51.745
 31
0.0
  0
LINE
  5
3A5
330
24B
100
AcDbEntity
  8
SLD-0
 62
     7
100
AcDbLine
 10
11.4224135298
 20
52.065
 30
0.0
 11
9.6475895948
 21
52.065
 31
0.0
  0
LINE
  5
3A6
330
24B
100
AcDbEntity
  8
SLD-0
 62
     7
100
AcDbLine
 10
7.8350015623
 20
52.245
 30
0.0
 11
7.8350015623
 21
51.745
 31
0.0
  0
LINE
  5
3A7
330
24B
100
AcDbEntity
  8
SLD-0
 62
     7
100
AcDbLine
 10
8.8350015623
 20
52.245
 30
0.0
 11
7.8350015623
 21
52.245
 31
0.0
  0
LINE
  5
3A8
330
24B
100
AcDbEntity
  8
SLD-0
 62
     7
100
AcDbLine
 10
11.4224135298
 20
51.425
 30
0.0
 11
9.6475895948
 21
51.425
 31
0.0
  0
LINE
  5
3A9
330
24B
100
AcDbEntity
  8
SLD-0
 62
     7
100
AcDbLine
 10
8.9032632625
 20
51.745
 30
0.0
 11
11.4667398621
 21
51.745
 31
0.0
  0
LINE
  5
3AA
330
24B
100
AcDbEntity
  8
SLD-0
 62
     7
100
AcDbLine
 10
8.7350015623
 20
51.005
 30
0.0
 11
8.7350015623
 21
51.405
 31
0.0
  0
LINE
  5
3AB
330
24B
100
AcDbEntity
  8
SLD-0
 62
     7
100
AcDbLine
 10
8.8350015623
 20
51.005
 30
0.0
 11
8.8350015623
 21
51.605
 31
0.0
  0
LINE
  5
3AC
330
24B
100
AcDbEntity
  8
SLD-0
 62
     7
100
AcDbLine
 10
8.8350015623
 20
51.005
 30
0.0
 11
8.7350015623
 21
51.005
 31
0.0
  0
LINE
  5
3AD
330
24B
100
AcDbEntity
  8
SLD-0
 62
     7
100
AcDbLine
 10
8.8350015623
 20
50.9916520199
 30
0.0
 11
8.8350015623
 21
51.005
 31
0.0
  0
LINE
  5
3AE
330
24B
100
AcDbEntity
  8
SLD-0
 62
     7
100
AcDbLine
 10
8.7350015623
 20
50.9916520199
 30
0.0
 11
8.8350015623
 21
50.9916520199
 31
0.0
  0
LINE
  5
3AF
330
24B
100
AcDbEntity
  8
SLD-0
 62
     7
100
AcDbLine
 10
8.8350015623
 20
51.605
 30
0.0
 11
8.5350015623
 21
51.605
 31
0.0
  0
LINE
  5
3B0
330
24B
100
AcDbEntity
  8
SLD-0
 62
     7
100
AcDbLine
 10
8.8350015623
 20
51.605
 30
0.0
 11
8.8350015623
 21
51.745
 31
0.0
  0
LINE
  5
3B1
330
24B
100
AcDbEntity
  8
SLD-0
 62
     7
100
AcDbLine
 10
8.8350015623
 20
51.745
 30
0.0
 11
8.9032632625
 21
51.745
 31
0.0
  0
LINE
  5
3B2
330
24B
100
AcDbEntity
  8
SLD-0
 62
     7
100
AcDbLine
 10
12.5350015623
 20
51.745
 30
0.0
 11
12.7350015623
 21
51.745
 31
0.0
  0
LINE
  5
3B3
330
24B
100
AcDbEntity
  8
SLD-0
 62
     7
100
AcDbLine
 10
12.7350015623
 20
51.745
 30
0.0
 11
13.4032632625
 21
51.745
 31
0.0
  0
LINE
  5
3B4
330
24B
100
AcDbEntity
  8
SLD-0
 62
     7
100
AcDbLine
 10
12.5350015623
 20
51.745
 30
0.0
 11
12.7350015623
 21
51.745
 31
0.0
  0
LINE
  5
3B5
330
24B
100
AcDbEntity
  8
SLD-0
 62
     7
100
AcDbLine
 10
13.4032632625
 20
51.745
 30
0.0
 11
13.4667398621
 21
51.745
 31
0.0
  0
LINE
  5
3B6
330
24B
100
AcDbEntity
  8
SLD-0
 62
     7
100
AcDbLine
 10
17.0350015623
 20
54.285
 30
0.0
 11
17.0350015623
 21
51.745
 31
0.0
  0
LINE
  5
3B7
330
24B
100
AcDbEntity
  8
SLD-0
 62
     7
100
AcDbLine
 10
17.4350015623
 20
52.095
 30
0.0
 11
17.4350015623
 21
53.195
 31
0.0
  0
LINE
  5
3B8
330
24B
100
AcDbEntity
  8
SLD-0
 62
     7
100
AcDbLine
 10
17.0350015623
 20
56.825
 30
0.0
 11
17.4350015623
 21
56.825
 31
0.0
  0
LINE
  5
3B9
330
24B
100
AcDbEntity
  8
SLD-0
 62
     7
100
AcDbLine
 10
15.4032632625
 20
56.825
 30
0.0
 11
17.0350015623
 21
56.825
 31
0.0
  0
LINE
  5
3BA
330
24B
100
AcDbEntity
  8
SLD-0
 62
     7
100
AcDbLine
 10
17.4350015623
 20
53.195
 30
0.0
 11
17.4350015623
 21
54.285
 31
0.0
  0
LINE
  5
3BB
330
24B
100
AcDbEntity
  8
SLD-0
 62
     7
100
AcDbLine
 10
17.0350015623
 20
54.285
 30
0.0
 11
17.4350015623
 21
54.285
 31
0.0
  0
LINE
  5
3BC
330
24B
100
AcDbEntity
  8
SLD-0
 62
     7
100
AcDbLine
 10
17.0350015623
 20
54.285
 30
0.0
 11
17.4350015623
 21
54.285
 31
0.0
  0
LINE
  5
3BD
330
24B
100
AcDbEntity
  8
SLD-0
 62
     7
100
AcDbLine
 10
17.4350015623
 20
54.285
 30
0.0
 11
17.4350015623
 21
54.635
 31
0.0
  0
LINE
  5
3BE
330
24B
100
AcDbEntity
  8
SLD-0
 62
     7
100
AcDbLine
 10
17.4350015623
 20
54.635
 30
0.0
 11
17.4350015623
 21
55.735
 31
0.0
  0
LINE
  5
3BF
330
24B
100
AcDbEntity
  8
SLD-0
 62
     7
100
AcDbLine
 10
15.4032632625
 20
54.285
 30
0.0
 11
17.0350015623
 21
54.285
 31
0.0
  0
LINE
  5
3C0
330
24B
100
AcDbEntity
  8
SLD-0
 62
     7
100
AcDbLine
 10
17.4350015623
 20
55.735
 30
0.0
 11
17.4350015623
 21
56.825
 31
0.0
  0
LINE
  5
3C1
330
24B
100
AcDbEntity
  8
SLD-0
 62
     7
100
AcDbLine
 10
17.0350015623
 20
49.205
 30
0.0
 11
17.4350015623
 21
49.205
 31
0.0
  0
LINE
  5
3C2
330
24B
100
AcDbEntity
  8
SLD-0
 62
     7
100
AcDbLine
 10
17.0350015623
 20
51.745
 30
0.0
 11
17.4350015623
 21
51.745
 31
0.0
  0
LINE
  5
3C3
330
24B
100
AcDbEntity
  8
SLD-0
 62
     7
100
AcDbLine
 10
17.4350015623
 20
51.745
 30
0.0
 11
17.4350015623
 21
52.095
 31
0.0
  0
LINE
  5
3C4
330
24B
100
AcDbEntity
  8
SLD-0
 62
     7
100
AcDbLine
 10
17.0350015623
 20
51.745
 30
0.0
 11
17.4350015623
 21
51.745
 31
0.0
  0
LINE
  5
3C5
330
24B
100
AcDbEntity
  8
SLD-0
 62
     7
100
AcDbLine
 10
15.4032632625
 20
51.745
 30
0.0
 11
17.0350015623
 21
51.745
 31
0.0
  0
LINE
  5
3C6
330
24B
100
AcDbEntity
  8
SLD-0
 62
     7
100
AcDbLine
 10
15.4032632625
 20
49.205
 30
0.0
 11
17.0350015623
 21
49.205
 31
0.0
  0
LINE
  5
3C7
330
24B
100
AcDbEntity
  8
SLD-0
 62
     7
100
AcDbLine
 10
17.4350015623
 20
50.655
 30
0.0
 11
17.4350015623
 21
51.745
 31
0.0
  0
LINE
  5
3C8
330
24B
100
AcDbEntity
  8
SLD-0
 62
     7
100
AcDbLine
 10
17.0350015623
 20
51.745
 30
0.0
 11
17.0350015623
 21
49.205
 31
0.0
  0
LINE
  5
3C9
330
24B
100
AcDbEntity
  8
SLD-0
 62
     7
100
AcDbLine
 10
17.0350015623
 20
49.205
 30
0.0
 11
17.4350015623
 21
49.205
 31
0.0
  0
LINE
  5
3CA
330
24B
100
AcDbEntity
  8
SLD-0
 62
     7
100
AcDbLine
 10
17.4350015623
 20
49.205
 30
0.0
 11
17.4350015623
 21
49.555
 31
0.0
  0
LINE
  5
3CB
330
24B
100
AcDbEntity
  8
SLD-0
 62
     7
100
AcDbLine
 10
17.4350015623
 20
49.555
 30
0.0
 11
17.4350015623
 21
50.655
 31
0.0
  0
LINE
  5
3CC
330
24B
100
AcDbEntity
  8
SLD-0
 62
     7
100
AcDbLine
 10
17.4350015623
 20
48.115
 30
0.0
 11
17.4350015623
 21
49.205
 31
0.0
  0
LINE
  5
3CD
330
24B
100
AcDbEntity
  8
SLD-0
 62
     7
100
AcDbLine
 10
17.9350015623
 20
39.4002192233
 30
0.0
 11
17.9350015623
 21
35.6625
 31
0.0
  0
LINE
  5
3CE
330
24B
100
AcDbEntity
  8
SLD-0
 62
     7
100
AcDbLine
 10
18.0663818564
 20
39.2951149881
 30
0.0
 11
18.0663818564
 21
35.6625
 31
0.0
  0
LINE
  5
3CF
330
24B
100
AcDbEntity
  8
SLD-0
 62
     7
100
AcDbLine
 10
21.6350015623
 20
39.4002192233
 30
0.0
 11
21.6350015623
 21
35.6625
 31
0.0
  0
LINE
  5
3D0
330
24B
100
AcDbEntity
  8
SLD-0
 62
     7
100
AcDbLine
 10
21.5550583563
 20
38.9188477951
 30
0.0
 11
21.5550583563
 21
35.6625
 31
0.0
  0
LINE
  5
3D1
330
24B
100
AcDbEntity
  8
SLD-0
 62
     7
100
AcDbLine
 10
20.2350015623
 20
38.7801042353
 30
0.0
 11
20.2350015623
 21
35.6625
 31
0.0
  0
LINE
  5
3D2
330
24B
100
AcDbEntity
  8
SLD-0
 62
     7
100
AcDbLine
 10
4.3323830082
 20
28.3482724288
 30
0.0
 11
4.3323830082
 21
38.005
 31
0.0
  0
LINE
  5
3D3
330
24B
100
AcDbEntity
  8
SLD-0
 62
     7
100
AcDbLine
 10
17.6350015623
 20
43.725
 30
0.0
 11
4.3350015623
 21
43.725
 31
0.0
  0
LINE
  5
3D4
330
24B
100
AcDbEntity
  8
SLD-0
 62
     7
100
AcDbLine
 10
12.7350015623
 20
44.125
 30
0.0
 11
17.0350015623
 21
44.125
 31
0.0
  0
LINE
  5
3D5
330
24B
100
AcDbEntity
  8
SLD-0
 62
     7
100
AcDbLine
 10
12.7350015623
 20
46.665
 30
0.0
 11
17.0350015623
 21
46.665
 31
0.0
  0
LINE
  5
3D6
330
24B
100
AcDbEntity
  8
SLD-0
 62
     7
100
AcDbLine
 10
15.4032632625
 20
46.665
 30
0.0
 11
13.4667398621
 21
46.665
 31
0.0
  0
LINE
  5
3D7
330
24B
100
AcDbEntity
  8
SLD-0
 62
     7
100
AcDbLine
 10
17.8350015623
 20
43.025
 30
0.0
 11
8.6350015623
 21
43.025
 31
0.0
  0
LINE
  5
3D8
330
24B
100
AcDbEntity
  8
SLD-0
 62
     7
100
AcDbLine
 10
7.4350015623
 20
43.725
 30
0.0
 11
7.4350015623
 21
41.205
 31
0.0
  0
LINE
  5
3D9
330
24B
100
AcDbEntity
  8
SLD-0
 62
     7
100
AcDbLine
 10
4.8350015623
 20
44.925
 30
0.0
 11
4.8350015623
 21
46.325
 31
0.0
  0
LINE
  5
3DA
330
24B
100
AcDbEntity
  8
SLD-0
 62
     7
100
AcDbLine
 10
5.0350015623
 20
46.525
 30
0.0
 11
5.0350015623
 21
44.725
 31
0.0
  0
LINE
  5
3DB
330
24B
100
AcDbEntity
  8
SLD-0
 62
     7
100
AcDbLine
 10
8.5350015623
 20
46.525
 30
0.0
 11
8.5350015623
 21
44.725
 31
0.0
  0
LINE
  5
3DC
330
24B
100
AcDbEntity
  8
SLD-0
 62
     7
100
AcDbLine
 10
8.8350015623
 20
44.625
 30
0.0
 11
8.8350015623
 21
45.9116520199
 31
0.0
  0
LINE
  5
3DD
330
24B
100
AcDbEntity
  8
SLD-0
 62
     7
100
AcDbLine
 10
8.7350015623
 20
44.925
 30
0.0
 11
8.7350015623
 21
45.925
 31
0.0
  0
LINE
  5
3DE
330
24B
100
AcDbEntity
  8
SLD-0
 62
     7
100
AcDbLine
 10
12.7350015623
 20
44.125
 30
0.0
 11
12.7350015623
 21
46.665
 31
0.0
  0
LINE
  5
3DF
330
24B
100
AcDbEntity
  8
SLD-0
 62
     7
100
AcDbLine
 10
12.5350015623
 20
44.125
 30
0.0
 11
12.5350015623
 21
46.665
 31
0.0
  0
LINE
  5
3E0
330
24B
100
AcDbEntity
  8
SLD-0
 62
     7
100
AcDbLine
 10
5.0350015623
 20
44.725
 30
0.0
 11
8.5350015623
 21
44.725
 31
0.0
  0
LINE
  5
3E1
330
24B
100
AcDbEntity
  8
SLD-0
 62
     7
100
AcDbLine
 10
7.4350015623
 20
44.625
 30
0.0
 11
7.8350015623
 21
44.625
 31
0.0
  0
LINE
  5
3E2
330
24B
100
AcDbEntity
  8
SLD-0
 62
     7
100
AcDbLine
 10
7.4350015623
 20
44.125
 30
0.0
 11
7.8350015623
 21
44.125
 31
0.0
  0
LINE
  5
3E3
330
24B
100
AcDbEntity
  8
SLD-0
 62
     7
100
AcDbLine
 10
6.6350015623
 20
44.125
 30
0.0
 11
7.4350015623
 21
44.125
 31
0.0
  0
LINE
  5
3E4
330
24B
100
AcDbEntity
  8
SLD-0
 62
     7
100
AcDbLine
 10
6.6350015623
 20
44.125
 30
0.0
 11
6.6350015623
 21
44.725
 31
0.0
  0
LINE
  5
3E5
330
24B
100
AcDbEntity
  8
SLD-0
 62
     7
100
AcDbLine
 10
6.4350015623
 20
44.125
 30
0.0
 11
6.6350015623
 21
44.125
 31
0.0
  0
LINE
  5
3E6
330
24B
100
AcDbEntity
  8
SLD-0
 62
     7
100
AcDbLine
 10
6.4350015623
 20
44.125
 30
0.0
 11
6.4350015623
 21
44.725
 31
0.0
  0
LINE
  5
3E7
330
24B
100
AcDbEntity
  8
SLD-0
 62
     7
100
AcDbLine
 10
7.4350015623
 20
44.725
 30
0.0
 11
7.4350015623
 21
44.625
 31
0.0
  0
LINE
  5
3E8
330
24B
100
AcDbEntity
  8
SLD-0
 62
     7
100
AcDbLine
 10
7.4350015623
 20
44.125
 30
0.0
 11
7.4350015623
 21
44.625
 31
0.0
  0
LINE
  5
3E9
330
24B
100
AcDbEntity
  8
SLD-0
 62
     7
100
AcDbLine
 10
7.8350015623
 20
44.125
 30
0.0
 11
12.5350015623
 21
44.125
 31
0.0
  0
LINE
  5
3EA
330
24B
100
AcDbEntity
  8
SLD-0
 62
     7
100
AcDbLine
 10
11.4224135298
 20
44.445
 30
0.0
 11
9.6475895948
 21
44.445
 31
0.0
  0
LINE
  5
3EB
330
24B
100
AcDbEntity
  8
SLD-0
 62
     7
100
AcDbLine
 10
7.8350015623
 20
44.625
 30
0.0
 11
7.8350015623
 21
44.125
 31
0.0
  0
LINE
  5
3EC
330
24B
100
AcDbEntity
  8
SLD-0
 62
     7
100
AcDbLine
 10
8.8350015623
 20
44.625
 30
0.0
 11
7.8350015623
 21
44.625
 31
0.0
  0
LINE
  5
3ED
330
24B
100
AcDbEntity
  8
SLD-0
 62
     7
100
AcDbLine
 10
12.5350015623
 20
44.125
 30
0.0
 11
12.7350015623
 21
44.125
 31
0.0
  0
LINE
  5
3EE
330
24B
100
AcDbEntity
  8
SLD-0
 62
     7
100
AcDbLine
 10
8.2100015623
 20
46.025
 30
0.0
 11
5.3600015623
 21
46.025
 31
0.0
  0
LINE
  5
3EF
330
24B
100
AcDbEntity
  8
SLD-0
 62
     7
100
AcDbLine
 10
5.3600015623
 20
45.225
 30
0.0
 11
8.2100015623
 21
45.225
 31
0.0
  0
LINE
  5
3F0
330
24B
100
AcDbEntity
  8
SLD-0
 62
     7
100
AcDbLine
 10
8.5350015623
 20
46.525
 30
0.0
 11
7.4350015623
 21
46.525
 31
0.0
  0
LINE
  5
3F1
330
24B
100
AcDbEntity
  8
SLD-0
 62
     7
100
AcDbLine
 10
8.8350015623
 20
46.665
 30
0.0
 11
7.4350015623
 21
46.665
 31
0.0
  0
LINE
  5
3F2
330
24B
100
AcDbEntity
  8
SLD-0
 62
     7
100
AcDbLine
 10
5.0350015623
 20
47.265
 30
0.0
 11
8.5350015623
 21
47.265
 31
0.0
  0
LINE
  5
3F3
330
24B
100
AcDbEntity
  8
SLD-0
 62
     7
100
AcDbLine
 10
5.3600015623
 20
47.765
 30
0.0
 11
8.2100015623
 21
47.765
 31
0.0
  0
LINE
  5
3F4
330
24B
100
AcDbEntity
  8
SLD-0
 62
     7
100
AcDbLine
 10
7.4350015623
 20
47.165
 30
0.0
 11
7.8350015623
 21
47.165
 31
0.0
  0
LINE
  5
3F5
330
24B
100
AcDbEntity
  8
SLD-0
 62
     7
100
AcDbLine
 10
7.4350015623
 20
46.665
 30
0.0
 11
7.8350015623
 21
46.665
 31
0.0
  0
LINE
  5
3F6
330
24B
100
AcDbEntity
  8
SLD-0
 62
     7
100
AcDbLine
 10
6.6350015623
 20
46.665
 30
0.0
 11
7.4350015623
 21
46.665
 31
0.0
  0
LINE
  5
3F7
330
24B
100
AcDbEntity
  8
SLD-0
 62
     7
100
AcDbLine
 10
6.6350015623
 20
46.665
 30
0.0
 11
6.6350015623
 21
47.265
 31
0.0
  0
LINE
  5
3F8
330
24B
100
AcDbEntity
  8
SLD-0
 62
     7
100
AcDbLine
 10
6.4350015623
 20
46.665
 30
0.0
 11
6.6350015623
 21
46.665
 31
0.0
  0
LINE
  5
3F9
330
24B
100
AcDbEntity
  8
SLD-0
 62
     7
100
AcDbLine
 10
6.4350015623
 20
46.665
 30
0.0
 11
6.4350015623
 21
47.265
 31
0.0
  0
LINE
  5
3FA
330
24B
100
AcDbEntity
  8
SLD-0
 62
     7
100
AcDbLine
 10
7.4350015623
 20
47.265
 30
0.0
 11
7.4350015623
 21
47.165
 31
0.0
  0
LINE
  5
3FB
330
24B
100
AcDbEntity
  8
SLD-0
 62
     7
100
AcDbLine
 10
7.4350015623
 20
46.665
 30
0.0
 11
7.4350015623
 21
47.165
 31
0.0
  0
LINE
  5
3FC
330
24B
100
AcDbEntity
  8
SLD-0
 62
     7
100
AcDbLine
 10
5.3600015623
 20
46.025
 30
0.0
 11
5.3600015623
 21
45.225
 31
0.0
  0
LINE
  5
3FD
330
24B
100
AcDbEntity
  8
SLD-0
 62
     7
100
AcDbLine
 10
7.4350015623
 20
46.525
 30
0.0
 11
5.0350015623
 21
46.525
 31
0.0
  0
LINE
  5
3FE
330
24B
100
AcDbEntity
  8
SLD-0
 62
     7
100
AcDbLine
 10
6.9667398621
 20
46.665
 30
0.0
 11
7.4350015623
 21
46.665
 31
0.0
  0
LINE
  5
3FF
330
24B
100
AcDbEntity
  8
SLD-0
 62
     7
100
AcDbLine
 10
6.6350015623
 20
46.525
 30
0.0
 11
6.6350015623
 21
46.665
 31
0.0
  0
LINE
  5
400
330
24B
100
AcDbEntity
  8
SLD-0
 62
     7
100
AcDbLine
 10
6.6350015623
 20
46.665
 30
0.0
 11
6.9667398621
 21
46.665
 31
0.0
  0
LINE
  5
401
330
24B
100
AcDbEntity
  8
SLD-0
 62
     7
100
AcDbLine
 10
6.4350015623
 20
46.665
 30
0.0
 11
6.6350015623
 21
46.665
 31
0.0
  0
LINE
  5
402
330
24B
100
AcDbEntity
  8
SLD-0
 62
     7
100
AcDbLine
 10
6.4350015623
 20
46.525
 30
0.0
 11
6.4350015623
 21
46.665
 31
0.0
  0
LINE
  5
403
330
24B
100
AcDbEntity
  8
SLD-0
 62
     7
100
AcDbLine
 10
7.4350015623
 20
46.665
 30
0.0
 11
7.4350015623
 21
46.525
 31
0.0
  0
LINE
  5
404
330
24B
100
AcDbEntity
  8
SLD-0
 62
     7
100
AcDbLine
 10
11.4667398621
 20
46.665
 30
0.0
 11
12.5350015623
 21
46.665
 31
0.0
  0
LINE
  5
405
330
24B
100
AcDbEntity
  8
SLD-0
 62
     7
100
AcDbLine
 10
7.8350015623
 20
46.665
 30
0.0
 11
12.5350015623
 21
46.665
 31
0.0
  0
LINE
  5
406
330
24B
100
AcDbEntity
  8
SLD-0
 62
     7
100
AcDbLine
 10
11.4224135298
 20
46.345
 30
0.0
 11
9.6475895948
 21
46.345
 31
0.0
  0
LINE
  5
407
330
24B
100
AcDbEntity
  8
SLD-0
 62
     7
100
AcDbLine
 10
8.9032632625
 20
46.665
 30
0.0
 11
11.4667398621
 21
46.665
 31
0.0
  0
LINE
  5
408
330
24B
100
AcDbEntity
  8
SLD-0
 62
     7
100
AcDbLine
 10
8.7350015623
 20
45.925
 30
0.0
 11
8.7350015623
 21
46.325
 31
0.0
  0
LINE
  5
409
330
24B
100
AcDbEntity
  8
SLD-0
 62
     7
100
AcDbLine
 10
8.8350015623
 20
45.925
 30
0.0
 11
8.8350015623
 21
46.525
 31
0.0
  0
LINE
  5
40A
330
24B
100
AcDbEntity
  8
SLD-0
 62
     7
100
AcDbLine
 10
8.2100015623
 20
45.225
 30
0.0
 11
8.2100015623
 21
46.025
 31
0.0
  0
LINE
  5
40B
330
24B
100
AcDbEntity
  8
SLD-0
 62
     7
100
AcDbLine
 10
8.8350015623
 20
45.925
 30
0.0
 11
8.7350015623
 21
45.925
 31
0.0
  0
LINE
  5
40C
330
24B
100
AcDbEntity
  8
SLD-0
 62
     7
100
AcDbLine
 10
8.8350015623
 20
45.9116520199
 30
0.0
 11
8.8350015623
 21
45.925
 31
0.0
  0
LINE
  5
40D
330
24B
100
AcDbEntity
  8
SLD-0
 62
     7
100
AcDbLine
 10
8.7350015623
 20
45.9116520199
 30
0.0
 11
8.8350015623
 21
45.9116520199
 31
0.0
  0
LINE
  5
40E
330
24B
100
AcDbEntity
  8
SLD-0
 62
     7
100
AcDbLine
 10
8.8350015623
 20
46.525
 30
0.0
 11
8.5350015623
 21
46.525
 31
0.0
  0
LINE
  5
40F
330
24B
100
AcDbEntity
  8
SLD-0
 62
     7
100
AcDbLine
 10
8.8350015623
 20
46.525
 30
0.0
 11
8.8350015623
 21
46.665
 31
0.0
  0
LINE
  5
410
330
24B
100
AcDbEntity
  8
SLD-0
 62
     7
100
AcDbLine
 10
8.8350015623
 20
46.665
 30
0.0
 11
8.9032632625
 21
46.665
 31
0.0
  0
LINE
  5
411
330
24B
100
AcDbEntity
  8
SLD-0
 62
     7
100
AcDbLine
 10
11.4224135298
 20
46.985
 30
0.0
 11
9.6475895948
 21
46.985
 31
0.0
  0
LINE
  5
412
330
24B
100
AcDbEntity
  8
SLD-0
 62
     7
100
AcDbLine
 10
7.8350015623
 20
47.165
 30
0.0
 11
7.8350015623
 21
46.665
 31
0.0
  0
LINE
  5
413
330
24B
100
AcDbEntity
  8
SLD-0
 62
     7
100
AcDbLine
 10
8.8350015623
 20
47.165
 30
0.0
 11
7.8350015623
 21
47.165
 31
0.0
  0
LINE
  5
414
330
24B
100
AcDbEntity
  8
SLD-0
 62
     7
100
AcDbLine
 10
12.7350015623
 20
46.665
 30
0.0
 11
13.4032632625
 21
46.665
 31
0.0
  0
LINE
  5
415
330
24B
100
AcDbEntity
  8
SLD-0
 62
     7
100
AcDbLine
 10
12.5350015623
 20
46.665
 30
0.0
 11
12.7350015623
 21
46.665
 31
0.0
  0
LINE
  5
416
330
24B
100
AcDbEntity
  8
SLD-0
 62
     7
100
AcDbLine
 10
13.4032632625
 20
46.665
 30
0.0
 11
13.4667398621
 21
46.665
 31
0.0
  0
LINE
  5
417
330
24B
100
AcDbEntity
  8
SLD-0
 62
     7
100
AcDbLine
 10
12.5350015623
 20
46.665
 30
0.0
 11
12.7350015623
 21
46.665
 31
0.0
  0
LINE
  5
418
330
24B
100
AcDbEntity
  8
SLD-0
 62
     7
100
AcDbLine
 10
5.4350015623
 20
38.505
 30
0.0
 11
4.8323830082
 21
38.505
 31
0.0
  0
LINE
  5
419
330
24B
100
AcDbEntity
  8
SLD-0
 62
     7
100
AcDbLine
 10
8.1350015623
 20
42.525
 30
0.0
 11
8.1350015623
 21
41.205
 31
0.0
  0
LINE
  5
41A
330
24B
100
AcDbEntity
  8
SLD-0
 62
     7
100
AcDbLine
 10
5.4350015623
 20
39.205
 30
0.0
 11
3.6350149359
 21
39.205
 31
0.0
  0
LINE
  5
41B
330
24B
100
AcDbEntity
  8
SLD-0
 62
     7
100
AcDbLine
 10
17.4350015623
 20
46.665
 30
0.0
 11
17.4350015623
 21
47.015
 31
0.0
  0
LINE
  5
41C
330
24B
100
AcDbEntity
  8
SLD-0
 62
     7
100
AcDbLine
 10
17.0350015623
 20
46.665
 30
0.0
 11
17.0350015623
 21
44.125
 31
0.0
  0
LINE
  5
41D
330
24B
100
AcDbEntity
  8
SLD-0
 62
     7
100
AcDbLine
 10
17.4350015623
 20
44.475
 30
0.0
 11
17.4350015623
 21
45.575
 31
0.0
  0
LINE
  5
41E
330
24B
100
AcDbEntity
  8
SLD-0
 62
     7
100
AcDbLine
 10
17.0350015623
 20
44.125
 30
0.0
 11
17.4350015623
 21
44.125
 31
0.0
  0
LINE
  5
41F
330
24B
100
AcDbEntity
  8
SLD-0
 62
     7
100
AcDbLine
 10
17.4350015623
 20
44.125
 30
0.0
 11
17.4350015623
 21
44.475
 31
0.0
  0
LINE
  5
420
330
24B
100
AcDbEntity
  8
SLD-0
 62
     7
100
AcDbLine
 10
15.4032632625
 20
46.665
 30
0.0
 11
17.0350015623
 21
46.665
 31
0.0
  0
LINE
  5
421
330
24B
100
AcDbEntity
  8
SLD-0
 62
     7
100
AcDbLine
 10
17.4350015623
 20
45.575
 30
0.0
 11
17.4350015623
 21
46.665
 31
0.0
  0
LINE
  5
422
330
24B
100
AcDbEntity
  8
SLD-0
 62
     7
100
AcDbLine
 10
17.0350015623
 20
46.665
 30
0.0
 11
17.4350015623
 21
46.665
 31
0.0
  0
LINE
  5
423
330
24B
100
AcDbEntity
  8
SLD-0
 62
     7
100
AcDbLine
 10
17.0350015623
 20
46.665
 30
0.0
 11
17.4350015623
 21
46.665
 31
0.0
  0
LINE
  5
424
330
24B
100
AcDbEntity
  8
SLD-0
 62
     7
100
AcDbLine
 10
21.6350015623
 20
39.4002192233
 30
0.0
 11
21.5550583563
 21
38.9188477951
 31
0.0
  0
LINE
  5
425
330
24B
100
AcDbEntity
  8
SLD-0
 62
     7
100
AcDbLine
 10
21.5550583563
 20
38.9188477951
 30
0.0
 11
20.2350015623
 21
38.7801042353
 31
0.0
  0
LINE
  5
426
330
24B
100
AcDbEntity
  8
SLD-0
 62
     7
100
AcDbLine
 10
17.9350015623
 20
39.4002192233
 30
0.0
 11
21.6350015623
 21
39.4002192233
 31
0.0
  0
LINE
  5
427
330
24B
100
AcDbEntity
  8
SLD-0
 62
     7
100
AcDbLine
 10
18.0663818564
 20
39.2951149881
 30
0.0
 11
21.6175464974
 21
39.2951149881
 31
0.0
  0
LINE
  5
428
330
24B
100
AcDbEntity
  8
SLD-0
 62
     7
100
AcDbLine
 10
17.9350015623
 20
35.6625
 30
0.0
 11
21.6350015623
 21
35.6625
 31
0.0
  0
LINE
  5
429
330
24B
100
AcDbEntity
  8
SLD-0
 62
     7
100
AcDbLine
 10
20.7376144508
 20
28.75
 30
0.0
 11
22.4769500891
 21
28.75
 31
0.0
  0
LINE
  5
42A
330
24B
100
AcDbEntity
  8
SLD-0
 62
     7
100
AcDbLine
 10
20.7768853559
 20
28.71
 30
0.0
 11
22.4769500891
 21
28.71
 31
0.0
  0
LINE
  5
42B
330
24B
100
AcDbEntity
  8
SLD-0
 62
     7
100
AcDbLine
 10
20.0376144508
 20
28.3482724288
 30
0.0
 11
20.0376144508
 21
28.95
 31
0.0
  0
LINE
  5
42C
330
24B
100
AcDbEntity
  8
SLD-0
 62
     7
100
AcDbLine
 10
20.5376144508
 20
29.45
 30
0.0
 11
21.2376791841
 21
29.45
 31
0.0
  0
LINE
  5
42D
330
24B
100
AcDbEntity
  8
SLD-0
 62
     7
100
AcDbLine
 10
12.5850015623
 20
10.7
 30
0.0
 11
12.5850015623
 21
4.0
 31
0.0
  0
LINE
  5
42E
330
24B
100
AcDbEntity
  8
SLD-0
 62
     7
100
AcDbLine
 10
9.0350015623
 20
7.5
 30
0.0
 11
9.0350015623
 21
6.5
 31
0.0
  0
LINE
  5
42F
330
24B
100
AcDbEntity
  8
SLD-0
  6
CENTERX2
 62
     7
370
     0
100
AcDbLine
 10
6.7350015623
 20
10.8
 30
0.0
 11
6.7350015623
 21
3.2
 31
0.0
  0
LINE
  5
430
330
24B
100
AcDbEntity
  8
SLD-0
 62
     7
100
AcDbLine
 10
1.4350015623
 20
4.0
 30
0.0
 11
1.4350015623
 21
10.0
 31
0.0
  0
LINE
  5
431
330
24B
100
AcDbEntity
  8
SLD-0
 62
     7
100
AcDbLine
 10
1.8546548172
 20
27.070601531
 30
0.0
 11
3.5547138849
 21
27.070601531
 31
0.0
  0
LINE
  5
432
330
24B
100
AcDbEntity
  8
SLD-0
 62
     7
100
AcDbLine
 10
1.4350015623
 20
13.2
 30
0.0
 11
22.9350015623
 21
13.2
 31
0.0
  0
LINE
  5
433
330
24B
100
AcDbEntity
  8
SLD-0
 62
     7
100
AcDbLine
 10
22.7862084665
 20
26.75
 30
0.0
 11
1.5837946581
 21
26.75
 31
0.0
  0
LINE
  5
434
330
24B
100
AcDbEntity
  8
SLD-0
 62
     7
100
AcDbLine
 10
1.4350015623
 20
26.65
 30
0.0
 11
22.9350015623
 21
26.65
 31
0.0
  0
LINE
  5
435
330
24B
100
AcDbEntity
  8
SLD-0
 62
     7
100
AcDbLine
 10
1.5837946581
 20
26.75
 30
0.0
 11
1.8546548172
 21
27.070601531
 31
0.0
  0
LINE
  5
436
330
24B
100
AcDbEntity
  8
SLD-0
  6
CENTERX2
 62
     7
370
     0
100
AcDbLine
 10
15.2350015623
 20
12.6360920801
 30
0.0
 11
15.2350015623
 21
25.7639079199
 31
0.0
  0
LINE
  5
437
330
24B
100
AcDbEntity
  8
SLD-0
 62
     7
100
AcDbLine
 10
19.9850015623
 20
14.95
 30
0.0
 11
19.9850015623
 21
23.45
 31
0.0
  0
LINE
  5
438
330
24B
100
AcDbEntity
  8
SLD-0
 62
     7
100
AcDbLine
 10
10.4850015623
 20
23.45
 30
0.0
 11
10.4850015623
 21
14.95
 31
0.0
  0
LINE
  5
439
330
24B
100
AcDbEntity
  8
SLD-0
 62
     7
370
     0
100
AcDbLine
 10
21.0467279123
 20
13.2
 30
0.0
 11
21.0467279123
 21
26.65
 31
0.0
  0
LINE
  5
43A
330
24B
100
AcDbEntity
  8
SLD-0
 62
     7
100
AcDbLine
 10
20.4650015623
 20
13.2
 30
0.0
 11
20.4650015623
 21
26.65
 31
0.0
  0
LINE
  5
43B
330
24B
100
AcDbEntity
  8
SLD-0
 62
     7
370
     0
100
AcDbLine
 10
10.1050015623
 20
13.2
 30
0.0
 11
10.1050015623
 21
26.65
 31
0.0
  0
LINE
  5
43C
330
24B
100
AcDbEntity
  8
SLD-0
 62
     7
370
     0
100
AcDbLine
 10
8.8059894612
 20
13.2
 30
0.0
 11
8.8059894612
 21
26.65
 31
0.0
  0
LINE
  5
43D
330
24B
100
AcDbEntity
  8
SLD-0
 62
     7
100
AcDbLine
 10
14.7350015623
 20
18.7
 30
0.0
 11
14.7350015623
 21
17.2
 31
0.0
  0
LINE
  5
43E
330
24B
100
AcDbEntity
  8
SLD-0
 62
     7
100
AcDbLine
 10
15.7350015623
 20
18.7
 30
0.0
 11
15.7350015623
 21
17.2
 31
0.0
  0
LINE
  5
43F
330
24B
100
AcDbEntity
  8
SLD-0
 62
     7
370
     0
100
AcDbLine
 10
3.0173930991
 20
13.2
 30
0.0
 11
3.0173930991
 21
20.1274603513
 31
0.0
  0
LINE
  5
440
330
24B
100
AcDbEntity
  8
SLD-0
  6
CENTERX2
 62
     7
370
     0
100
AcDbLine
 10
8.6710936424
 20
19.2
 30
0.0
 11
21.7989094822
 21
19.2
 31
0.0
  0
LINE
  5
441
330
24B
100
AcDbEntity
  8
SLD-0
 62
     7
100
AcDbLine
 10
14.7350015623
 20
18.7
 30
0.0
 11
11.9225251473
 21
18.7
 31
0.0
  0
LINE
  5
442
330
24B
100
AcDbEntity
  8
SLD-0
 62
     7
100
AcDbLine
 10
14.7350015623
 20
19.7
 30
0.0
 11
11.9225251473
 21
19.7
 31
0.0
  0
LINE
  5
443
330
24B
100
AcDbEntity
  8
SLD-0
 62
     7
100
AcDbLine
 10
4.8323830082
 20
27.8482724288
 30
0.0
 11
19.5376144508
 21
27.8482724288
 31
0.0
  0
LINE
  5
444
330
24B
100
AcDbEntity
  8
SLD-0
 62
     7
100
AcDbLine
 10
19.4850015623
 20
23.95
 30
0.0
 11
10.9850015623
 21
23.95
 31
0.0
  0
LINE
  5
445
330
24B
100
AcDbEntity
  8
SLD-0
 62
     7
100
AcDbLine
 10
3.6323830082
 20
27.1482724288
 30
0.0
 11
20.7376144508
 21
27.1482724288
 31
0.0
  0
LINE
  5
446
330
24B
100
AcDbEntity
  8
SLD-0
 62
     7
370
     0
100
AcDbLine
 10
3.0173930991
 20
22.8725396487
 30
0.0
 11
3.0173930991
 21
26.65
 31
0.0
  0
LINE
  5
447
330
24B
100
AcDbEntity
  8
SLD-0
 62
     7
100
AcDbLine
 10
10.9850015623
 20
23.95
 30
0.0
 11
10.4850015623
 21
23.45
 31
0.0
  0
LINE
  5
448
330
24B
100
AcDbEntity
  8
SLD-0
 62
     7
100
AcDbLine
 10
11.4350015623
 20
25.81
 30
0.0
 11
10.1050015623
 21
25.81
 31
0.0
  0
LINE
  5
449
330
24B
100
AcDbEntity
  8
SLD-0
 62
     7
100
AcDbLine
 10
11.4350015623
 20
26.65
 30
0.0
 11
11.4350015623
 21
25.81
 31
0.0
  0
LINE
  5
44A
330
24B
100
AcDbEntity
  8
SLD-0
 62
     7
100
AcDbLine
 10
3.5547138849
 20
27.070601531
 30
0.0
 11
3.6323830082
 21
27.1482724288
 31
0.0
  0
LINE
  5
44B
330
24B
100
AcDbEntity
  8
SLD-0
 62
     7
370
     0
100
AcDbLine
 10
3.0173930991
 20
25.6121285917
 30
0.0
 11
8.8059894612
 21
25.6121285917
 31
0.0
  0
LINE
  5
44C
330
24B
100
AcDbEntity
  8
SLD-0
 62
     7
100
AcDbLine
 10
10.4850015623
 20
18.55
 30
0.0
 11
11.9486662173
 21
18.55
 31
0.0
  0
LINE
  5
44D
330
24B
100
AcDbEntity
  8
SLD-0
 62
     7
100
AcDbLine
 10
10.4850015623
 20
19.85
 30
0.0
 11
11.9486662173
 21
19.85
 31
0.0
  0
LINE
  5
44E
330
24B
100
AcDbEntity
  8
SLD-0
 62
     7
100
AcDbLine
 10
14.5850015623
 20
22.486335345
 30
0.0
 11
14.5850015623
 21
23.95
 31
0.0
  0
LINE
  5
44F
330
24B
100
AcDbEntity
  8
SLD-0
 62
     7
100
AcDbLine
 10
15.8850015623
 20
22.486335345
 30
0.0
 11
15.8850015623
 21
23.95
 31
0.0
  0
LINE
  5
450
330
24B
100
AcDbEntity
  8
SLD-0
 62
     7
100
AcDbLine
 10
19.9850015623
 20
23.45
 30
0.0
 11
19.4850015623
 21
23.95
 31
0.0
  0
LINE
  5
451
330
24B
100
AcDbEntity
  8
SLD-0
 62
     7
100
AcDbLine
 10
20.4650015623
 20
25.81
 30
0.0
 11
16.4350015623
 21
25.81
 31
0.0
  0
LINE
  5
452
330
24B
100
AcDbEntity
  8
SLD-0
 62
     7
100
AcDbLine
 10
16.4350015623
 20
26.65
 30
0.0
 11
16.4350015623
 21
25.81
 31
0.0
  0
LINE
  5
453
330
24B
100
AcDbEntity
  8
SLD-0
 62
     7
100
AcDbLine
 10
22.7862084665
 20
26.75
 30
0.0
 11
22.4769500891
 21
27.1033966622
 31
0.0
  0
LINE
  5
454
330
24B
100
AcDbEntity
  8
SLD-0
 62
     7
100
AcDbLine
 10
22.4769500891
 20
27.1033966622
 30
0.0
 11
20.7376144508
 21
27.1033966622
 31
0.0
  0
LINE
  5
455
330
24B
100
AcDbEntity
  8
SLD-0
 62
     7
100
AcDbLine
 10
14.7350015623
 20
21.2
 30
0.0
 11
15.7350015623
 21
21.2
 31
0.0
  0
LINE
  5
456
330
24B
100
AcDbEntity
  8
SLD-0
 62
     7
100
AcDbLine
 10
14.7350015623
 20
21.2
 30
0.0
 11
14.7350015623
 21
19.7
 31
0.0
  0
LINE
  5
457
330
24B
100
AcDbEntity
  8
SLD-0
 62
     7
100
AcDbLine
 10
18.5213369073
 20
18.55
 30
0.0
 11
19.9850015623
 21
18.55
 31
0.0
  0
LINE
  5
458
330
24B
100
AcDbEntity
  8
SLD-0
 62
     7
100
AcDbLine
 10
18.5213369073
 20
19.85
 30
0.0
 11
19.9850015623
 21
19.85
 31
0.0
  0
LINE
  5
459
330
24B
100
AcDbEntity
  8
SLD-0
 62
     7
100
AcDbLine
 10
18.5474779773
 20
19.7
 30
0.0
 11
15.7350015623
 21
19.7
 31
0.0
  0
LINE
  5
45A
330
24B
100
AcDbEntity
  8
SLD-0
 62
     7
100
AcDbLine
 10
18.5474779773
 20
18.7
 30
0.0
 11
15.7350015623
 21
18.7
 31
0.0
  0
LINE
  5
45B
330
24B
100
AcDbEntity
  8
SLD-0
 62
     7
100
AcDbLine
 10
15.7350015623
 20
21.2
 30
0.0
 11
15.7350015623
 21
19.7
 31
0.0
  0
LINE
  5
45C
330
24B
100
AcDbEntity
  8
SLD-0
 62
     7
100
AcDbLine
 10
10.9850015623
 20
14.45
 30
0.0
 11
19.4850015623
 21
14.45
 31
0.0
  0
LINE
  5
45D
330
24B
100
AcDbEntity
  8
SLD-0
 62
     7
370
     0
100
AcDbLine
 10
10.1050015623
 20
14.4
 30
0.0
 11
20.4650015623
 21
14.4
 31
0.0
  0
LINE
  5
45E
330
24B
100
AcDbEntity
  8
SLD-0
 62
     7
100
AcDbLine
 10
18.1350015623
 20
10.7
 30
0.0
 11
12.3350015623
 21
10.7
 31
0.0
  0
LINE
  5
45F
330
24B
100
AcDbEntity
  8
SLD-0
 62
     7
100
AcDbLine
 10
10.7350015623
 20
12.2
 30
0.0
 11
19.9350015623
 21
12.2
 31
0.0
  0
LINE
  5
460
330
24B
100
AcDbEntity
  8
SLD-0
 62
     7
100
AcDbLine
 10
10.9850015623
 20
14.45
 30
0.0
 11
10.4850015623
 21
14.95
 31
0.0
  0
LINE
  5
461
330
24B
100
AcDbEntity
  8
SLD-0
 62
     7
370
     0
100
AcDbLine
 10
3.0173930991
 20
14.4
 30
0.0
 11
8.8059894612
 21
14.4
 31
0.0
  0
LINE
  5
462
330
24B
100
AcDbEntity
  8
SLD-0
 62
     7
100
AcDbLine
 10
12.3350015623
 20
10.7
 30
0.0
 11
12.3350015623
 21
12.2
 31
0.0
  0
LINE
  5
463
330
24B
100
AcDbEntity
  8
SLD-0
 62
     7
100
AcDbLine
 10
10.7350015623
 20
13.2
 30
0.0
 11
10.7350015623
 21
12.2
 31
0.0
  0
LINE
  5
464
330
24B
100
AcDbEntity
  8
SLD-0
 62
     7
100
AcDbLine
 10
3.4350015623
 20
12.0
 30
0.0
 11
4.6850015623
 21
12.0
 31
0.0
  0
LINE
  5
465
330
24B
100
AcDbEntity
  8
SLD-0
 62
     7
100
AcDbLine
 10
4.6850015623
 20
12.0
 30
0.0
 11
4.6850015623
 21
13.2
 31
0.0
  0
LINE
  5
466
330
24B
100
AcDbEntity
  8
SLD-0
 62
     7
100
AcDbLine
 10
14.7350015623
 20
17.2
 30
0.0
 11
15.7350015623
 21
17.2
 31
0.0
  0
LINE
  5
467
330
24B
100
AcDbEntity
  8
SLD-0
 62
     7
100
AcDbLine
 10
14.5850015623
 20
14.45
 30
0.0
 11
14.5850015623
 21
15.913664655
 31
0.0
  0
LINE
  5
468
330
24B
100
AcDbEntity
  8
SLD-0
 62
     7
100
AcDbLine
 10
19.4850015623
 20
14.45
 30
0.0
 11
19.9850015623
 21
14.95
 31
0.0
  0
LINE
  5
469
330
24B
100
AcDbEntity
  8
SLD-0
 62
     7
100
AcDbLine
 10
15.8850015623
 20
14.45
 30
0.0
 11
15.8850015623
 21
15.913664655
 31
0.0
  0
LINE
  5
46A
330
24B
100
AcDbEntity
  8
SLD-0
 62
     7
100
AcDbLine
 10
21.4350015623
 20
12.2
 30
0.0
 11
21.4350015623
 21
13.2
 31
0.0
  0
LINE
  5
46B
330
24B
100
AcDbEntity
  8
SLD-0
 62
     7
100
AcDbLine
 10
19.9350015623
 20
12.2
 30
0.0
 11
19.9350015623
 21
13.2
 31
0.0
  0
LINE
  5
46C
330
24B
100
AcDbEntity
  8
SLD-0
 62
     7
100
AcDbLine
 10
21.4350015623
 20
12.2
 30
0.0
 11
19.9350015623
 21
12.2
 31
0.0
  0
LINE
  5
46D
330
24B
100
AcDbEntity
  8
SLD-0
 62
     7
100
AcDbLine
 10
18.1350015623
 20
12.2
 30
0.0
 11
18.1350015623
 21
10.7
 31
0.0
  0
LINE
  5
46E
330
24B
100
AcDbEntity
  8
SLD-0
  6
CENTERX2
 62
     7
370
     0
100
AcDbLine
 10
3.5850015623
 20
7.0
 30
0.0
 11
9.8850015623
 21
7.0
 31
0.0
  0
LINE
  5
46F
330
24B
100
AcDbEntity
  8
SLD-0
 62
     7
100
AcDbLine
 10
10.5850015623
 20
2.0
 30
0.0
 11
3.4350015623
 21
2.0
 31
0.0
  0
LINE
  5
470
330
24B
100
AcDbEntity
  8
SLD-0
 62
     7
370
     0
100
AcDbLine
 10
11.9350015623
 20
61.3513800583
 30
0.0
 11
11.9350015623
 21
62.3513800583
 31
0.0
  0
LINE
  5
471
330
24B
100
AcDbEntity
  8
SLD-0
 62
     7
370
     0
100
AcDbLine
 10
12.4350015623
 20
62.3513800583
 30
0.0
 11
12.4350015623
 21
61.3513800583
 31
0.0
  0
LINE
  5
472
330
24B
100
AcDbEntity
  8
SLD-0
 62
     7
370
     0
100
AcDbLine
 10
11.9350015623
 20
62.3513800583
 30
0.0
 11
12.4350015623
 21
62.3513800583
 31
0.0
  0
LINE
  5
473
330
24B
100
AcDbEntity
  8
SLD-0
 62
     7
370
     0
100
AcDbLine
 10
12.4350015623
 20
59.8513800583
 30
0.0
 11
11.9350015623
 21
59.8513800583
 31
0.0
  0
LINE
  5
474
330
24B
100
AcDbEntity
  8
SLD-0
 62
     7
370
     0
100
AcDbLine
 10
11.9350015623
 20
61.3513800583
 30
0.0
 11
12.4350015623
 21
60.8513800583
 31
0.0
  0
LINE
  5
475
330
24B
100
AcDbEntity
  8
SLD-0
 62
     7
370
     0
100
AcDbLine
 10
11.9350015623
 20
60.8513800583
 30
0.0
 11
12.4350015623
 21
61.3513800583
 31
0.0
  0
LINE
  5
476
330
24B
100
AcDbEntity
  8
SLD-0
 62
     7
370
     0
100
AcDbLine
 10
13.4350015623
 20
61.3513800583
 30
0.0
 11
13.4350015623
 21
60.8513800583
 31
0.0
  0
LINE
  5
477
330
24B
100
AcDbEntity
  8
SLD-0
 62
     7
370
     0
100
AcDbLine
 10
10.9350015623
 20
60.8513800583
 30
0.0
 11
10.9350015623
 21
61.3513800583
 31
0.0
  0
LINE
  5
478
330
24B
100
AcDbEntity
  8
SLD-0
 62
     7
370
     0
100
AcDbLine
 10
11.9350015623
 20
60.8513800583
 30
0.0
 11
10.9350015623
 21
60.8513800583
 31
0.0
  0
LINE
  5
479
330
24B
100
AcDbEntity
  8
SLD-0
 62
     7
370
     0
100
AcDbLine
 10
13.4350015623
 20
60.8513800583
 30
0.0
 11
12.4350015623
 21
60.8513800583
 31
0.0
  0
LINE
  5
47A
330
24B
100
AcDbEntity
  8
SLD-0
 62
     7
370
     0
100
AcDbLine
 10
10.9350015623
 20
61.3513800583
 30
0.0
 11
11.9350015623
 21
61.3513800583
 31
0.0
  0
LINE
  5
47B
330
24B
100
AcDbEntity
  8
SLD-0
 62
     7
370
     0
100
AcDbLine
 10
12.4350015623
 20
61.3513800583
 30
0.0
 11
13.4350015623
 21
61.3513800583
 31
0.0
  0
LINE
  5
47C
330
24B
100
AcDbEntity
  8
SLD-0
 62
     7
370
     0
100
AcDbLine
 10
12.4350015623
 20
60.8513800583
 30
0.0
 11
12.4350015623
 21
59.8513800583
 31
0.0
  0
LINE
  5
47D
330
24B
100
AcDbEntity
  8
SLD-0
 62
     7
370
     0
100
AcDbLine
 10
11.9350015623
 20
59.8513800583
 30
0.0
 11
11.9350015623
 21
60.8513800583
 31
0.0
  0
LINE
  5
47E
330
24B
100
AcDbEntity
  8
SLD-0
 62
     7
100
AcDbLine
 10
4.4350015623
 20
7.5
 30
0.0
 11
4.4350015623
 21
6.5
 31
0.0
  0
ENDBLK
  5
24D
330
24B
100
AcDbEntity
  8
0
100
AcDbBlockEnd
  0
BLOCK
  5
486
330
485
100
AcDbEntity
  8
0
100
AcDbBlockBegin
  2
_OPEN30
 70
     0
 71
     0
 10
0.0
 20
0.0
 30
0.0
  3
_OPEN30
  1

  0
LINE
  5
488
330
485
100
AcDbEntity
  8
0
  6
ByBlock
 62
     0
370
    -2
100
AcDbLine
 10
-1.0
 20
0.267949
 30
0.0
 11
0.0
 21
0.0
 31
0.0
  0
LINE
  5
489
330
485
100
AcDbEntity
  8
0
  6
ByBlock
 62
     0
370
    -2
100
AcDbLine
 10
0.0
 20
0.0
 30
0.0
 11
-1.0
 21
-0.267949
 31
0.0
  0
LINE
  5
48A
330
485
100
AcDbEntity
  8
0
  6
ByBlock
 62
     0
370
    -2
100
AcDbLine
 10
0.0
 20
0.0
 30
0.0
 11
-1.0
 21
0.0
 31
0.0
  0
ENDBLK
  5
487
330
485
100
AcDbEntity
  8
0
100
AcDbBlockEnd
  0
BLOCK
  5
48C
330
48B
100
AcDbEntity
  8
0
100
AcDbBlockBegin
  2
*D5
 70
     1
 71
     0
 10
0.0
 20
0.0
 30
0.0
  3
*D5
  1

  0
INSERT
  5
48E
330
48B
100
AcDbEntity
  8
SLD-0
 62
     7
100
AcDbBlockReference
  2
_OPEN30
 10
19.6251784065
 20
37.3258759539
 30
0.1
 41
3.0
 42
3.0
 50
180.0
  0
INSERT
  5
48F
330
48B
100
AcDbEntity
  8
SLD-0
 62
     7
100
AcDbBlockReference
  2
_OPEN30
 10
148.1126784065
 20
37.3258759539
 30
0.1
 41
3.0
 42
3.0
 50
0.0
  0
LINE
  5
490
330
48B
100
AcDbEntity
  8
SLD-0
 62
     7
100
AcDbLine
 10
19.6251784065
 20
47.1311342123
 30
0.0
 11
19.6251784065
 21
36.3258759539
 31
0.0
  0
LINE
  5
491
330
48B
100
AcDbEntity
  8
SLD-0
 62
     7
100
AcDbLine
 10
148.1126784065
 20
88.6561342123
 30
0.0
 11
148.1126784065
 21
36.3258759539
 31
0.0
  0
LINE
  5
492
330
48B
100
AcDbEntity
  8
SLD-0
 62
     7
100
AcDbLine
 10
19.6251784065
 20
37.3258759539
 30
0.0
 11
148.1126784065
 21
37.3258759539
 31
0.0
  0
MTEXT
  5
494
330
48B
100
AcDbEntity
  8
SLD-0
 62
     7
100
AcDbMText
 10
83.9930625006
 20
41.8376128102
 30
0.0
 40
3.5
 41
0.0
 71
     1
 72
     1
  1
128.5
  7
SLDTEXTSTYLE0
 73
     1
 44
1.0
  0
ENDBLK
  5
48D
330
48B
100
AcDbEntity
  8
0
100
AcDbBlockEnd
  0
BLOCK
  5
497
330
496
100
AcDbEntity
  8
0
100
AcDbBlockBegin
  2
*D6
 70
     1
 71
     0
 10
0.0
 20
0.0
 30
0.0
  3
*D6
  1

  0
INSERT
  5
499
330
496
100
AcDbEntity
  8
SLD-0
 62
     7
100
AcDbBlockReference
  2
_OPEN30
 10
156.1126784065
 20
16.7876151582
 30
0.1
 41
3.0
 42
3.0
 50
0.0
  0
INSERT
  5
49A
330
496
100
AcDbEntity
  8
SLD-0
 62
     7
100
AcDbBlockReference
  2
_OPEN30
 10
19.6251784065
 20
16.7876151582
 30
0.1
 41
3.0
 42
3.0
 50
180.0
  0
LINE
  5
49B
330
496
100
AcDbEntity
  8
SLD-0
 62
     7
100
AcDbLine
 10
156.1126784065
 20
87.6822547486
 30
0.0
 11
156.1126784065
 21
15.7876151582
 31
0.0
  0
LINE
  5
49C
330
496
100
AcDbEntity
  8
SLD-0
 62
     7
100
AcDbLine
 10
19.6251784065
 20
47.1311342123
 30
0.0
 11
19.6251784065
 21
15.7876151582
 31
0.0
  0
LINE
  5
49D
330
496
100
AcDbEntity
  8
SLD-0
 62
     7
100
AcDbLine
 10
156.1126784065
 20
16.7876151582
 30
0.0
 11
19.6251784065
 21
16.7876151582
 31
0.0
  0
MTEXT
  5
49E
330
496
100
AcDbEntity
  8
SLD-0
 62
     7
100
AcDbMText
 10
83.9930625006
 20
21.2993520146
 30
0.0
 40
3.5
 41
0.0
 71
     1
 72
     1
  1
136.5
  7
SLDTEXTSTYLE0
 73
     1
 44
1.0
  0
ENDBLK
  5
498
330
496
100
AcDbEntity
  8
0
100
AcDbBlockEnd
  0
BLOCK
  5
4A2
330
4A1
100
AcDbEntity
  8
0
100
AcDbBlockBegin
  2
*D7
 70
     1
 71
     0
 10
0.0
 20
0.0
 30
0.0
  3
*D7
  1

  0
INSERT
  5
4A4
330
4A1
100
AcDbEntity
  8
SLD-0
 62
     7
100
AcDbBlockReference
  2
_OPEN30
 10
221.2779198754
 20
140.0702680592
 30
0.1
 41
3.0
 42
3.0
 50
90.0
  0
INSERT
  5
4A5
330
4A1
100
AcDbEntity
  8
SLD-0
 62
     7
100
AcDbBlockReference
  2
_OPEN30
 10
221.2779198754
 20
40.0702680592
 30
0.1
 41
3.0
 42
3.0
 50
270.0
  0
LINE
  5
4A6
330
4A1
100
AcDbEntity
  8
SLD-0
 62
     7
100
AcDbLine
 10
207.808119008
 20
140.0702680592
 30
0.0
 11
222.2779198754
 21
140.0702680592
 31
0.0
  0
LINE
  5
4A7
330
4A1
100
AcDbEntity
  8
SLD-0
 62
     7
100
AcDbLine
 10
197.458119008
 20
40.0702680592
 30
0.0
 11
222.2779198754
 21
40.0702680592
 31
0.0
  0
LINE
  5
4A8
330
4A1
100
AcDbEntity
  8
SLD-0
 62
     7
100
AcDbLine
 10
221.2779198754
 20
140.0702680592
 30
0.0
 11
221.2779198754
 21
40.0702680592
 31
0.0
  0
MTEXT
  5
4A9
330
4A1
100
AcDbEntity
  8
SLD-0
 62
     7
100
AcDbMText
 10
216.766183019
 20
82.6935395662
 30
0.0
 40
3.5
 41
0.0
 71
     1
 72
     1
  1
100
  7
SLDTEXTSTYLE0
 11
-7.044195017643634E-15
 21
1.0
 31
0.0
 73
     1
 44
1.0
  0
ENDBLK
  5
4A3
330
4A1
100
AcDbEntity
  8
0
100
AcDbBlockEnd
  0
BLOCK
  5
4AC
330
4AB
100
AcDbEntity
  8
0
100
AcDbBlockBegin
  2
*D8
 70
     1
 71
     0
 10
0.0
 20
0.0
 30
0.0
  3
*D8
  1

  0
INSERT
  5
4AE
330
4AB
100
AcDbEntity
  8
SLD-0
 62
     7
100
AcDbBlockReference
  2
_OPEN30
 10
174.8824055116
 20
59.1311342123
 30
0.1
 41
3.0
 42
3.0
 50
270.0
  0
INSERT
  5
4AF
330
4AB
100
AcDbEntity
  8
SLD-0
 62
     7
100
AcDbBlockReference
  2
_OPEN30
 10
174.8824055116
 20
136.7311342123
 30
0.1
 41
3.0
 42
3.0
 50
90.0
  0
LINE
  5
4B0
330
4AB
100
AcDbEntity
  8
SLD-0
 62
     7
100
AcDbLine
 10
91.9251784065
 20
59.1311342123
 30
0.0
 11
175.8824055116
 21
59.1311342123
 31
0.0
  0
LINE
  5
4B1
330
4AB
100
AcDbEntity
  8
SLD-0
 62
     7
100
AcDbLine
 10
91.9251784065
 20
136.7311342123
 30
0.0
 11
175.8824055116
 21
136.7311342123
 31
0.0
  0
LINE
  5
4B2
330
4AB
100
AcDbEntity
  8
SLD-0
 62
     7
100
AcDbLine
 10
174.8824055116
 20
59.1311342123
 30
0.0
 11
174.8824055116
 21
136.7311342123
 31
0.0
  0
MTEXT
  5
4B3
330
4AB
100
AcDbEntity
  8
SLD-0
 62
     7
100
AcDbMText
 10
170.3706686552
 20
91.0717134544
 30
0.0
 40
3.5
 41
0.0
 71
     1
 72
     1
  1
77.6
  7
SLDTEXTSTYLE0
 11
6.123233995736766E-17
 21
1.0
 31
0.0
 73
     1
 44
1.0
  0
ENDBLK
  5
4AD
330
4AB
100
AcDbEntity
  8
0
100
AcDbBlockEnd
  0
BLOCK
  5
4B6
330
4B5
100
AcDbEntity
  8
0
100
AcDbBlockBegin
  2
*D9
 70
     1
 71
     0
 10
0.0
 20
0.0
 30
0.0
  3
*D9
  1

  0
INSERT
  5
4B8
330
4B5
100
AcDbEntity
  8
SLD-0
 62
     7
100
AcDbBlockReference
  2
_OPEN30
 10
187.308119008
 20
152.3550972095
 30
0.1
 41
3.0
 42
3.0
 50
180.0
  0
INSERT
  5
4B9
330
4B5
100
AcDbEntity
  8
SLD-0
 62
     7
100
AcDbBlockReference
  2
_OPEN30
 10
208.808119008
 20
152.3550972095
 30
0.1
 41
3.0
 42
3.0
 50
0.0
  0
LINE
  5
4BA
330
4B5
100
AcDbEntity
  8
SLD-0
 62
     7
100
AcDbLine
 10
187.308119008
 20
129.8702680592
 30
0.0
 11
187.308119008
 21
153.3550972095
 31
0.0
  0
LINE
  5
4BB
330
4B5
100
AcDbEntity
  8
SLD-0
 62
     7
100
AcDbLine
 10
208.808119008
 20
129.8702680592
 30
0.0
 11
208.808119008
 21
153.3550972095
 31
0.0
  0
LINE
  5
4BC
330
4B5
100
AcDbEntity
  8
SLD-0
 62
     7
100
AcDbLine
 10
187.308119008
 20
152.3550972095
 30
0.0
 11
208.808119008
 21
152.3550972095
 31
0.0
  0
MTEXT
  5
4BD
330
4B5
100
AcDbEntity
  8
SLD-0
 62
     7
100
AcDbMText
 10
194.6289551657
 20
156.8668340658
 30
0.0
 40
3.5
 41
0.0
 71
     1
 72
     1
  1
21.5
  7
SLDTEXTSTYLE0
 73
     1
 44
1.0
  0
ENDBLK
  5
4B7
330
4B5
100
AcDbEntity
  8
0
100
AcDbBlockEnd
  0
BLOCK
  5
4C0
330
4BF
100
AcDbEntity
  8
0
100
AcDbBlockBegin
  2
SW_NOTE_0
 70
     0
 71
     0
 10
0.0
 20
0.0
 30
0.0
  3
SW_NOTE_0
  1

  0
MTEXT
  5
4C2
330
4BF
100
AcDbEntity
  8
WORKLAYER
 62
     0
100
AcDbMText
 10
0.0
 20
6.4453386989
 30
0.0
 40
5.0
 41
0.0
 71
     1
 72
     1
  1
MODEL:SSNP-15F\M+18140SSNP-20F
  7
SLDTEXTSTYLE0
 73
     1
 44
1.0
  0
MTEXT
  5
4C3
330
4BF
100
AcDbEntity
  8
WORKLAYER
 62
     0
100
AcDbMText
 10
0.0
 20
0.4453386467
 30
0.0
 40
5.0
 41
0.0
 71
     1
 72
     1
  1
\M+18140\M+18140\M+18140SSNZ-15F  SSNZ-20F
  7
SLDTEXTSTYLE0
 73
     1
 44
1.0
  0
ENDBLK
  5
4C1
330
4BF
100
AcDbEntity
  8
0
100
AcDbBlockEnd
  0
BLOCK
  5
4D5
330
4D4
100
AcDbEntity
  8
0
100
AcDbBlockBegin
  2
*D11
 70
     1
 71
     0
 10
0.0
 20
0.0
 30
0.0
  3
*D11
  1

  0
INSERT
  5
4D7
330
4D4
100
AcDbEntity
  8
SLD-0
 62
     7
100
AcDbBlockReference
  2
_OPEN30
 10
258.812674838
 20
152.2558955053
 30
-0.4
 41
3.0
 42
3.0
 50
360.0
  0
INSERT
  5
4D8
330
4D4
100
AcDbEntity
  8
SLD-0
 62
     7
100
AcDbBlockReference
  2
_OPEN30
 10
269.712674838
 20
152.2558955053
 30
-0.4
 41
3.0
 42
3.0
 50
180.0
  0
LINE
  5
4D9
330
4D4
100
AcDbEntity
  8
SLD-0
 62
     7
100
AcDbLine
 10
258.812674838
 20
140.2251479877
 30
0.0
 11
258.812674838
 21
153.2558955053
 31
0.0
  0
LINE
  5
4DA
330
4D4
100
AcDbEntity
  8
SLD-0
 62
     7
100
AcDbLine
 10
269.712674838
 20
140.2251479877
 30
0.0
 11
269.712674838
 21
153.2558955053
 31
0.0
  0
LINE
  5
4DB
330
4D4
100
AcDbEntity
  8
SLD-0
 62
     7
100
AcDbLine
 10
258.812674838
 20
152.2558955053
 30
0.0
 11
254.812674838
 21
152.2558955053
 31
0.0
  0
LINE
  5
4DC
330
4D4
100
AcDbEntity
  8
SLD-0
 62
     7
100
AcDbLine
 10
258.812674838
 20
152.2558955053
 30
0.0
 11
269.712674838
 21
152.2558955053
 31
0.0
  0
LINE
  5
4DD
330
4D4
100
AcDbEntity
  8
SLD-0
 62
     7
100
AcDbLine
 10
269.712674838
 20
152.2558955053
 30
0.0
 11
273.712674838
 21
152.2558955053
 31
0.0
  0
MTEXT
  5
4DE
330
4D4
100
AcDbEntity
  8
SLD-0
 62
     7
100
AcDbMText
 10
260.0356936602
 20
156.7676323617
 30
0.0
 40
3.5
 41
0.0
 71
     1
 72
     1
  1
10.9
  7
SLDTEXTSTYLE0
 73
     1
 44
1.0
  0
ENDBLK
  5
4D6
330
4D4
100
AcDbEntity
  8
0
100
AcDbBlockEnd
  0
BLOCK
  5
4E1
330
4E0
100
AcDbEntity
  8
0
100
AcDbBlockBegin
  2
*D12
 70
     1
 71
     0
 10
0.0
 20
0.0
 30
0.0
  3
*D12
  1

  0
INSERT
  5
4E3
330
4E0
100
AcDbEntity
  8
SLD-0
 62
     7
100
AcDbBlockReference
  2
_OPEN30
 10
245.6858721558
 20
135.2251479877
 30
-0.4
 41
3.0
 42
3.0
 50
90.0
  0
INSERT
  5
4E4
330
4E0
100
AcDbEntity
  8
SLD-0
 62
     7
100
AcDbBlockReference
  2
_OPEN30
 10
245.6858721558
 20
45.2251479877
 30
-0.4
 41
3.0
 42
3.0
 50
270.0
  0
LINE
  5
4E5
330
4E0
100
AcDbEntity
  8
SLD-0
 62
     7
100
AcDbLine
 10
253.812674838
 20
135.2251479877
 30
0.0
 11
244.6858721558
 21
135.2251479877
 31
0.0
  0
LINE
  5
4E6
330
4E0
100
AcDbEntity
  8
SLD-0
 62
     7
100
AcDbLine
 10
253.812674838
 20
45.2251479877
 30
0.0
 11
244.6858721558
 21
45.2251479877
 31
0.0
  0
LINE
  5
4E7
330
4E0
100
AcDbEntity
  8
SLD-0
 62
     7
100
AcDbLine
 10
245.6858721558
 20
135.2251479877
 30
0.0
 11
245.6858721558
 21
45.2251479877
 31
0.0
  0
MTEXT
  5
4E8
330
4E0
100
AcDbEntity
  8
SLD-0
 62
     7
100
AcDbMText
 10
241.1741352994
 20
90.2700124833
 30
0.0
 40
3.5
 41
0.0
 71
     1
 72
     1
  1
90
  7
SLDTEXTSTYLE0
 11
-7.044195017643634E-15
 21
1.0
 31
0.0
 73
     1
 44
1.0
  0
ENDBLK
  5
4E2
330
4E0
100
AcDbEntity
  8
0
100
AcDbBlockEnd
  0
BLOCK
  5
4EB
330
4EA
100
AcDbEntity
  8
0
100
AcDbBlockBegin
  2
SW_NOTE_1
 70
     0
 71
     0
 10
0.0
 20
0.0
 30
0.0
  3
SW_NOTE_1
  1

  0
LINE
  5
4ED
330
4EA
100
AcDbEntity
  8
SLD-0
 62
     0
100
AcDbLine
 10
-13.4448817966
 20
0.0
 30
0.0
 11
0.0
 21
0.0
 31
0.0
  0
LINE
  5
4EE
330
4EA
100
AcDbEntity
  8
SLD-0
 62
     0
100
AcDbLine
 10
0.0
 20
0.0
 30
0.0
 11
-13.4448817966
 21
0.0
 31
0.0
  0
LINE
  5
4EF
330
4EA
100
AcDbEntity
  8
SLD-0
 62
     0
100
AcDbLine
 10
-13.4448817966
 20
0.0
 30
0.0
 11
0.0
 21
0.0
 31
0.0
  0
LINE
  5
4F0
330
4EA
100
AcDbEntity
  8
SLD-0
 62
     0
100
AcDbLine
 10
0.0
 20
0.0
 30
0.0
 11
-13.4448817966
 21
0.0
 31
0.0
  0
LINE
  5
4F1
330
4EA
100
AcDbEntity
  8
SLD-0
 62
     0
100
AcDbLine
 10
-13.4448817966
 20
0.0
 30
0.0
 11
0.0
 21
0.0
 31
0.0
  0
LINE
  5
4F2
330
4EA
100
AcDbEntity
  8
SLD-0
 62
     0
100
AcDbLine
 10
0.0
 20
0.0
 30
0.0
 11
-13.4448817966
 21
0.0
 31
0.0
  0
MTEXT
  5
4F3
330
4EA
100
AcDbEntity
  8
SLD-0
 62
     0
100
AcDbMText
 10
-13.4439349359
 20
4.5151018302
 30
0.0
 40
3.5
 41
0.0
 71
     1
 72
     1
  1
\M+18252\M+1817C\M+1826C\M+18252
  7
SLDTEXTSTYLE0
 73
     1
 44
1.0
  0
ENDBLK
  5
4EC
330
4EA
100
AcDbEntity
  8
0
100
AcDbBlockEnd
  0
BLOCK
  5
4F8
330
4F7
100
AcDbEntity
  8
0
100
AcDbBlockBegin
  2
SW_CENTERMARKSYMBOL_0
 70
     0
 71
     0
 10
0.0
 20
0.0
 30
0.0
  3
SW_CENTERMARKSYMBOL_0
  1

  0
LINE
  5
4FA
330
4F7
100
AcDbEntity
  8
0
  6
Continuous
 62
     0
370
     0
100
AcDbLine
 10
0.0
 20
0.0
 30
0.0
 11
0.0
 21
2.5
 31
0.0
  0
LINE
  5
4FB
330
4F7
100
AcDbEntity
  8
0
  6
Continuous
 62
     0
370
     0
100
AcDbLine
 10
0.0
 20
0.0
 30
0.0
 11
-2.5
 21
0.0
 31
0.0
  0
LINE
  5
4FC
330
4F7
100
AcDbEntity
  8
0
  6
Continuous
 62
     0
370
     0
100
AcDbLine
 10
0.0
 20
0.0
 30
0.0
 11
0.0
 21
-2.5
 31
0.0
  0
LINE
  5
4FD
330
4F7
100
AcDbEntity
  8
0
  6
Continuous
 62
     0
370
     0
100
AcDbLine
 10
0.0
 20
0.0
 30
0.0
 11
2.5
 21
0.0
 31
0.0
  0
LINE
  5
4FE
330
4F7
100
AcDbEntity
  8
0
  6
Continuous
 62
     0
370
     0
100
AcDbLine
 10
0.0
 20
2.5
 30
0.0
 11
0.0
 21
4.0
 31
0.0
  0
LINE
  5
4FF
330
4F7
100
AcDbEntity
  8
0
  6
Continuous
 62
     0
370
     0
100
AcDbLine
 10
-2.5
 20
0.0
 30
0.0
 11
-4.0
 21
0.0
 31
0.0
  0
LINE
  5
500
330
4F7
100
AcDbEntity
  8
0
  6
Continuous
 62
     0
370
     0
100
AcDbLine
 10
0.0
 20
-2.5
 30
0.0
 11
0.0
 21
-88.3645359158
 31
0.0
  0
LINE
  5
501
330
4F7
100
AcDbEntity
  8
0
  6
Continuous
 62
     0
370
     0
100
AcDbLine
 10
2.5
 20
0.0
 30
0.0
 11
4.0
 21
0.0
 31
0.0
  0
ENDBLK
  5
4F9
330
4F7
100
AcDbEntity
  8
0
100
AcDbBlockEnd
  0
BLOCK
  5
504
330
503
100
AcDbEntity
  8
0
100
AcDbBlockBegin
  2
SW_CENTERMARKSYMBOL_1
 70
     0
 71
     0
 10
0.0
 20
0.0
 30
0.0
  3
SW_CENTERMARKSYMBOL_1
  1

  0
LINE
  5
506
330
503
100
AcDbEntity
  8
0
  6
Continuous
 62
     0
370
     0
100
AcDbLine
 10
0.0
 20
0.0
 30
0.0
 11
0.0
 21
2.5
 31
0.0
  0
LINE
  5
507
330
503
100
AcDbEntity
  8
0
  6
Continuous
 62
     0
370
     0
100
AcDbLine
 10
0.0
 20
0.0
 30
0.0
 11
-2.5
 21
0.0
 31
0.0
  0
LINE
  5
508
330
503
100
AcDbEntity
  8
0
  6
Continuous
 62
     0
370
     0
100
AcDbLine
 10
0.0
 20
0.0
 30
0.0
 11
0.0
 21
-2.5
 31
0.0
  0
LINE
  5
509
330
503
100
AcDbEntity
  8
0
  6
Continuous
 62
     0
370
     0
100
AcDbLine
 10
0.0
 20
0.0
 30
0.0
 11
2.5
 21
0.0
 31
0.0
  0
LINE
  5
50A
330
503
100
AcDbEntity
  8
0
  6
Continuous
 62
     0
370
     0
100
AcDbLine
 10
0.0
 20
2.5
 30
0.0
 11
0.0
 21
4.0
 31
0.0
  0
LINE
  5
50B
330
503
100
AcDbEntity
  8
0
  6
Continuous
 62
     0
370
     0
100
AcDbLine
 10
-2.5
 20
0.0
 30
0.0
 11
-4.0
 21
0.0
 31
0.0
  0
LINE
  5
50C
330
503
100
AcDbEntity
  8
0
  6
Continuous
 62
     0
370
     0
100
AcDbLine
 10
0.0
 20
-2.5
 30
0.0
 11
0.0
 21
-4.0
 31
0.0
  0
LINE
  5
50D
330
503
100
AcDbEntity
  8
0
  6
Continuous
 62
     0
370
     0
100
AcDbLine
 10
2.5
 20
0.0
 30
0.0
 11
4.0
 21
0.0
 31
0.0
  0
ENDBLK
  5
505
330
503
100
AcDbEntity
  8
0
100
AcDbBlockEnd
  0
BLOCK
  5
510
330
50F
100
AcDbEntity
  8
0
100
AcDbBlockBegin
  2
SW_CENTERMARKSYMBOL_2
 70
     0
 71
     0
 10
0.0
 20
0.0
 30
0.0
  3
SW_CENTERMARKSYMBOL_2
  1

  0
LINE
  5
512
330
50F
100
AcDbEntity
  8
0
  6
Continuous
 62
     0
370
     0
100
AcDbLine
 10
0.0
 20
0.0
 30
0.0
 11
0.0
 21
2.5
 31
0.0
  0
LINE
  5
513
330
50F
100
AcDbEntity
  8
0
  6
Continuous
 62
     0
370
     0
100
AcDbLine
 10
0.0
 20
0.0
 30
0.0
 11
-2.5
 21
0.0
 31
0.0
  0
LINE
  5
514
330
50F
100
AcDbEntity
  8
0
  6
Continuous
 62
     0
370
     0
100
AcDbLine
 10
0.0
 20
0.0
 30
0.0
 11
0.0
 21
-2.5
 31
0.0
  0
LINE
  5
515
330
50F
100
AcDbEntity
  8
0
  6
Continuous
 62
     0
370
     0
100
AcDbLine
 10
0.0
 20
0.0
 30
0.0
 11
2.5
 21
0.0
 31
0.0
  0
LINE
  5
516
330
50F
100
AcDbEntity
  8
0
  6
Continuous
 62
     0
370
     0
100
AcDbLine
 10
0.0
 20
2.5
 30
0.0
 11
0.0
 21
4.0
 31
0.0
  0
LINE
  5
517
330
50F
100
AcDbEntity
  8
0
  6
Continuous
 62
     0
370
     0
100
AcDbLine
 10
-2.5
 20
0.0
 30
0.0
 11
-4.0
 21
0.0
 31
0.0
  0
LINE
  5
518
330
50F
100
AcDbEntity
  8
0
  6
Continuous
 62
     0
370
     0
100
AcDbLine
 10
0.0
 20
-2.5
 30
0.0
 11
0.0
 21
-4.0
 31
0.0
  0
LINE
  5
519
330
50F
100
AcDbEntity
  8
0
  6
Continuous
 62
     0
370
     0
100
AcDbLine
 10
2.5
 20
0.0
 30
0.0
 11
4.0
 21
0.0
 31
0.0
  0
ENDBLK
  5
511
330
50F
100
AcDbEntity
  8
0
100
AcDbBlockEnd
  0
ENDSEC
  0
SECTION
  2
ENTITIES
  0
LINE
  5
47F
330
1F
100
AcDbEntity
  8
SLD-0
 62
     7
100
AcDbLine
 10
156.1126784065
 20
97.9311342123
 30
0.0
 11
156.1126784065
 21
88.6822547486
 31
0.0
  0
CIRCLE
  5
480
330
1F
100
AcDbEntity
  8
SLD-0
 62
     7
100
AcDbCircle
 10
269.712674838
 20
135.2251479877
 30
0.0
 40
1.500000000000033
  0
CIRCLE
  5
481
330
1F
100
AcDbEntity
  8
SLD-0
 62
     7
100
AcDbCircle
 10
269.712674838
 20
135.2251479877
 30
0.0
 40
1.999999999999995
  0
CIRCLE
  5
482
330
1F
100
AcDbEntity
  8
SLD-0
 62
     7
100
AcDbCircle
 10
258.812674838
 20
45.2251479877
 30
0.0
 40
1.999999999999995
  0
DIMENSION
  5
483
330
1F
100
AcDbEntity
  8
SLD-0
 62
     7
100
AcDbDimension
  2
*D5
 10
148.1126784065
 20
37.3258759539
 30
0.0
 11
88.4784909767
 21
37.3258759539
 31
0.0
 70
   160
 71
     2
 42
-1.0
  3
SLDDIMSTYLE0
100
AcDbAlignedDimension
 13
19.6251784065
 23
48.1311342123
 33
0.0
 14
148.1126784065
 24
89.6561342123
 34
0.0
 50
0.0
100
AcDbRotatedDimension
  0
DIMENSION
  5
495
330
1F
100
AcDbEntity
  8
SLD-0
 62
     7
100
AcDbDimension
  2
*D6
 10
19.6251784065
 20
16.7876151582
 30
0.0
 11
88.4784909767
 21
16.7876151582
 31
0.0
 70
   160
 71
     2
 42
-1.0
  3
SLDDIMSTYLE0
100
AcDbAlignedDimension
 13
156.1126784065
 23
88.6822547486
 33
0.0
 14
19.6251784065
 24
48.1311342123
 34
0.0
 50
0.0
100
AcDbRotatedDimension
  0
DIMENSION
  5
49F
330
1F
100
AcDbEntity
  8
SLD-0
 62
     7
100
AcDbDimension
  2
*D7
 10
221.2779198754
 20
40.0702680592
 30
0.0
 11
221.2779198754
 21
85.7478122616
 31
0.0
 70
   160
 71
     2
 42
-1.0
  3
SLDDIMSTYLE1
100
AcDbAlignedDimension
 13
206.808119008
 23
140.0702680592
 33
0.0
 14
196.458119008
 24
40.0702680592
 34
0.0
 50
90.0
100
AcDbRotatedDimension
  0
DIMENSION
  5
4AA
330
1F
100
AcDbEntity
  8
SLD-0
 62
     7
100
AcDbDimension
  2
*D8
 10
174.8824055116
 20
136.7311342123
 30
0.0
 11
174.8824055116
 21
94.5384174969
 31
0.0
 70
   160
 71
     2
 42
-1.0
  3
SLDDIMSTYLE0
100
AcDbAlignedDimension
 13
90.9251784065
 23
59.1311342123
 33
0.0
 14
90.9251784065
 24
136.7311342123
 34
0.0
 50
90.0
100
AcDbRotatedDimension
  0
DIMENSION
  5
4B4
330
1F
100
AcDbEntity
  8
SLD-0
 62
     7
100
AcDbDimension
  2
*D9
 10
208.808119008
 20
152.3550972095
 30
0.0
 11
198.0956592083
 21
152.3550972095
 31
0.0
 70
   160
 71
     2
 42
-1.0
  3
SLDDIMSTYLE0
100
AcDbAlignedDimension
 13
187.308119008
 23
128.8702680592
 33
0.0
 14
208.808119008
 24
128.8702680592
 34
0.0
100
AcDbRotatedDimension
  0
MTEXT
  5
4BE
330
1F
100
AcDbEntity
  8
WORKLAYER
100
AcDbMText
 10
208.1341650338
 20
10.0512734834
 30
0.0
 40
5.0
 41
0.0
 71
     1
 72
     1
  1
RKC INSTRUMENT INC.
  7
SLDTEXTSTYLE0
 73
     1
 44
1.0
  0
INSERT
  5
4C4
330
1F
100
AcDbEntity
  8
WORKLAYER
100
AcDbBlockReference
  2
SW_NOTE_0
 10
208.4076148869
 20
15.9681707346
 30
0.0
  0
INSERT
  5
4C5
330
1F
100
AcDbEntity
  8
0
  6
Continuous
 62
     7
100
AcDbBlockReference
  2
ﾌﾞﾛｯｸ6
 10
14.8251784065
 20
165.47973721
 30
0.0
  0
INSERT
  5
4C6
330
1F
100
AcDbEntity
  8
0
  6
Continuous
 62
     7
100
AcDbBlockReference
  2
ﾌﾞﾛｯｸ7
 10
185.8731174457
 20
38.0702680592
 30
0.0
  0
INSERT
  5
4C7
330
1F
100
AcDbEntity
  8
0
  6
Continuous
 62
     7
100
AcDbBlockReference
  2
ﾌﾞﾛｯｸ5
 10
14.6251784065
 20
48.1311342123
 30
0.0
  0
CIRCLE
  5
4C8
330
1F
100
AcDbEntity
  8
SLD-0
 62
     7
100
AcDbCircle
 10
258.812674838
 20
135.2251479877
 30
0.0
 40
1.500000000000033
  0
CIRCLE
  5
4C9
330
1F
100
AcDbEntity
  8
SLD-0
 62
     7
100
AcDbCircle
 10
258.812674838
 20
135.2251479877
 30
0.0
 40
1.999999999999995
  0
CIRCLE
  5
4CA
330
1F
100
AcDbEntity
  8
SLD-0
 62
     7
100
AcDbCircle
 10
258.812674838
 20
45.2251479877
 30
0.0
 40
1.500000000000039
  0
CIRCLE
  5
4CB
330
1F
100
AcDbEntity
  8
0
  6
PHANTOM
 62
     7
370
     0
100
AcDbCircle
 10
258.812674838
 20
135.2251479877
 30
0.0
 40
1.5
  0
CIRCLE
  5
4CC
330
1F
100
AcDbEntity
  8
0
  6
PHANTOM
 62
     7
370
     0
100
AcDbCircle
 10
269.712674838
 20
135.2251479877
 30
0.0
 40
1.5
  0
CIRCLE
  5
4CD
330
1F
100
AcDbEntity
  8
0
  6
PHANTOM
 62
     7
370
     0
100
AcDbCircle
 10
258.812674838
 20
45.2251479877
 30
0.0
 40
1.5
  0
LINE
  5
4CE
330
1F
100
AcDbEntity
  8
0
  6
PHANTOM
 62
     7
370
     0
100
AcDbLine
 10
275.012674838
 20
140.2251479877
 30
0.0
 11
253.512674838
 21
140.2251479877
 31
0.0
  0
LINE
  5
4CF
330
1F
100
AcDbEntity
  8
0
  6
PHANTOM
 62
     7
370
     0
100
AcDbLine
 10
275.012674838
 20
40.2251479877
 30
0.0
 11
275.012674838
 21
140.2251479877
 31
0.0
  0
LINE
  5
4D0
330
1F
100
AcDbEntity
  8
0
  6
PHANTOM
 62
     7
370
     0
100
AcDbLine
 10
253.512674838
 20
40.2251479877
 30
0.0
 11
275.012674838
 21
40.2251479877
 31
0.0
  0
LINE
  5
4D1
330
1F
100
AcDbEntity
  8
0
  6
PHANTOM
 62
     7
370
     0
100
AcDbLine
 10
253.512674838
 20
140.2251479877
 30
0.0
 11
253.512674838
 21
40.2251479877
 31
0.0
  0
DIMENSION
  5
4D2
330
1F
100
AcDbEntity
  8
SLD-0
 62
     7
100
AcDbDimension
  2
*D11
 10
269.712674838
 20
152.2558955053
 30
0.0
 11
263.5023977028
 21
152.2558955053
 31
0.0
 70
   160
 71
     2
 42
-1.0
  3
SLDDIMSTYLE2
100
AcDbAlignedDimension
 13
258.812674838
 23
139.2251479877
 33
0.0
 14
269.712674838
 24
139.2251479877
 34
0.0
100
AcDbRotatedDimension
  0
DIMENSION
  5
4DF
330
1F
100
AcDbEntity
  8
SLD-0
 62
     7
100
AcDbDimension
  2
*D12
 10
245.6858721558
 20
45.2251479877
 30
0.0
 11
245.6858721558
 21
92.3055607451
 31
0.0
 70
   160
 71
     2
 42
-1.0
  3
SLDDIMSTYLE1
100
AcDbAlignedDimension
 13
254.812674838
 23
135.2251479877
 33
0.0
 14
254.812674838
 24
45.2251479877
 34
0.0
 50
90.0
100
AcDbRotatedDimension
  0
MTEXT
  5
4E9
330
1F
100
AcDbEntity
  8
SLD-0
 62
     7
100
AcDbMText
 10
237.1322985269
 20
36.8662620455
 30
0.0
 40
5.0
 41
0.0
 71
     1
 72
     1
  1
\LMOUNTING DIMENSIONS
  7
SLDTEXTSTYLE0
 73
     1
 44
1.0
  0
INSERT
  5
4F4
330
1F
100
AcDbEntity
  8
SLD-0
 62
     7
100
AcDbBlockReference
  2
SW_NOTE_1
 10
247.9303849435
 20
148.8226592585
 30
0.0
  0
LEADER
  5
4F6
330
1F
100
AcDbEntity
  8
SLD-0
 62
     7
100
AcDbLeader
  3
SLDDIMSTYLE3
 76
     2
 10
257.3116024503
 20
136.5468066755
 30
0.0
 10
247.9303849435
 20
148.8226592585
 30
0.0
  0
INSERT
  5
502
330
1F
100
AcDbEntity
  8
0
  6
Continuous
 62
     7
370
     0
100
AcDbBlockReference
  2
SW_CENTERMARKSYMBOL_0
 10
258.812674838
 20
135.2251479877
 30
0.0
  0
INSERT
  5
50E
330
1F
100
AcDbEntity
  8
0
  6
Continuous
 62
     7
370
     0
100
AcDbBlockReference
  2
SW_CENTERMARKSYMBOL_1
 10
269.712674838
 20
135.2251479877
 30
0.0
  0
INSERT
  5
51A
330
1F
100
AcDbEntity
  8
0
  6
Continuous
 62
     7
370
     0
100
AcDbBlockReference
  2
SW_CENTERMARKSYMBOL_2
 10
258.812674838
 20
45.2251479877
 30
0.0
  0
ENDSEC
  0
SECTION
  2
OBJECTS
  0
DICTIONARY
  5
C
330
0
100
AcDbDictionary
281
     1
  3
ACAD_GROUP
350
D
  3
ACAD_LAYOUT
350
1A
  3
ACAD_MLINESTYLE
350
17
  3
ACAD_PLOTSETTINGS
350
19
  3
ACAD_PLOTSTYLENAME
350
E
  3
ACAD_TABLESTYLE
350
51B
  3
ACAD_VISUALSTYLE
350
2A
  3
AcDbVariableDictionary
350
51C
  0
DICTIONARY
  5
D
102
{ACAD_REACTORS
330
C
102
}
330
C
100
AcDbDictionary
281
     1
  0
DICTIONARY
  5
1A
102
{ACAD_REACTORS
330
C
102
}
330
C
100
AcDbDictionary
281
     1
  3
Layout1
350
1E
  3
Layout2
350
26
  3
Model
350
22
  0
DICTIONARY
  5
17
102
{ACAD_REACTORS
330
C
102
}
330
C
100
AcDbDictionary
281
     1
  3
Standard
350
18
  0
DICTIONARY
  5
19
102
{ACAD_REACTORS
330
C
102
}
330
C
100
AcDbDictionary
281
     1
  0
ACDBDICTIONARYWDFLT
  5
E
102
{ACAD_REACTORS
330
C
102
}
330
C
100
AcDbDictionary
281
     1
  3
Normal
350
F
100
AcDbDictionaryWithDefault
340
F
  0
DICTIONARY
  5
51B
102
{ACAD_REACTORS
330
C
102
}
330
C
100
AcDbDictionary
281
     1
  0
DICTIONARY
  5
2A
102
{ACAD_REACTORS
330
C
102
}
330
C
100
AcDbDictionary
281
     1
  3
2dWireframe
350
2F
  3
3D Hidden
350
31
  3
3dWireframe
350
30
  3
Basic
350
32
  3
Brighten
350
36
  3
ColorChange
350
3A
  3
Conceptual
350
34
  3
Dim
350
35
  3
Facepattern
350
39
  3
Flat
350
2B
  3
FlatWithEdges
350
2C
  3
Gouraud
350
2D
  3
GouraudWithEdges
350
2E
  3
Linepattern
350
38
  3
Realistic
350
33
  3
Thicken
350
37
  0
DICTIONARY
  5
51C
102
{ACAD_REACTORS
330
C
102
}
330
C
100
AcDbDictionary
281
     1
  3
PSOLHEIGHT
350
51E
  3
PSOLWIDTH
350
51D
  0
LAYOUT
  5
1E
102
{ACAD_REACTORS
330
1A
102
}
330
1A
100
AcDbPlotSettings
  1

  2
none_device
  4

  6

 40
0.0
 41
0.0
 42
0.0
 43
0.0
 44
0.0
 45
0.0
 46
0.0
 47
0.0
 48
0.0
 49
0.0
140
0.0
141
0.0
142
1.0
143
1.0
 70
   688
 72
     0
 73
     0
 74
     5
  7

 75
    16
147
1.0
148
0.0
149
0.0
100
AcDbLayout
  1
Layout1
 70
     1
 71
     1
 10
0.0
 20
0.0
 11
420.0
 21
297.0
 12
0.0
 22
0.0
 32
0.0
 14
1.0000000000E+20
 24
1.0000000000E+20
 34
1.0000000000E+20
 15
-1.0000000000E+20
 25
-1.0000000000E+20
 35
-1.0000000000E+20
146
0.0
 13
0.0
 23
0.0
 33
0.0
 16
1.0
 26
0.0
 36
0.0
 17
0.0
 27
1.0
 37
0.0
 76
     0
330
1B
  0
LAYOUT
  5
26
102
{ACAD_REACTORS
330
1A
102
}
330
1A
100
AcDbPlotSettings
  1

  2
none_device
  4

  6

 40
0.0
 41
0.0
 42
0.0
 43
0.0
 44
0.0
 45
0.0
 46
0.0
 47
0.0
 48
0.0
 49
0.0
140
0.0
141
0.0
142
1.0
143
1.0
 70
   688
 72
     0
 73
     0
 74
     5
  7

 75
    16
147
1.0
148
0.0
149
0.0
100
AcDbLayout
  1
Layout2
 70
     1
 71
     2
 10
0.0
 20
0.0
 11
0.0
 21
0.0
 12
0.0
 22
0.0
 32
0.0
 14
0.0
 24
0.0
 34
0.0
 15
0.0
 25
0.0
 35
0.0
146
0.0
 13
0.0
 23
0.0
 33
0.0
 16
1.0
 26
0.0
 36
0.0
 17
0.0
 27
1.0
 37
0.0
 76
     0
330
23
  0
LAYOUT
  5
22
102
{ACAD_REACTORS
330
1A
102
}
330
1A
100
AcDbPlotSettings
  1

  2
none_device
  4

  6

 40
0.0
 41
0.0
 42
0.0
 43
0.0
 44
0.0
 45
0.0
 46
0.0
 47
0.0
 48
0.0
 49
0.0
140
0.0
141
0.0
142
1.0
143
1.0
 70
  1712
 72
     0
 73
     0
 74
     0
  7

 75
     0
147
1.0
148
0.0
149
0.0
100
AcDbLayout
  1
Model
 70
     1
 71
     0
 10
0.0
 20
0.0
 11
297.0
 21
210.0
 12
0.0
 22
0.0
 32
0.0
 14
0.0
 24
0.0
 34
0.0
 15
297.0
 25
210.0
 35
0.0
146
0.0
 13
0.0
 23
0.0
 33
0.0
 16
1.0
 26
0.0
 36
0.0
 17
0.0
 27
1.0
 37
0.0
 76
     0
330
1F
331
29
  0
MLINESTYLE
  5
18
102
{ACAD_REACTORS
330
17
102
}
330
17
100
AcDbMlineStyle
  2
Standard
 70
     0
  3

 62
   256
 51
90.0
 52
90.0
 71
     2
 49
0.5
 62
   256
  6
BYLAYER
 49
-0.5
 62
   256
  6
BYLAYER
  0
ACDBPLACEHOLDER
  5
F
102
{ACAD_REACTORS
330
E
102
}
330
E
  0
VISUALSTYLE
  5
2F
102
{ACAD_REACTORS
330
2A
102
}
330
2A
100
AcDbVisualStyle
  2
2dWireframe
 70
     4
 71
     0
 72
     2
 73
     0
 90
        0
 40
-0.6
 41
-30.0
 62
     5
 63
     7
 74
     1
 91
        4
 64
     7
 65
   257
 75
     1
175
     1
 42
1.0
 92
        0
 66
   257
 43
1.0
 76
     1
 77
     6
 78
     2
 67
     7
 79
     5
170
     0
171
     0
290
     0
174
     0
 93
        1
 44
0.0
173
     0
291
     0
 45
0.0
1001
ACAD
1000
AcDbSavedByObjectVersion
1070
     0
  0
VISUALSTYLE
  5
31
102
{ACAD_REACTORS
330
2A
102
}
330
2A
100
AcDbVisualStyle
  2
3D Hidden
 70
     6
 71
     1
 72
     2
 73
     2
 90
        0
 40
-0.6
 41
-30.0
 62
     5
 63
     7
 74
     2
 91
        2
 64
     7
 65
   257
 75
     2
175
     1
 42
40.0
 92
        0
 66
   257
 43
1.0
 76
     1
 77
     6
 78
     2
 67
     7
 79
     3
170
     0
171
     0
290
     0
174
     0
 93
        1
 44
0.0
173
     0
291
     0
 45
0.0
1001
ACAD
1000
AcDbSavedByObjectVersion
1070
     0
  0
VISUALSTYLE
  5
30
102
{ACAD_REACTORS
330
2A
102
}
330
2A
100
AcDbVisualStyle
  2
3dWireframe
 70
     5
 71
     0
 72
     2
 73
     0
 90
        0
 40
-0.6
 41
-30.0
 62
     5
 63
     7
 74
     1
 91
        4
 64
     7
 65
   257
 75
     1
175
     1
 42
1.0
 92
        0
 66
   257
 43
1.0
 76
     1
 77
     6
 78
     2
 67
     7
 79
     5
170
     0
171
     0
290
     0
174
     0
 93
        1
 44
0.0
173
     0
291
     0
 45
0.0
1001
ACAD
1000
AcDbSavedByObjectVersion
1070
     0
  0
VISUALSTYLE
  5
32
102
{ACAD_REACTORS
330
2A
102
}
330
2A
100
AcDbVisualStyle
  2
Basic
 70
     7
 71
     1
 72
     0
 73
     1
 90
        0
 40
-0.6
 41
-30.0
 62
     5
 63
     7
 74
     0
 91
        4
 64
     7
 65
   257
 75
     1
175
     1
 42
1.0
 92
        8
 66
     7
 43
1.0
 76
     1
 77
     6
 78
     2
 67
     7
 79
     5
170
     0
171
     0
290
     0
174
     0
 93
        1
 44
0.0
173
     0
291
     1
 45
0.0
1001
ACAD
1000
AcDbSavedByObjectVersion
1070
     0
  0
VISUALSTYLE
  5
36
102
{ACAD_REACTORS
330
2A
102
}
330
2A
100
AcDbVisualStyle
  2
Brighten
 70
    12
 71
     2
 72
     2
 73
     0
 90
        0
 40
-0.6
 41
-30.0
 62
     5
 63
     7
 74
     1
 91
        4
 64
     7
 65
   257
 75
     1
175
     1
 42
1.0
 92
        8
 66
     7
 43
1.0
 76
     1
 77
     6
 78
     2
 67
     7
 79
     5
170
     0
171
     0
290
     0
174
     0
 93
        1
 44
50.0
173
     0
291
     1
 45
0.0
1001
ACAD
1000
AcDbSavedByObjectVersion
1070
     0
  0
VISUALSTYLE
  5
3A
102
{ACAD_REACTORS
330
2A
102
}
330
2A
100
AcDbVisualStyle
  2
ColorChange
 70
    16
 71
     2
 72
     2
 73
     3
 90
        0
 40
-0.6
 41
-30.0
 62
     5
 63
     8
 74
     1
 91
        4
 64
     7
 65
   257
 75
     1
175
     1
 42
1.0
 92
        8
 66
     8
 43
1.0
 76
     1
 77
     6
 78
     2
 67
     7
 79
     5
170
     0
171
     0
290
     0
174
     0
 93
        1
 44
0.0
173
     0
291
     1
 45
0.0
1001
ACAD
1000
AcDbSavedByObjectVersion
1070
     0
  0
VISUALSTYLE
  5
34
102
{ACAD_REACTORS
330
2A
102
}
330
2A
100
AcDbVisualStyle
  2
Conceptual
 70
     9
 71
     3
 72
     2
 73
     0
 90
        0
 40
-0.6
 41
-30.0
 62
     5
 63
     7
 74
     2
 91
        2
 64
     7
 65
   257
 75
     1
175
     1
 42
40.0
 92
        8
 66
     7
 43
1.0
 76
     1
 77
     6
 78
     2
 67
     7
 79
     3
170
     0
171
     0
290
     0
174
     0
 93
        1
 44
0.0
173
     0
291
     0
 45
0.0
1001
ACAD
1000
AcDbSavedByObjectVersion
1070
     0
  0
VISUALSTYLE
  5
35
102
{ACAD_REACTORS
330
2A
102
}
330
2A
100
AcDbVisualStyle
  2
Dim
 70
    11
 71
     2
 72
     2
 73
     0
 90
        0
 40
-0.6
 41
-30.0
 62
     5
 63
     7
 74
     1
 91
        4
 64
     7
 65
   257
 75
     1
175
     1
 42
1.0
 92
        8
 66
     7
 43
1.0
 76
     1
 77
     6
 78
     2
 67
     7
 79
     5
170
     0
171
     0
290
     0
174
     0
 93
        1
 44
-50.0
173
     0
291
     1
 45
0.0
1001
ACAD
1000
AcDbSavedByObjectVersion
1070
     0
  0
VISUALSTYLE
  5
39
102
{ACAD_REACTORS
330
2A
102
}
330
2A
100
AcDbVisualStyle
  2
Facepattern
 70
    15
 71
     2
 72
     2
 73
     0
 90
        0
 40
-0.6
 41
-30.0
 62
     5
 63
     7
 74
     1
 91
        4
 64
     7
 65
   257
 75
     1
175
     1
 42
1.0
 92
        8
 66
     7
 43
1.0
 76
     1
 77
     6
 78
     2
 67
     7
 79
     5
170
     0
171
     0
290
     0
174
     0
 93
        1
 44
0.0
173
     0
291
     1
 45
0.0
1001
ACAD
1000
AcDbSavedByObjectVersion
1070
     0
  0
VISUALSTYLE
  5
2B
102
{ACAD_REACTORS
330
2A
102
}
330
2A
100
AcDbVisualStyle
  2
Flat
 70
     0
 71
     2
 72
     1
 73
     1
 90
        2
 40
-0.6
 41
30.0
 62
     5
 63
     7
 74
     0
 91
        4
 64
     7
 65
   257
 75
     1
175
     1
 42
1.0
 92
        8
 66
     7
 43
1.0
 76
     1
 77
     6
 78
     2
 67
     7
 79
     5
170
     0
171
     0
290
     0
174
     0
 93
       13
 44
0.0
173
     0
291
     1
 45
0.0
1001
ACAD
1000
AcDbSavedByObjectVersion
1070
     0
  0
VISUALSTYLE
  5
2C
102
{ACAD_REACTORS
330
2A
102
}
330
2A
100
AcDbVisualStyle
  2
FlatWithEdges
 70
     1
 71
     2
 72
     1
 73
     1
 90
        2
 40
-0.6
 41
30.0
 62
     5
 63
     7
 74
     1
 91
        4
 64
     7
 65
   257
 75
     1
175
     1
 42
1.0
 92
        0
 66
   257
 43
1.0
 76
     1
 77
     6
 78
     2
 67
     7
 79
     5
170
     0
171
     0
290
     0
174
     0
 93
       13
 44
0.0
173
     0
291
     1
 45
0.0
1001
ACAD
1000
AcDbSavedByObjectVersion
1070
     0
  0
VISUALSTYLE
  5
2D
102
{ACAD_REACTORS
330
2A
102
}
330
2A
100
AcDbVisualStyle
  2
Gouraud
 70
     2
 71
     2
 72
     2
 73
     1
 90
        2
 40
-0.6
 41
30.0
 62
     5
 63
     7
 74
     0
 91
        4
 64
     7
 65
   257
 75
     1
175
     1
 42
1.0
 92
        0
 66
     7
 43
1.0
 76
     1
 77
     6
 78
     2
 67
     7
 79
     5
170
     0
171
     0
290
     0
174
     0
 93
       13
 44
0.0
173
     0
291
     1
 45
0.0
1001
ACAD
1000
AcDbSavedByObjectVersion
1070
     0
  0
VISUALSTYLE
  5
2E
102
{ACAD_REACTORS
330
2A
102
}
330
2A
100
AcDbVisualStyle
  2
GouraudWithEdges
 70
     3
 71
     2
 72
     2
 73
     1
 90
        2
 40
-0.6
 41
30.0
 62
     5
 63
     7
 74
     1
 91
        4
 64
     7
 65
   257
 75
     1
175
     1
 42
1.0
 92
        0
 66
   257
 43
1.0
 76
     1
 77
     6
 78
     2
 67
     7
 79
     5
170
     0
171
     0
290
     0
174
     0
 93
       13
 44
0.0
173
     0
291
     1
 45
0.0
1001
ACAD
1000
AcDbSavedByObjectVersion
1070
     0
  0
VISUALSTYLE
  5
38
102
{ACAD_REACTORS
330
2A
102
}
330
2A
100
AcDbVisualStyle
  2
Linepattern
 70
    14
 71
     2
 72
     2
 73
     0
 90
        0
 40
-0.6
 41
-30.0
 62
     5
 63
     7
 74
     1
 91
        4
 64
     7
 65
   257
 75
     7
175
     7
 42
1.0
 92
        8
 66
     7
 43
1.0
 76
     1
 77
     6
 78
     2
 67
     7
 79
     5
170
     0
171
     0
290
     0
174
     0
 93
        1
 44
0.0
173
     0
291
     1
 45
0.0
1001
ACAD
1000
AcDbSavedByObjectVersion
1070
     0
  0
VISUALSTYLE
  5
33
102
{ACAD_REACTORS
330
2A
102
}
330
2A
100
AcDbVisualStyle
  2
Realistic
 70
     8
 71
     2
 72
     2
 73
     0
 90
        0
 40
-0.6
 41
-30.0
 62
     5
 63
     7
 74
     1
 91
        0
 64
     7
 65
   257
 75
     1
175
     1
 42
1.0
 92
        8
 66
     8
 43
1.0
 76
     1
 77
     6
 78
     2
 67
     7
 79
     5
170
     0
171
     0
290
     0
174
     0
 93
       13
 44
0.0
173
     0
291
     0
 45
0.0
1001
ACAD
1000
AcDbSavedByObjectVersion
1070
     0
  0
VISUALSTYLE
  5
37
102
{ACAD_REACTORS
330
2A
102
}
330
2A
100
AcDbVisualStyle
  2
Thicken
 70
    13
 71
     2
 72
     2
 73
     0
 90
        0
 40
-0.6
 41
-30.0
 62
     5
 63
     7
 74
     1
 91
        4
 64
     7
 65
   257
 75
     1
175
     1
 42
1.0
 92
       12
 66
     7
 43
1.0
 76
     1
 77
     6
 78
     2
 67
     7
 79
     5
170
     0
171
     0
290
     0
174
     0
 93
        1
 44
0.0
173
     0
291
     1
 45
0.0
1001
ACAD
1000
AcDbSavedByObjectVersion
1070
     0
  0
DICTIONARYVAR
  5
51E
102
{ACAD_REACTORS
330
51C
102
}
330
51C
100
DictionaryVariables
280
     0
  1
80.000000
  0
DICTIONARYVAR
  5
51D
102
{ACAD_REACTORS
330
51C
102
}
330
51C
100
DictionaryVariables
280
     0
  1
5.000000
  0
ENDSEC
  0
EOF
