  0
SECTION
  2
HEADER
  9
$ACADVER
  1
AC1009
  9
$INSBASE
 10
0.0
 20
0.0
 30
0.0
  9
$EXTMIN
 10
61.44653425254694
 20
12.79344247886149
 30
-0.0000000349181948
  9
$EXTMAX
 10
371.91558930081737
 20
282.86966009888522
 30
0.0000000814935747
  9
$LIMMIN
 10
0.0
 20
0.0
  9
$LIMMAX
 10
420.0
 20
297.0
  9
$ORTHOMODE
 70
     0
  9
$REGENMODE
 70
     1
  9
$FILLMODE
 70
     1
  9
$QTEXTMODE
 70
     0
  9
$MIRRTEXT
 70
     1
  9
$DRAGMODE
 70
     2
  9
$LTSCALE
 40
1.0
  9
$OSMODE
 70
   695
  9
$ATTMODE
 70
     1
  9
$TEXTSIZE
 40
3.2000000000000002
  9
$TRACEWID
 40
1.0
  9
$TEXTSTYLE
  7
STANDARD
  9
$CLAYER
  8
RKC_TEMPLATE
  9
$CELTYPE
  6
BYLAYER
  9
$CECOLOR
 62
   256
  9
$DIMSCALE
 40
0.0
  9
$DIMASZ
 40
2.5
  9
$DIMEXO
 40
0.625
  9
$DIMDLI
 40
3.75
  9
$DIMRND
 40
0.0
  9
$DIMDLE
 40
0.0
  9
$DIMEXE
 40
1.25
  9
$DIMTP
 40
0.0
  9
$DIMTM
 40
0.0
  9
$DIMTXT
 40
3.2000000000000002
  9
$DIMCEN
 40
2.5
  9
$DIMTSZ
 40
0.0
  9
$DIMTOL
 70
     0
  9
$DIMLIM
 70
     0
  9
$DIMTIH
 70
     0
  9
$DIMTOH
 70
     1
  9
$DIMSE1
 70
     0
  9
$DIMSE2
 70
     0
  9
$DIMTAD
 70
     3
  9
$DIMZIN
 70
     8
  9
$DIMBLK
  1
OPEN30
  9
$DIMASO
 70
     1
  9
$DIMSHO
 70
     1
  9
$DIMPOST
  1

  9
$DIMAPOST
  1

  9
$DIMALT
 70
     0
  9
$DIMALTD
 70
     3
  9
$DIMALTF
 40
0.03937007874016
  9
$DIMLFAC
 40
1.0
  9
$DIMTOFL
 70
     1
  9
$DIMTVP
 40
0.0
  9
$DIMTIX
 70
     0
  9
$DIMSOXD
 70
     0
  9
$DIMSAH
 70
     0
  9
$DIMBLK1
  1

  9
$DIMBLK2
  1

  9
$DIMSTYLE
  2
ISO-25
  9
$DIMCLRD
 70
     2
  9
$DIMCLRE
 70
     2
  9
$DIMCLRT
 70
     3
  9
$DIMTFAC
 40
1.0
  9
$DIMGAP
 40
0.625
  9
$LUNITS
 70
     2
  9
$LUPREC
 70
     4
  9
$SKETCHINC
 40
1.0
  9
$FILLETRAD
 40
1.0
  9
$AUNITS
 70
     0
  9
$AUPREC
 70
     0
  9
$MENU
  1
.
  9
$ELEVATION
 40
0.0
  9
$PELEVATION
 40
0.0
  9
$THICKNESS
 40
0.0
  9
$LIMCHECK
 70
     0
  9
$BLIPMODE
 70
     0
  9
$CHAMFERA
 40
0.3
  9
$CHAMFERB
 40
0.3
  9
$SKPOLY
 70
     0
  9
$TDCREATE
 40
2453557.794093125
  9
$TDUPDATE
 40
2453760.7769309948
  9
$TDINDWG
 40
0.1002756829
  9
$TDUSRTIMER
 40
0.1002724306
  9
$USRTIMER
 70
     1
  9
$ANGBASE
 50
0.0
  9
$ANGDIR
 70
     0
  9
$PDMODE
 70
     0
  9
$PDSIZE
 40
0.0
  9
$PLINEWID
 40
0.0
  9
$COORDS
 70
     1
  9
$SPLFRAME
 70
     0
  9
$SPLINETYPE
 70
     6
  9
$SPLINESEGS
 70
     8
  9
$ATTDIA
 70
     0
  9
$ATTREQ
 70
     1
  9
$HANDLING
 70
     1
  9
$HANDSEED
  5
34A7
  9
$SURFTAB1
 70
     6
  9
$SURFTAB2
 70
     6
  9
$SURFTYPE
 70
     6
  9
$SURFU
 70
     6
  9
$SURFV
 70
     6
  9
$UCSNAME
  2

  9
$UCSORG
 10
0.0
 20
0.0
 30
0.0
  9
$UCSXDIR
 10
1.0
 20
0.0
 30
0.0
  9
$UCSYDIR
 10
0.0
 20
1.0
 30
0.0
  9
$PUCSNAME
  2

  9
$PUCSORG
 10
0.0
 20
0.0
 30
0.0
  9
$PUCSXDIR
 10
1.0
 20
0.0
 30
0.0
  9
$PUCSYDIR
 10
0.0
 20
1.0
 30
0.0
  9
$USERI1
 70
     0
  9
$USERI2
 70
     0
  9
$USERI3
 70
     0
  9
$USERI4
 70
     0
  9
$USERI5
 70
     0
  9
$USERR1
 40
0.0
  9
$USERR2
 40
0.0
  9
$USERR3
 40
0.0
  9
$USERR4
 40
0.0
  9
$USERR5
 40
0.0
  9
$WORLDVIEW
 70
     1
  9
$SHADEDGE
 70
     3
  9
$SHADEDIF
 70
    70
  9
$TILEMODE
 70
     1
  9
$MAXACTVP
 70
    64
  9
$PLIMCHECK
 70
     0
  9
$PEXTMIN
 10
0.0
 20
0.0
 30
0.0
  9
$PEXTMAX
 10
0.0
 20
0.0
 30
0.0
  9
$PLIMMIN
 10
0.0
 20
0.0
  9
$PLIMMAX
 10
0.0
 20
0.0
  9
$UNITMODE
 70
     0
  9
$VISRETAIN
 70
     1
  9
$PLINEGEN
 70
     0
  9
$PSLTSCALE
 70
     1
  0
ENDSEC
  0
SECTION
  2
TABLES
  0
TABLE
  2
VPORT
 70
     2
  0
VPORT
  2
*ACTIVE
 70
     0
 10
0.0
 20
0.0
 11
1.0
 21
1.0
 12
210.0
 22
148.5
 13
0.0
 23
0.0
 14
8.0
 24
8.0
 15
8.0
 25
8.0
 16
0.0
 26
0.0
 36
1.0
 17
0.0
 27
0.0
 37
0.0
 40
315.84721405583849
 41
1.3347176079734211
 42
50.0
 43
0.0
 44
0.0
 50
0.0
 51
0.0
 71
     0
 72
   100
 73
     1
 74
     3
 75
     0
 76
     0
 77
     0
 78
     0
  0
ENDTAB
  0
TABLE
  2
LTYPE
 70
     4
  0
LTYPE
  2
CONTINUOUS
 70
     0
  3
Solid line
 72
    65
 73
     0
 40
0.0
  0
LTYPE
  2
DASHED2
 70
     0
  3
Dashed (.5x) _ _ _ _ _ _ _ _ _ _ _ _ _ _ _ _ _
 72
    65
 73
     2
 40
9.5249999999999968
 49
6.349999999999997
 49
-3.174999999999998
  0
LTYPE
  2
CENTER
 70
     0
  3
Center ____ _ ____ _ ____ _ ____ _ ____ _ ____
 72
    65
 73
     4
 40
50.799999999999997
 49
31.75
 49
-6.349999999999997
 49
6.349999999999997
 49
-6.349999999999997
  0
LTYPE
  2
DASHED
 70
     0
  3
Dashed __ __ __ __ __ __ __ __ __ __ __ __ __ _
 72
    65
 73
     2
 40
19.049999999999969
 49
12.699999999999999
 49
-6.349999999999997
  0
ENDTAB
  0
TABLE
  2
LAYER
 70
     9
  0
LAYER
  2
0
 70
     0
 62
     7
  6
CONTINUOUS
  0
LAYER
  2
RKC_OUTWORD
 70
     0
 62
     4
  6
CONTINUOUS
  0
LAYER
  2
RKC_DIM
 70
     0
 62
     2
  6
CONTINUOUS
  0
LAYER
  2
RKC_NOTE
 70
     0
 62
     3
  6
CONTINUOUS
  0
LAYER
  2
RKC_CENTER
 70
     0
 62
     2
  6
CENTER
  0
LAYER
  2
RKC_DASHED
 70
     0
 62
     2
  6
DASHED
  0
LAYER
  2
DEFPOINTS
 70
     0
 62
     7
  6
CONTINUOUS
  0
LAYER
  2
RKC_PANELCUT
 70
     0
 62
     4
  6
CONTINUOUS
  0
LAYER
  2
RKC_TEMPLATE
 70
     0
 62
     3
  6
CONTINUOUS
  0
ENDTAB
  0
TABLE
  2
STYLE
 70
     2
  0
STYLE
  2
STANDARD
 70
     0
 40
0.0
 41
1.0
 50
0.0
 71
     0
 42
3.2000000000000002
  3
txt
  4

  0
STYLE
  2

 70
     1
 40
0.0
 41
1.0
 50
0.0
 71
     0
 42
2.5
  3
ltypeshp.shx
  4

  0
ENDTAB
  0
TABLE
  2
VIEW
 70
     0
  0
ENDTAB
  0
TABLE
  2
UCS
 70
     0
  0
ENDTAB
  0
TABLE
  2
APPID
 70
     3
  0
APPID
  2
ACAD
 70
     0
  0
APPID
  2
ACAD_DSTYLE_DIMTEXT_FILL
 70
     0
  0
APPID
  2
ACAECLAYERSTANDARD
 70
     0
  0
ENDTAB
  0
TABLE
  2
DIMSTYLE
 70
     1
  0
DIMSTYLE
  2
ISO-25
 70
     0
  3

  4

  5

  6

  7

 40
0.0
 41
2.5
 42
0.625
 43
3.75
 44
1.25
 45
0.0
 46
0.0
 47
0.0
 48
0.0
140
3.2000000000000002
141
2.5
142
0.0
143
0.03937007874016
144
1.0
145
0.0
146
1.0
147
0.625
 71
     0
 72
     0
 73
     0
 74
     1
 75
     0
 76
     0
 77
     3
 78
     8
170
     0
171
     3
172
     1
173
     0
174
     0
175
     0
176
     2
177
     2
178
     3
  0
ENDTAB
  0
ENDSEC
  0
SECTION
  2
BLOCKS
  0
BLOCK
  8
0
  2
$MODEL_SPACE
 70
     0
 10
0.0
 20
0.0
 30
0.0
  3
$MODEL_SPACE
  1

  0
ENDBLK
  5
25AB
  8
0
  0
BLOCK
 67
     1
  8
0
  2
$PAPER_SPACE
 70
     0
 10
0.0
 20
0.0
 30
0.0
  3
$PAPER_SPACE
  1

  0
ENDBLK
  5
25A7
 67
     1
  8
0
  0
BLOCK
  8
0
  2
_OPEN30
 70
     0
 10
0.0
 20
0.0
 30
0.0
  3
_OPEN30
  1

  0
LINE
  5
64
  8
0
  6
BYBLOCK
 62
     0
 10
-1.0
 20
0.26794919
 30
0.0
 11
0.0
 21
0.0
 31
0.0
  0
LINE
  5
65
  8
0
  6
BYBLOCK
 62
     0
 10
0.0
 20
0.0
 30
0.0
 11
-1.0
 21
-0.26794919
 31
0.0
  0
LINE
  5
66
  8
0
  6
BYBLOCK
 62
     0
 10
0.0
 20
0.0
 30
0.0
 11
-1.0
 21
0.0
 31
0.0
  0
ENDBLK
  5
68
  8
0
  0
BLOCK
  8
0
  2
*D3
 70
     1
 10
0.0
 20
0.0
 30
0.0
  3
*D3
  1

  0
LINE
  5
1D49
  8
RKC_DIM
 62
     2
 10
110.8992334233493
 20
233.1703215761045
 30
0.0
 11
110.8992334233493
 21
241.7953215761047
 31
0.0
  0
LINE
  5
1D4A
  8
RKC_DIM
 62
     2
 10
220.8992334233493
 20
209.6703215761045
 30
0.0
 11
220.8992334233493
 21
241.7953215761047
 31
0.0
  0
LINE
  5
1D4B
  8
RKC_DIM
 62
     2
 10
113.3992334233492
 20
240.5453215761045
 30
0.0
 11
218.3992334233493
 21
240.5453215761045
 31
0.0
  0
INSERT
  5
1D4C
  8
RKC_DIM
 62
     2
  2
_OPEN30
 10
110.8992334233493
 20
240.5453215761045
 30
0.0
 41
2.5
 42
2.5
 43
2.5
 50
180.0
  0
INSERT
  5
1D4D
  8
RKC_DIM
 62
     2
  2
_OPEN30
 10
220.8992334233493
 20
240.5453215761045
 30
0.0
 41
2.5
 42
2.5
 43
2.5
  0
INSERT
  5
1D4E
  8
RKC_DIM
  2
*U4
 10
0.0
 20
0.0
 30
0.0
  0
POINT
  5
1D4F
  8
DEFPOINTS
 62
     0
 10
110.8992334233493
 20
232.5453215761047
 30
0.0
  0
POINT
  5
1D50
  8
DEFPOINTS
 62
     0
 10
220.8992334233493
 20
209.04532157610461
 30
0.0
  0
POINT
  5
1D51
  8
DEFPOINTS
 62
     0
 10
220.8992334233493
 20
240.5453215761045
 30
0.0
  0
ENDBLK
  5
1D52
  8
0
  0
BLOCK
  8
0
  2
*U4
 70
     1
 10
0.0
 20
0.0
 30
0.0
  3
*U4
  1

  0
TEXT
  5
1D55
  8
RKC_DIM
 62
     3
 10
162.96590009001591
 20
241.1703215761045
 30
0.0
 40
3.2000000000000002
  1
110
  0
ENDBLK
  5
1D56
  8
0
  0
BLOCK
  8
0
  2
*D5
 70
     1
 10
0.0
 20
0.0
 30
0.0
  3
*D5
  1

  0
LINE
  5
1D59
  8
RKC_DIM
 62
     2
 10
221.52423342334899
 20
209.04532157610461
 30
0.0
 11
230.08107993566301
 21
209.04532157610461
 31
0.0
  0
LINE
  5
1D5A
  8
RKC_DIM
 62
     2
 10
221.5242334233493
 20
131.04532157610461
 30
0.0
 11
230.08107993566301
 21
131.04532157610461
 31
0.0
  0
LINE
  5
1D5B
  8
RKC_DIM
 62
     2
 10
228.83107993566321
 20
206.5453215761045
 30
0.0
 11
228.83107993566321
 21
133.54532157610461
 31
0.0
  0
INSERT
  5
1D5C
  8
RKC_DIM
 62
     2
  2
_OPEN30
 10
228.83107993566321
 20
209.04532157610461
 30
0.0
 41
2.5
 42
2.5
 43
2.5
 50
90.0
  0
INSERT
  5
1D5D
  8
RKC_DIM
 62
     2
  2
_OPEN30
 10
228.83107993566321
 20
131.04532157610461
 30
0.0
 41
2.5
 42
2.5
 43
2.5
 50
270.0
  0
INSERT
  5
1D5E
  8
RKC_DIM
  2
*U6
 10
0.0
 20
0.0
 30
0.0
  0
POINT
  5
1D5F
  8
DEFPOINTS
 62
     0
 10
220.89923342334899
 20
209.04532157610461
 30
0.0
  0
POINT
  5
1D60
  8
DEFPOINTS
 62
     0
 10
220.8992334233493
 20
131.04532157610461
 30
0.0
  0
POINT
  5
1D61
  8
DEFPOINTS
 62
     0
 10
228.83107993566321
 20
131.04532157610461
 30
0.0
  0
ENDBLK
  5
1D62
  8
0
  0
BLOCK
  8
0
  2
*U6
 70
     1
 10
0.0
 20
0.0
 30
0.0
  3
*U6
  1

  0
TEXT
  5
1D65
  8
RKC_DIM
 62
     3
 10
228.2060799356631
 20
167.3786549094379
 30
0.0
 40
3.2000000000000002
  1
78
 50
90.0
  0
ENDBLK
  5
1D66
  8
0
  0
BLOCK
  8
0
  2
*D7
 70
     1
 10
0.0
 20
0.0
 30
0.0
  3
*D7
  1

  0
LINE
  5
1D69
  8
RKC_DIM
 62
     2
 10
110.2742334233492
 20
232.5453215761047
 30
0.0
 11
101.7315597624012
 21
232.5453215761047
 31
0.0
  0
LINE
  5
1D6A
  8
RKC_DIM
 62
     2
 10
110.2742334233492
 20
107.5453215761045
 30
0.0
 11
101.7315597624012
 21
107.5453215761045
 31
0.0
  0
LINE
  5
1D6B
  8
RKC_DIM
 62
     2
 10
102.9815597624011
 20
230.0453215761045
 30
0.0
 11
102.98155976240101
 21
110.0453215761045
 31
0.0
  0
INSERT
  5
1D6C
  8
RKC_DIM
 62
     2
  2
_OPEN30
 10
102.9815597624011
 20
232.5453215761047
 30
0.0
 41
2.5
 42
2.5
 43
2.5
 50
90.0
  0
INSERT
  5
1D6D
  8
RKC_DIM
 62
     2
  2
_OPEN30
 10
102.98155976240101
 20
107.5453215761045
 30
0.0
 41
2.5
 42
2.5
 43
2.5
 50
270.0
  0
INSERT
  5
1D6E
  8
RKC_DIM
  2
*U8
 10
0.0
 20
0.0
 30
0.0
  0
POINT
  5
1D6F
  8
DEFPOINTS
 62
     0
 10
110.8992334233493
 20
232.5453215761047
 30
0.0
  0
POINT
  5
1D70
  8
DEFPOINTS
 62
     0
 10
110.8992334233493
 20
107.5453215761045
 30
0.0
  0
POINT
  5
1D71
  8
DEFPOINTS
 62
     0
 10
102.98155976240101
 20
107.5453215761045
 30
0.0
  0
ENDBLK
  5
1D72
  8
0
  0
BLOCK
  8
0
  2
*U8
 70
     1
 10
0.0
 20
0.0
 30
0.0
  3
*U8
  1

  0
TEXT
  5
1D75
  8
RKC_DIM
 62
     3
 10
102.35655976240101
 20
166.31198824277129
 30
0.0
 40
3.2000000000000002
  1
125
 50
90.0
  0
ENDBLK
  5
1D76
  8
0
  0
BLOCK
  8
0
  2
*D9
 70
     1
 10
0.0
 20
0.0
 30
0.0
  3
*D9
  1

  0
LINE
  5
1D79
  8
RKC_DIM
 62
     2
 10
281.39923342334902
 20
232.97032157610451
 30
0.0
 11
281.39923342334902
 21
241.7953215761043
 31
0.0
  0
LINE
  5
1D7A
  8
RKC_DIM
 62
     2
 10
311.39923342334919
 20
232.97032157610431
 30
0.0
 11
311.39923342334919
 21
241.7953215761043
 31
0.0
  0
LINE
  5
1D7B
  8
RKC_DIM
 62
     2
 10
283.89923342334907
 20
240.5453215761043
 30
0.0
 11
308.89923342334919
 21
240.5453215761043
 31
0.0
  0
INSERT
  5
1D7C
  8
RKC_DIM
 62
     2
  2
_OPEN30
 10
281.39923342334902
 20
240.5453215761043
 30
0.0
 41
2.5
 42
2.5
 43
2.5
 50
180.0
  0
INSERT
  5
1D7D
  8
RKC_DIM
 62
     2
  2
_OPEN30
 10
311.39923342334919
 20
240.5453215761043
 30
0.0
 41
2.5
 42
2.5
 43
2.5
  0
INSERT
  5
1D7E
  8
RKC_DIM
  2
*U10
 10
0.0
 20
0.0
 30
0.0
  0
POINT
  5
1D7F
  8
DEFPOINTS
 62
     0
 10
281.39923342334902
 20
232.34532157610451
 30
0.0
  0
POINT
  5
1D80
  8
DEFPOINTS
 62
     0
 10
311.39923342334919
 20
232.34532157610431
 30
0.0
  0
POINT
  5
1D81
  8
DEFPOINTS
 62
     0
 10
311.39923342334919
 20
240.5453215761043
 30
0.0
  0
ENDBLK
  5
1D82
  8
0
  0
BLOCK
  8
0
  2
*U10
 70
     1
 10
0.0
 20
0.0
 30
0.0
  3
*U10
  1

  0
TEXT
  5
1D85
  8
RKC_DIM
 62
     3
 10
293.99923342334921
 20
241.1703215761043
 30
0.0
 40
3.2000000000000002
  1
30
  0
ENDBLK
  5
1D86
  8
0
  0
BLOCK
  8
0
  2
*D11
 70
     1
 10
0.0
 20
0.0
 30
0.0
  3
*D11
  1

  0
LINE
  5
250F
  8
RKC_DIM
 62
     2
 10
128.02863583260631
 20
200.48024540554761
 30
0.0
 11
128.02863583260631
 21
209.10524540554749
 31
0.0
  0
LINE
  5
2510
  8
RKC_DIM
 62
     2
 10
238.0286358326064
 20
176.98024540554761
 30
0.0
 11
238.0286358326064
 21
209.10524540554749
 31
0.0
  0
LINE
  5
2511
  8
RKC_DIM
 62
     2
 10
130.5286358326062
 20
207.85524540554761
 30
0.0
 11
235.5286358326064
 21
207.85524540554761
 31
0.0
  0
INSERT
  5
2512
  8
RKC_DIM
 62
     2
  2
_OPEN30
 10
128.02863583260631
 20
207.85524540554761
 30
0.0
 41
2.5
 42
2.5
 43
2.5
 50
180.0
  0
INSERT
  5
2513
  8
RKC_DIM
 62
     2
  2
_OPEN30
 10
238.0286358326064
 20
207.85524540554761
 30
0.0
 41
2.5
 42
2.5
 43
2.5
  0
INSERT
  5
2514
  8
RKC_OUTWORD
  2
*U12
 10
0.0
 20
0.0
 30
0.0
  0
POINT
  5
2515
  8
DEFPOINTS
 62
     0
 10
128.02863583260631
 20
199.85524540554761
 30
0.0
  0
POINT
  5
2516
  8
DEFPOINTS
 62
     0
 10
238.0286358326064
 20
176.35524540554761
 30
0.0
  0
POINT
  5
2517
  8
DEFPOINTS
 62
     0
 10
238.0286358326064
 20
207.85524540554761
 30
0.0
  0
ENDBLK
  5
24EA
  8
0
  0
BLOCK
  8
0
  2
*U12
 70
     1
 10
0.0
 20
0.0
 30
0.0
  3
*U12
  1

  0
TEXT
  5
2571
  8
RKC_DIM
 62
     3
 10
180.095302499273
 20
208.48024540554761
 30
0.0
 40
3.2000000000000002
  1
110
  0
ENDBLK
  5
2573
  8
0
  0
BLOCK
  8
0
  2
*D13
 70
     1
 10
0.0
 20
0.0
 30
0.0
  3
*D13
  1

  0
LINE
  5
2518
  8
RKC_DIM
 62
     2
 10
238.653635832606
 20
176.35524540554761
 30
0.0
 11
247.21048234492019
 21
176.35524540554761
 31
0.0
  0
LINE
  5
2519
  8
RKC_DIM
 62
     2
 10
238.6536358326064
 20
98.355245405547663
 30
0.0
 11
247.21048234492019
 21
98.355245405547663
 31
0.0
  0
LINE
  5
251A
  8
RKC_DIM
 62
     2
 10
245.96048234492031
 20
173.85524540554761
 30
0.0
 11
245.96048234492031
 21
100.85524540554761
 31
0.0
  0
INSERT
  5
251B
  8
RKC_DIM
 62
     2
  2
_OPEN30
 10
245.96048234492031
 20
176.35524540554761
 30
0.0
 41
2.5
 42
2.5
 43
2.5
 50
90.0
  0
INSERT
  5
251C
  8
RKC_DIM
 62
     2
  2
_OPEN30
 10
245.96048234492031
 20
98.355245405547663
 30
0.0
 41
2.5
 42
2.5
 43
2.5
 50
270.0
  0
INSERT
  5
251D
  8
RKC_OUTWORD
  2
*U14
 10
0.0
 20
0.0
 30
0.0
  0
POINT
  5
251E
  8
DEFPOINTS
 62
     0
 10
238.028635832606
 20
176.35524540554761
 30
0.0
  0
POINT
  5
251F
  8
DEFPOINTS
 62
     0
 10
238.0286358326064
 20
98.355245405547663
 30
0.0
  0
POINT
  5
2520
  8
DEFPOINTS
 62
     0
 10
245.96048234492031
 20
98.355245405547663
 30
0.0
  0
ENDBLK
  5
24F6
  8
0
  0
BLOCK
  8
0
  2
*U14
 70
     1
 10
0.0
 20
0.0
 30
0.0
  3
*U14
  1

  0
TEXT
  5
2575
  8
RKC_DIM
 62
     3
 10
245.33548234492019
 20
134.68857873888101
 30
0.0
 40
3.2000000000000002
  1
78
 50
90.0
  0
ENDBLK
  5
2577
  8
0
  0
BLOCK
  8
0
  2
*D15
 70
     1
 10
0.0
 20
0.0
 30
0.0
  3
*D15
  1

  0
LINE
  5
2521
  8
RKC_DIM
 62
     2
 10
127.4036358326063
 20
199.85524540554761
 30
0.0
 11
118.8609621716581
 21
199.85524540554761
 31
0.0
  0
LINE
  5
2522
  8
RKC_DIM
 62
     2
 10
127.4036358326063
 20
74.855245405547549
 30
0.0
 11
118.860962171658
 21
74.855245405547549
 31
0.0
  0
LINE
  5
2523
  8
RKC_DIM
 62
     2
 10
120.1109621716581
 20
197.35524540554769
 30
0.0
 11
120.1109621716581
 21
77.355245405547549
 31
0.0
  0
INSERT
  5
2524
  8
RKC_DIM
 62
     2
  2
_OPEN30
 10
120.1109621716581
 20
199.85524540554761
 30
0.0
 41
2.5
 42
2.5
 43
2.5
 50
90.0
  0
INSERT
  5
2525
  8
RKC_DIM
 62
     2
  2
_OPEN30
 10
120.1109621716581
 20
74.855245405547549
 30
0.0
 41
2.5
 42
2.5
 43
2.5
 50
270.0
  0
INSERT
  5
2526
  8
RKC_OUTWORD
  2
*U16
 10
0.0
 20
0.0
 30
0.0
  0
POINT
  5
2527
  8
DEFPOINTS
 62
     0
 10
128.02863583260631
 20
199.85524540554761
 30
0.0
  0
POINT
  5
2528
  8
DEFPOINTS
 62
     0
 10
128.02863583260631
 20
74.855245405547549
 30
0.0
  0
POINT
  5
2529
  8
DEFPOINTS
 62
     0
 10
120.1109621716581
 20
74.855245405547549
 30
0.0
  0
ENDBLK
  5
2502
  8
0
  0
BLOCK
  8
0
  2
*U16
 70
     1
 10
0.0
 20
0.0
 30
0.0
  3
*U16
  1

  0
TEXT
  5
2579
  8
RKC_DIM
 62
     3
 10
119.485962171658
 20
133.62191207221429
 30
0.0
 40
3.2000000000000002
  1
125
 50
90.0
  0
ENDBLK
  5
257B
  8
0
  0
BLOCK
  8
0
  2
*D17
 70
     1
 10
0.0
 20
0.0
 30
0.0
  3
*D17
  1

  0
LINE
  5
252A
  8
RKC_DIM
 62
     2
 10
298.52863583260603
 20
200.2802454055475
 30
0.0
 11
298.52863583260603
 21
209.10524540554741
 31
0.0
  0
LINE
  5
252B
  8
RKC_DIM
 62
     2
 10
328.52863583260631
 20
200.28024540554739
 30
0.0
 11
328.52863583260631
 21
209.10524540554741
 31
0.0
  0
LINE
  5
252C
  8
RKC_DIM
 62
     2
 10
301.02863583260603
 20
207.85524540554741
 30
0.0
 11
326.02863583260631
 21
207.85524540554741
 31
0.0
  0
INSERT
  5
252D
  8
RKC_DIM
 62
     2
  2
_OPEN30
 10
298.52863583260603
 20
207.85524540554741
 30
0.0
 41
2.5
 42
2.5
 43
2.5
 50
180.0
  0
INSERT
  5
252E
  8
RKC_DIM
 62
     2
  2
_OPEN30
 10
328.52863583260631
 20
207.85524540554741
 30
0.0
 41
2.5
 42
2.5
 43
2.5
  0
INSERT
  5
252F
  8
RKC_OUTWORD
  2
*U18
 10
0.0
 20
0.0
 30
0.0
  0
POINT
  5
2530
  8
DEFPOINTS
 62
     0
 10
298.52863583260603
 20
199.6552454055475
 30
0.0
  0
POINT
  5
2531
  8
DEFPOINTS
 62
     0
 10
328.52863583260631
 20
199.6552454055473
 30
0.0
  0
POINT
  5
2532
  8
DEFPOINTS
 62
     0
 10
328.52863583260631
 20
207.85524540554741
 30
0.0
  0
ENDBLK
  5
250E
  8
0
  0
BLOCK
  8
0
  2
*U18
 70
     1
 10
0.0
 20
0.0
 30
0.0
  3
*U18
  1

  0
TEXT
  5
257D
  8
RKC_DIM
 62
     3
 10
311.12863583260622
 20
208.48024540554741
 30
0.0
 40
3.2000000000000002
  1
30
  0
ENDBLK
  5
257F
  8
0
  0
BLOCK
  8
0
  2
*D19
 70
     1
 10
0.0
 20
0.0
 30
0.0
  3
*D19
  1

  0
LINE
  5
2535
  8
RKC_OUTWORD
 62
     2
 10
127.4036358326063
 20
74.855245405547549
 30
0.0
 11
118.85095280867159
 21
74.855245405547549
 31
0.0
  0
LINE
  5
2536
  8
RKC_OUTWORD
 62
     2
 10
127.4036358326063
 20
69.855245405547578
 30
0.0
 11
118.85095280867159
 21
69.855245405547578
 31
0.0
  0
LINE
  5
2537
  8
RKC_OUTWORD
 62
     2
 10
120.10095280867159
 20
77.355245405547549
 30
0.0
 11
120.10095280867159
 21
79.855245405547549
 31
0.0
  0
LINE
  5
2538
  8
RKC_OUTWORD
 62
     2
 10
120.10095280867159
 20
67.355245405547578
 30
0.0
 11
120.10095280867159
 21
64.855245405547578
 31
0.0
  0
LINE
  5
2539
  8
RKC_OUTWORD
 62
     2
 10
120.10095280867159
 20
74.855245405547549
 30
0.0
 11
120.10095280867159
 21
69.855245405547578
 31
0.0
  0
INSERT
  5
253A
  8
RKC_OUTWORD
 62
     2
  2
_OPEN30
 10
120.10095280867159
 20
74.855245405547549
 30
0.0
 41
2.5
 42
2.5
 43
2.5
 50
270.0
  0
INSERT
  5
253B
  8
RKC_OUTWORD
 62
     2
  2
_OPEN30
 10
120.10095280867159
 20
69.855245405547578
 30
0.0
 41
2.5
 42
2.5
 43
2.5
 50
90.0
  0
INSERT
  5
253C
  8
RKC_OUTWORD
  2
*U20
 10
0.0
 20
0.0
 30
0.0
  0
POINT
  5
253D
  8
DEFPOINTS
 62
     0
 10
128.02863583260631
 20
74.855245405547549
 30
0.0
  0
POINT
  5
253E
  8
DEFPOINTS
 62
     0
 10
128.02863583260631
 20
69.855245405547578
 30
0.0
  0
POINT
  5
253F
  8
DEFPOINTS
 62
     0
 10
120.10095280867159
 20
69.855245405547578
 30
0.0
  0
ENDBLK
  5
2541
  8
0
  0
BLOCK
  8
0
  2
*U20
 70
     1
 10
0.0
 20
0.0
 30
0.0
  3
*U20
  1

  0
TEXT
  5
2581
  8
RKC_OUTWORD
 62
     3
 10
119.47595280867159
 20
71.288578738880915
 30
0.0
 40
3.2000000000000002
  1
5
 50
90.0
  0
ENDBLK
  5
2583
  8
0
  0
BLOCK
  8
0
  2
*D21
 70
     1
 10
0.0
 20
0.0
 30
0.0
  3
*D21
  1

  0
LINE
  5
255A
  8
RKC_OUTWORD
 62
     2
 10
291.72863583260602
 20
118.2202454055476
 30
0.0
 11
291.72863583260602
 21
209.10490521176291
 31
0.0
  0
LINE
  5
255B
  8
RKC_OUTWORD
 62
     2
 10
298.52863583260603
 20
200.2802454055475
 30
0.0
 11
298.52863583260603
 21
209.10490521176291
 31
0.0
  0
LINE
  5
255C
  8
RKC_OUTWORD
 62
     2
 10
296.02863583260603
 20
207.85490521176291
 30
0.0
 11
294.22863583260602
 21
207.85490521176291
 31
0.0
  0
LINE
  5
255D
  8
RKC_OUTWORD
 62
     2
 10
291.72863583260602
 20
207.85490521176291
 30
0.0
 11
281.57863583260598
 21
207.85490521176291
 31
0.0
  0
INSERT
  5
255E
  8
RKC_OUTWORD
 62
     2
  2
_OPEN30
 10
298.52863583260603
 20
207.85490521176291
 30
0.0
 41
2.5
 42
2.5
 43
2.5
  0
INSERT
  5
255F
  8
RKC_OUTWORD
 62
     2
  2
_OPEN30
 10
291.72863583260602
 20
207.85490521176291
 30
0.0
 41
2.5
 42
2.5
 43
2.5
 50
180.0
  0
INSERT
  5
2560
  8
RKC_OUTWORD
  2
*U22
 10
0.0
 20
0.0
 30
0.0
  0
POINT
  5
2561
  8
DEFPOINTS
 62
     0
 10
291.72863583260602
 20
117.5952454055476
 30
0.0
  0
POINT
  5
2562
  8
DEFPOINTS
 62
     0
 10
298.52863583260603
 20
199.6552454055475
 30
0.0
  0
POINT
  5
2563
  8
DEFPOINTS
 62
     0
 10
298.52863583260603
 20
207.85490521176291
 30
0.0
  0
ENDBLK
  5
254F
  8
0
  0
BLOCK
  8
0
  2
*U22
 70
     1
 10
0.0
 20
0.0
 30
0.0
  3
*U22
  1

  0
TEXT
  5
2585
  8
RKC_OUTWORD
 62
     3
 10
282.20363583260598
 20
208.47990521176291
 30
0.0
 40
3.2000000000000002
  1
6.8
  0
ENDBLK
  5
2587
  8
0
  0
BLOCK
  8
0
  2
*D23
 70
     1
 10
0.0
 20
0.0
 30
0.0
  3
*D23
  1

  0
LINE
  5
25F5
  8
RKC_DIM
 62
     2
 10
165.65206386177641
 20
97.154724612858814
 30
0.0
 11
174.9770638617762
 21
97.154724612858814
 31
0.0
  0
LINE
  5
25F6
  8
RKC_DIM
 62
     2
 10
165.65206386177601
 20
175.15472461285879
 30
0.0
 11
174.9770638617762
 21
175.15472461285879
 31
0.0
  0
LINE
  5
25F7
  8
RKC_DIM
 62
     2
 10
173.7270638617762
 20
99.654724612858814
 30
0.0
 11
173.7270638617762
 21
172.65472461285879
 31
0.0
  0
INSERT
  5
25F8
  8
RKC_DIM
 62
     2
  2
_OPEN30
 10
173.7270638617762
 20
97.154724612858814
 30
0.0
 41
2.5
 42
2.5
 43
2.5
 50
270.0
  0
INSERT
  5
25F9
  8
RKC_DIM
 62
     2
  2
_OPEN30
 10
173.7270638617762
 20
175.15472461285879
 30
0.0
 41
2.5
 42
2.5
 43
2.5
 50
90.0
  0
INSERT
  5
25FA
  8
RKC_TEMPLATE
  2
*U53
 10
0.0
 20
0.0
 30
0.0
  0
POINT
  5
25FB
  8
DEFPOINTS
 62
     0
 10
165.02706386177641
 20
97.154724612858814
 30
0.0
  0
POINT
  5
25FC
  8
DEFPOINTS
 62
     0
 10
165.0270638617761
 20
175.15472461285879
 30
0.0
  0
POINT
  5
25FD
  8
DEFPOINTS
 62
     0
 10
173.7270638617762
 20
175.15472461285879
 30
0.0
  0
ENDBLK
  5
25FE
  8
0
  0
BLOCK
  8
0
  2
*D24
 70
     1
 10
0.0
 20
0.0
 30
0.0
  3
*D24
  1

  0
LINE
  5
2601
  8
RKC_DIM
 62
     2
 10
165.72706386177609
 20
175.07972461285871
 30
0.0
 11
165.72706386177609
 21
207.90472461285879
 31
0.0
  0
LINE
  5
2602
  8
RKC_DIM
 62
     2
 10
55.7270638617765
 20
199.27972461285879
 30
0.0
 11
55.7270638617765
 21
207.90472461285879
 31
0.0
  0
LINE
  5
2603
  8
RKC_DIM
 62
     2
 10
163.22706386177609
 20
206.65472461285879
 30
0.0
 11
58.2270638617765
 21
206.65472461285879
 31
0.0
  0
INSERT
  5
2604
  8
RKC_DIM
 62
     2
  2
_OPEN30
 10
165.72706386177609
 20
206.65472461285879
 30
0.0
 41
2.5
 42
2.5
 43
2.5
  0
INSERT
  5
2605
  8
RKC_DIM
 62
     2
  2
_OPEN30
 10
55.7270638617765
 20
206.65472461285879
 30
0.0
 41
2.5
 42
2.5
 43
2.5
 50
180.0
  0
INSERT
  5
2606
  8
RKC_TEMPLATE
  2
*U54
 10
0.0
 20
0.0
 30
0.0
  0
POINT
  5
2607
  8
DEFPOINTS
 62
     0
 10
165.72706386177609
 20
174.45472461285871
 30
0.0
  0
POINT
  5
2608
  8
DEFPOINTS
 62
     0
 10
55.7270638617765
 20
198.65472461285879
 30
0.0
  0
POINT
  5
2609
  8
DEFPOINTS
 62
     0
 10
55.7270638617765
 20
206.65472461285879
 30
0.0
  0
ENDBLK
  5
260A
  8
0
  0
BLOCK
  8
0
  2
*D25
 70
     1
 10
0.0
 20
0.0
 30
0.0
  3
*D25
  1

  0
LINE
  5
260D
  8
RKC_DIM
 62
     2
 10
55.1020638617765
 20
73.6547246128588
 30
0.0
 11
46.477063861776507
 21
73.6547246128588
 31
0.0
  0
LINE
  5
260E
  8
RKC_DIM
 62
     2
 10
55.1020638617765
 20
68.6547246128588
 30
0.0
 11
46.477063861776507
 21
68.6547246128588
 31
0.0
  0
LINE
  5
260F
  8
RKC_DIM
 62
     2
 10
47.727063861776507
 20
76.1547246128588
 30
0.0
 11
47.727063861776507
 21
78.6547246128588
 31
0.0
  0
LINE
  5
2610
  8
RKC_DIM
 62
     2
 10
47.727063861776507
 20
66.1547246128588
 30
0.0
 11
47.727063861776507
 21
63.654724612858807
 31
0.0
  0
LINE
  5
2611
  8
RKC_DIM
 62
     2
 10
47.727063861776507
 20
73.6547246128588
 30
0.0
 11
47.727063861776507
 21
68.6547246128588
 31
0.0
  0
INSERT
  5
2612
  8
RKC_DIM
 62
     2
  2
_OPEN30
 10
47.727063861776507
 20
73.6547246128588
 30
0.0
 41
2.5
 42
2.5
 43
2.5
 50
270.0
  0
INSERT
  5
2613
  8
RKC_DIM
 62
     2
  2
_OPEN30
 10
47.727063861776507
 20
68.6547246128588
 30
0.0
 41
2.5
 42
2.5
 43
2.5
 50
90.0
  0
INSERT
  5
2614
  8
RKC_TEMPLATE
  2
*U55
 10
0.0
 20
0.0
 30
0.0
  0
POINT
  5
2615
  8
DEFPOINTS
 62
     0
 10
55.7270638617765
 20
73.6547246128588
 30
0.0
  0
POINT
  5
2616
  8
DEFPOINTS
 62
     0
 10
55.7270638617765
 20
68.6547246128588
 30
0.0
  0
POINT
  5
2617
  8
DEFPOINTS
 62
     0
 10
47.727063861776507
 20
68.6547246128588
 30
0.0
  0
ENDBLK
  5
2618
  8
0
  0
BLOCK
  8
0
  2
*D26
 70
     1
 10
0.0
 20
0.0
 30
0.0
  3
*D26
  1

  0
LINE
  5
261B
  8
RKC_DIM
 62
     2
 10
55.1020638617765
 20
73.6547246128588
 30
0.0
 11
46.477063861776493
 21
73.6547246128588
 31
0.0
  0
LINE
  5
261C
  8
RKC_DIM
 62
     2
 10
55.1020638617765
 20
198.65472461285879
 30
0.0
 11
46.477063861776507
 21
198.65472461285879
 31
0.0
  0
LINE
  5
261D
  8
RKC_DIM
 62
     2
 10
47.727063861776493
 20
76.1547246128588
 30
0.0
 11
47.727063861776507
 21
196.15472461285879
 31
0.0
  0
INSERT
  5
261E
  8
RKC_DIM
 62
     2
  2
_OPEN30
 10
47.727063861776493
 20
73.6547246128588
 30
0.0
 41
2.5
 42
2.5
 43
2.5
 50
270.0
  0
INSERT
  5
261F
  8
RKC_DIM
 62
     2
  2
_OPEN30
 10
47.727063861776507
 20
198.65472461285879
 30
0.0
 41
2.5
 42
2.5
 43
2.5
 50
90.0
  0
INSERT
  5
2620
  8
RKC_TEMPLATE
  2
*U56
 10
0.0
 20
0.0
 30
0.0
  0
POINT
  5
2621
  8
DEFPOINTS
 62
     0
 10
55.7270638617765
 20
73.6547246128588
 30
0.0
  0
POINT
  5
2622
  8
DEFPOINTS
 62
     0
 10
55.7270638617765
 20
198.65472461285879
 30
0.0
  0
POINT
  5
2623
  8
DEFPOINTS
 62
     0
 10
47.727063861776507
 20
198.65472461285879
 30
0.0
  0
ENDBLK
  5
2624
  8
0
  0
BLOCK
  8
0
  2
*D27
 70
     1
 10
0.0
 20
0.0
 30
0.0
  3
*D27
  1

  0
LINE
  5
340E
  8
RKC_DIM
 62
     2
 10
183.22799176113179
 20
98.355245405547436
 30
0.0
 11
206.7829917611318
 21
98.355245405547436
 31
0.0
  0
LINE
  5
340F
  8
RKC_DIM
 62
     2
 10
183.22799176113139
 20
176.35524540554741
 30
0.0
 11
206.7829917611318
 21
176.35524540554741
 31
0.0
  0
LINE
  5
3410
  8
RKC_DIM
 62
     2
 10
205.5329917611318
 20
100.85524540554739
 30
0.0
 11
205.5329917611318
 21
173.85524540554729
 31
0.0
  0
SOLID
  5
3411
  8
RKC_DIM
 62
     2
 10
205.1163250944652
 20
100.85524540554739
 30
0.0
 11
205.94965842779851
 21
100.85524540554739
 31
0.0
 12
205.5329917611318
 22
98.355245405547436
 32
0.0
 13
205.5329917611318
 23
98.355245405547436
 33
0.0
  0
SOLID
  5
3412
  8
RKC_DIM
 62
     2
 10
205.1163250944652
 20
173.85524540554729
 30
0.0
 11
205.94965842779851
 21
173.85524540554729
 31
0.0
 12
205.5329917611318
 22
176.35524540554741
 32
0.0
 13
205.5329917611318
 23
176.35524540554741
 33
0.0
  0
INSERT
  5
3413
  8
RKC_TEMPLATE
  2
*U67
 10
0.0
 20
0.0
 30
0.0
  0
POINT
  5
3414
  8
DEFPOINTS
 62
     0
 10
182.60299176113179
 20
98.355245405547436
 30
0.0
  0
POINT
  5
3415
  8
DEFPOINTS
 62
     0
 10
182.60299176113139
 20
176.35524540554741
 30
0.0
  0
POINT
  5
3416
  8
DEFPOINTS
 62
     0
 10
205.5329917611318
 20
176.35524540554741
 30
0.0
  0
ENDBLK
  5
282C
  8
0
  0
BLOCK
  8
0
  2
*D28
 70
     1
 10
0.0
 20
0.0
 30
0.0
  3
*D28
  1

  0
LINE
  5
33E7
  8
RKC_DIM
 62
     2
 10
183.30299176113141
 20
176.2802454055473
 30
0.0
 11
183.30299176113141
 21
209.10524540554741
 31
0.0
  0
LINE
  5
33E8
  8
RKC_DIM
 62
     2
 10
73.302991761131921
 20
200.48024540554741
 30
0.0
 11
73.302991761131921
 21
209.10524540554741
 31
0.0
  0
LINE
  5
33E9
  8
RKC_DIM
 62
     2
 10
180.80299176113141
 20
207.85524540554741
 30
0.0
 11
75.802991761131921
 21
207.85524540554741
 31
0.0
  0
SOLID
  5
33EA
  8
RKC_DIM
 62
     2
 10
180.80299176113141
 20
208.27191207221409
 30
0.0
 11
180.80299176113141
 21
207.43857873888069
 31
0.0
 12
183.30299176113141
 22
207.85524540554741
 32
0.0
 13
183.30299176113141
 23
207.85524540554741
 33
0.0
  0
SOLID
  5
33EB
  8
RKC_DIM
 62
     2
 10
75.802991761131921
 20
208.27191207221409
 30
0.0
 11
75.802991761131921
 21
207.43857873888069
 31
0.0
 12
73.302991761131921
 22
207.85524540554741
 32
0.0
 13
73.302991761131921
 23
207.85524540554741
 33
0.0
  0
INSERT
  5
33EC
  8
RKC_TEMPLATE
  2
*U64
 10
0.0
 20
0.0
 30
0.0
  0
POINT
  5
33ED
  8
DEFPOINTS
 62
     0
 10
183.30299176113141
 20
175.6552454055473
 30
0.0
  0
POINT
  5
33EE
  8
DEFPOINTS
 62
     0
 10
73.302991761131921
 20
199.85524540554741
 30
0.0
  0
POINT
  5
33EF
  8
DEFPOINTS
 62
     0
 10
73.302991761131921
 20
207.85524540554741
 30
0.0
  0
ENDBLK
  5
2838
  8
0
  0
BLOCK
  8
0
  2
*D29
 70
     1
 10
0.0
 20
0.0
 30
0.0
  3
*D29
  1

  0
LINE
  5
33F9
  8
RKC_DIM
 62
     2
 10
72.677991761131921
 20
74.855245405547421
 30
0.0
 11
64.052991761131921
 21
74.855245405547421
 31
0.0
  0
LINE
  5
33FA
  8
RKC_DIM
 62
     2
 10
72.677991761131921
 20
69.855245405547421
 30
0.0
 11
64.052991761131921
 21
69.855245405547421
 31
0.0
  0
LINE
  5
33FB
  8
RKC_DIM
 62
     2
 10
65.302991761131921
 20
77.355245405547421
 30
0.0
 11
65.302991761131921
 21
79.855245405547421
 31
0.0
  0
LINE
  5
33FC
  8
RKC_DIM
 62
     2
 10
65.302991761131921
 20
67.355245405547421
 30
0.0
 11
65.302991761131921
 21
64.855245405547421
 31
0.0
  0
LINE
  5
33FD
  8
RKC_DIM
 62
     2
 10
65.302991761131921
 20
74.855245405547421
 30
0.0
 11
65.302991761131921
 21
69.855245405547421
 31
0.0
  0
SOLID
  5
33FE
  8
RKC_DIM
 62
     2
 10
64.886325094465235
 20
77.355245405547421
 30
0.0
 11
65.719658427798592
 21
77.355245405547421
 31
0.0
 12
65.302991761131921
 22
74.855245405547421
 32
0.0
 13
65.302991761131921
 23
74.855245405547421
 33
0.0
  0
SOLID
  5
33FF
  8
RKC_DIM
 62
     2
 10
64.886325094465235
 20
67.355245405547421
 30
0.0
 11
65.719658427798592
 21
67.355245405547421
 31
0.0
 12
65.302991761131921
 22
69.855245405547421
 32
0.0
 13
65.302991761131921
 23
69.855245405547421
 33
0.0
  0
INSERT
  5
3400
  8
RKC_TEMPLATE
  2
*U66
 10
0.0
 20
0.0
 30
0.0
  0
POINT
  5
3401
  8
DEFPOINTS
 62
     0
 10
73.302991761131921
 20
74.855245405547421
 30
0.0
  0
POINT
  5
3402
  8
DEFPOINTS
 62
     0
 10
73.302991761131921
 20
69.855245405547421
 30
0.0
  0
POINT
  5
3403
  8
DEFPOINTS
 62
     0
 10
65.302991761131921
 20
69.855245405547421
 30
0.0
  0
ENDBLK
  5
2846
  8
0
  0
BLOCK
  8
0
  2
*D30
 70
     1
 10
0.0
 20
0.0
 30
0.0
  3
*D30
  1

  0
LINE
  5
33F0
  8
RKC_DIM
 62
     2
 10
72.677991761131921
 20
74.855245405547421
 30
0.0
 11
64.052991761131892
 21
74.855245405547421
 31
0.0
  0
LINE
  5
33F1
  8
RKC_DIM
 62
     2
 10
72.677991761131921
 20
199.85524540554741
 30
0.0
 11
64.052991761131921
 21
199.85524540554741
 31
0.0
  0
LINE
  5
33F2
  8
RKC_DIM
 62
     2
 10
65.302991761131892
 20
77.355245405547421
 30
0.0
 11
65.302991761131921
 21
197.35524540554741
 31
0.0
  0
SOLID
  5
33F3
  8
RKC_DIM
 62
     2
 10
64.886325094465221
 20
77.355245405547421
 30
0.0
 11
65.719658427798564
 21
77.355245405547421
 31
0.0
 12
65.302991761131892
 22
74.855245405547421
 32
0.0
 13
65.302991761131892
 23
74.855245405547421
 33
0.0
  0
SOLID
  5
33F4
  8
RKC_DIM
 62
     2
 10
64.886325094465235
 20
197.35524540554741
 30
0.0
 11
65.719658427798592
 21
197.35524540554741
 31
0.0
 12
65.302991761131921
 22
199.85524540554741
 32
0.0
 13
65.302991761131921
 23
199.85524540554741
 33
0.0
  0
INSERT
  5
33F5
  8
RKC_TEMPLATE
  2
*U65
 10
0.0
 20
0.0
 30
0.0
  0
POINT
  5
33F6
  8
DEFPOINTS
 62
     0
 10
73.302991761131921
 20
74.855245405547421
 30
0.0
  0
POINT
  5
33F7
  8
DEFPOINTS
 62
     0
 10
73.302991761131921
 20
199.85524540554741
 30
0.0
  0
POINT
  5
33F8
  8
DEFPOINTS
 62
     0
 10
65.302991761131921
 20
199.85524540554741
 30
0.0
  0
ENDBLK
  5
2852
  8
0
  0
BLOCK
  8
0
  2
*D31
 70
     1
 10
0.0
 20
0.0
 30
0.0
  3
*D31
  1

  0
LINE
  5
28C7
  8
RKC_OUTWORD
 62
     2
 10
291.72863583260607
 20
118.1002454055474
 30
0.0
 11
291.72863583260607
 21
209.10490521176291
 31
0.0
  0
LINE
  5
28C8
  8
RKC_OUTWORD
 62
     2
 10
298.52863583260603
 20
200.2802454055475
 30
0.0
 11
298.52863583260603
 21
209.10490521176291
 31
0.0
  0
LINE
  5
28C9
  8
RKC_OUTWORD
 62
     2
 10
294.22863583260607
 20
207.85490521176291
 30
0.0
 11
296.02863583260603
 21
207.85490521176291
 31
0.0
  0
INSERT
  5
28CA
  8
RKC_TEMPLATE
  2
*U57
 10
0.0
 20
0.0
 30
0.0
  0
SOLID
  5
28CB
  8
RKC_OUTWORD
 62
     2
 10
294.22863583260607
 20
208.27157187842951
 30
0.0
 11
294.22863583260607
 21
207.4382385450962
 31
0.0
 12
291.72863583260607
 22
207.85490521176291
 32
0.0
 13
291.72863583260607
 23
207.85490521176291
 33
0.0
  0
SOLID
  5
28CC
  8
RKC_OUTWORD
 62
     2
 10
296.02863583260603
 20
208.27157187842951
 30
0.0
 11
296.02863583260603
 21
207.4382385450962
 31
0.0
 12
298.52863583260603
 22
207.85490521176291
 32
0.0
 13
298.52863583260603
 23
207.85490521176291
 33
0.0
  0
POINT
  5
28CD
  8
DEFPOINTS
 62
     0
 10
291.72863583260607
 20
117.4752454055474
 30
0.0
  0
POINT
  5
28CE
  8
DEFPOINTS
 62
     0
 10
298.52863583260603
 20
199.6552454055475
 30
0.0
  0
POINT
  5
28CF
  8
DEFPOINTS
 62
     0
 10
298.52863583260603
 20
207.85490521176291
 30
0.0
  0
ENDBLK
  5
28D1
  8
0
  0
BLOCK
  8
0
  2
*D32
 70
     1
 10
0.0
 20
0.0
 30
0.0
  3
*D32
  1

  0
LINE
  5
3466
  8
RKC_DIM
 62
     2
 10
243.80299176113169
 20
200.2802454055475
 30
0.0
 11
243.80299176113169
 21
209.10524540554741
 31
0.0
  0
LINE
  5
3467
  8
RKC_DIM
 62
     2
 10
237.00299176113171
 20
118.1002454055474
 30
0.0
 11
237.00299176113171
 21
209.10524540554741
 31
0.0
  0
LINE
  5
3468
  8
RKC_DIM
 62
     2
 10
241.30299176113169
 20
207.85524540554741
 30
0.0
 11
239.50299176113171
 21
207.85524540554741
 31
0.0
  0
LINE
  5
3469
  8
RKC_DIM
 62
     2
 10
237.00299176113171
 20
207.85524540554741
 30
0.0
 11
226.8529917611317
 21
207.85524540554741
 31
0.0
  0
INSERT
  5
346A
  8
RKC_DIM
 62
     2
  2
_OPEN30
 10
243.80299176113169
 20
207.85524540554741
 30
0.0
 41
2.5
 42
2.5
 43
2.5
  0
INSERT
  5
346B
  8
RKC_DIM
 62
     2
  2
_OPEN30
 10
237.00299176113171
 20
207.85524540554741
 30
0.0
 41
2.5
 42
2.5
 43
2.5
 50
180.0
  0
TEXT
  8
RKC_DIM
  40
3.2
  5
34A5
  62
3
  72
0
  71
0
 10
224.278
 20
204.416
 30
0.000000
  1
6.8
  0
POINT
  5
346D
  8
DEFPOINTS
 62
     0
 10
243.80299176113169
 20
199.6552454055475
 30
0.0
  0
POINT
  5
346E
  8
DEFPOINTS
 62
     0
 10
237.00299176113171
 20
117.4752454055474
 30
0.0
  0
POINT
  5
346F
  8
DEFPOINTS
 62
     0
 10
237.00299176113171
 20
207.85524540554741
 30
0.0
  0
ENDBLK
  5
28DF
  8
0
  0
BLOCK
  8
0
  2
*D33
 70
     1
 10
0.0
 20
0.0
 30
0.0
  3
*D33
  1

  0
LINE
  5
3417
  8
RKC_DIM
 62
     2
 10
243.80299176113169
 20
200.2802454055475
 30
0.0
 11
243.80299176113169
 21
209.10524540554741
 31
0.0
  0
LINE
  5
3418
  8
RKC_DIM
 62
     2
 10
273.80299176113198
 20
200.2802454055473
 30
0.0
 11
273.80299176113198
 21
209.10524540554741
 31
0.0
  0
LINE
  5
3419
  8
RKC_DIM
 62
     2
 10
246.30299176113169
 20
207.85524540554741
 30
0.0
 11
271.30299176113198
 21
207.85524540554741
 31
0.0
  0
SOLID
  5
341A
  8
RKC_DIM
 62
     2
 10
246.30299176113169
 20
208.27191207221409
 30
0.0
 11
246.30299176113169
 21
207.43857873888069
 31
0.0
 12
243.80299176113169
 22
207.85524540554741
 32
0.0
 13
243.80299176113169
 23
207.85524540554741
 33
0.0
  0
SOLID
  5
341B
  8
RKC_DIM
 62
     2
 10
271.30299176113198
 20
208.27191207221409
 30
0.0
 11
271.30299176113198
 21
207.43857873888069
 31
0.0
 12
273.80299176113198
 22
207.85524540554741
 32
0.0
 13
273.80299176113198
 23
207.85524540554741
 33
0.0
  0
INSERT
  5
341C
  8
RKC_TEMPLATE
  2
*U68
 10
0.0
 20
0.0
 30
0.0
  0
POINT
  5
341D
  8
DEFPOINTS
 62
     0
 10
243.80299176113169
 20
199.6552454055475
 30
0.0
  0
POINT
  5
341E
  8
DEFPOINTS
 62
     0
 10
273.80299176113198
 20
199.6552454055473
 30
0.0
  0
POINT
  5
341F
  8
DEFPOINTS
 62
     0
 10
273.80299176113198
 20
207.85524540554741
 30
0.0
  0
ENDBLK
  5
2924
  8
0
  0
BLOCK
  8
0
  2
*D34
 70
     1
 10
0.0
 20
0.0
 30
0.0
  3
*D34
  1

  0
LINE
  5
29FF
  8
RKC_DIM
 62
     2
 10
137.9778703568511
 20
190.18976272752411
 30
0.0
 11
137.9778703568511
 21
198.81476272752391
 31
0.0
  0
LINE
  5
2A00
  8
RKC_DIM
 62
     2
 10
247.9778703568511
 20
166.689762727524
 30
0.0
 11
247.9778703568511
 21
198.81476272752391
 31
0.0
  0
LINE
  5
2A01
  8
RKC_DIM
 62
     2
 10
140.4778703568511
 20
197.56476272752391
 30
0.0
 11
245.4778703568511
 21
197.56476272752391
 31
0.0
  0
INSERT
  5
2A02
  8
RKC_DIM
 62
     2
  2
_OPEN30
 10
137.9778703568511
 20
197.56476272752391
 30
0.0
 41
2.5
 42
2.5
 43
2.5
 50
180.0
  0
INSERT
  5
2A03
  8
RKC_DIM
 62
     2
  2
_OPEN30
 10
247.9778703568511
 20
197.56476272752391
 30
0.0
 41
2.5
 42
2.5
 43
2.5
  0
INSERT
  5
2A04
  8
RKC_OUTWORD
  2
*U35
 10
0.0
 20
0.0
 30
0.0
  0
POINT
  5
2A05
  8
DEFPOINTS
 62
     0
 10
137.9778703568511
 20
189.56476272752411
 30
0.0
  0
POINT
  5
2A06
  8
DEFPOINTS
 62
     0
 10
247.9778703568511
 20
166.064762727524
 30
0.0
  0
POINT
  5
2A07
  8
DEFPOINTS
 62
     0
 10
247.9778703568511
 20
197.56476272752391
 30
0.0
  0
ENDBLK
  5
2A08
  8
0
  0
BLOCK
  8
0
  2
*U35
 70
     1
 10
0.0
 20
0.0
 30
0.0
  3
*U35
  1

  0
TEXT
  5
2A0B
  8
RKC_DIM
 62
     3
 10
190.04453702351771
 20
198.18976272752391
 30
0.0
 40
3.2000000000000002
  1
110
  0
ENDBLK
  5
2A0C
  8
0
  0
BLOCK
  8
0
  2
*D36
 70
     1
 10
0.0
 20
0.0
 30
0.0
  3
*D36
  1

  0
LINE
  5
2A0F
  8
RKC_DIM
 62
     2
 10
248.60287035685079
 20
166.064762727524
 30
0.0
 11
271.92307415229948
 21
166.064762727524
 31
0.0
  0
LINE
  5
2A10
  8
RKC_DIM
 62
     2
 10
248.6028703568511
 20
88.064762727524013
 30
0.0
 11
271.92307415229948
 21
88.064762727524013
 31
0.0
  0
LINE
  5
2A11
  8
RKC_DIM
 62
     2
 10
270.67307415229948
 20
163.564762727524
 30
0.0
 11
270.67307415229948
 21
90.564762727523998
 31
0.0
  0
INSERT
  5
2A12
  8
RKC_DIM
 62
     2
  2
_OPEN30
 10
270.67307415229948
 20
166.064762727524
 30
0.0
 41
2.5
 42
2.5
 43
2.5
 50
90.0
  0
INSERT
  5
2A13
  8
RKC_DIM
 62
     2
  2
_OPEN30
 10
270.67307415229948
 20
88.064762727524013
 30
0.0
 41
2.5
 42
2.5
 43
2.5
 50
270.0
  0
INSERT
  5
2A14
  8
RKC_OUTWORD
  2
*U37
 10
0.0
 20
0.0
 30
0.0
  0
POINT
  5
2A15
  8
DEFPOINTS
 62
     0
 10
247.9778703568507
 20
166.064762727524
 30
0.0
  0
POINT
  5
2A16
  8
DEFPOINTS
 62
     0
 10
247.9778703568511
 20
88.064762727524013
 30
0.0
  0
POINT
  5
2A17
  8
DEFPOINTS
 62
     0
 10
270.67307415229948
 20
88.064762727524013
 30
0.0
  0
ENDBLK
  5
2A18
  8
0
  0
BLOCK
  8
0
  2
*U37
 70
     1
 10
0.0
 20
0.0
 30
0.0
  3
*U37
  1

  0
TEXT
  5
2A1B
  8
RKC_DIM
 62
     3
 10
270.04807415229948
 20
124.3980960608574
 30
0.0
 40
3.2000000000000002
  1
78
 50
90.0
  0
ENDBLK
  5
2A1C
  8
0
  0
BLOCK
  8
0
  2
*D38
 70
     1
 10
0.0
 20
0.0
 30
0.0
  3
*D38
  1

  0
LINE
  5
2A1F
  8
RKC_DIM
 62
     2
 10
137.3528703568511
 20
189.56476272752411
 30
0.0
 11
128.81019669590279
 21
189.56476272752411
 31
0.0
  0
LINE
  5
2A20
  8
RKC_DIM
 62
     2
 10
137.3528703568511
 20
64.564762727523927
 30
0.0
 11
128.81019669590279
 21
64.564762727523927
 31
0.0
  0
LINE
  5
2A21
  8
RKC_DIM
 62
     2
 10
130.06019669590279
 20
187.06476272752411
 30
0.0
 11
130.06019669590279
 21
67.064762727523927
 31
0.0
  0
INSERT
  5
2A22
  8
RKC_DIM
 62
     2
  2
_OPEN30
 10
130.06019669590279
 20
189.56476272752411
 30
0.0
 41
2.5
 42
2.5
 43
2.5
 50
90.0
  0
INSERT
  5
2A23
  8
RKC_DIM
 62
     2
  2
_OPEN30
 10
130.06019669590279
 20
64.564762727523927
 30
0.0
 41
2.5
 42
2.5
 43
2.5
 50
270.0
  0
INSERT
  5
2A24
  8
RKC_OUTWORD
  2
*U39
 10
0.0
 20
0.0
 30
0.0
  0
POINT
  5
2A25
  8
DEFPOINTS
 62
     0
 10
137.9778703568511
 20
189.56476272752411
 30
0.0
  0
POINT
  5
2A26
  8
DEFPOINTS
 62
     0
 10
137.9778703568511
 20
64.564762727523927
 30
0.0
  0
POINT
  5
2A27
  8
DEFPOINTS
 62
     0
 10
130.06019669590279
 20
64.564762727523927
 30
0.0
  0
ENDBLK
  5
2A28
  8
0
  0
BLOCK
  8
0
  2
*U39
 70
     1
 10
0.0
 20
0.0
 30
0.0
  3
*U39
  1

  0
TEXT
  5
2A2B
  8
RKC_DIM
 62
     3
 10
129.43519669590279
 20
123.33142939419071
 30
0.0
 40
3.2000000000000002
  1
125
 50
90.0
  0
ENDBLK
  5
2A2C
  8
0
  0
BLOCK
  8
0
  2
*D40
 70
     1
 10
0.0
 20
0.0
 30
0.0
  3
*D40
  1

  0
LINE
  5
2A2F
  8
RKC_DIM
 62
     2
 10
308.47787035685081
 20
189.9897627275239
 30
0.0
 11
308.47787035685081
 21
198.81476272752371
 31
0.0
  0
LINE
  5
2A30
  8
RKC_DIM
 62
     2
 10
338.47787035685087
 20
189.9897627275237
 30
0.0
 11
338.47787035685087
 21
198.81476272752371
 31
0.0
  0
LINE
  5
2A31
  8
RKC_DIM
 62
     2
 10
310.97787035685081
 20
197.56476272752349
 30
0.0
 11
335.97787035685087
 21
197.56476272752349
 31
0.0
  0
INSERT
  5
2A32
  8
RKC_DIM
 62
     2
  2
_OPEN30
 10
308.47787035685081
 20
197.56476272752349
 30
0.0
 41
2.5
 42
2.5
 43
2.5
 50
180.0
  0
INSERT
  5
2A33
  8
RKC_DIM
 62
     2
  2
_OPEN30
 10
338.47787035685087
 20
197.56476272752349
 30
0.0
 41
2.5
 42
2.5
 43
2.5
  0
INSERT
  5
2A34
  8
RKC_OUTWORD
  2
*U41
 10
0.0
 20
0.0
 30
0.0
  0
POINT
  5
2A35
  8
DEFPOINTS
 62
     0
 10
308.47787035685081
 20
189.3647627275239
 30
0.0
  0
POINT
  5
2A36
  8
DEFPOINTS
 62
     0
 10
338.47787035685087
 20
189.3647627275237
 30
0.0
  0
POINT
  5
2A37
  8
DEFPOINTS
 62
     0
 10
338.47787035685087
 20
197.56476272752349
 30
0.0
  0
ENDBLK
  5
2A38
  8
0
  0
BLOCK
  8
0
  2
*U41
 70
     1
 10
0.0
 20
0.0
 30
0.0
  3
*U41
  1

  0
TEXT
  5
2A3B
  8
RKC_DIM
 62
     3
 10
321.07787035685089
 20
198.18976272752371
 30
0.0
 40
3.2000000000000002
  1
30
  0
ENDBLK
  5
2A3C
  8
0
  0
BLOCK
  8
0
  2
*D42
 70
     1
 10
0.0
 20
0.0
 30
0.0
  3
*D42
  1

  0
LINE
  5
2A3F
  8
RKC_OUTWORD
 62
     2
 10
137.3528703568511
 20
64.564762727523927
 30
0.0
 11
128.81019669590279
 21
64.564762727523927
 31
0.0
  0
LINE
  5
2A40
  8
RKC_OUTWORD
 62
     2
 10
137.3528703568511
 20
59.564762727523927
 30
0.0
 11
128.8101966959027
 21
59.564762727523927
 31
0.0
  0
LINE
  5
2A41
  8
RKC_OUTWORD
 62
     2
 10
130.06019669590279
 20
67.064762727523927
 30
0.0
 11
130.06019669590279
 21
69.564762727523927
 31
0.0
  0
LINE
  5
2A42
  8
RKC_OUTWORD
 62
     2
 10
130.0601966959027
 20
57.064762727523927
 30
0.0
 11
130.0601966959027
 21
54.564762727523927
 31
0.0
  0
LINE
  5
2A43
  8
RKC_OUTWORD
 62
     2
 10
130.06019669590279
 20
64.564762727523927
 30
0.0
 11
130.0601966959027
 21
59.564762727523927
 31
0.0
  0
INSERT
  5
2A44
  8
RKC_OUTWORD
 62
     2
  2
_OPEN30
 10
130.06019669590279
 20
64.564762727523927
 30
0.0
 41
2.5
 42
2.5
 43
2.5
 50
270.0
  0
INSERT
  5
2A45
  8
RKC_OUTWORD
 62
     2
  2
_OPEN30
 10
130.0601966959027
 20
59.564762727523927
 30
0.0
 41
2.5
 42
2.5
 43
2.5
 50
90.0
  0
INSERT
  5
2A46
  8
RKC_OUTWORD
  2
*U43
 10
0.0
 20
0.0
 30
0.0
  0
POINT
  5
2A47
  8
DEFPOINTS
 62
     0
 10
137.9778703568511
 20
64.564762727523927
 30
0.0
  0
POINT
  5
2A48
  8
DEFPOINTS
 62
     0
 10
137.9778703568511
 20
59.564762727523927
 30
0.0
  0
POINT
  5
2A49
  8
DEFPOINTS
 62
     0
 10
130.0601966959027
 20
59.564762727523927
 30
0.0
  0
ENDBLK
  5
2A4A
  8
0
  0
BLOCK
  8
0
  2
*U43
 70
     1
 10
0.0
 20
0.0
 30
0.0
  3
*U43
  1

  0
TEXT
  5
2A4D
  8
RKC_OUTWORD
 62
     3
 10
129.4351966959027
 20
60.998096060857272
 30
0.0
 40
3.2000000000000002
  1
5
 50
90.0
  0
ENDBLK
  5
2A4E
  8
0
  0
BLOCK
  8
0
  2
*D44
 70
     1
 10
0.0
 20
0.0
 30
0.0
  3
*D44
  1

  0
LINE
  5
2A51
  8
RKC_OUTWORD
 62
     2
 10
301.67787035685069
 20
107.92976272752389
 30
0.0
 11
301.67787035685069
 21
198.8014419761752
 31
0.0
  0
LINE
  5
2A52
  8
RKC_OUTWORD
 62
     2
 10
308.47787035685087
 20
189.9897627275239
 30
0.0
 11
308.47787035685087
 21
198.8014419761752
 31
0.0
  0
LINE
  5
2A53
  8
RKC_OUTWORD
 62
     2
 10
305.97787035685087
 20
197.5514419761752
 30
0.0
 11
304.17787035685069
 21
197.5514419761752
 31
0.0
  0
LINE
  5
2A54
  8
RKC_OUTWORD
 62
     2
 10
301.67787035685069
 20
197.5514419761752
 30
0.0
 11
291.52787035685071
 21
197.5514419761752
 31
0.0
  0
INSERT
  5
2A55
  8
RKC_OUTWORD
 62
     2
  2
_OPEN30
 10
308.47787035685087
 20
197.5514419761752
 30
0.0
 41
2.5
 42
2.5
 43
2.5
  0
INSERT
  5
2A56
  8
RKC_OUTWORD
 62
     2
  2
_OPEN30
 10
301.67787035685069
 20
197.5514419761752
 30
0.0
 41
2.5
 42
2.5
 43
2.5
 50
180.0
  0
INSERT
  5
2A57
  8
RKC_OUTWORD
  2
*U45
 10
0.0
 20
0.0
 30
0.0
  0
POINT
  5
2A58
  8
DEFPOINTS
 62
     0
 10
301.67787035685069
 20
107.30476272752379
 30
0.0
  0
POINT
  5
2A59
  8
DEFPOINTS
 62
     0
 10
308.47787035685087
 20
189.3647627275239
 30
0.0
  0
POINT
  5
2A5A
  8
DEFPOINTS
 62
     0
 10
308.47787035685087
 20
197.5514419761752
 30
0.0
  0
ENDBLK
  5
2A5B
  8
0
  0
BLOCK
  8
0
  2
*U45
 70
     1
 10
0.0
 20
0.0
 30
0.0
  3
*U45
  1

  0
TEXT
  5
2A5E
  8
RKC_OUTWORD
 62
     3
 10
292.15287035685071
 20
198.17644197617511
 30
0.0
 40
3.2000000000000002
  1
6.8
  0
ENDBLK
  5
2A5F
  8
0
  0
BLOCK
  8
0
  2
*D46
 70
     1
 10
0.0
 20
0.0
 30
0.0
  3
*D46
  1

  0
LINE
  5
331A
  8
RKC_DIM
 62
     2
 10
309.98241684756113
 20
203.9155430650726
 30
0.0
 11
309.98241684756113
 21
212.5405430650724
 31
0.0
  0
LINE
  5
331B
  8
RKC_DIM
 62
     2
 10
419.98241684756113
 20
180.41554306507251
 30
0.0
 11
419.98241684756113
 21
212.5405430650724
 31
0.0
  0
LINE
  5
331C
  8
RKC_DIM
 62
     2
 10
312.48241684756113
 20
211.2905430650724
 30
0.0
 11
417.48241684756113
 21
211.2905430650724
 31
0.0
  0
SOLID
  5
331D
  8
RKC_DIM
 62
     2
 10
312.48241684756113
 20
211.707209731739
 30
0.0
 11
312.48241684756113
 21
210.8738763984058
 31
0.0
 12
309.98241684756113
 22
211.2905430650724
 32
0.0
 13
309.98241684756113
 23
211.2905430650724
 33
0.0
  0
SOLID
  5
331E
  8
RKC_DIM
 62
     2
 10
417.48241684756113
 20
211.707209731739
 30
0.0
 11
417.48241684756113
 21
210.8738763984058
 31
0.0
 12
419.98241684756113
 22
211.2905430650724
 32
0.0
 13
419.98241684756113
 23
211.2905430650724
 33
0.0
  0
INSERT
  5
331F
  8
RKC_TEMPLATE
  2
*U58
 10
0.0
 20
0.0
 30
0.0
  0
POINT
  5
3320
  8
DEFPOINTS
 62
     0
 10
309.98241684756113
 20
203.2905430650726
 30
0.0
  0
POINT
  5
3321
  8
DEFPOINTS
 62
     0
 10
419.98241684756113
 20
179.79054306507251
 30
0.0
  0
POINT
  5
3322
  8
DEFPOINTS
 62
     0
 10
419.98241684756113
 20
211.2905430650724
 30
0.0
  0
ENDBLK
  5
32DB
  8
0
  0
BLOCK
  8
0
  2
*D47
 70
     1
 10
0.0
 20
0.0
 30
0.0
  3
*D47
  1

  0
LINE
  5
3323
  8
RKC_DIM
 62
     2
 10
420.60741684756061
 20
179.79054306507251
 30
0.0
 11
443.92762064300928
 21
179.79054306507251
 31
0.0
  0
LINE
  5
3324
  8
RKC_DIM
 62
     2
 10
420.60741684756113
 20
101.7905430650725
 30
0.0
 11
443.92762064300928
 21
101.7905430650725
 31
0.0
  0
LINE
  5
3325
  8
RKC_DIM
 62
     2
 10
442.6776206430095
 20
177.29054306507251
 30
0.0
 11
442.6776206430095
 21
104.2905430650725
 31
0.0
  0
SOLID
  5
3326
  8
RKC_DIM
 62
     2
 10
442.26095397634288
 20
177.29054306507251
 30
0.0
 11
443.09428730967608
 21
177.29054306507251
 31
0.0
 12
442.6776206430095
 22
179.79054306507251
 32
0.0
 13
442.6776206430095
 23
179.79054306507251
 33
0.0
  0
SOLID
  5
3327
  8
RKC_DIM
 62
     2
 10
442.26095397634288
 20
104.2905430650725
 30
0.0
 11
443.09428730967608
 21
104.2905430650725
 31
0.0
 12
442.6776206430095
 22
101.7905430650725
 32
0.0
 13
442.6776206430095
 23
101.7905430650725
 33
0.0
  0
INSERT
  5
3328
  8
RKC_TEMPLATE
  2
*U59
 10
0.0
 20
0.0
 30
0.0
  0
POINT
  5
3329
  8
DEFPOINTS
 62
     0
 10
419.98241684756061
 20
179.79054306507251
 30
0.0
  0
POINT
  5
332A
  8
DEFPOINTS
 62
     0
 10
419.98241684756113
 20
101.7905430650725
 30
0.0
  0
POINT
  5
332B
  8
DEFPOINTS
 62
     0
 10
442.6776206430095
 20
101.7905430650725
 30
0.0
  0
ENDBLK
  5
32E7
  8
0
  0
BLOCK
  8
0
  2
*D48
 70
     1
 10
0.0
 20
0.0
 30
0.0
  3
*D48
  1

  0
LINE
  5
332C
  8
RKC_DIM
 62
     2
 10
309.35741684756113
 20
203.2905430650726
 30
0.0
 11
300.81474318661287
 21
203.2905430650726
 31
0.0
  0
LINE
  5
332D
  8
RKC_DIM
 62
     2
 10
309.35741684756113
 20
78.290543065072399
 30
0.0
 11
300.81474318661287
 21
78.290543065072399
 31
0.0
  0
LINE
  5
332E
  8
RKC_DIM
 62
     2
 10
302.06474318661287
 20
200.7905430650726
 30
0.0
 11
302.06474318661287
 21
80.790543065072399
 31
0.0
  0
SOLID
  5
332F
  8
RKC_DIM
 62
     2
 10
301.64807651994619
 20
200.7905430650726
 30
0.0
 11
302.48140985327962
 21
200.7905430650726
 31
0.0
 12
302.06474318661287
 22
203.2905430650726
 32
0.0
 13
302.06474318661287
 23
203.2905430650726
 33
0.0
  0
SOLID
  5
3330
  8
RKC_DIM
 62
     2
 10
301.64807651994619
 20
80.790543065072399
 30
0.0
 11
302.48140985327962
 21
80.790543065072399
 31
0.0
 12
302.06474318661287
 22
78.290543065072399
 32
0.0
 13
302.06474318661287
 23
78.290543065072399
 33
0.0
  0
INSERT
  5
3331
  8
RKC_TEMPLATE
  2
*U60
 10
0.0
 20
0.0
 30
0.0
  0
POINT
  5
3332
  8
DEFPOINTS
 62
     0
 10
309.98241684756113
 20
203.2905430650726
 30
0.0
  0
POINT
  5
3333
  8
DEFPOINTS
 62
     0
 10
309.98241684756113
 20
78.290543065072399
 30
0.0
  0
POINT
  5
3334
  8
DEFPOINTS
 62
     0
 10
302.06474318661287
 20
78.290543065072399
 30
0.0
  0
ENDBLK
  5
32F3
  8
0
  0
BLOCK
  8
0
  2
*D49
 70
     1
 10
0.0
 20
0.0
 30
0.0
  3
*D49
  1

  0
LINE
  5
3335
  8
RKC_DIM
 62
     2
 10
480.48241684756061
 20
203.71554306507241
 30
0.0
 11
480.48241684756061
 21
212.5405430650722
 31
0.0
  0
LINE
  5
3336
  8
RKC_DIM
 62
     2
 10
510.4824168475609
 20
203.71554306507221
 30
0.0
 11
510.4824168475609
 21
212.5405430650722
 31
0.0
  0
LINE
  5
3337
  8
RKC_DIM
 62
     2
 10
482.98241684756078
 20
211.2905430650722
 30
0.0
 11
507.98241684756078
 21
211.2905430650722
 31
0.0
  0
SOLID
  5
3338
  8
RKC_DIM
 62
     2
 10
482.98241684756078
 20
211.7072097317388
 30
0.0
 11
482.98241684756078
 21
210.87387639840551
 31
0.0
 12
480.48241684756061
 22
211.2905430650722
 32
0.0
 13
480.48241684756061
 23
211.2905430650722
 33
0.0
  0
SOLID
  5
3339
  8
RKC_DIM
 62
     2
 10
507.98241684756078
 20
211.7072097317388
 30
0.0
 11
507.98241684756078
 21
210.87387639840551
 31
0.0
 12
510.4824168475609
 22
211.2905430650722
 32
0.0
 13
510.4824168475609
 23
211.2905430650722
 33
0.0
  0
INSERT
  5
333A
  8
RKC_TEMPLATE
  2
*U61
 10
0.0
 20
0.0
 30
0.0
  0
POINT
  5
333B
  8
DEFPOINTS
 62
     0
 10
480.48241684756061
 20
203.09054306507241
 30
0.0
  0
POINT
  5
333C
  8
DEFPOINTS
 62
     0
 10
510.4824168475609
 20
203.09054306507221
 30
0.0
  0
POINT
  5
333D
  8
DEFPOINTS
 62
     0
 10
510.4824168475609
 20
211.2905430650722
 30
0.0
  0
ENDBLK
  5
32FF
  8
0
  0
BLOCK
  8
0
  2
*D50
 70
     1
 10
0.0
 20
0.0
 30
0.0
  3
*D50
  1

  0
LINE
  5
333E
  8
RKC_OUTWORD
 62
     2
 10
309.35741684756113
 20
78.290543065072399
 30
0.0
 11
300.81474318661282
 21
78.290543065072399
 31
0.0
  0
LINE
  5
333F
  8
RKC_OUTWORD
 62
     2
 10
309.35741684756113
 20
73.290543065072399
 30
0.0
 11
300.81474318661282
 21
73.290543065072399
 31
0.0
  0
LINE
  5
3340
  8
RKC_OUTWORD
 62
     2
 10
302.06474318661282
 20
80.790543065072399
 30
0.0
 11
302.06474318661282
 21
83.290543065072399
 31
0.0
  0
LINE
  5
3341
  8
RKC_OUTWORD
 62
     2
 10
302.06474318661282
 20
70.790543065072399
 30
0.0
 11
302.06474318661282
 21
68.290543065072399
 31
0.0
  0
LINE
  5
3342
  8
RKC_OUTWORD
 62
     2
 10
302.06474318661282
 20
78.290543065072399
 30
0.0
 11
302.06474318661282
 21
73.290543065072399
 31
0.0
  0
SOLID
  5
3343
  8
RKC_OUTWORD
 62
     2
 10
301.64807651994607
 20
80.790543065072399
 30
0.0
 11
302.48140985327939
 21
80.790543065072399
 31
0.0
 12
302.06474318661282
 22
78.290543065072399
 32
0.0
 13
302.06474318661282
 23
78.290543065072399
 33
0.0
  0
SOLID
  5
3344
  8
RKC_OUTWORD
 62
     2
 10
301.64807651994607
 20
70.790543065072399
 30
0.0
 11
302.48140985327939
 21
70.790543065072399
 31
0.0
 12
302.06474318661282
 22
73.290543065072399
 32
0.0
 13
302.06474318661282
 23
73.290543065072399
 33
0.0
  0
INSERT
  5
3345
  8
RKC_TEMPLATE
  2
*U62
 10
0.0
 20
0.0
 30
0.0
  0
POINT
  5
3346
  8
DEFPOINTS
 62
     0
 10
309.98241684756113
 20
78.290543065072399
 30
0.0
  0
POINT
  5
3347
  8
DEFPOINTS
 62
     0
 10
309.98241684756113
 20
73.290543065072399
 30
0.0
  0
POINT
  5
3348
  8
DEFPOINTS
 62
     0
 10
302.06474318661282
 20
73.290543065072399
 30
0.0
  0
ENDBLK
  5
330D
  8
0
  0
BLOCK
  8
0
  2
*D51
 70
     1
 10
0.0
 20
0.0
 30
0.0
  3
*D51
  1

  0
LINE
  5
3349
  8
RKC_OUTWORD
 62
     2
 10
473.6824168475606
 20
121.65554306507229
 30
0.0
 11
473.6824168475606
 21
212.52722231372371
 31
0.0
  0
LINE
  5
334A
  8
RKC_OUTWORD
 62
     2
 10
480.4824168475609
 20
203.71554306507241
 30
0.0
 11
480.4824168475609
 21
212.52722231372371
 31
0.0
  0
LINE
  5
334B
  8
RKC_OUTWORD
 62
     2
 10
476.1824168475606
 20
211.27722231372371
 30
0.0
 11
477.9824168475609
 21
211.27722231372371
 31
0.0
  0
INSERT
  5
334C
  8
RKC_TEMPLATE
  2
*U63
 10
0.0
 20
0.0
 30
0.0
  0
SOLID
  5
334D
  8
RKC_OUTWORD
 62
     2
 10
476.1824168475606
 20
211.6938889803904
 30
0.0
 11
476.1824168475606
 21
210.860555647057
 31
0.0
 12
473.6824168475606
 22
211.27722231372371
 32
0.0
 13
473.6824168475606
 23
211.27722231372371
 33
0.0
  0
SOLID
  5
334E
  8
RKC_OUTWORD
 62
     2
 10
477.9824168475609
 20
211.6938889803904
 30
0.0
 11
477.9824168475609
 21
210.860555647057
 31
0.0
 12
480.4824168475609
 22
211.27722231372371
 32
0.0
 13
480.4824168475609
 23
211.27722231372371
 33
0.0
  0
POINT
  5
334F
  8
DEFPOINTS
 62
     0
 10
473.6824168475606
 20
121.03054306507229
 30
0.0
  0
POINT
  5
3350
  8
DEFPOINTS
 62
     0
 10
480.4824168475609
 20
203.09054306507241
 30
0.0
  0
POINT
  5
3351
  8
DEFPOINTS
 62
     0
 10
480.4824168475609
 20
211.27722231372371
 30
0.0
  0
ENDBLK
  5
3319
  8
0
  0
BLOCK
  8
0
  2
*D52
 70
     1
 10
0.0
 20
0.0
 30
0.0
  3
*D52
  1

  0
LINE
  5
3488
  8
RKC_DIM
 62
     2
 10
73.302991761131921
 20
200.48024540554741
 30
0.0
 11
73.302991761131921
 21
217.10524540554741
 31
0.0
  0
LINE
  5
3489
  8
RKC_DIM
 62
     2
 10
197.5329917611318
 20
134.72024540554759
 30
0.0
 11
197.5329917611318
 21
217.10524540554741
 31
0.0
  0
LINE
  5
348A
  8
RKC_DIM
 62
     2
 10
75.802991761131921
 20
215.85524540554741
 30
0.0
 11
195.0329917611318
 21
215.85524540554741
 31
0.0
  0
INSERT
  5
348B
  8
RKC_DIM
 62
     2
  2
_OPEN30
 10
73.302991761131921
 20
215.85524540554741
 30
0.0
 41
2.5
 42
2.5
 43
2.5
 50
180.0
  0
INSERT
  5
348C
  8
RKC_DIM
 62
     2
  2
_OPEN30
 10
197.5329917611318
 20
215.85524540554741
 30
0.0
 41
2.5
 42
2.5
 43
2.5
  0
TEXT
  8
RKC_DIM
  40
3.2
  5
34A6
  62
3
  72
0
  71
0
 10
129.018
 20
212.416
 30
0.000000
  1
(124.23)
  0
POINT
  5
348E
  8
DEFPOINTS
 62
     0
 10
73.302991761131921
 20
199.85524540554741
 30
0.0
  0
POINT
  5
348F
  8
DEFPOINTS
 62
     0
 10
197.5329917611318
 20
134.09524540554759
 30
0.0
  0
POINT
  5
3490
  8
DEFPOINTS
 62
     0
 10
197.5329917611318
 20
215.85524540554741
 30
0.0
  0
ENDBLK
  5
3395
  8
0
  0
BLOCK
  8
0
  2
*U53
 70
     1
 10
0.0
 20
0.0
 30
0.0
  3
*U53
  1

  0
TEXT
  5
3453
  8
RKC_DIM
 62
     3
 10
173.10206386177609
 20
133.4880579461921
 30
0.0
 40
3.2000000000000002
  1
78
 50
90.0
  0
ENDBLK
  5
3455
  8
0
  0
BLOCK
  8
0
  2
*U54
 70
     1
 10
0.0
 20
0.0
 30
0.0
  3
*U54
  1

  0
TEXT
  5
3457
  8
RKC_DIM
 62
     3
 10
107.79373052844289
 20
207.27972461285879
 30
0.0
 40
3.2000000000000002
  1
110
  0
ENDBLK
  5
3459
  8
0
  0
BLOCK
  8
0
  2
*U55
 70
     1
 10
0.0
 20
0.0
 30
0.0
  3
*U55
  1

  0
TEXT
  5
345B
  8
RKC_DIM
 62
     3
 10
47.102063861776493
 20
70.088057946192151
 30
0.0
 40
3.2000000000000002
  1
5
 50
90.0
  0
ENDBLK
  5
345D
  8
0
  0
BLOCK
  8
0
  2
*U56
 70
     1
 10
0.0
 20
0.0
 30
0.0
  3
*U56
  1

  0
TEXT
  5
345F
  8
RKC_DIM
 62
     3
 10
47.102063861776479
 20
132.42139127952541
 30
0.0
 40
3.2000000000000002
  1
125
 50
90.0
  0
ENDBLK
  5
3461
  8
0
  0
BLOCK
  8
0
  2
*U57
 70
     1
 10
0.0
 20
0.0
 30
0.0
  3
*U57
  1

  0
TEXT
  5
3463
  8
RKC_OUTWORD
 62
     3
 10
282.2036358326061
 20
206.25490521176289
 30
0.0
 40
3.2000000000000002
  1
6.8
  0
ENDBLK
  5
3465
  8
0
  0
BLOCK
  8
0
  2
*U58
 70
     1
 10
0.0
 20
0.0
 30
0.0
  3
*U58
  1

  0
TEXT
  5
3471
  8
RKC_DIM
 62
     3
 10
362.04908351422779
 20
211.9155430650724
 30
0.0
 40
3.2000000000000002
  1
110
  0
ENDBLK
  5
3473
  8
0
  0
BLOCK
  8
0
  2
*U59
 70
     1
 10
0.0
 20
0.0
 30
0.0
  3
*U59
  1

  0
TEXT
  5
3475
  8
RKC_DIM
 62
     3
 10
442.05262064300928
 20
138.1238763984058
 30
0.0
 40
3.2000000000000002
  1
78
 50
90.0
  0
ENDBLK
  5
3477
  8
0
  0
BLOCK
  8
0
  2
*U60
 70
     1
 10
0.0
 20
0.0
 30
0.0
  3
*U60
  1

  0
TEXT
  5
3479
  8
RKC_DIM
 62
     3
 10
301.43974318661282
 20
137.05720973173919
 30
0.0
 40
3.2000000000000002
  1
125
 50
90.0
  0
ENDBLK
  5
347B
  8
0
  0
BLOCK
  8
0
  2
*U61
 70
     1
 10
0.0
 20
0.0
 30
0.0
  3
*U61
  1

  0
TEXT
  5
347D
  8
RKC_DIM
 62
     3
 10
493.08241684756081
 20
211.9155430650722
 30
0.0
 40
3.2000000000000002
  1
30
  0
ENDBLK
  5
347F
  8
0
  0
BLOCK
  8
0
  2
*U62
 70
     1
 10
0.0
 20
0.0
 30
0.0
  3
*U62
  1

  0
TEXT
  5
3481
  8
RKC_OUTWORD
 62
     3
 10
301.4397431866127
 20
74.723876398405807
 30
0.0
 40
3.2000000000000002
  1
5
 50
90.0
  0
ENDBLK
  5
3483
  8
0
  0
BLOCK
  8
0
  2
*U63
 70
     1
 10
0.0
 20
0.0
 30
0.0
  3
*U63
  1

  0
TEXT
  5
3485
  8
RKC_OUTWORD
 62
     3
 10
464.15741684756068
 20
209.67722231372369
 30
0.0
 40
3.2000000000000002
  1
6.8
  0
ENDBLK
  5
3487
  8
0
  0
BLOCK
  8
0
  2
*U64
 70
     1
 10
0.0
 20
0.0
 30
0.0
  3
*U64
  1

  0
TEXT
  5
3492
  8
RKC_DIM
 62
     3
 10
125.3696584277982
 20
208.48024540554741
 30
0.0
 40
3.2000000000000002
  1
110
  0
ENDBLK
  5
3494
  8
0
  0
BLOCK
  8
0
  2
*U65
 70
     1
 10
0.0
 20
0.0
 30
0.0
  3
*U65
  1

  0
TEXT
  5
3496
  8
RKC_DIM
 62
     3
 10
64.677991761131892
 20
133.62191207221409
 30
0.0
 40
3.2000000000000002
  1
125
 50
90.0
  0
ENDBLK
  5
3498
  8
0
  0
BLOCK
  8
0
  2
*U66
 70
     1
 10
0.0
 20
0.0
 30
0.0
  3
*U66
  1

  0
TEXT
  5
349A
  8
RKC_DIM
 62
     3
 10
64.677991761131906
 20
71.288578738880773
 30
0.0
 40
3.2000000000000002
  1
5
 50
90.0
  0
ENDBLK
  5
349C
  8
0
  0
BLOCK
  8
0
  2
*U67
 70
     1
 10
0.0
 20
0.0
 30
0.0
  3
*U67
  1

  0
TEXT
  5
349E
  8
RKC_DIM
 62
     3
 10
204.9079917611318
 20
134.68857873888069
 30
0.0
 40
3.2000000000000002
  1
78
 50
90.0
  0
ENDBLK
  5
34A0
  8
0
  0
BLOCK
  8
0
  2
*U68
 70
     1
 10
0.0
 20
0.0
 30
0.0
  3
*U68
  1

  0
TEXT
  5
34A2
  8
RKC_DIM
 62
     3
 10
256.40299176113189
 20
208.48024540554741
 30
0.0
 40
3.2000000000000002
  1
30
  0
ENDBLK
  5
34A4
  8
0
  0
ENDSEC
  0
SECTION
  2
ENTITIES
  0
TEXT
  5
1CA7
  8
RKC_NOTE
 10
195.8871543628315
 20
26.936051165933989
 30
0.0
 40
8.0
  1
MODEL:SRX(X-DI-B/X-DO-B)
  0
TEXT
  5
1CA8
  8
RKC_NOTE
 10
195.8871543628315
 20
12.802717832600649
 30
0.0
 40
8.0
  1
RKC INSTRUMENT INC.
  0
LINE
  5
2136
  8
RKC_OUTWORD
 10
73.302991761131963
 20
272.9052454055473
 30
0.0
 11
73.302991761131963
 21
262.30524540554762
 31
0.0
  0
LINE
  5
2138
  8
RKC_OUTWORD
 10
98.002991761131995
 20
282.60524540554758
 30
0.0
 11
98.002991761131995
 21
252.60524540554741
 31
0.0
  0
LINE
  5
2175
  8
RKC_OUTWORD
 10
73.302991761131963
 20
282.60524540554758
 30
0.0
 11
165.9529917611319
 21
282.60524540554758
 31
0.0
  0
LINE
  5
2176
  8
RKC_OUTWORD
 10
73.302991761131963
 20
252.60524540554761
 30
0.0
 11
180.80299176113169
 21
252.60524540554761
 31
0.0
  0
LINE
  5
2178
  8
RKC_OUTWORD
 10
171.00299176113171
 20
252.60524540554761
 30
0.0
 11
171.0029917611318
 21
282.60524540554758
 31
0.0
  0
LINE
  5
2179
  8
RKC_OUTWORD
 10
169.40299176113169
 20
252.60524540554761
 30
0.0
 11
169.40299176113169
 21
282.60524540554758
 31
0.0
  0
LINE
  5
217A
  8
RKC_OUTWORD
 10
168.00299176113171
 20
252.60524540554761
 30
0.0
 11
168.00299176113171
 21
282.60524540554758
 31
0.0
  0
LINE
  5
217B
  8
RKC_OUTWORD
 10
168.00299176113191
 20
252.60524540554761
 30
0.0
 11
168.00299176113191
 21
282.60524540554758
 31
0.0
  0
LINE
  5
217C
  8
RKC_OUTWORD
 10
166.40299176113169
 20
252.60524540554761
 30
0.0
 11
166.40299176113169
 21
282.60524540554758
 31
0.0
  0
LINE
  5
217D
  8
RKC_OUTWORD
 10
165.00299176113199
 20
252.60524540554761
 30
0.0
 11
165.00299176113199
 21
282.60524540554758
 31
0.0
  0
LINE
  5
217E
  8
RKC_OUTWORD
 10
165.00299176113199
 20
252.60524540554761
 30
0.0
 11
165.00299176113199
 21
282.60524540554758
 31
0.0
  0
LINE
  5
217F
  8
RKC_OUTWORD
 10
163.40299176113169
 20
252.60524540554761
 30
0.0
 11
163.40299176113169
 21
282.60524540554758
 31
0.0
  0
LINE
  5
2180
  8
RKC_OUTWORD
 10
162.00299176113171
 20
252.60524540554761
 30
0.0
 11
162.00299176113171
 21
282.60524540554758
 31
0.0
  0
LINE
  5
2181
  8
RKC_OUTWORD
 10
162.00299176113171
 20
252.60524540554761
 30
0.0
 11
162.0029917611318
 21
282.60524540554758
 31
0.0
  0
LINE
  5
2182
  8
RKC_OUTWORD
 10
160.40299176113169
 20
252.60524540554761
 30
0.0
 11
160.40299176113169
 21
282.60524540554758
 31
0.0
  0
LINE
  5
2183
  8
RKC_OUTWORD
 10
159.00299176113171
 20
252.60524540554761
 30
0.0
 11
159.00299176113171
 21
282.60524540554758
 31
0.0
  0
LINE
  5
2184
  8
RKC_OUTWORD
 10
159.00299176113191
 20
252.60524540554761
 30
0.0
 11
159.00299176113191
 21
282.60524540554758
 31
0.0
  0
LINE
  5
2185
  8
RKC_OUTWORD
 10
157.40299176113169
 20
252.60524540554761
 30
0.0
 11
157.40299176113169
 21
282.60524540554758
 31
0.0
  0
LINE
  5
2186
  8
RKC_OUTWORD
 10
156.0029917611316
 20
252.60524540554761
 30
0.0
 11
156.0029917611316
 21
282.60524540554758
 31
0.0
  0
LINE
  5
2187
  8
RKC_OUTWORD
 10
156.0029917611318
 20
252.60524540554761
 30
0.0
 11
156.0029917611318
 21
282.60524540554758
 31
0.0
  0
LINE
  5
2188
  8
RKC_OUTWORD
 10
154.4029917611316
 20
252.60524540554761
 30
0.0
 11
154.4029917611316
 21
282.60524540554758
 31
0.0
  0
LINE
  5
2189
  8
RKC_OUTWORD
 10
153.00299176113171
 20
252.60524540554761
 30
0.0
 11
153.00299176113171
 21
282.60524540554758
 31
0.0
  0
LINE
  5
218A
  8
RKC_OUTWORD
 10
153.00299176113171
 20
252.60524540554761
 30
0.0
 11
153.00299176113199
 21
282.60524540554758
 31
0.0
  0
LINE
  5
218B
  8
RKC_OUTWORD
 10
151.40299176113169
 20
252.60524540554761
 30
0.0
 11
151.40299176113169
 21
282.60524540554758
 31
0.0
  0
LINE
  5
218C
  8
RKC_OUTWORD
 10
150.00299176113171
 20
252.60524540554761
 30
0.0
 11
150.00299176113171
 21
282.60524540554758
 31
0.0
  0
LINE
  5
218D
  8
RKC_OUTWORD
 10
150.0029917611318
 20
252.60524540554761
 30
0.0
 11
150.0029917611318
 21
282.60524540554758
 31
0.0
  0
LINE
  5
218E
  8
RKC_OUTWORD
 10
148.4029917611316
 20
252.60524540554761
 30
0.0
 11
148.40299176113169
 21
282.60524540554758
 31
0.0
  0
LINE
  5
218F
  8
RKC_OUTWORD
 10
147.0029917611316
 20
252.60524540554761
 30
0.0
 11
147.0029917611316
 21
282.60524540554758
 31
0.0
  0
LINE
  5
2190
  8
RKC_OUTWORD
 10
145.40299176113169
 20
252.60524540554761
 30
0.0
 11
145.40299176113169
 21
282.60524540554758
 31
0.0
  0
LINE
  5
2191
  8
RKC_OUTWORD
 10
145.40299176113169
 20
278.2052454055476
 30
0.0
 11
147.00299176113199
 21
278.2052454055476
 31
0.0
  0
LINE
  5
2192
  8
RKC_OUTWORD
 10
145.40299176113169
 20
276.80524540554762
 30
0.0
 11
147.00299176113199
 21
276.80524540554762
 31
0.0
  0
LINE
  5
2193
  8
RKC_OUTWORD
 10
145.40299176113169
 20
273.80524540554762
 30
0.0
 11
147.00299176113199
 21
273.80524540554762
 31
0.0
  0
LINE
  5
2194
  8
RKC_OUTWORD
 10
145.40299176113169
 20
269.00524540554773
 30
0.0
 11
147.00299176113199
 21
269.00524540554773
 31
0.0
  0
LINE
  5
2195
  8
RKC_OUTWORD
 10
145.40299176113169
 20
258.80524540554751
 30
0.0
 11
147.00299176113199
 21
258.80524540554751
 31
0.0
  0
LINE
  5
2196
  8
RKC_OUTWORD
 10
145.40299176113169
 20
260.10524540554752
 30
0.0
 11
147.00299176113199
 21
260.10524540554752
 31
0.0
  0
LINE
  5
2197
  8
RKC_OUTWORD
 10
145.40299176113169
 20
266.00524540554773
 30
0.0
 11
147.00299176113199
 21
266.00524540554773
 31
0.0
  0
LINE
  5
2198
  8
RKC_OUTWORD
 10
145.40299176113169
 20
264.60524540554758
 30
0.0
 11
147.00299176113199
 21
264.60524540554758
 31
0.0
  0
LINE
  5
2199
  8
RKC_OUTWORD
 10
145.40299176113169
 20
261.50524540554738
 30
0.0
 11
147.00299176113199
 21
261.50524540554738
 31
0.0
  0
LINE
  5
219A
  8
RKC_OUTWORD
 10
169.40299176113169
 20
258.80524540554751
 30
0.0
 11
171.0029917611318
 21
258.80524540554751
 31
0.0
  0
LINE
  5
219B
  8
RKC_OUTWORD
 10
169.40299176113169
 20
260.10524540554752
 30
0.0
 11
171.0029917611318
 21
260.10524540554752
 31
0.0
  0
LINE
  5
219C
  8
RKC_OUTWORD
 10
169.40299176113169
 20
261.50524540554738
 30
0.0
 11
171.0029917611318
 21
261.50524540554738
 31
0.0
  0
LINE
  5
219D
  8
RKC_OUTWORD
 10
170.35299176113159
 20
282.60524540554758
 30
0.0
 11
181.14447255792601
 21
282.60524540554758
 31
0.0
  0
LINE
  5
219E
  8
RKC_OUTWORD
 10
169.40299176113169
 20
278.2052454055476
 30
0.0
 11
171.0029917611318
 21
278.2052454055476
 31
0.0
  0
LINE
  5
219F
  8
RKC_OUTWORD
 10
169.40299176113169
 20
276.80524540554762
 30
0.0
 11
171.0029917611318
 21
276.80524540554762
 31
0.0
  0
LINE
  5
21A0
  8
RKC_OUTWORD
 10
169.40299176113169
 20
273.80524540554762
 30
0.0
 11
171.0029917611318
 21
273.80524540554762
 31
0.0
  0
LINE
  5
21A1
  8
RKC_OUTWORD
 10
169.40299176113169
 20
269.00524540554773
 30
0.0
 11
171.0029917611318
 21
269.00524540554773
 31
0.0
  0
LINE
  5
21A2
  8
RKC_OUTWORD
 10
169.40299176113169
 20
266.00524540554773
 30
0.0
 11
171.0029917611318
 21
266.00524540554773
 31
0.0
  0
LINE
  5
21A3
  8
RKC_OUTWORD
 10
169.40299176113169
 20
264.60524540554758
 30
0.0
 11
171.0029917611318
 21
264.60524540554758
 31
0.0
  0
LINE
  5
21A4
  8
RKC_OUTWORD
 10
166.40299176113169
 20
282.60524540554758
 30
0.0
 11
168.00299176113171
 21
282.60524540554758
 31
0.0
  0
LINE
  5
21A5
  8
RKC_OUTWORD
 10
166.40299176113169
 20
278.2052454055476
 30
0.0
 11
168.00299176113191
 21
278.2052454055476
 31
0.0
  0
LINE
  5
21A6
  8
RKC_OUTWORD
 10
166.40299176113169
 20
276.80524540554762
 30
0.0
 11
168.00299176113191
 21
276.80524540554762
 31
0.0
  0
LINE
  5
21A7
  8
RKC_OUTWORD
 10
166.40299176113169
 20
273.80524540554762
 30
0.0
 11
168.00299176113191
 21
273.80524540554762
 31
0.0
  0
LINE
  5
21A8
  8
RKC_OUTWORD
 10
166.40299176113169
 20
269.00524540554773
 30
0.0
 11
168.00299176113191
 21
269.00524540554773
 31
0.0
  0
LINE
  5
21A9
  8
RKC_OUTWORD
 10
166.40299176113169
 20
266.00524540554773
 30
0.0
 11
168.00299176113191
 21
266.00524540554773
 31
0.0
  0
LINE
  5
21AA
  8
RKC_OUTWORD
 10
166.40299176113169
 20
264.60524540554758
 30
0.0
 11
168.00299176113191
 21
264.60524540554758
 31
0.0
  0
LINE
  5
21AB
  8
RKC_OUTWORD
 10
166.40299176113169
 20
261.50524540554738
 30
0.0
 11
168.00299176113191
 21
261.50524540554738
 31
0.0
  0
LINE
  5
21AC
  8
RKC_OUTWORD
 10
166.40299176113169
 20
260.10524540554752
 30
0.0
 11
168.00299176113191
 21
260.10524540554752
 31
0.0
  0
LINE
  5
21AD
  8
RKC_OUTWORD
 10
166.40299176113169
 20
258.80524540554751
 30
0.0
 11
168.00299176113191
 21
258.80524540554751
 31
0.0
  0
LINE
  5
21AE
  8
RKC_OUTWORD
 10
163.40299176113169
 20
278.2052454055476
 30
0.0
 11
165.00299176113199
 21
278.2052454055476
 31
0.0
  0
LINE
  5
21AF
  8
RKC_OUTWORD
 10
163.40299176113169
 20
276.80524540554762
 30
0.0
 11
165.00299176113199
 21
276.80524540554762
 31
0.0
  0
LINE
  5
21B0
  8
RKC_OUTWORD
 10
163.40299176113169
 20
273.80524540554762
 30
0.0
 11
165.00299176113199
 21
273.80524540554762
 31
0.0
  0
LINE
  5
21B1
  8
RKC_OUTWORD
 10
163.40299176113169
 20
269.00524540554773
 30
0.0
 11
165.00299176113199
 21
269.00524540554773
 31
0.0
  0
LINE
  5
21B2
  8
RKC_OUTWORD
 10
163.40299176113169
 20
266.00524540554773
 30
0.0
 11
165.00299176113199
 21
266.00524540554773
 31
0.0
  0
LINE
  5
21B3
  8
RKC_OUTWORD
 10
163.40299176113169
 20
264.60524540554758
 30
0.0
 11
165.00299176113199
 21
264.60524540554758
 31
0.0
  0
LINE
  5
21B4
  8
RKC_OUTWORD
 10
163.40299176113169
 20
261.50524540554738
 30
0.0
 11
165.00299176113199
 21
261.50524540554738
 31
0.0
  0
LINE
  5
21B5
  8
RKC_OUTWORD
 10
163.40299176113169
 20
260.10524540554712
 30
0.0
 11
165.00299176113199
 21
260.10524540554752
 31
0.0
  0
LINE
  5
21B6
  8
RKC_OUTWORD
 10
163.40299176113169
 20
258.80524540554751
 30
0.0
 11
165.00299176113199
 21
258.80524540554751
 31
0.0
  0
LINE
  5
21B7
  8
RKC_OUTWORD
 10
160.40299176113169
 20
258.80524540554751
 30
0.0
 11
162.0029917611318
 21
258.80524540554751
 31
0.0
  0
LINE
  5
21B8
  8
RKC_OUTWORD
 10
157.40299176113169
 20
258.80524540554751
 30
0.0
 11
159.00299176113191
 21
258.80524540554751
 31
0.0
  0
LINE
  5
21B9
  8
RKC_OUTWORD
 10
157.40299176113169
 20
260.10524540554752
 30
0.0
 11
159.00299176113191
 21
260.10524540554752
 31
0.0
  0
LINE
  5
21BA
  8
RKC_OUTWORD
 10
160.40299176113169
 20
260.10524540554752
 30
0.0
 11
162.0029917611318
 21
260.10524540554712
 31
0.0
  0
LINE
  5
21BB
  8
RKC_OUTWORD
 10
160.40299176113169
 20
261.50524540554738
 30
0.0
 11
162.0029917611318
 21
261.50524540554738
 31
0.0
  0
LINE
  5
21BC
  8
RKC_OUTWORD
 10
157.40299176113169
 20
261.50524540554738
 30
0.0
 11
159.00299176113191
 21
261.50524540554738
 31
0.0
  0
LINE
  5
21BD
  8
RKC_OUTWORD
 10
157.40299176113169
 20
264.60524540554758
 30
0.0
 11
159.00299176113191
 21
264.60524540554758
 31
0.0
  0
LINE
  5
21BE
  8
RKC_OUTWORD
 10
160.40299176113169
 20
264.60524540554758
 30
0.0
 11
162.0029917611318
 21
264.60524540554758
 31
0.0
  0
LINE
  5
21BF
  8
RKC_OUTWORD
 10
160.40299176113169
 20
266.00524540554773
 30
0.0
 11
162.0029917611318
 21
266.00524540554773
 31
0.0
  0
LINE
  5
21C0
  8
RKC_OUTWORD
 10
157.40299176113169
 20
266.00524540554761
 30
0.0
 11
159.00299176113191
 21
266.00524540554773
 31
0.0
  0
LINE
  5
21C1
  8
RKC_OUTWORD
 10
157.40299176113169
 20
269.00524540554773
 30
0.0
 11
159.00299176113191
 21
269.00524540554773
 31
0.0
  0
LINE
  5
21C2
  8
RKC_OUTWORD
 10
160.40299176113169
 20
269.00524540554773
 30
0.0
 11
162.0029917611318
 21
269.00524540554773
 31
0.0
  0
LINE
  5
21C3
  8
RKC_OUTWORD
 10
160.40299176113169
 20
273.80524540554762
 30
0.0
 11
162.0029917611318
 21
273.80524540554762
 31
0.0
  0
LINE
  5
21C4
  8
RKC_OUTWORD
 10
157.40299176113169
 20
273.80524540554762
 30
0.0
 11
159.00299176113191
 21
273.80524540554762
 31
0.0
  0
LINE
  5
21C5
  8
RKC_OUTWORD
 10
157.40299176113169
 20
276.80524540554762
 30
0.0
 11
159.00299176113191
 21
276.80524540554762
 31
0.0
  0
LINE
  5
21C6
  8
RKC_OUTWORD
 10
157.40299176113169
 20
278.2052454055476
 30
0.0
 11
159.00299176113191
 21
278.2052454055476
 31
0.0
  0
LINE
  5
21C7
  8
RKC_OUTWORD
 10
160.40299176113169
 20
278.2052454055476
 30
0.0
 11
162.0029917611318
 21
278.2052454055476
 31
0.0
  0
LINE
  5
21C8
  8
RKC_OUTWORD
 10
160.40299176113169
 20
276.80524540554762
 30
0.0
 11
162.0029917611318
 21
276.80524540554762
 31
0.0
  0
LINE
  5
21C9
  8
RKC_OUTWORD
 10
148.40299176113169
 20
278.2052454055476
 30
0.0
 11
150.00299176113171
 21
278.2052454055476
 31
0.0
  0
LINE
  5
21CA
  8
RKC_OUTWORD
 10
148.40299176113169
 20
276.80524540554762
 30
0.0
 11
150.00299176113171
 21
276.80524540554762
 31
0.0
  0
LINE
  5
21CB
  8
RKC_OUTWORD
 10
148.40299176113169
 20
273.80524540554762
 30
0.0
 11
150.00299176113171
 21
273.80524540554762
 31
0.0
  0
LINE
  5
21CC
  8
RKC_OUTWORD
 10
148.40299176113169
 20
269.00524540554773
 30
0.0
 11
150.00299176113171
 21
269.00524540554773
 31
0.0
  0
LINE
  5
21CD
  8
RKC_OUTWORD
 10
148.40299176113169
 20
266.00524540554761
 30
0.0
 11
150.00299176113171
 21
266.00524540554761
 31
0.0
  0
LINE
  5
21CE
  8
RKC_OUTWORD
 10
148.40299176113169
 20
264.60524540554758
 30
0.0
 11
150.00299176113171
 21
264.60524540554758
 31
0.0
  0
LINE
  5
21CF
  8
RKC_OUTWORD
 10
148.40299176113169
 20
261.50524540554738
 30
0.0
 11
150.00299176113171
 21
261.50524540554738
 31
0.0
  0
LINE
  5
21D0
  8
RKC_OUTWORD
 10
148.40299176113169
 20
260.10524540554752
 30
0.0
 11
150.00299176113171
 21
260.10524540554712
 31
0.0
  0
LINE
  5
21D1
  8
RKC_OUTWORD
 10
148.40299176113169
 20
258.80524540554751
 30
0.0
 11
150.00299176113171
 21
258.80524540554751
 31
0.0
  0
LINE
  5
21D2
  8
RKC_OUTWORD
 10
151.40299176113169
 20
258.80524540554751
 30
0.0
 11
153.00299176113199
 21
258.80524540554751
 31
0.0
  0
LINE
  5
21D3
  8
RKC_OUTWORD
 10
151.40299176113169
 20
260.10524540554712
 30
0.0
 11
153.00299176113199
 21
260.10524540554752
 31
0.0
  0
LINE
  5
21D4
  8
RKC_OUTWORD
 10
151.40299176113169
 20
261.50524540554738
 30
0.0
 11
153.00299176113199
 21
261.50524540554738
 31
0.0
  0
LINE
  5
21D5
  8
RKC_OUTWORD
 10
151.40299176113169
 20
264.60524540554758
 30
0.0
 11
153.00299176113199
 21
264.60524540554758
 31
0.0
  0
LINE
  5
21D6
  8
RKC_OUTWORD
 10
151.40299176113169
 20
266.00524540554761
 30
0.0
 11
153.00299176113199
 21
266.00524540554761
 31
0.0
  0
LINE
  5
21D7
  8
RKC_OUTWORD
 10
151.40299176113169
 20
269.00524540554773
 30
0.0
 11
153.00299176113199
 21
269.00524540554773
 31
0.0
  0
LINE
  5
21D8
  8
RKC_OUTWORD
 10
151.40299176113169
 20
273.80524540554762
 30
0.0
 11
153.00299176113199
 21
273.80524540554762
 31
0.0
  0
LINE
  5
21D9
  8
RKC_OUTWORD
 10
151.40299176113169
 20
276.80524540554762
 30
0.0
 11
153.00299176113199
 21
276.80524540554762
 31
0.0
  0
LINE
  5
21DA
  8
RKC_OUTWORD
 10
151.40299176113169
 20
278.2052454055476
 30
0.0
 11
153.00299176113199
 21
278.2052454055476
 31
0.0
  0
LINE
  5
21DB
  8
RKC_OUTWORD
 10
154.4029917611316
 20
278.2052454055476
 30
0.0
 11
156.0029917611318
 21
278.2052454055476
 31
0.0
  0
LINE
  5
21DC
  8
RKC_OUTWORD
 10
154.4029917611316
 20
276.80524540554762
 30
0.0
 11
156.0029917611318
 21
276.80524540554762
 31
0.0
  0
LINE
  5
21DD
  8
RKC_OUTWORD
 10
154.4029917611316
 20
273.80524540554762
 30
0.0
 11
156.0029917611316
 21
273.80524540554762
 31
0.0
  0
LINE
  5
21DE
  8
RKC_OUTWORD
 10
154.4029917611316
 20
269.00524540554773
 30
0.0
 11
156.0029917611318
 21
269.00524540554773
 31
0.0
  0
LINE
  5
21DF
  8
RKC_OUTWORD
 10
154.4029917611316
 20
266.00524540554761
 30
0.0
 11
156.0029917611316
 21
266.00524540554761
 31
0.0
  0
LINE
  5
21E0
  8
RKC_OUTWORD
 10
154.4029917611316
 20
264.60524540554758
 30
0.0
 11
156.0029917611318
 21
264.60524540554758
 31
0.0
  0
LINE
  5
21E1
  8
RKC_OUTWORD
 10
154.4029917611316
 20
261.50524540554738
 30
0.0
 11
156.0029917611316
 21
261.50524540554738
 31
0.0
  0
LINE
  5
21E2
  8
RKC_OUTWORD
 10
154.4029917611316
 20
260.10524540554752
 30
0.0
 11
156.0029917611318
 21
260.10524540554752
 31
0.0
  0
LINE
  5
21E3
  8
RKC_OUTWORD
 10
154.4029917611316
 20
258.80524540554751
 30
0.0
 11
156.0029917611316
 21
258.80524540554751
 31
0.0
  0
LINE
  5
21E4
  8
RKC_OUTWORD
 10
165.00299176113199
 20
282.60524540554758
 30
0.0
 11
169.40299176113169
 21
282.60524540554758
 31
0.0
  0
LINE
  5
21E8
  8
RKC_OUTWORD
 10
92.402991761131943
 20
276.2052454055476
 30
0.0
 11
92.402991761131943
 21
269.00524540554773
 31
0.0
  0
LINE
  5
21E9
  8
RKC_OUTWORD
 10
90.402991761132057
 20
282.40524540554748
 30
0.0
 11
90.402991761132057
 21
276.2052454055476
 31
0.0
  0
LINE
  5
21EA
  8
RKC_OUTWORD
 10
84.202991761131955
 20
282.40524540554748
 30
0.0
 11
84.202991761131955
 21
276.2052454055476
 31
0.0
  0
LINE
  5
21EB
  8
RKC_OUTWORD
 10
82.202991761131955
 20
261.00524540554733
 30
0.0
 11
92.402991761131943
 21
261.00524540554733
 31
0.0
  0
LINE
  5
21EC
  8
RKC_OUTWORD
 10
82.202991761131955
 20
253.80524540554759
 30
0.0
 11
84.202991761131955
 21
253.80524540554759
 31
0.0
  0
LINE
  5
21ED
  8
RKC_OUTWORD
 10
92.402991761131943
 20
253.80524540554759
 30
0.0
 11
90.402991761132057
 21
253.80524540554759
 31
0.0
  0
LINE
  5
21EE
  8
RKC_OUTWORD
 10
84.202991761131955
 20
253.80524540554759
 30
0.0
 11
84.202991761131955
 21
252.80524540554759
 31
0.0
  0
LINE
  5
21EF
  8
RKC_OUTWORD
 10
90.402991761132057
 20
253.80524540554759
 30
0.0
 11
90.402991761132057
 21
252.80524540554759
 31
0.0
  0
LINE
  5
21F1
  8
RKC_OUTWORD
 10
273.80299176113198
 20
199.6552454055473
 30
0.0
 11
273.80299176113198
 21
75.055245405547751
 31
0.0
  0
LINE
  5
21F2
  8
RKC_OUTWORD
 10
247.90299176113189
 20
199.85524540554741
 30
0.0
 11
273.60299176113159
 21
199.85524540554741
 31
0.0
  0
LINE
  5
21F3
  8
RKC_OUTWORD
 10
243.90299176113189
 20
74.855245405547564
 30
0.0
 11
273.60299176113159
 21
74.855245405547564
 31
0.0
  0
LINE
  5
21F6
  8
RKC_OUTWORD
 10
78.702991761131983
 20
252.60524540554761
 30
0.0
 11
78.702991761131983
 21
250.00524540554761
 31
0.0
  0
LINE
  5
21F7
  8
RKC_OUTWORD
 10
75.902991761131858
 20
252.60524540554761
 30
0.0
 11
75.902991761131858
 21
250.00524540554761
 31
0.0
  0
LINE
  5
21F8
  8
RKC_OUTWORD
 10
76.302991761131949
 20
249.60524540554761
 30
0.0
 11
78.302991761132091
 21
249.60524540554761
 31
0.0
  0
LINE
  5
21FA
  8
RKC_OUTWORD
 10
77.302991761131977
 20
275.60524540554758
 30
0.0
 11
77.302991761131977
 21
259.60524540554758
 31
0.0
  0
LINE
  5
21FB
  8
RKC_OUTWORD
 10
101.902991761132
 20
272.70524540554771
 30
0.0
 11
101.9029917611318
 21
262.4052454055473
 31
0.0
  0
LINE
  5
21FC
  8
RKC_OUTWORD
 10
103.9029917611318
 20
272.80524540554762
 30
0.0
 11
103.9029917611318
 21
262.4052454055473
 31
0.0
  0
LINE
  5
21FD
  8
RKC_OUTWORD
 10
101.902991761132
 20
272.80524540554762
 30
0.0
 11
103.9029917611318
 21
272.80524540554762
 31
0.0
  0
LINE
  5
21FE
  8
RKC_OUTWORD
 10
101.902991761132
 20
262.4052454055473
 30
0.0
 11
103.9029917611318
 21
262.4052454055473
 31
0.0
  0
LINE
  5
2232
  8
RKC_OUTWORD
 10
84.002991761131995
 20
282.60524540554758
 30
0.0
 11
84.002991761131995
 21
276.95524540554771
 31
0.0
  0
LINE
  5
2233
  8
RKC_OUTWORD
 10
90.602991761132074
 20
282.60524540554758
 30
0.0
 11
90.602991761132074
 21
276.95524540554771
 31
0.0
  0
LINE
  5
2261
  8
RKC_OUTWORD
 10
84.002991761131995
 20
282.60524540554758
 30
0.0
 11
84.002991761131995
 21
276.95524540554771
 31
0.0
  0
LINE
  5
2262
  8
RKC_OUTWORD
 10
84.002991761131995
 20
276.95524540554771
 30
0.0
 11
82.002991761131966
 21
276.95524540554771
 31
0.0
  0
LINE
  5
2263
  8
RKC_OUTWORD
 10
82.002991761131966
 20
276.95524540554771
 30
0.0
 11
82.002991761131966
 21
268.25524540554773
 31
0.0
  0
LINE
  5
2264
  8
RKC_OUTWORD
 10
82.002991761131966
 20
268.25524540554773
 30
0.0
 11
92.602991761131975
 21
268.25524540554773
 31
0.0
  0
LINE
  5
2265
  8
RKC_OUTWORD
 10
92.602991761131975
 20
268.25524540554773
 30
0.0
 11
92.602991761131975
 21
276.95524540554771
 31
0.0
  0
LINE
  5
2266
  8
RKC_OUTWORD
 10
92.602991761131975
 20
276.95524540554771
 30
0.0
 11
90.602991761132074
 21
276.95524540554771
 31
0.0
  0
LINE
  5
2267
  8
RKC_OUTWORD
 10
90.602991761132074
 20
276.95524540554771
 30
0.0
 11
90.602991761132074
 21
282.60524540554758
 31
0.0
  0
LINE
  5
2268
  8
RKC_OUTWORD
 10
84.202991761131955
 20
282.40524540554748
 30
0.0
 11
84.202991761131955
 21
276.2052454055476
 31
0.0
  0
LINE
  5
2269
  8
RKC_OUTWORD
 10
84.202991761131955
 20
276.2052454055476
 30
0.0
 11
82.202991761131955
 21
276.2052454055476
 31
0.0
  0
LINE
  5
226A
  8
RKC_OUTWORD
 10
82.202991761131955
 20
276.82524540554772
 30
0.0
 11
82.202991761131955
 21
268.38524540554772
 31
0.0
  0
LINE
  5
226B
  8
RKC_OUTWORD
 10
82.202991761131955
 20
269.00524540554773
 30
0.0
 11
92.402991761131943
 21
269.00524540554773
 31
0.0
  0
LINE
  5
226C
  8
RKC_OUTWORD
 10
92.402991761131943
 20
268.38524540554772
 30
0.0
 11
92.402991761131943
 21
276.82524540554772
 31
0.0
  0
LINE
  5
226D
  8
RKC_OUTWORD
 10
92.402991761131943
 20
276.2052454055476
 30
0.0
 11
90.402991761131958
 21
276.2052454055476
 31
0.0
  0
LINE
  5
226E
  8
RKC_OUTWORD
 10
82.002991761131966
 20
276.95524540554771
 30
0.0
 11
82.202991761131955
 21
276.82524540554772
 31
0.0
  0
LINE
  5
226F
  8
RKC_OUTWORD
 10
82.002991761131966
 20
268.25524540554773
 30
0.0
 11
82.202991761131955
 21
268.38524540554772
 31
0.0
  0
LINE
  5
2270
  8
RKC_OUTWORD
 10
92.602991761131975
 20
268.25524540554773
 30
0.0
 11
92.402991761131943
 21
268.38524540554772
 31
0.0
  0
LINE
  5
2271
  8
RKC_OUTWORD
 10
92.602991761131975
 20
276.95524540554771
 30
0.0
 11
92.402991761131943
 21
276.82524540554772
 31
0.0
  0
LINE
  5
2272
  8
RKC_OUTWORD
 10
84.002991761131995
 20
253.05524540554759
 30
0.0
 11
84.002991761131995
 21
252.60524540554761
 31
0.0
  0
LINE
  5
2273
  8
RKC_OUTWORD
 10
90.602991761132074
 20
253.05524540554759
 30
0.0
 11
90.602991761132074
 21
252.60524540554761
 31
0.0
  0
LINE
  5
2274
  8
RKC_OUTWORD
 10
82.002991761131966
 20
253.05524540554759
 30
0.0
 11
84.002991761131995
 21
253.05524540554759
 31
0.0
  0
LINE
  5
2275
  8
RKC_OUTWORD
 10
92.602991761131847
 20
253.05524540554759
 30
0.0
 11
90.602991761132074
 21
253.05524540554759
 31
0.0
  0
LINE
  5
2276
  8
RKC_OUTWORD
 10
82.002991761131966
 20
261.75524540554761
 30
0.0
 11
82.002991761131966
 21
253.05524540554759
 31
0.0
  0
LINE
  5
2277
  8
RKC_OUTWORD
 10
92.602991761131975
 20
261.75524540554761
 30
0.0
 11
92.602991761131975
 21
253.05524540554759
 31
0.0
  0
LINE
  5
2278
  8
RKC_OUTWORD
 10
82.002991761131966
 20
261.75524540554761
 30
0.0
 11
92.602991761131847
 21
261.75524540554761
 31
0.0
  0
LINE
  5
2279
  8
RKC_OUTWORD
 10
82.002991761131966
 20
253.05524540554759
 30
0.0
 11
82.202991761131955
 21
253.18524540554759
 31
0.0
  0
LINE
  5
227A
  8
RKC_OUTWORD
 10
82.002991761131966
 20
261.75524540554761
 30
0.0
 11
82.202991761131955
 21
261.62524540554762
 31
0.0
  0
LINE
  5
227B
  8
RKC_OUTWORD
 10
92.602991761131975
 20
253.05524540554759
 30
0.0
 11
92.402991761131943
 21
253.18524540554759
 31
0.0
  0
LINE
  5
227C
  8
RKC_OUTWORD
 10
92.602991761131975
 20
261.75524540554761
 30
0.0
 11
92.402991761131943
 21
261.62524540554762
 31
0.0
  0
LINE
  5
227D
  8
RKC_OUTWORD
 10
82.202991761131955
 20
261.62524540554762
 30
0.0
 11
82.202991761131955
 21
253.18524540554759
 31
0.0
  0
LINE
  5
227E
  8
RKC_OUTWORD
 10
92.402991761131943
 20
261.62524540554762
 30
0.0
 11
92.402991761131943
 21
253.18524540554759
 31
0.0
  0
LINE
  5
227F
  8
RKC_OUTWORD
 10
84.002991761131995
 20
252.60524540554761
 30
0.0
 11
84.202991761131955
 21
252.80524540554759
 31
0.0
  0
LINE
  5
2280
  8
RKC_OUTWORD
 10
90.602991761132074
 20
252.60524540554761
 30
0.0
 11
90.402991761132057
 21
252.80524540554759
 31
0.0
  0
LINE
  5
2281
  8
RKC_OUTWORD
 10
84.202991761131955
 20
252.80524540554759
 30
0.0
 11
84.002991761131995
 21
252.80524540554759
 31
0.0
  0
LINE
  5
2282
  8
RKC_OUTWORD
 10
90.402991761132057
 20
252.80524540554759
 30
0.0
 11
90.602991761132074
 21
252.80524540554759
 31
0.0
  0
LINE
  5
2283
  8
RKC_OUTWORD
 10
84.002991761131995
 20
253.05524540554759
 30
0.0
 11
84.202991761131955
 21
253.25524540554761
 31
0.0
  0
LINE
  5
2284
  8
RKC_OUTWORD
 10
90.602991761132074
 20
253.05524540554759
 30
0.0
 11
90.402991761131958
 21
253.25524540554761
 31
0.0
  0
LINE
  5
2285
  8
RKC_OUTWORD
 10
84.002991761131995
 20
282.60524540554758
 30
0.0
 11
84.202991761131955
 21
282.40524540554782
 31
0.0
  0
LINE
  5
2286
  8
RKC_OUTWORD
 10
90.602991761132074
 20
282.60524540554758
 30
0.0
 11
90.402991761132057
 21
282.40524540554748
 31
0.0
  0
LINE
  5
2287
  8
RKC_OUTWORD
 10
84.002991761131995
 20
276.95524540554771
 30
0.0
 11
84.202991761131955
 21
276.82524540554772
 31
0.0
  0
LINE
  5
2288
  8
RKC_OUTWORD
 10
90.602991761132074
 20
276.95524540554771
 30
0.0
 11
90.402991761132057
 21
276.82524540554772
 31
0.0
  0
LINE
  5
2289
  8
RKC_OUTWORD
 10
84.202991761131955
 20
280.60524540554758
 30
0.0
 11
90.402991761131958
 21
280.60524540554758
 31
0.0
  0
LINE
  5
228A
  8
RKC_OUTWORD
 10
90.302991761131992
 20
282.60524540554758
 30
0.0
 11
90.302991761131992
 21
276.2052454055476
 31
0.0
  0
LINE
  5
228B
  8
RKC_OUTWORD
 10
84.302991761131977
 20
282.60524540554758
 30
0.0
 11
84.302991761131977
 21
276.2052454055476
 31
0.0
  0
LINE
  5
228C
  8
RKC_OUTWORD
 10
84.302991761131977
 20
279.60524540554781
 30
0.0
 11
90.302991761131992
 21
279.60524540554758
 31
0.0
  0
ARC
  5
228D
  8
RKC_OUTWORD
 10
91.902991761131986
 20
275.70524540554771
 30
0.0
 40
0.5
 50
0.0
 51
90.0
  0
LINE
  5
228E
  8
RKC_OUTWORD
 10
91.902991761131986
 20
272.80524540554779
 30
0.0
 11
90.402991761131958
 21
272.80524540554779
 31
0.0
  0
ARC
  5
228F
  8
RKC_OUTWORD
 10
91.902991761131986
 20
273.30524540554762
 30
0.0
 40
0.5
 50
270.0
 51
0.0
  0
LINE
  5
2290
  8
RKC_OUTWORD
 10
91.902991761131986
 20
276.2052454055476
 30
0.0
 11
90.302991761131992
 21
276.2052454055476
 31
0.0
  0
LINE
  5
2291
  8
RKC_OUTWORD
 10
90.402991761131958
 20
272.80524540554779
 30
0.0
 11
87.302991761131835
 21
272.80524540554779
 31
0.0
  0
LINE
  5
2292
  8
RKC_OUTWORD
 10
92.402991761131943
 20
275.70524540554771
 30
0.0
 11
92.402991761131943
 21
273.30524540554762
 31
0.0
  0
LINE
  5
2293
  8
RKC_OUTWORD
 10
82.202991761131955
 20
268.38524540554772
 30
0.0
 11
82.202991761131955
 21
276.82524540554772
 31
0.0
  0
ARC
  5
2294
  8
RKC_OUTWORD
 10
82.702991761132054
 20
275.70524540554771
 30
0.0
 40
0.5
 50
90.0
 51
180.0
  0
LINE
  5
2295
  8
RKC_OUTWORD
 10
82.702991761131955
 20
272.80524540554779
 30
0.0
 11
84.202991761131955
 21
272.80524540554779
 31
0.0
  0
ARC
  5
2296
  8
RKC_OUTWORD
 10
82.702991761131955
 20
273.30524540554762
 30
0.0
 40
0.5
 50
180.0
 51
270.0
  0
LINE
  5
2297
  8
RKC_OUTWORD
 10
82.702991761132054
 20
276.2052454055476
 30
0.0
 11
84.302991761131977
 21
276.2052454055476
 31
0.0
  0
LINE
  5
2298
  8
RKC_OUTWORD
 10
84.202991761131955
 20
272.80524540554779
 30
0.0
 11
87.302991761131835
 21
272.80524540554779
 31
0.0
  0
LINE
  5
2299
  8
RKC_OUTWORD
 10
90.402991761132057
 20
274.80524540554779
 30
0.0
 11
87.302991761131835
 21
274.80524540554779
 31
0.0
  0
LINE
  5
229A
  8
RKC_OUTWORD
 10
84.202991761131955
 20
274.80524540554779
 30
0.0
 11
87.302991761131835
 21
274.80524540554779
 31
0.0
  0
LINE
  5
229B
  8
RKC_OUTWORD
 10
92.402991761131943
 20
274.80524540554779
 30
0.0
 11
90.402991761131958
 21
274.80524540554779
 31
0.0
  0
LINE
  5
229C
  8
RKC_OUTWORD
 10
82.202991761131955
 20
274.80524540554779
 30
0.0
 11
84.202991761131955
 21
274.80524540554779
 31
0.0
  0
LINE
  5
229D
  8
RKC_OUTWORD
 10
91.902991761131986
 20
272.80524540554779
 30
0.0
 11
90.402991761131958
 21
272.80524540554779
 31
0.0
  0
LINE
  5
229E
  8
RKC_OUTWORD
 10
73.302991761131963
 20
273.60524540554758
 30
0.0
 11
75.002991761131838
 21
273.60524540554758
 31
0.0
  0
LINE
  5
229F
  8
RKC_OUTWORD
 10
75.002991761131838
 20
273.60524540554758
 30
0.0
 11
75.002991761131838
 21
275.60524540554758
 31
0.0
  0
LINE
  5
22A0
  8
RKC_OUTWORD
 10
75.002991761131838
 20
275.60524540554758
 30
0.0
 11
77.302991761131977
 21
275.60524540554758
 31
0.0
  0
LINE
  5
22A1
  8
RKC_OUTWORD
 10
77.302991761131977
 20
275.60524540554758
 30
0.0
 11
77.302991761131977
 21
259.60524540554758
 31
0.0
  0
LINE
  5
22A2
  8
RKC_OUTWORD
 10
77.302991761131977
 20
259.60524540554758
 30
0.0
 11
75.002991761131838
 21
259.60524540554758
 31
0.0
  0
LINE
  5
22A3
  8
RKC_OUTWORD
 10
75.002991761131838
 20
259.60524540554758
 30
0.0
 11
75.002991761131838
 21
261.60524540554758
 31
0.0
  0
LINE
  5
22A4
  8
RKC_OUTWORD
 10
75.002991761131838
 20
261.60524540554758
 30
0.0
 11
73.302991761131963
 21
261.60524540554758
 31
0.0
  0
LINE
  5
22A5
  8
RKC_OUTWORD
 10
75.002991761131838
 20
273.60524540554758
 30
0.0
 11
77.302991761131977
 21
273.60524540554758
 31
0.0
  0
LINE
  5
22A6
  8
RKC_OUTWORD
 10
75.002991761131838
 20
261.60524540554758
 30
0.0
 11
77.302991761131977
 21
261.60524540554758
 31
0.0
  0
LINE
  5
22A7
  8
RKC_OUTWORD
 10
75.302991761131977
 20
273.60524540554758
 30
0.0
 11
75.302991761131977
 21
275.60524540554758
 31
0.0
  0
LINE
  5
22A8
  8
RKC_OUTWORD
 10
75.302991761131977
 20
259.60524540554758
 30
0.0
 11
75.302991761131977
 21
261.60524540554758
 31
0.0
  0
LINE
  5
22A9
  8
RKC_OUTWORD
 10
77.202991761131955
 20
273.60524540554758
 30
0.0
 11
77.202991761131955
 21
261.60524540554758
 31
0.0
  0
LINE
  5
22AA
  8
RKC_OUTWORD
 10
75.802991761131864
 20
273.60524540554758
 30
0.0
 11
75.802991761131864
 21
261.60524540554758
 31
0.0
  0
LINE
  5
22AB
  8
RKC_OUTWORD
 10
75.75299176113198
 20
273.60524540554758
 30
0.0
 11
75.75299176113198
 21
261.60524540554758
 31
0.0
  0
LINE
  5
22AC
  8
RKC_OUTWORD
 10
75.052991761131963
 20
273.10524540554758
 30
0.0
 11
75.052991761131963
 21
262.10524540554758
 31
0.0
  0
LINE
  5
22AD
  8
RKC_OUTWORD
 10
73.802991761131963
 20
273.10524540554758
 30
0.0
 11
73.802991761131963
 21
262.10524540554758
 31
0.0
  0
LINE
  5
22AE
  8
RKC_OUTWORD
 10
73.502991761131952
 20
273.10524540554758
 30
0.0
 11
75.75299176113198
 21
273.10524540554758
 31
0.0
  0
LINE
  5
22AF
  8
RKC_OUTWORD
 10
73.502991761131952
 20
262.10524540554758
 30
0.0
 11
75.75299176113198
 21
262.10524540554758
 31
0.0
  0
LINE
  5
22B0
  8
RKC_OUTWORD
 10
75.502991761131952
 20
273.60524540554758
 30
0.0
 11
75.502991761131952
 21
273.10524540554758
 31
0.0
  0
LINE
  5
22B1
  8
RKC_OUTWORD
 10
75.502991761131653
 20
262.10524540554758
 30
0.0
 11
75.502991761131653
 21
261.60524540554758
 31
0.0
  0
ARC
  5
22B2
  8
RKC_OUTWORD
 10
73.502991761131952
 20
272.9052454055473
 30
0.0
 40
0.2
 50
90.0
 51
180.0
  0
ARC
  5
22B3
  8
RKC_OUTWORD
 10
73.502991761131952
 20
262.30524540554762
 30
0.0
 40
0.2
 50
180.0
 51
270.0
  0
LINE
  5
22B4
  8
RKC_OUTWORD
 10
98.302991761132077
 20
282.60524540554758
 30
0.0
 11
98.302991761132077
 21
252.60524540554741
 31
0.0
  0
LINE
  5
22B5
  8
RKC_OUTWORD
 10
110.602991761132
 20
263.7052454055476
 30
0.0
 11
110.602991761132
 21
257.50524540554733
 31
0.0
  0
LINE
  5
22B6
  8
RKC_OUTWORD
 10
111.102991761132
 20
263.7052454055476
 30
0.0
 11
111.102991761132
 21
257.50524540554733
 31
0.0
  0
LINE
  5
22B7
  8
RKC_OUTWORD
 10
110.602991761132
 20
257.50524540554761
 30
0.0
 11
111.102991761132
 21
257.50524540554733
 31
0.0
  0
LINE
  5
22B8
  8
RKC_OUTWORD
 10
110.602991761132
 20
263.7052454055476
 30
0.0
 11
111.102991761132
 21
263.7052454055476
 31
0.0
  0
LINE
  5
22B9
  8
RKC_OUTWORD
 62
     3
 10
111.6029917611318
 20
263.60524540554752
 30
0.0
 11
111.6029917611321
 21
257.60524540554758
 31
0.0
  0
LINE
  5
22BA
  8
RKC_OUTWORD
 62
     3
 10
111.102991761132
 20
263.60524540554758
 30
0.0
 11
111.6029917611318
 21
263.60524540554752
 31
0.0
  0
LINE
  5
22BB
  8
RKC_OUTWORD
 62
     3
 10
111.102991761132
 20
257.60524540554758
 30
0.0
 11
111.6029917611321
 21
257.60524540554758
 31
0.0
  0
LINE
  5
22BC
  8
RKC_OUTWORD
 62
     3
 10
111.6029917611318
 20
263.50524540554733
 30
0.0
 11
112.602991761132
 21
263.50524540554733
 31
0.0
  0
LINE
  5
22BD
  8
RKC_OUTWORD
 62
     3
 10
111.6029917611318
 20
257.7052454055476
 30
0.0
 11
112.602991761132
 21
257.7052454055476
 31
0.0
  0
ARC
  5
22BE
  8
RKC_OUTWORD
 62
     3
 10
101.2930887547986
 20
260.60524540554752
 30
0.0
 40
10.710000000000001
 50
344.28961232778551
 51
15.710387672214519
  0
ARC
  5
22BF
  8
RKC_OUTWORD
 62
     3
 10
102.2930887547987
 20
260.60524540554752
 30
0.0
 40
10.710000000000001
 50
344.28961232778551
 51
15.710387672214519
  0
LINE
  5
22C0
  8
RKC_OUTWORD
 62
     3
 10
111.6029917611321
 20
259.90524540554748
 30
0.0
 11
111.98018845490439
 21
259.90524540554748
 31
0.0
  0
LINE
  5
22C1
  8
RKC_OUTWORD
 62
     3
 10
111.6029917611321
 20
261.30524540554751
 30
0.0
 11
111.98018845490439
 21
261.30524540554751
 31
0.0
  0
LINE
  5
22C2
  8
RKC_OUTWORD
 62
     3
 10
112.602991761132
 20
260.10524540554758
 30
0.0
 11
112.992991761132
 21
260.10524540554758
 31
0.0
  0
LINE
  5
22C3
  8
RKC_OUTWORD
 62
     3
 10
112.602991761132
 20
261.10524540554758
 30
0.0
 11
112.992991761132
 21
261.10524540554758
 31
0.0
  0
LINE
  5
22C4
  8
RKC_OUTWORD
 62
     3
 10
112.602991761132
 20
261.10524540554758
 30
0.0
 11
112.602991761132
 21
260.10524540554752
 31
0.0
  0
LINE
  5
22C5
  8
RKC_OUTWORD
 10
110.602991761132
 20
270.70524540554749
 30
0.0
 11
110.602991761132
 21
264.50524540554733
 31
0.0
  0
LINE
  5
22C6
  8
RKC_OUTWORD
 10
111.102991761132
 20
270.70524540554749
 30
0.0
 11
111.102991761132
 21
264.50524540554733
 31
0.0
  0
LINE
  5
22C7
  8
RKC_OUTWORD
 10
110.602991761132
 20
264.50524540554761
 30
0.0
 11
111.102991761132
 21
264.50524540554733
 31
0.0
  0
LINE
  5
22C8
  8
RKC_OUTWORD
 10
110.602991761132
 20
270.70524540554749
 30
0.0
 11
111.102991761132
 21
270.70524540554749
 31
0.0
  0
LINE
  5
22C9
  8
RKC_OUTWORD
 62
     3
 10
111.6029917611318
 20
270.60524540554752
 30
0.0
 11
111.6029917611321
 21
264.60524540554758
 31
0.0
  0
LINE
  5
22CA
  8
RKC_OUTWORD
 62
     3
 10
111.102991761132
 20
270.60524540554758
 30
0.0
 11
111.6029917611318
 21
270.60524540554752
 31
0.0
  0
LINE
  5
22CB
  8
RKC_OUTWORD
 62
     3
 10
111.102991761132
 20
264.60524540554758
 30
0.0
 11
111.6029917611321
 21
264.60524540554758
 31
0.0
  0
LINE
  5
22CC
  8
RKC_OUTWORD
 62
     3
 10
111.6029917611318
 20
270.50524540554733
 30
0.0
 11
112.602991761132
 21
270.50524540554733
 31
0.0
  0
LINE
  5
22CD
  8
RKC_OUTWORD
 62
     3
 10
111.6029917611318
 20
264.70524540554737
 30
0.0
 11
112.6029917611318
 21
264.70524540554737
 31
0.0
  0
ARC
  5
22CE
  8
RKC_OUTWORD
 62
     3
 10
101.2930887547986
 20
267.60524540554752
 30
0.0
 40
10.710000000000001
 50
344.28961232778551
 51
15.710387672214519
  0
ARC
  5
22CF
  8
RKC_OUTWORD
 62
     3
 10
102.2930887547987
 20
267.60524540554752
 30
0.0
 40
10.710000000000001
 50
344.28961232778551
 51
15.710387672214519
  0
LINE
  5
22D0
  8
RKC_OUTWORD
 62
     3
 10
111.6029917611321
 20
266.90524540554748
 30
0.0
 11
111.98018845490439
 21
266.90524540554748
 31
0.0
  0
LINE
  5
22D1
  8
RKC_OUTWORD
 62
     3
 10
111.6029917611321
 20
268.3052454055474
 30
0.0
 11
111.98018845490439
 21
268.3052454055474
 31
0.0
  0
LINE
  5
22D2
  8
RKC_OUTWORD
 62
     3
 10
112.602991761132
 20
267.10524540554758
 30
0.0
 11
112.992991761132
 21
267.10524540554758
 31
0.0
  0
LINE
  5
22D3
  8
RKC_OUTWORD
 62
     3
 10
112.602991761132
 20
268.10524540554758
 30
0.0
 11
112.992991761132
 21
268.10524540554758
 31
0.0
  0
LINE
  5
22D4
  8
RKC_OUTWORD
 62
     3
 10
112.602991761132
 20
268.10524540554758
 30
0.0
 11
112.602991761132
 21
267.10524540554741
 31
0.0
  0
LINE
  5
22D5
  8
RKC_OUTWORD
 10
110.602991761132
 20
277.70524540554749
 30
0.0
 11
110.602991761132
 21
271.5052454055475
 31
0.0
  0
LINE
  5
22D6
  8
RKC_OUTWORD
 62
     3
 10
111.102991761132
 20
277.70524540554749
 30
0.0
 11
111.102991761132
 21
271.5052454055475
 31
0.0
  0
LINE
  5
22D7
  8
RKC_OUTWORD
 10
110.602991761132
 20
271.5052454055475
 30
0.0
 11
111.102991761132
 21
271.5052454055475
 31
0.0
  0
LINE
  5
22D8
  8
RKC_OUTWORD
 10
110.602991761132
 20
277.70524540554749
 30
0.0
 11
111.102991761132
 21
277.70524540554749
 31
0.0
  0
LINE
  5
22D9
  8
RKC_OUTWORD
 62
     3
 10
111.6029917611318
 20
277.60524540554741
 30
0.0
 11
111.6029917611321
 21
271.60524540554758
 31
0.0
  0
LINE
  5
22DA
  8
RKC_OUTWORD
 62
     3
 10
111.102991761132
 20
277.60524540554758
 30
0.0
 11
111.6029917611318
 21
277.60524540554741
 31
0.0
  0
LINE
  5
22DB
  8
RKC_OUTWORD
 62
     3
 10
111.102991761132
 20
271.60524540554758
 30
0.0
 11
111.6029917611321
 21
271.60524540554758
 31
0.0
  0
LINE
  5
22DC
  8
RKC_OUTWORD
 62
     3
 10
111.6029917611318
 20
277.50524540554733
 30
0.0
 11
112.602991761132
 21
277.5052454055475
 31
0.0
  0
LINE
  5
22DD
  8
RKC_OUTWORD
 62
     3
 10
111.6029917611318
 20
271.7052454055476
 30
0.0
 11
112.602991761132
 21
271.7052454055476
 31
0.0
  0
ARC
  5
22DE
  8
RKC_OUTWORD
 62
     3
 10
101.2930887547986
 20
274.60524540554752
 30
0.0
 40
10.710000000000001
 50
344.28961232778551
 51
15.710387672214519
  0
ARC
  5
22DF
  8
RKC_OUTWORD
 62
     3
 10
102.2930887547987
 20
274.60524540554752
 30
0.0
 40
10.710000000000001
 50
344.28961232778551
 51
15.710387672214519
  0
LINE
  5
22E0
  8
RKC_OUTWORD
 62
     3
 10
112.992991761132
 20
277.25524540554733
 30
0.0
 11
112.992991761132
 21
271.9552454055476
 31
0.0
  0
LINE
  5
22E1
  8
RKC_OUTWORD
 62
     3
 10
111.6029917611321
 20
273.90524540554748
 30
0.0
 11
111.98018845490439
 21
273.90524540554748
 31
0.0
  0
LINE
  5
22E2
  8
RKC_OUTWORD
 62
     3
 10
111.6029917611321
 20
275.3052454055474
 30
0.0
 11
111.98018845490439
 21
275.3052454055474
 31
0.0
  0
LINE
  5
22E3
  8
RKC_OUTWORD
 62
     3
 10
112.602991761132
 20
274.10524540554758
 30
0.0
 11
112.992991761132
 21
274.10524540554758
 31
0.0
  0
LINE
  5
22E4
  8
RKC_OUTWORD
 62
     3
 10
112.602991761132
 20
275.10524540554758
 30
0.0
 11
112.992991761132
 21
275.10524540554758
 31
0.0
  0
LINE
  5
22E5
  8
RKC_OUTWORD
 62
     3
 10
112.602991761132
 20
275.10524540554758
 30
0.0
 11
112.602991761132
 21
274.10524540554752
 31
0.0
  0
LINE
  5
22E6
  8
RKC_OUTWORD
 10
119.602991761132
 20
260.20524540554737
 30
0.0
 11
119.602991761132
 21
257.50524540554761
 31
0.0
  0
LINE
  5
22E7
  8
RKC_OUTWORD
 10
120.102991761132
 20
260.20524540554737
 30
0.0
 11
120.102991761132
 21
254.60524540554741
 31
0.0
  0
LINE
  5
22E8
  8
RKC_OUTWORD
 10
119.602991761132
 20
260.20524540554737
 30
0.0
 11
120.102991761132
 21
260.20524540554737
 31
0.0
  0
LINE
  5
22E9
  8
RKC_OUTWORD
 62
     3
 10
120.6029917611318
 20
260.10524540554752
 30
0.0
 11
120.602991761132
 21
254.60524540554741
 31
0.0
  0
LINE
  5
22EA
  8
RKC_OUTWORD
 62
     3
 10
120.102991761132
 20
260.10524540554758
 30
0.0
 11
120.6029917611318
 21
260.10524540554752
 31
0.0
  0
LINE
  5
22EB
  8
RKC_OUTWORD
 62
     3
 10
120.6029917611318
 20
260.00524540554733
 30
0.0
 11
121.602991761132
 21
260.00524540554733
 31
0.0
  0
ARC
  5
22EC
  8
RKC_OUTWORD
 62
     3
 10
110.2930887547985
 20
257.10524540554752
 30
0.0
 40
10.710000000000001
 50
346.50109950714142
 51
15.710387672214519
  0
ARC
  5
22ED
  8
RKC_OUTWORD
 62
     3
 10
111.2930887547987
 20
257.10524540554752
 30
0.0
 40
10.710000000000001
 50
346.50109950714142
 51
15.710387672214519
  0
LINE
  5
22EE
  8
RKC_OUTWORD
 62
     3
 10
120.602991761132
 20
256.40524540554748
 30
0.0
 11
120.98018845490439
 21
256.40524540554748
 31
0.0
  0
LINE
  5
22EF
  8
RKC_OUTWORD
 62
     3
 10
120.602991761132
 20
257.80524540554728
 30
0.0
 11
120.98018845490439
 21
257.80524540554728
 31
0.0
  0
LINE
  5
22F0
  8
RKC_OUTWORD
 62
     3
 10
121.602991761132
 20
256.60524540554758
 30
0.0
 11
121.99299176113151
 21
256.60524540554758
 31
0.0
  0
LINE
  5
22F1
  8
RKC_OUTWORD
 62
     3
 10
121.602991761132
 20
257.60524540554758
 30
0.0
 11
121.99299176113151
 21
257.60524540554758
 31
0.0
  0
LINE
  5
22F2
  8
RKC_OUTWORD
 62
     3
 10
121.602991761132
 20
257.60524540554758
 30
0.0
 11
121.602991761132
 21
256.60524540554741
 31
0.0
  0
LINE
  5
22F3
  8
RKC_OUTWORD
 10
119.602991761132
 20
267.20524540554737
 30
0.0
 11
119.602991761132
 21
264.50524540554761
 31
0.0
  0
LINE
  5
22F4
  8
RKC_OUTWORD
 10
120.102991761132
 20
267.20524540554737
 30
0.0
 11
120.102991761132
 21
261.00524540554733
 31
0.0
  0
LINE
  5
22F5
  8
RKC_OUTWORD
 10
119.602991761132
 20
261.0052454055475
 30
0.0
 11
120.102991761132
 21
261.00524540554733
 31
0.0
  0
LINE
  5
22F6
  8
RKC_OUTWORD
 10
119.602991761132
 20
267.20524540554737
 30
0.0
 11
120.102991761132
 21
267.20524540554737
 31
0.0
  0
LINE
  5
22F7
  8
RKC_OUTWORD
 62
     3
 10
120.6029917611318
 20
267.10524540554741
 30
0.0
 11
120.602991761132
 21
261.10524540554758
 31
0.0
  0
LINE
  5
22F8
  8
RKC_OUTWORD
 62
     3
 10
120.102991761132
 20
267.10524540554758
 30
0.0
 11
120.6029917611318
 21
267.10524540554741
 31
0.0
  0
LINE
  5
22F9
  8
RKC_OUTWORD
 62
     3
 10
120.102991761132
 20
261.10524540554758
 30
0.0
 11
120.602991761132
 21
261.10524540554758
 31
0.0
  0
LINE
  5
22FA
  8
RKC_OUTWORD
 62
     3
 10
120.6029917611318
 20
267.00524540554733
 30
0.0
 11
121.602991761132
 21
267.0052454055475
 31
0.0
  0
LINE
  5
22FB
  8
RKC_OUTWORD
 62
     3
 10
120.6029917611318
 20
261.2052454055476
 30
0.0
 11
121.602991761132
 21
261.2052454055476
 31
0.0
  0
ARC
  5
22FC
  8
RKC_OUTWORD
 62
     3
 10
110.2930887547985
 20
264.10524540554752
 30
0.0
 40
10.710000000000001
 50
344.28961232778551
 51
15.710387672214519
  0
ARC
  5
22FD
  8
RKC_OUTWORD
 62
     3
 10
111.2930887547987
 20
264.10524540554752
 30
0.0
 40
10.710000000000001
 50
344.28961232778551
 51
15.710387672214519
  0
LINE
  5
22FE
  8
RKC_OUTWORD
 62
     3
 10
120.602991761132
 20
263.40524540554748
 30
0.0
 11
120.98018845490439
 21
263.40524540554748
 31
0.0
  0
LINE
  5
22FF
  8
RKC_OUTWORD
 62
     3
 10
120.602991761132
 20
264.80524540554723
 30
0.0
 11
120.98018845490439
 21
264.80524540554723
 31
0.0
  0
LINE
  5
2300
  8
RKC_OUTWORD
 62
     3
 10
121.602991761132
 20
263.60524540554758
 30
0.0
 11
121.99299176113151
 21
263.60524540554758
 31
0.0
  0
LINE
  5
2301
  8
RKC_OUTWORD
 62
     3
 10
121.602991761132
 20
264.60524540554758
 30
0.0
 11
121.99299176113151
 21
264.60524540554758
 31
0.0
  0
LINE
  5
2302
  8
RKC_OUTWORD
 62
     3
 10
121.602991761132
 20
264.60524540554758
 30
0.0
 11
121.602991761132
 21
263.60524540554752
 31
0.0
  0
LINE
  5
2303
  8
RKC_OUTWORD
 10
119.602991761132
 20
274.2052454055476
 30
0.0
 11
119.602991761132
 21
271.5052454055475
 31
0.0
  0
LINE
  5
2304
  8
RKC_OUTWORD
 10
120.102991761132
 20
274.2052454055476
 30
0.0
 11
120.102991761132
 21
268.00524540554733
 31
0.0
  0
LINE
  5
2305
  8
RKC_OUTWORD
 10
119.602991761132
 20
268.00524540554761
 30
0.0
 11
120.102991761132
 21
268.00524540554733
 31
0.0
  0
LINE
  5
2306
  8
RKC_OUTWORD
 10
119.602991761132
 20
274.2052454055476
 30
0.0
 11
120.102991761132
 21
274.2052454055476
 31
0.0
  0
LINE
  5
2307
  8
RKC_OUTWORD
 62
     3
 10
120.6029917611318
 20
274.10524540554752
 30
0.0
 11
120.602991761132
 21
268.10524540554758
 31
0.0
  0
LINE
  5
2308
  8
RKC_OUTWORD
 62
     3
 10
120.102991761132
 20
274.10524540554758
 30
0.0
 11
120.6029917611318
 21
274.10524540554752
 31
0.0
  0
LINE
  5
2309
  8
RKC_OUTWORD
 62
     3
 10
120.102991761132
 20
268.10524540554758
 30
0.0
 11
120.602991761132
 21
268.10524540554758
 31
0.0
  0
LINE
  5
230A
  8
RKC_OUTWORD
 62
     3
 10
120.6029917611318
 20
274.00524540554733
 30
0.0
 11
121.602991761132
 21
274.00524540554733
 31
0.0
  0
LINE
  5
230B
  8
RKC_OUTWORD
 62
     3
 10
120.6029917611318
 20
268.20524540554749
 30
0.0
 11
121.602991761132
 21
268.20524540554749
 31
0.0
  0
ARC
  5
230C
  8
RKC_OUTWORD
 62
     3
 10
110.2930887547985
 20
271.10524540554752
 30
0.0
 40
10.710000000000001
 50
344.28961232778551
 51
15.710387672214519
  0
ARC
  5
230D
  8
RKC_OUTWORD
 62
     3
 10
111.2930887547987
 20
271.10524540554752
 30
0.0
 40
10.710000000000001
 50
344.28961232778551
 51
15.710387672214519
  0
LINE
  5
230E
  8
RKC_OUTWORD
 62
     3
 10
120.602991761132
 20
270.40524540554748
 30
0.0
 11
120.98018845490439
 21
270.40524540554748
 31
0.0
  0
LINE
  5
230F
  8
RKC_OUTWORD
 62
     3
 10
120.602991761132
 20
271.80524540554751
 30
0.0
 11
120.98018845490439
 21
271.80524540554751
 31
0.0
  0
LINE
  5
2310
  8
RKC_OUTWORD
 62
     3
 10
121.602991761132
 20
270.60524540554758
 30
0.0
 11
121.99299176113151
 21
270.60524540554758
 31
0.0
  0
LINE
  5
2311
  8
RKC_OUTWORD
 62
     3
 10
121.602991761132
 20
271.60524540554758
 30
0.0
 11
121.99299176113151
 21
271.60524540554758
 31
0.0
  0
LINE
  5
2312
  8
RKC_OUTWORD
 62
     3
 10
121.602991761132
 20
271.60524540554758
 30
0.0
 11
121.602991761132
 21
270.60524540554752
 31
0.0
  0
LINE
  5
2313
  8
RKC_OUTWORD
 10
119.6029917611318
 20
280.60524540554729
 30
0.0
 11
119.602991761132
 21
275.00524540554738
 31
0.0
  0
LINE
  5
2314
  8
RKC_OUTWORD
 10
120.102991761132
 20
280.60524540554729
 30
0.0
 11
120.102991761132
 21
275.00524540554738
 31
0.0
  0
LINE
  5
2315
  8
RKC_OUTWORD
 10
119.602991761132
 20
275.00524540554761
 30
0.0
 11
120.102991761132
 21
275.00524540554738
 31
0.0
  0
LINE
  5
2316
  8
RKC_OUTWORD
 62
     3
 10
120.6029917611318
 20
280.60524540554729
 30
0.0
 11
120.602991761132
 21
275.10524540554758
 31
0.0
  0
LINE
  5
2317
  8
RKC_OUTWORD
 62
     3
 10
120.102991761132
 20
275.10524540554758
 30
0.0
 11
120.602991761132
 21
275.10524540554758
 31
0.0
  0
LINE
  5
2318
  8
RKC_OUTWORD
 62
     3
 10
120.6029917611318
 20
275.20524540554737
 30
0.0
 11
121.6029917611318
 21
275.20524540554737
 31
0.0
  0
ARC
  5
2319
  8
RKC_OUTWORD
 62
     3
 10
110.2930887547985
 20
278.10524540554752
 30
0.0
 40
10.710000000000001
 50
344.28961232778551
 51
13.498900492858681
  0
ARC
  5
231A
  8
RKC_OUTWORD
 62
     3
 10
111.2930887547987
 20
278.10524540554752
 30
0.0
 40
10.710000000000001
 50
344.28961232778551
 51
13.498900492858681
  0
LINE
  5
231B
  8
RKC_OUTWORD
 62
     3
 10
120.602991761132
 20
277.40524540554748
 30
0.0
 11
120.98018845490439
 21
277.40524540554748
 31
0.0
  0
LINE
  5
231C
  8
RKC_OUTWORD
 62
     3
 10
120.602991761132
 20
278.8052454055474
 30
0.0
 11
120.98018845490439
 21
278.8052454055474
 31
0.0
  0
LINE
  5
231D
  8
RKC_OUTWORD
 62
     3
 10
121.602991761132
 20
277.60524540554758
 30
0.0
 11
121.99299176113151
 21
277.60524540554758
 31
0.0
  0
LINE
  5
231E
  8
RKC_OUTWORD
 62
     3
 10
121.602991761132
 20
278.60524540554758
 30
0.0
 11
121.99299176113151
 21
278.60524540554758
 31
0.0
  0
LINE
  5
231F
  8
RKC_OUTWORD
 62
     3
 10
121.602991761132
 20
278.60524540554758
 30
0.0
 11
121.602991761132
 21
277.60524540554741
 31
0.0
  0
LINE
  5
2320
  8
RKC_OUTWORD
 10
119.602991761132
 20
256.70524540554737
 30
0.0
 11
120.102991761132
 21
256.70524540554737
 31
0.0
  0
LINE
  5
2321
  8
RKC_OUTWORD
 10
110.602991761132
 20
263.7052454055476
 30
0.0
 11
120.102991761132
 21
263.7052454055476
 31
0.0
  0
LINE
  5
2322
  8
RKC_OUTWORD
 10
110.602991761132
 20
257.50524540554761
 30
0.0
 11
120.102991761132
 21
257.50524540554761
 31
0.0
  0
LINE
  5
2323
  8
RKC_OUTWORD
 10
110.602991761132
 20
270.70524540554749
 30
0.0
 11
120.102991761132
 21
270.70524540554749
 31
0.0
  0
LINE
  5
2324
  8
RKC_OUTWORD
 10
110.602991761132
 20
264.50524540554761
 30
0.0
 11
120.102991761132
 21
264.50524540554761
 31
0.0
  0
LINE
  5
2325
  8
RKC_OUTWORD
 10
110.602991761132
 20
277.70524540554749
 30
0.0
 11
120.102991761132
 21
277.70524540554749
 31
0.0
  0
LINE
  5
2326
  8
RKC_OUTWORD
 10
110.602991761132
 20
271.5052454055475
 30
0.0
 11
120.102991761132
 21
271.5052454055475
 31
0.0
  0
LINE
  5
2327
  8
RKC_OUTWORD
 10
119.602991761132
 20
260.20524540554737
 30
0.0
 11
128.60299176113199
 21
260.20524540554737
 31
0.0
  0
LINE
  5
2328
  8
RKC_OUTWORD
 10
119.602991761132
 20
261.0052454055475
 30
0.0
 11
128.60299176113199
 21
261.00524540554733
 31
0.0
  0
LINE
  5
2329
  8
RKC_OUTWORD
 10
119.602991761132
 20
267.20524540554737
 30
0.0
 11
128.60299176113199
 21
267.20524540554737
 31
0.0
  0
LINE
  5
232A
  8
RKC_OUTWORD
 10
119.602991761132
 20
268.00524540554761
 30
0.0
 11
128.60299176113199
 21
268.00524540554733
 31
0.0
  0
LINE
  5
232B
  8
RKC_OUTWORD
 10
119.602991761132
 20
274.2052454055476
 30
0.0
 11
128.60299176113199
 21
274.2052454055476
 31
0.0
  0
LINE
  5
232C
  8
RKC_OUTWORD
 10
119.602991761132
 20
275.00524540554761
 30
0.0
 11
128.60299176113199
 21
275.00524540554738
 31
0.0
  0
LINE
  5
232D
  8
RKC_OUTWORD
 10
119.602991761132
 20
256.70524540554737
 30
0.0
 11
119.602991761132
 21
254.60524540554761
 31
0.0
  0
LINE
  5
232E
  8
RKC_OUTWORD
 10
119.602991761132
 20
263.7052454055476
 30
0.0
 11
119.602991761132
 21
261.00524540554733
 31
0.0
  0
LINE
  5
232F
  8
RKC_OUTWORD
 10
119.602991761132
 20
270.70524540554749
 30
0.0
 11
119.602991761132
 21
268.00524540554733
 31
0.0
  0
LINE
  5
2330
  8
RKC_OUTWORD
 10
128.60299176113199
 20
260.20524540554737
 30
0.0
 11
128.60299176113199
 21
261.00524540554733
 31
0.0
  0
LINE
  5
2331
  8
RKC_OUTWORD
 10
128.60299176113199
 20
267.20524540554737
 30
0.0
 11
128.60299176113199
 21
268.00524540554733
 31
0.0
  0
LINE
  5
2332
  8
RKC_OUTWORD
 10
128.60299176113199
 20
274.2052454055476
 30
0.0
 11
128.60299176113199
 21
275.00524540554738
 31
0.0
  0
LINE
  5
2333
  8
RKC_OUTWORD
 10
98.002991761131284
 20
281.60524540554758
 30
0.0
 11
98.302991761131366
 21
281.60524540554741
 31
0.0
  0
LINE
  5
2334
  8
RKC_OUTWORD
 10
102.1029917611318
 20
272.60524540554678
 30
0.0
 11
102.1029917611318
 21
262.60524540554832
 31
0.0
  0
LINE
  5
2335
  8
RKC_OUTWORD
 10
102.4029917611319
 20
272.60524540554678
 30
0.0
 11
102.4029917611319
 21
262.60524540554832
 31
0.0
  0
LINE
  5
2336
  8
RKC_OUTWORD
 10
102.7029917611319
 20
272.60524540554678
 30
0.0
 11
102.7029917611319
 21
262.60524540554832
 31
0.0
  0
LINE
  5
2337
  8
RKC_OUTWORD
 10
101.902991761132
 20
272.60524540554678
 30
0.0
 11
103.702991761132
 21
272.60524540554638
 31
0.0
  0
LINE
  5
2338
  8
RKC_OUTWORD
 10
101.902991761132
 20
262.60524540554832
 30
0.0
 11
103.702991761132
 21
262.60524540554871
 31
0.0
  0
LINE
  5
2339
  8
RKC_OUTWORD
 10
103.702991761132
 20
272.60524540554678
 30
0.0
 11
103.702991761132
 21
262.60524540554832
 31
0.0
  0
LINE
  5
233A
  8
RKC_OUTWORD
 10
129.10299176113199
 20
280.60524540554729
 30
0.0
 11
129.10299176113179
 21
254.60524540554741
 31
0.0
  0
LINE
  5
233B
  8
RKC_OUTWORD
 10
129.10299176113179
 20
262.60524540554741
 30
0.0
 11
130.81299176113191
 21
262.60524540554758
 31
0.0
  0
LINE
  5
233C
  8
RKC_OUTWORD
 10
129.10299176113179
 20
272.60524540554758
 30
0.0
 11
130.81299176113191
 21
272.60524540554758
 31
0.0
  0
LINE
  5
233D
  8
RKC_OUTWORD
 10
129.10299176113179
 20
271.60524540554758
 30
0.0
 11
130.81299176113191
 21
271.60524540554758
 31
0.0
  0
LINE
  5
233E
  8
RKC_OUTWORD
 10
129.10299176113179
 20
263.60524540554758
 30
0.0
 11
130.81299176113191
 21
263.60524540554758
 31
0.0
  0
LINE
  5
233F
  8
RKC_OUTWORD
 10
140.9629917611316
 20
271.60524540554781
 30
0.0
 11
140.9629917611316
 21
263.60524540554758
 31
0.0
  0
LINE
  5
2340
  8
RKC_OUTWORD
 10
141.96299176113169
 20
272.60524540554758
 30
0.0
 11
141.96299176113169
 21
262.60524540554758
 31
0.0
  0
LINE
  5
2341
  8
RKC_OUTWORD
 10
132.80299176113189
 20
272.60524540554758
 30
0.0
 11
141.96299176113169
 21
272.60524540554758
 31
0.0
  0
LINE
  5
2342
  8
RKC_OUTWORD
 10
132.80299176113189
 20
271.60524540554781
 30
0.0
 11
140.9629917611316
 21
271.60524540554758
 31
0.0
  0
LINE
  5
2343
  8
RKC_OUTWORD
 10
132.80299176113189
 20
263.60524540554758
 30
0.0
 11
140.9629917611316
 21
263.60524540554758
 31
0.0
  0
LINE
  5
2344
  8
RKC_OUTWORD
 10
132.80299176113189
 20
262.60524540554758
 30
0.0
 11
141.96299176113169
 21
262.60524540554758
 31
0.0
  0
LINE
  5
2345
  8
RKC_OUTWORD
 10
137.9629917611316
 20
271.60524540554781
 30
0.0
 11
137.9629917611316
 21
263.60524540554758
 31
0.0
  0
LINE
  5
2346
  8
RKC_OUTWORD
 10
245.2029917611317
 20
199.35524540554741
 30
0.0
 11
245.30299176113169
 21
199.35524540554741
 31
0.0
  0
LINE
  5
2347
  8
RKC_OUTWORD
 10
245.2029917611317
 20
199.85524540554761
 30
0.0
 11
245.2029917611317
 21
195.7052454055474
 31
0.0
  0
LINE
  5
2348
  8
RKC_OUTWORD
 10
245.30299176113169
 20
199.7552454055475
 30
0.0
 11
245.30299176113169
 21
176.85524540554749
 31
0.0
  0
LINE
  5
2349
  8
RKC_OUTWORD
 10
247.90299176113189
 20
199.85524540554761
 30
0.0
 11
247.90299176113189
 21
198.7352454055474
 31
0.0
  0
LINE
  5
234A
  8
RKC_OUTWORD
 10
248.7029917611319
 20
199.85524540554761
 30
0.0
 11
248.7029917611319
 21
198.7352454055474
 31
0.0
  0
LINE
  5
234B
  8
RKC_OUTWORD
 10
254.90299176113189
 20
199.85524540554741
 30
0.0
 11
254.90299176113189
 21
198.735245405547
 31
0.0
  0
LINE
  5
234C
  8
RKC_OUTWORD
 10
254.90299176113189
 20
199.85524540554741
 30
0.0
 11
254.90299176113189
 21
198.735245405547
 31
0.0
  0
LINE
  5
234D
  8
RKC_OUTWORD
 10
254.90299176113189
 20
199.85524540554741
 30
0.0
 11
254.90299176113189
 21
198.735245405547
 31
0.0
  0
LINE
  5
234E
  8
RKC_OUTWORD
 10
255.70299176113181
 20
199.85524540554741
 30
0.0
 11
255.70299176113181
 21
198.735245405547
 31
0.0
  0
LINE
  5
234F
  8
RKC_OUTWORD
 10
261.90299176113189
 20
199.8552454055469
 30
0.0
 11
261.90299176113189
 21
198.73524540554681
 31
0.0
  0
LINE
  5
2350
  8
RKC_OUTWORD
 10
262.70299176113161
 20
199.8552454055469
 30
0.0
 11
262.70299176113161
 21
198.73524540554661
 31
0.0
  0
LINE
  5
2351
  8
RKC_OUTWORD
 10
268.90299176113189
 20
199.8552454055467
 30
0.0
 11
268.90299176113189
 21
198.73524540554641
 31
0.0
  0
LINE
  5
2352
  8
RKC_OUTWORD
 10
272.40299176113189
 20
199.85524540554761
 30
0.0
 11
272.40299176113189
 21
195.70524540554729
 31
0.0
  0
LINE
  5
2353
  8
RKC_OUTWORD
 10
272.30299176113169
 20
199.75524540554721
 30
0.0
 11
272.30299176113169
 21
176.85524540554749
 31
0.0
  0
LINE
  5
2354
  8
RKC_OUTWORD
 10
243.80299176113209
 20
195.7052454055474
 30
0.0
 11
245.2029917611317
 21
195.7052454055474
 31
0.0
  0
LINE
  5
2355
  8
RKC_OUTWORD
 10
272.40299176113189
 20
195.70524540554729
 30
0.0
 11
273.80299176113198
 21
195.7052454055474
 31
0.0
  0
LINE
  5
2356
  8
RKC_OUTWORD
 10
243.80299176113209
 20
194.0052454055475
 30
0.0
 11
245.2029917611317
 21
194.0052454055475
 31
0.0
  0
LINE
  5
2357
  8
RKC_OUTWORD
 10
272.40299176113189
 20
194.0052454055475
 30
0.0
 11
273.80299176113198
 21
194.0052454055475
 31
0.0
  0
LINE
  5
2358
  8
RKC_OUTWORD
 10
244.1029917611319
 20
195.66524540554741
 30
0.0
 11
245.30299176113169
 21
195.66524540554741
 31
0.0
  0
LINE
  5
2359
  8
RKC_OUTWORD
 10
244.1029917611319
 20
194.04524540554729
 30
0.0
 11
245.30299176113169
 21
194.0452454055474
 31
0.0
  0
LINE
  5
235A
  8
RKC_OUTWORD
 10
272.30299176113169
 20
195.66524540554741
 30
0.0
 11
273.5029917611318
 21
195.66524540554741
 31
0.0
  0
LINE
  5
235B
  8
RKC_OUTWORD
 10
272.30299176113169
 20
194.0452454055474
 30
0.0
 11
273.5029917611318
 21
194.0452454055474
 31
0.0
  0
LINE
  5
235C
  8
RKC_OUTWORD
 10
244.50299176113171
 20
176.35524540554749
 30
0.0
 11
273.10299176113188
 21
176.35524540554749
 31
0.0
  0
LINE
  5
235D
  8
RKC_OUTWORD
 10
245.30299176113169
 20
199.7552454055475
 30
0.0
 11
246.10299176113199
 21
199.7552454055475
 31
0.0
  0
LINE
  5
235E
  8
RKC_OUTWORD
 10
271.5029917611318
 20
176.9552454055474
 30
0.0
 11
271.5029917611318
 21
176.85524540554749
 31
0.0
  0
LINE
  5
235F
  8
RKC_OUTWORD
 10
246.10299176113199
 20
199.7552454055475
 30
0.0
 11
246.10299176113199
 21
198.7352454055474
 31
0.0
  0
LINE
  5
2360
  8
RKC_OUTWORD
 10
247.90299176113189
 20
198.7352454055474
 30
0.0
 11
271.5029917611318
 21
198.7352454055474
 31
0.0
  0
LINE
  5
2361
  8
RKC_OUTWORD
 10
271.5029917611318
 20
199.7552454055475
 30
0.0
 11
272.30299176113169
 21
199.75524540554721
 31
0.0
  0
LINE
  5
2362
  8
RKC_OUTWORD
 10
248.7029917611319
 20
199.35524540554749
 30
0.0
 11
254.90299176113189
 21
199.35524540554749
 31
0.0
  0
LINE
  5
2363
  8
RKC_OUTWORD
 10
255.70299176113181
 20
199.35524540554749
 30
0.0
 11
261.9029917611316
 21
199.35524540554749
 31
0.0
  0
LINE
  5
2364
  8
RKC_OUTWORD
 10
262.70299176113161
 20
199.35524540554749
 30
0.0
 11
268.90299176113189
 21
199.35524540554749
 31
0.0
  0
ARC
  5
2365
  8
RKC_OUTWORD
 10
273.10299176113188
 20
175.6552454055475
 30
0.0
 40
0.7
 50
0.0
 51
90.0
  0
LINE
  5
2366
  8
RKC_OUTWORD
 10
246.60299176113159
 20
176.9552454055474
 30
0.0
 11
246.60299176113159
 21
176.35524540554761
 31
0.0
  0
LINE
  5
2367
  8
RKC_OUTWORD
 10
245.30299176113169
 20
176.85524540554749
 30
0.0
 11
246.10299176113199
 21
176.85524540554749
 31
0.0
  0
LINE
  5
2368
  8
RKC_OUTWORD
 10
245.2029917611315
 20
176.45524540554749
 30
0.0
 11
246.60299176113159
 21
176.45524540554749
 31
0.0
  0
LINE
  5
2369
  8
RKC_OUTWORD
 10
246.10299176113199
 20
176.85524540554749
 30
0.0
 11
246.10299176113199
 21
176.9552454055474
 31
0.0
  0
LINE
  5
236A
  8
RKC_OUTWORD
 10
246.10299176113199
 20
176.9552454055474
 30
0.0
 11
271.5029917611318
 21
176.9552454055474
 31
0.0
  0
LINE
  5
236B
  8
RKC_OUTWORD
 10
272.40299176113189
 20
199.85524540554761
 30
0.0
 11
272.40299176113189
 21
195.70524540554729
 31
0.0
  0
LINE
  5
236C
  8
RKC_OUTWORD
 10
272.30299176113209
 20
199.7552454055475
 30
0.0
 11
272.30299176113209
 21
176.85524540554749
 31
0.0
  0
LINE
  5
236D
  8
RKC_OUTWORD
 10
271.00299176113219
 20
176.9552454055474
 30
0.0
 11
271.0029917611318
 21
176.7552454055475
 31
0.0
  0
LINE
  5
236E
  8
RKC_OUTWORD
 10
272.30299176113209
 20
176.85524540554749
 30
0.0
 11
271.5029917611318
 21
176.85524540554749
 31
0.0
  0
LINE
  5
236F
  8
RKC_OUTWORD
 10
246.60299176113159
 20
176.45524540554749
 30
0.0
 11
245.2029917611315
 21
176.45524540554749
 31
0.0
  0
LINE
  5
2370
  8
RKC_OUTWORD
 10
271.5029917611318
 20
176.85524540554749
 30
0.0
 11
271.5029917611318
 21
176.9552454055474
 31
0.0
  0
LINE
  5
2371
  8
RKC_OUTWORD
 10
271.5029917611318
 20
176.9552454055474
 30
0.0
 11
246.10299176113199
 21
176.9552454055474
 31
0.0
  0
LINE
  5
2372
  8
RKC_OUTWORD
 10
273.60299176113199
 20
176.7552454055475
 30
0.0
 11
271.0029917611318
 21
176.7552454055475
 31
0.0
  0
LINE
  5
2373
  8
RKC_OUTWORD
 10
271.5029917611318
 20
199.7552454055475
 30
0.0
 11
271.5029917611318
 21
198.7352454055474
 31
0.0
  0
LINE
  5
2374
  8
RKC_OUTWORD
 10
253.80299176113189
 20
176.9552454055474
 30
0.0
 11
253.80299176113189
 21
176.35524540554761
 31
0.0
  0
LINE
  5
2375
  8
RKC_OUTWORD
 10
254.80299176113201
 20
176.9552454055474
 30
0.0
 11
254.80299176113201
 21
176.35524540554761
 31
0.0
  0
LINE
  5
2376
  8
RKC_OUTWORD
 10
262.80299176113169
 20
176.9552454055474
 30
0.0
 11
262.80299176113169
 21
176.35524540554761
 31
0.0
  0
LINE
  5
2377
  8
RKC_OUTWORD
 10
263.80299176113169
 20
176.9552454055474
 30
0.0
 11
263.80299176113169
 21
176.35524540554761
 31
0.0
  0
LINE
  5
2378
  8
RKC_OUTWORD
 10
262.80299176113169
 20
176.85524540554749
 30
0.0
 11
254.80299176113201
 21
176.85524540554749
 31
0.0
  0
LINE
  5
2379
  8
RKC_OUTWORD
 10
245.20299176113181
 20
177.55524540554751
 30
0.0
 11
245.30299176113209
 21
177.55524540554751
 31
0.0
  0
LINE
  5
237A
  8
RKC_OUTWORD
 10
245.2029917611323
 20
179.15524540554759
 30
0.0
 11
245.30299176113249
 21
179.1552454055475
 31
0.0
  0
LINE
  5
237B
  8
RKC_OUTWORD
 10
272.40299176113189
 20
177.55524540554751
 30
0.0
 11
272.30299176113169
 21
177.55524540554751
 31
0.0
  0
LINE
  5
237C
  8
RKC_OUTWORD
 10
272.40299176113137
 20
179.15524540554759
 30
0.0
 11
272.3029917611313
 21
179.1552454055475
 31
0.0
  0
LINE
  5
237D
  8
RKC_OUTWORD
 10
243.90299176113189
 20
74.855245405547748
 30
0.0
 11
273.60299176113159
 21
74.855245405547748
 31
0.0
  0
LINE
  5
237E
  8
RKC_OUTWORD
 10
244.50299176113191
 20
98.355245405547706
 30
0.0
 11
273.10299176113188
 21
98.355245405547706
 31
0.0
  0
LINE
  5
237F
  8
RKC_OUTWORD
 10
245.2029917611317
 20
75.355245405547663
 30
0.0
 11
245.30299176113169
 21
75.355245405547663
 31
0.0
  0
LINE
  5
2380
  8
RKC_OUTWORD
 10
245.2029917611317
 20
74.855245405547564
 30
0.0
 11
245.20299176113181
 21
79.005245405547754
 31
0.0
  0
LINE
  5
2381
  8
RKC_OUTWORD
 10
245.30299176113169
 20
74.955245405547672
 30
0.0
 11
245.30299176113169
 21
97.855245405547691
 31
0.0
  0
LINE
  5
2382
  8
RKC_OUTWORD
 10
248.7029917611319
 20
74.855245405547564
 30
0.0
 11
248.7029917611319
 21
75.975245405547753
 31
0.0
  0
LINE
  5
2383
  8
RKC_OUTWORD
 10
254.90299176113189
 20
74.855245405547748
 30
0.0
 11
254.90299176113189
 21
75.975245405548065
 31
0.0
  0
LINE
  5
2384
  8
RKC_OUTWORD
 10
254.90299176113189
 20
74.855245405547748
 30
0.0
 11
254.90299176113189
 21
75.975245405548065
 31
0.0
  0
LINE
  5
2385
  8
RKC_OUTWORD
 10
254.90299176113189
 20
74.855245405547748
 30
0.0
 11
254.90299176113189
 21
75.975245405548065
 31
0.0
  0
LINE
  5
2386
  8
RKC_OUTWORD
 10
255.70299176113181
 20
74.855245405547748
 30
0.0
 11
255.70299176113181
 21
75.975245405548151
 31
0.0
  0
LINE
  5
2387
  8
RKC_OUTWORD
 10
261.90299176113189
 20
74.855245405548146
 30
0.0
 11
261.90299176113189
 21
75.975245405548463
 31
0.0
  0
LINE
  5
2388
  8
RKC_OUTWORD
 10
262.70299176113161
 20
74.855245405548146
 30
0.0
 11
262.70299176113161
 21
75.975245405548463
 31
0.0
  0
LINE
  5
2389
  8
RKC_OUTWORD
 10
268.90299176113189
 20
74.855245405548544
 30
0.0
 11
268.90299176113189
 21
75.975245405548776
 31
0.0
  0
LINE
  5
238A
  8
RKC_OUTWORD
 10
272.40299176113189
 20
74.855245405547564
 30
0.0
 11
272.40299176113189
 21
79.005245405547754
 31
0.0
  0
LINE
  5
238B
  8
RKC_OUTWORD
 10
272.30299176113169
 20
74.955245405547672
 30
0.0
 11
272.30299176113169
 21
97.855245405547691
 31
0.0
  0
LINE
  5
238C
  8
RKC_OUTWORD
 10
243.80299176113209
 20
79.005245405547754
 30
0.0
 11
245.20299176113181
 21
79.005245405547754
 31
0.0
  0
LINE
  5
238D
  8
RKC_OUTWORD
 10
272.40299176113189
 20
79.005245405547754
 30
0.0
 11
273.80299176113198
 21
79.005245405547754
 31
0.0
  0
LINE
  5
238E
  8
RKC_OUTWORD
 10
243.80299176113209
 20
80.705245405547728
 30
0.0
 11
245.20299176113181
 21
80.705245405547728
 31
0.0
  0
LINE
  5
238F
  8
RKC_OUTWORD
 10
272.40299176113223
 20
80.705245405547728
 30
0.0
 11
273.80299176113198
 21
80.705245405547728
 31
0.0
  0
LINE
  5
2390
  8
RKC_OUTWORD
 10
244.1029917611319
 20
79.045245405547732
 30
0.0
 11
245.30299176113169
 21
79.045245405547732
 31
0.0
  0
LINE
  5
2391
  8
RKC_OUTWORD
 10
244.1029917611319
 20
80.665245405547751
 30
0.0
 11
245.30299176113169
 21
80.665245405547751
 31
0.0
  0
LINE
  5
2392
  8
RKC_OUTWORD
 10
272.30299176113169
 20
79.045245405547732
 30
0.0
 11
273.5029917611318
 21
79.045245405547561
 31
0.0
  0
LINE
  5
2393
  8
RKC_OUTWORD
 10
272.30299176113169
 20
80.665245405547751
 30
0.0
 11
273.5029917611318
 21
80.665245405547751
 31
0.0
  0
LINE
  5
2394
  8
RKC_OUTWORD
 10
245.30299176113169
 20
74.955245405547672
 30
0.0
 11
246.10299176113199
 21
74.955245405547672
 31
0.0
  0
LINE
  5
2395
  8
RKC_OUTWORD
 10
271.5029917611318
 20
97.755245405547655
 30
0.0
 11
271.5029917611318
 21
97.855245405547578
 31
0.0
  0
LINE
  5
2396
  8
RKC_OUTWORD
 10
246.10299176113199
 20
74.955245405547672
 30
0.0
 11
246.10299176113199
 21
75.975245405547753
 31
0.0
  0
LINE
  5
2397
  8
RKC_OUTWORD
 10
248.7029917611317
 20
75.975245405547753
 30
0.0
 11
271.5029917611318
 21
75.975245405547753
 31
0.0
  0
LINE
  5
2398
  8
RKC_OUTWORD
 10
271.5029917611318
 20
74.955245405547672
 30
0.0
 11
272.30299176113169
 21
74.955245405547672
 31
0.0
  0
LINE
  5
2399
  8
RKC_OUTWORD
 10
248.7029917611319
 20
75.355245405547663
 30
0.0
 11
254.90299176113189
 21
75.355245405547663
 31
0.0
  0
LINE
  5
239A
  8
RKC_OUTWORD
 10
255.70299176113181
 20
75.355245405547663
 30
0.0
 11
261.9029917611316
 21
75.355245405547663
 31
0.0
  0
LINE
  5
239B
  8
RKC_OUTWORD
 10
262.70299176113161
 20
75.355245405547663
 30
0.0
 11
268.90299176113189
 21
75.355245405547663
 31
0.0
  0
ARC
  5
239C
  8
RKC_OUTWORD
 10
273.10299176113188
 20
99.055245405547652
 30
0.0
 40
0.7
 50
270.0
 51
0.0
  0
LINE
  5
239D
  8
RKC_OUTWORD
 10
246.60299176113159
 20
97.755245405547655
 30
0.0
 11
246.60299176113159
 21
98.355245405547706
 31
0.0
  0
LINE
  5
239E
  8
RKC_OUTWORD
 10
245.30299176113169
 20
97.855245405547578
 30
0.0
 11
246.10299176113199
 21
97.855245405547691
 31
0.0
  0
LINE
  5
239F
  8
RKC_OUTWORD
 10
245.2029917611315
 20
98.255245405547555
 30
0.0
 11
246.60299176113159
 21
98.255245405547555
 31
0.0
  0
LINE
  5
23A0
  8
RKC_OUTWORD
 10
246.10299176113199
 20
97.855245405547691
 30
0.0
 11
246.10299176113199
 21
97.755245405547655
 31
0.0
  0
LINE
  5
23A1
  8
RKC_OUTWORD
 10
272.40299176113189
 20
74.855245405547564
 30
0.0
 11
272.40299176113223
 21
79.005245405547754
 31
0.0
  0
LINE
  5
23A2
  8
RKC_OUTWORD
 10
272.30299176113209
 20
74.955245405547672
 30
0.0
 11
272.30299176113209
 21
97.855245405547691
 31
0.0
  0
LINE
  5
23A3
  8
RKC_OUTWORD
 10
271.00299176113219
 20
97.755245405547655
 30
0.0
 11
271.00299176113151
 21
98.355245405547706
 31
0.0
  0
LINE
  5
23A4
  8
RKC_OUTWORD
 10
272.30299176113209
 20
97.855245405547578
 30
0.0
 11
271.5029917611318
 21
97.855245405547691
 31
0.0
  0
LINE
  5
23A5
  8
RKC_OUTWORD
 10
246.60299176113159
 20
98.255245405547555
 30
0.0
 11
245.2029917611315
 21
98.255245405547555
 31
0.0
  0
LINE
  5
23A6
  8
RKC_OUTWORD
 10
271.5029917611318
 20
97.855245405547691
 30
0.0
 11
271.5029917611318
 21
97.755245405547655
 31
0.0
  0
LINE
  5
23A7
  8
RKC_OUTWORD
 10
271.5029917611318
 20
97.755245405547655
 30
0.0
 11
246.10299176113199
 21
97.755245405547655
 31
0.0
  0
LINE
  5
23A8
  8
RKC_OUTWORD
 10
272.40299176113189
 20
98.255245405547555
 30
0.0
 11
271.0029917611318
 21
98.255245405547555
 31
0.0
  0
LINE
  5
23A9
  8
RKC_OUTWORD
 10
271.5029917611318
 20
74.955245405547672
 30
0.0
 11
271.5029917611318
 21
75.975245405547753
 31
0.0
  0
LINE
  5
23AA
  8
RKC_OUTWORD
 10
245.20299176113181
 20
97.155245405547575
 30
0.0
 11
245.30299176113209
 21
97.155245405547575
 31
0.0
  0
LINE
  5
23AB
  8
RKC_OUTWORD
 10
245.2029917611323
 20
95.555245405547538
 30
0.0
 11
245.30299176113249
 21
95.555245405547538
 31
0.0
  0
LINE
  5
23AC
  8
RKC_OUTWORD
 10
272.40299176113189
 20
97.155245405547575
 30
0.0
 11
272.30299176113169
 21
97.155245405547575
 31
0.0
  0
LINE
  5
23AD
  8
RKC_OUTWORD
 10
272.40299176113137
 20
95.555245405547538
 30
0.0
 11
272.3029917611313
 21
95.555245405547538
 31
0.0
  0
LINE
  5
23AE
  8
RKC_OUTWORD
 10
255.80299176113201
 20
176.35524540554761
 30
0.0
 11
255.80299176113209
 21
98.355245405547564
 31
0.0
  0
LINE
  5
23BE
  8
RKC_OUTWORD
 10
241.30299176113209
 20
193.7552454055473
 30
0.0
 11
243.80299176113209
 21
193.7552454055473
 31
0.0
  0
LINE
  5
23BF
  8
RKC_OUTWORD
 10
241.30299176113189
 20
190.95524540554749
 30
0.0
 11
243.80299176113189
 21
190.95524540554729
 31
0.0
  0
LINE
  5
23C0
  8
RKC_OUTWORD
 10
240.80299176113201
 20
193.25524540554741
 30
0.0
 11
240.80299176113201
 21
191.4552454055474
 31
0.0
  0
ARC
  5
23C4
  8
RKC_OUTWORD
 10
241.30299176113189
 20
191.4552454055474
 30
0.0
 40
0.5
 50
180.0
 51
269.9999999999992
  0
ARC
  5
23C5
  8
RKC_OUTWORD
 10
241.30299176113209
 20
193.25524540554741
 30
0.0
 40
0.5
 50
90.0
 51
180.0
  0
ARC
  5
23C8
  8
RKC_OUTWORD
 10
243.90299176113189
 20
74.955245405547672
 30
0.0
 40
0.1
 50
180.0
 51
270.0
  0
ARC
  5
23C9
  8
RKC_OUTWORD
 10
273.60299176113159
 20
75.055245405547751
 30
0.0
 40
0.2
 50
270.0
 51
0.0
  0
ARC
  5
23CA
  8
RKC_OUTWORD
 10
244.0029917611318
 20
199.6552454055475
 30
0.0
 40
0.2
 50
90.0
 51
180.0
  0
ARC
  5
23CB
  8
RKC_OUTWORD
 10
273.60299176113159
 20
199.6552454055473
 30
0.0
 40
0.2
 50
0.0
 51
90.0
  0
LINE
  5
23FA
  8
RKC_OUTWORD
 10
237.00299176113171
 20
117.4752454055474
 30
0.0
 11
237.00299176113171
 21
98.235245405547431
 31
0.0
  0
LINE
  5
23FC
  8
RKC_OUTWORD
 10
243.80299176113169
 20
117.4752454055474
 30
0.0
 11
237.00299176113171
 21
117.4752454055474
 31
0.0
  0
LINE
  5
23FD
  8
RKC_OUTWORD
 10
170.35299176113159
 20
282.60524540554758
 30
0.0
 11
169.40299176113169
 21
282.60524540554758
 31
0.0
  0
LINE
  5
23FE
  8
RKC_OUTWORD
 10
182.30299176113169
 20
264.42524540554768
 30
0.0
 11
182.30299176113169
 21
254.10524540554761
 31
0.0
  0
ARC
  5
23FF
  8
RKC_OUTWORD
 10
171.1909356379775
 20
268.95538985312021
 30
0.0
 40
12.0
 50
337.82034257948908
 51
353.05910618179632
  0
ARC
  5
2400
  8
RKC_OUTWORD
 10
163.10991794930121
 20
276.9815528771793
 30
0.0
 40
20.0
 50
358.49206608287852
 51
12.87955638492048
  0
ARC
  5
2401
  8
RKC_OUTWORD
 10
113.2461783854842
 20
271.98024540554792
 30
0.0
 40
70.0
 50
356.33466314867292
 51
3.6653368513262028
  0
ARC
  5
2402
  8
RKC_OUTWORD
 10
181.14447255792601
 20
281.10524540554758
 30
0.0
 40
1.5
 50
12.87955638492048
 51
90.0
  0
LINE
  5
2403
  8
RKC_OUTWORD
 10
250.90299176113189
 20
74.855245405547564
 30
0.0
 11
250.90299176113189
 21
70.105245405547663
 31
0.0
  0
LINE
  5
2404
  8
RKC_OUTWORD
 10
266.70299176113178
 20
74.855245405547748
 30
0.0
 11
266.70299176113178
 21
70.105245405547663
 31
0.0
  0
LINE
  5
2405
  8
RKC_OUTWORD
 10
251.15299176113189
 20
69.855245405547663
 30
0.0
 11
266.45299176113178
 21
69.855245405547663
 31
0.0
  0
LINE
  5
2406
  8
RKC_OUTWORD
 10
262.00299176113191
 20
73.055245405547751
 30
0.0
 11
262.00299176113191
 21
71.855245405547691
 31
0.0
  0
LINE
  5
2407
  8
RKC_OUTWORD
 10
255.60299176113159
 20
73.05524540554768
 30
0.0
 11
255.60299176113159
 21
71.855245405547691
 31
0.0
  0
LINE
  5
2408
  8
RKC_OUTWORD
 10
255.60299176113159
 20
73.05524540554768
 30
0.0
 11
262.00299176113191
 21
73.05524540554768
 31
0.0
  0
LINE
  5
2409
  8
RKC_OUTWORD
 10
255.80299176113201
 20
72.855245405547564
 30
0.0
 11
255.80299176113201
 21
71.855245405547691
 31
0.0
  0
LINE
  5
240A
  8
RKC_OUTWORD
 10
261.80299176113169
 20
72.855245405547564
 30
0.0
 11
261.80299176113169
 21
71.855245405547691
 31
0.0
  0
LINE
  5
240B
  8
RKC_OUTWORD
 10
255.80299176113201
 20
72.855245405547564
 30
0.0
 11
261.80299176113169
 21
72.855245405547564
 31
0.0
  0
LINE
  5
240C
  8
RKC_OUTWORD
 10
255.60299176113159
 20
71.855245405547691
 30
0.0
 11
262.00299176113191
 21
71.855245405547691
 31
0.0
  0
ARC
  5
240D
  8
RKC_OUTWORD
 10
258.80299176113169
 20
72.564540830599796
 30
0.0
 40
2.0
 50
200.77185504532281
 51
339.2281449546764
  0
ARC
  5
240E
  8
RKC_OUTWORD
 10
258.80299176113169
 20
72.571904320234282
 30
0.0
 40
2.2000000000000002
 50
199.01126526013411
 51
340.98873473986589
  0
LINE
  5
240F
  8
RKC_OUTWORD
 10
255.60299176113159
 20
73.05524540554768
 30
0.0
 11
255.80299176113201
 21
72.855245405547564
 31
0.0
  0
LINE
  5
2410
  8
RKC_OUTWORD
 10
262.00299176113191
 20
73.05524540554768
 30
0.0
 11
261.80299176113169
 21
72.855245405547564
 31
0.0
  0
ARC
  5
2411
  8
RKC_OUTWORD
 10
251.15299176113189
 20
70.105245405547663
 30
0.0
 40
0.25
 50
180.0000000000008
 51
270.0
  0
ARC
  5
2412
  8
RKC_OUTWORD
 10
266.45299176113178
 20
70.105245405547663
 30
0.0
 40
0.25
 50
270.0
 51
0.0
  0
LINE
  5
2414
  8
RKC_OUTWORD
 10
83.002991761131966
 20
252.60524540554761
 30
0.0
 11
83.002991761131824
 21
245.80524540554751
 31
0.0
  0
LINE
  5
2415
  8
RKC_OUTWORD
 10
90.002991761131995
 20
252.60524540554761
 30
0.0
 11
90.002991761131995
 21
245.80524540554751
 31
0.0
  0
LINE
  5
2416
  8
RKC_OUTWORD
 10
83.002991761131966
 20
245.80524540554751
 30
0.0
 11
90.002991761131995
 21
245.80524540554751
 31
0.0
  0
ARC
  5
2417
  8
RKC_OUTWORD
 10
76.302991761131949
 20
250.00524540554761
 30
0.0
 40
0.4
 50
180.0
 51
270.0
  0
ARC
  5
2418
  8
RKC_OUTWORD
 10
78.302991761132091
 20
250.00524540554761
 30
0.0
 40
0.4
 50
270.0
 51
0.0
  0
LINE
  5
2431
  8
RKC_OUTWORD
 10
73.302991761131963
 20
282.60524540554758
 30
0.0
 11
73.302991761131963
 21
273.60524540554758
 31
0.0
  0
LINE
  5
2432
  8
RKC_OUTWORD
 10
73.302991761131963
 20
261.60524540554758
 30
0.0
 11
73.302991761131963
 21
252.60524540554761
 31
0.0
  0
LINE
  5
2433
  8
RKC_OUTWORD
 10
98.002991761131995
 20
282.60524540554758
 30
0.0
 11
98.002991761131284
 21
281.60524540554758
 31
0.0
  0
LINE
  5
2434
  8
RKC_OUTWORD
 10
98.002991761131284
 20
281.90524540554748
 30
0.0
 11
98.302991761131366
 21
281.90524540554748
 31
0.0
  0
LINE
  5
2435
  8
RKC_OUTWORD
 10
98.002991761120754
 20
253.60524540554761
 30
0.0
 11
98.302991761120694
 21
253.60524540554749
 31
0.0
  0
LINE
  5
2436
  8
RKC_OUTWORD
 10
98.002991761120569
 20
253.30524540554751
 30
0.0
 11
98.302991761120694
 21
253.30524540554751
 31
0.0
  0
LINE
  5
2437
  8
RKC_OUTWORD
 10
98.002991761124207
 20
262.60524540554758
 30
0.0
 11
98.302991761124261
 21
262.60524540554741
 31
0.0
  0
LINE
  5
2438
  8
RKC_OUTWORD
 10
98.002991761127689
 20
272.60524540554758
 30
0.0
 11
98.302991761127956
 21
272.60524540554752
 31
0.0
  0
LINE
  5
2439
  8
RKC_OUTWORD
 62
     3
 10
112.992991761132
 20
277.2552454055475
 30
0.0
 11
113.80299176113191
 21
277.2552454055475
 31
0.0
  0
LINE
  5
243A
  8
RKC_OUTWORD
 62
     3
 10
112.992991761132
 20
271.9552454055476
 30
0.0
 11
113.80299176113191
 21
271.9552454055476
 31
0.0
  0
ARC
  5
243B
  8
RKC_OUTWORD
 62
     3
 10
113.80299176113191
 20
276.75524540554733
 30
0.0
 40
0.5
 50
19.315471308447918
 51
90.0
  0
ARC
  5
243C
  8
RKC_OUTWORD
 62
     3
 10
113.80299176113191
 20
272.45524540554749
 30
0.0
 40
0.5
 50
270.0
 51
340.6845286915563
  0
ARC
  5
243D
  8
RKC_OUTWORD
 62
     3
 10
107.6688659065376
 20
274.60524540554752
 30
0.0
 40
7.0
 50
340.6845286915563
 51
19.315471308443559
  0
LINE
  5
243E
  8
RKC_OUTWORD
 62
     3
 10
112.992991761132
 20
270.25524540554733
 30
0.0
 11
112.992991761132
 21
264.95524540554737
 31
0.0
  0
LINE
  5
243F
  8
RKC_OUTWORD
 62
     3
 10
112.992991761132
 20
270.25524540554733
 30
0.0
 11
113.80299176113191
 21
270.25524540554733
 31
0.0
  0
LINE
  5
2440
  8
RKC_OUTWORD
 62
     3
 10
112.992991761132
 20
264.95524540554737
 30
0.0
 11
113.80299176113191
 21
264.95524540554737
 31
0.0
  0
ARC
  5
2441
  8
RKC_OUTWORD
 62
     3
 10
113.80299176113191
 20
269.75524540554733
 30
0.0
 40
0.5
 50
19.315471308447918
 51
90.0
  0
ARC
  5
2442
  8
RKC_OUTWORD
 62
     3
 10
113.80299176113191
 20
265.4552454055476
 30
0.0
 40
0.5
 50
270.0
 51
340.6845286915563
  0
ARC
  5
2443
  8
RKC_OUTWORD
 62
     3
 10
107.6688659065376
 20
267.60524540554752
 30
0.0
 40
7.0
 50
340.6845286915563
 51
19.315471308443559
  0
LINE
  5
2444
  8
RKC_OUTWORD
 62
     3
 10
112.992991761132
 20
263.25524540554738
 30
0.0
 11
112.992991761132
 21
257.95524540554749
 31
0.0
  0
LINE
  5
2445
  8
RKC_OUTWORD
 62
     3
 10
112.992991761132
 20
263.25524540554738
 30
0.0
 11
113.80299176113191
 21
263.25524540554738
 31
0.0
  0
LINE
  5
2446
  8
RKC_OUTWORD
 62
     3
 10
112.992991761132
 20
257.95524540554749
 30
0.0
 11
113.80299176113191
 21
257.95524540554749
 31
0.0
  0
ARC
  5
2447
  8
RKC_OUTWORD
 62
     3
 10
113.80299176113191
 20
262.7552454055475
 30
0.0
 40
0.5
 50
19.315471308447918
 51
90.0
  0
ARC
  5
2448
  8
RKC_OUTWORD
 62
     3
 10
113.80299176113191
 20
258.45524540554737
 30
0.0
 40
0.5
 50
270.0
 51
340.6845286915563
  0
ARC
  5
2449
  8
RKC_OUTWORD
 62
     3
 10
107.6688659065376
 20
260.60524540554752
 30
0.0
 40
7.0
 50
340.6845286915563
 51
19.315471308443559
  0
LINE
  5
244A
  8
RKC_OUTWORD
 10
110.602991761132
 20
271.5052454055475
 30
0.0
 11
119.602991761132
 21
271.5052454055475
 31
0.0
  0
LINE
  5
244B
  8
RKC_OUTWORD
 10
119.602991761132
 20
275.00524540554738
 30
0.0
 11
119.602991761132
 21
271.5052454055475
 31
0.0
  0
LINE
  5
244C
  8
RKC_OUTWORD
 62
     3
 10
121.9929917611318
 20
280.60524540554729
 30
0.0
 11
121.9929917611318
 21
275.45524540554737
 31
0.0
  0
LINE
  5
244D
  8
RKC_OUTWORD
 62
     3
 10
121.9929917611318
 20
275.45524540554737
 30
0.0
 11
122.80299176113201
 21
275.45524540554737
 31
0.0
  0
ARC
  5
244E
  8
RKC_OUTWORD
 62
     3
 10
122.80299176113201
 20
280.25524540554733
 30
0.0
 40
0.5
 50
19.315471308447918
 51
44.427004000799982
  0
ARC
  5
244F
  8
RKC_OUTWORD
 62
     3
 10
122.80299176113201
 20
275.9552454055476
 30
0.0
 40
0.5
 50
270.0
 51
340.6845286915563
  0
ARC
  5
2450
  8
RKC_OUTWORD
 62
     3
 10
116.6688659065377
 20
278.10524540554752
 30
0.0
 40
7.0
 50
340.6845286915563
 51
19.315471308443559
  0
LINE
  5
2451
  8
RKC_OUTWORD
 62
     3
 10
121.9929917611318
 20
273.75524540554738
 30
0.0
 11
121.9929917611318
 21
268.45524540554737
 31
0.0
  0
LINE
  5
2452
  8
RKC_OUTWORD
 62
     3
 10
121.9929917611318
 20
273.75524540554738
 30
0.0
 11
122.80299176113201
 21
273.75524540554738
 31
0.0
  0
LINE
  5
2453
  8
RKC_OUTWORD
 62
     3
 10
121.9929917611318
 20
268.45524540554737
 30
0.0
 11
122.80299176113201
 21
268.45524540554737
 31
0.0
  0
ARC
  5
2454
  8
RKC_OUTWORD
 62
     3
 10
122.80299176113201
 20
273.2552454055475
 30
0.0
 40
0.5
 50
19.315471308447918
 51
90.0
  0
ARC
  5
2455
  8
RKC_OUTWORD
 62
     3
 10
122.80299176113201
 20
268.95524540554737
 30
0.0
 40
0.5
 50
270.0
 51
340.6845286915563
  0
ARC
  5
2456
  8
RKC_OUTWORD
 62
     3
 10
116.6688659065377
 20
271.10524540554752
 30
0.0
 40
7.0
 50
340.6845286915563
 51
19.315471308443559
  0
LINE
  5
2457
  8
RKC_OUTWORD
 62
     3
 10
121.9929917611318
 20
266.75524540554733
 30
0.0
 11
121.9929917611318
 21
261.4552454055476
 31
0.0
  0
LINE
  5
2458
  8
RKC_OUTWORD
 62
     3
 10
121.9929917611318
 20
266.75524540554738
 30
0.0
 11
122.80299176113201
 21
266.75524540554738
 31
0.0
  0
LINE
  5
2459
  8
RKC_OUTWORD
 62
     3
 10
121.9929917611318
 20
261.4552454055476
 30
0.0
 11
122.80299176113201
 21
261.4552454055476
 31
0.0
  0
ARC
  5
245A
  8
RKC_OUTWORD
 62
     3
 10
122.80299176113201
 20
266.25524540554733
 30
0.0
 40
0.5
 50
19.315471308447918
 51
90.0
  0
ARC
  5
245B
  8
RKC_OUTWORD
 62
     3
 10
122.80299176113201
 20
261.95524540554737
 30
0.0
 40
0.5
 50
270.0
 51
340.6845286915563
  0
ARC
  5
245C
  8
RKC_OUTWORD
 62
     3
 10
116.6688659065377
 20
264.10524540554752
 30
0.0
 40
7.0
 50
340.6845286915563
 51
19.315471308443559
  0
LINE
  5
245D
  8
RKC_OUTWORD
 62
     3
 10
121.9929917611318
 20
259.75524540554733
 30
0.0
 11
121.9929917611318
 21
254.60524540554741
 31
0.0
  0
LINE
  5
245E
  8
RKC_OUTWORD
 62
     3
 10
121.9929917611318
 20
259.75524540554733
 30
0.0
 11
122.80299176113201
 21
259.75524540554733
 31
0.0
  0
ARC
  5
245F
  8
RKC_OUTWORD
 62
     3
 10
122.80299176113201
 20
259.25524540554733
 30
0.0
 40
0.5
 50
19.315471308447918
 51
90.0
  0
ARC
  5
2460
  8
RKC_OUTWORD
 62
     3
 10
122.80299176113201
 20
254.9552454055476
 30
0.0
 40
0.5
 50
315.57299599919082
 51
340.6845286915563
  0
ARC
  5
2461
  8
RKC_OUTWORD
 62
     3
 10
116.6688659065377
 20
257.10524540554752
 30
0.0
 40
7.0
 50
340.6845286915563
 51
19.315471308443559
  0
ARC
  5
2462
  8
RKC_OUTWORD
 10
180.80299176113169
 20
254.10524540554761
 30
0.0
 40
1.5
 50
270.0
 51
0.0
  0
LINE
  5
2463
  8
RKC_OUTWORD
 10
171.00299176113171
 20
257.10524540554752
 30
0.0
 11
171.00299176113171
 21
252.60524540554761
 31
0.0
  0
LINE
  5
2464
  8
RKC_OUTWORD
 10
171.00299176113171
 20
257.10524540554752
 30
0.0
 11
171.00299176113171
 21
252.60524540554761
 31
0.0
  0
LINE
  5
2465
  8
RKC_OUTWORD
 10
243.80299176113189
 20
199.6552454055475
 30
0.0
 11
243.80299176113189
 21
98.355245405547706
 31
0.0
  0
LINE
  5
2466
  8
RKC_OUTWORD
 10
244.0029917611318
 20
199.85524540554749
 30
0.0
 11
247.90299176113189
 21
199.85524540554741
 31
0.0
  0
LINE
  5
2467
  8
RKC_OUTWORD
 10
246.10299176113199
 20
198.7352454055474
 30
0.0
 11
247.90299176113189
 21
198.7352454055474
 31
0.0
  0
LINE
  5
2468
  8
RKC_OUTWORD
 10
243.80299176113189
 20
98.355245405547706
 30
0.0
 11
243.80299176113189
 21
74.955245405547672
 31
0.0
  0
LINE
  5
2469
  8
RKC_OUTWORD
 10
246.10299176113199
 20
97.755245405547655
 30
0.0
 11
271.5029917611318
 21
97.755245405547655
 31
0.0
  0
LINE
  5
246A
  8
RKC_OUTWORD
 10
254.80299176113169
 20
97.755245405547655
 30
0.0
 11
254.80299176113169
 21
98.355245405547706
 31
0.0
  0
LINE
  5
246B
  8
RKC_OUTWORD
 10
262.80299176113209
 20
97.755245405539085
 30
0.0
 11
262.80299176113141
 21
98.355245405539051
 31
0.0
  0
LINE
  5
246C
  8
RKC_OUTWORD
 10
262.80299176113209
 20
97.855245405547578
 30
0.0
 11
254.80299176113169
 21
97.855245405547578
 31
0.0
  0
LINE
  5
246D
  8
RKC_OUTWORD
 10
246.10299176113199
 20
75.975245405547753
 30
0.0
 11
248.7029917611319
 21
75.975245405547753
 31
0.0
  0
LINE
  5
246E
  8
RKC_OUTWORD
 10
273.5029917611318
 20
195.66524540554741
 30
0.0
 11
273.5029917611318
 21
194.0452454055474
 31
0.0
  0
LINE
  5
246F
  8
RKC_OUTWORD
 10
244.1029917611319
 20
195.66524540554741
 30
0.0
 11
244.1029917611319
 21
194.04524540554729
 31
0.0
  0
LINE
  5
2470
  8
RKC_OUTWORD
 10
245.2029917611317
 20
194.0052454055475
 30
0.0
 11
245.2029917611315
 21
176.45524540554749
 31
0.0
  0
LINE
  5
2471
  8
RKC_OUTWORD
 10
272.40299176113189
 20
194.0052454055475
 30
0.0
 11
272.40299176113223
 21
176.7552454055475
 31
0.0
  0
LINE
  5
2472
  8
RKC_OUTWORD
 10
272.40299176113189
 20
194.0052454055475
 30
0.0
 11
272.40299176113189
 21
176.7552454055475
 31
0.0
  0
LINE
  5
2473
  8
RKC_OUTWORD
 10
273.5029917611318
 20
80.665245405547751
 30
0.0
 11
273.5029917611318
 21
79.045245405547561
 31
0.0
  0
LINE
  5
2474
  8
RKC_OUTWORD
 10
272.40299176113223
 20
80.705245405547728
 30
0.0
 11
272.40299176113223
 21
98.255245405547555
 31
0.0
  0
LINE
  5
2475
  8
RKC_OUTWORD
 10
272.40299176113189
 20
80.705245405547672
 30
0.0
 11
272.40299176113189
 21
97.955245405547558
 31
0.0
  0
LINE
  5
2476
  8
RKC_OUTWORD
 10
244.1029917611319
 20
80.665245405547751
 30
0.0
 11
244.1029917611319
 21
79.045245405547732
 31
0.0
  0
LINE
  5
2477
  8
RKC_OUTWORD
 10
245.20299176113181
 20
80.705245405547728
 30
0.0
 11
245.2029917611315
 21
98.255245405547555
 31
0.0
  0
LINE
  5
2478
  8
RKC_OUTWORD
 10
119.602991761132
 20
280.60524540554729
 30
0.0
 11
132.04299176113199
 21
280.60524540554729
 31
0.0
  0
LINE
  5
2479
  8
RKC_OUTWORD
 10
119.602991761132
 20
254.60524540554761
 30
0.0
 11
132.04299176113241
 21
254.60524540554741
 31
0.0
  0
LINE
  5
247A
  8
RKC_OUTWORD
 10
127.602991761132
 20
275.00524540554738
 30
0.0
 11
127.602991761132
 21
274.2052454055476
 31
0.0
  0
LINE
  5
247B
  8
RKC_OUTWORD
 10
127.602991761132
 20
268.00524540554733
 30
0.0
 11
127.602991761132
 21
267.20524540554737
 31
0.0
  0
LINE
  5
247C
  8
RKC_OUTWORD
 10
127.602991761132
 20
261.00524540554733
 30
0.0
 11
127.602991761132
 21
260.20524540554737
 31
0.0
  0
LINE
  5
247D
  8
RKC_OUTWORD
 10
131.6429917611319
 20
282.40524540554748
 30
0.0
 11
131.6429917611319
 21
280.60524540554729
 31
0.0
  0
LINE
  5
247E
  8
RKC_OUTWORD
 10
129.70299176113201
 20
280.60524540554729
 30
0.0
 11
129.70299176113201
 21
279.90524540554748
 31
0.0
  0
LINE
  5
247F
  8
RKC_OUTWORD
 10
130.10299176113199
 20
280.60524540554729
 30
0.0
 11
130.10299176113179
 21
279.90524540554748
 31
0.0
  0
LINE
  5
2480
  8
RKC_OUTWORD
 62
     3
 10
129.242991761132
 20
279.90524540554748
 30
0.0
 11
132.30299176113181
 21
279.90524540554748
 31
0.0
  0
LINE
  5
2481
  8
RKC_OUTWORD
 62
     3
 10
129.24299176113169
 20
255.30524540554711
 30
0.0
 11
132.3029917611324
 21
255.30524540554711
 31
0.0
  0
LINE
  5
2482
  8
RKC_OUTWORD
 62
     3
 10
129.242991761132
 20
279.90524540554748
 30
0.0
 11
129.242991761132
 21
279.10524540554741
 31
0.0
  0
LINE
  5
2483
  8
RKC_OUTWORD
 62
     3
 10
129.242991761132
 20
279.10524540554741
 30
0.0
 11
130.81299176113191
 21
279.10524540554741
 31
0.0
  0
LINE
  5
2484
  8
RKC_OUTWORD
 62
     3
 10
129.24299176113169
 20
256.10524540554741
 30
0.0
 11
130.81299176113191
 21
256.10524540554741
 31
0.0
  0
LINE
  5
2485
  8
RKC_OUTWORD
 62
     3
 10
129.24299176113169
 20
256.10524540554741
 30
0.0
 11
129.24299176113169
 21
255.30524540554711
 31
0.0
  0
LINE
  5
2486
  8
RKC_OUTWORD
 62
     3
 10
130.81299176113191
 20
279.10524540554741
 30
0.0
 11
130.81299176113191
 21
256.10524540554741
 31
0.0
  0
LINE
  5
2487
  8
RKC_OUTWORD
 10
131.7029917611319
 20
280.60524540554729
 30
0.0
 11
131.7029917611319
 21
279.90524540554748
 31
0.0
  0
LINE
  5
2488
  8
RKC_OUTWORD
 62
     3
 10
132.30299176113181
 20
281.10524540554741
 30
0.0
 11
132.30299176113181
 21
279.90524540554748
 31
0.0
  0
LINE
  5
2489
  8
RKC_OUTWORD
 62
     3
 10
132.80299176113181
 20
281.10524540554741
 30
0.0
 11
132.80299176113181
 21
279.90524540554748
 31
0.0
  0
LINE
  5
248A
  8
RKC_OUTWORD
 62
     3
 10
132.80299176113181
 20
279.90524540554748
 30
0.0
 11
132.80299176113189
 21
256.10524540554741
 31
0.0
  0
LINE
  5
248B
  8
RKC_OUTWORD
 62
     3
 10
132.0429917611319
 20
281.10524540554741
 30
0.0
 11
132.80299176113181
 21
281.10524540554741
 31
0.0
  0
LINE
  5
248C
  8
RKC_OUTWORD
 10
132.0429917611319
 20
281.20524540554749
 30
0.0
 11
132.94299176113191
 21
281.20524540554732
 31
0.0
  0
LINE
  5
248D
  8
RKC_OUTWORD
 10
132.0429917611319
 20
281.20524540554732
 30
0.0
 11
132.04299176113199
 21
280.60524540554729
 31
0.0
  0
LINE
  5
248E
  8
RKC_OUTWORD
 10
132.94299176113191
 20
282.40524540554759
 30
0.0
 11
132.94299176113191
 21
281.20524540554749
 31
0.0
  0
LINE
  5
248F
  8
RKC_OUTWORD
 10
133.0429917611317
 20
282.40524540554759
 30
0.0
 11
133.0429917611319
 21
279.80524540554723
 31
0.0
  0
LINE
  5
2490
  8
RKC_OUTWORD
 10
134.3429917611318
 20
282.60524540554769
 30
0.0
 11
134.3429917611318
 21
282.00524540554733
 31
0.0
  0
LINE
  5
2491
  8
RKC_OUTWORD
 10
132.14299176113181
 20
281.20524540554732
 30
0.0
 11
132.14299176113201
 21
281.10524540554741
 31
0.0
  0
LINE
  5
2492
  8
RKC_OUTWORD
 10
132.80299176113181
 20
279.80524540554751
 30
0.0
 11
133.04299176113199
 21
279.80524540554728
 31
0.0
  0
LINE
  5
2493
  8
RKC_OUTWORD
 10
133.0429917611319
 20
282.00524540554738
 30
0.0
 11
134.3429917611318
 21
282.00524540554733
 31
0.0
  0
ARC
  5
2494
  8
RKC_OUTWORD
 10
132.7429917611318
 20
282.40524540554759
 30
0.0
 40
0.2
 50
0.0
 51
90.0
  0
ARC
  5
2495
  8
RKC_OUTWORD
 10
131.44299176113179
 20
282.40524540554748
 30
0.0
 40
0.2
 50
0.0
 51
90.0
  0
ARC
  5
2496
  8
RKC_OUTWORD
 10
132.8429917611318
 20
282.40524540554759
 30
0.0
 40
0.2
 50
0.0
 51
90.0
  0
LINE
  5
2497
  8
RKC_OUTWORD
 10
131.64299176113221
 20
252.8052454055472
 30
0.0
 11
131.64299176113221
 21
254.60524540554741
 31
0.0
  0
LINE
  5
2498
  8
RKC_OUTWORD
 10
129.70299176113221
 20
254.60524540554741
 30
0.0
 11
129.70299176113221
 21
255.30524540554711
 31
0.0
  0
LINE
  5
2499
  8
RKC_OUTWORD
 10
130.10299176113239
 20
254.60524540554741
 30
0.0
 11
130.10299176113239
 21
255.30524540554711
 31
0.0
  0
LINE
  5
249A
  8
RKC_OUTWORD
 10
131.7029917611323
 20
254.60524540554761
 30
0.0
 11
131.7029917611323
 21
255.30524540554711
 31
0.0
  0
LINE
  5
249B
  8
RKC_OUTWORD
 62
     3
 10
132.3029917611324
 20
254.10524540554749
 30
0.0
 11
132.3029917611324
 21
255.30524540554751
 31
0.0
  0
LINE
  5
249C
  8
RKC_OUTWORD
 62
     3
 10
132.80299176113249
 20
254.10524540554749
 30
0.0
 11
132.80299176113249
 21
255.30524540554751
 31
0.0
  0
LINE
  5
249D
  8
RKC_OUTWORD
 62
     3
 10
132.04299176113241
 20
254.10524540554761
 30
0.0
 11
132.80299176113249
 21
254.10524540554749
 31
0.0
  0
LINE
  5
249E
  8
RKC_OUTWORD
 10
132.04299176113241
 20
254.00524540554761
 30
0.0
 11
132.9429917611323
 21
254.00524540554761
 31
0.0
  0
LINE
  5
249F
  8
RKC_OUTWORD
 10
132.04299176113241
 20
254.00524540554761
 30
0.0
 11
132.04299176113241
 21
254.60524540554761
 31
0.0
  0
LINE
  5
24A0
  8
RKC_OUTWORD
 10
132.9429917611323
 20
252.8052454055472
 30
0.0
 11
132.9429917611323
 21
254.00524540554761
 31
0.0
  0
LINE
  5
24A1
  8
RKC_OUTWORD
 10
133.0429917611325
 20
252.8052454055472
 30
0.0
 11
133.0429917611325
 21
255.40524540554779
 31
0.0
  0
LINE
  5
24A2
  8
RKC_OUTWORD
 10
134.3429917611324
 20
252.60524540554709
 30
0.0
 11
134.3429917611324
 21
253.2052454055476
 31
0.0
  0
LINE
  5
24A3
  8
RKC_OUTWORD
 10
132.14299176113221
 20
254.00524540554761
 30
0.0
 11
132.14299176113221
 21
254.10524540554761
 31
0.0
  0
LINE
  5
24A4
  8
RKC_OUTWORD
 10
132.80299176113249
 20
255.40524540554739
 30
0.0
 11
133.0429917611325
 21
255.40524540554759
 31
0.0
  0
LINE
  5
24A5
  8
RKC_OUTWORD
 10
133.0429917611325
 20
253.2052454055476
 30
0.0
 11
134.3429917611324
 21
253.2052454055476
 31
0.0
  0
ARC
  5
24A6
  8
RKC_OUTWORD
 10
132.74299176113249
 20
252.8052454055472
 30
0.0
 40
0.2
 50
270.00000000000171
 51
0.0000000000016284
  0
ARC
  5
24A7
  8
RKC_OUTWORD
 10
131.44299176113239
 20
252.8052454055472
 30
0.0
 40
0.2
 50
270.00000000000171
 51
0.0000000000016284
  0
ARC
  5
24A8
  8
RKC_OUTWORD
 10
132.84299176113231
 20
252.8052454055472
 30
0.0
 40
0.2
 50
270.00000000000171
 51
0.0000000000016284
  0
LINE
  5
24A9
  8
RKC_OUTWORD
 62
     3
 10
132.80299176113189
 20
256.10524540554741
 30
0.0
 11
132.80299176113249
 21
255.30524540554751
 31
0.0
  0
DIMENSION
  5
24AA
  8
RKC_DIM
  2
*D33
 10
273.80299176113198
 20
207.85524540554741
 30
0.0
 11
258.80299176113192
 21
210.0802454055474
 31
0.0
 70
     0
 13
243.80299176113169
 23
199.6552454055475
 33
0.0
 14
273.80299176113198
 24
199.6552454055473
 34
0.0
1001
ACAD
1000
DSTYLE
1002
{
1070
   271
1070
     8
1070
    40
1040
1.0
1002
}
  0
ARC
  5
24AB
  8
RKC_OUTWORD
 10
264.05299176113209
 20
146.2552454055473
 30
0.0
 40
3.6000000000000001
 50
180.0
 51
0.0
  0
ARC
  5
24AC
  8
RKC_OUTWORD
 10
264.05299176113209
 20
153.7552454055475
 30
0.0
 40
3.6000000000000001
 50
0.0
 51
180.0
  0
LINE
  5
24AD
  8
RKC_OUTWORD
 10
267.65299176113211
 20
153.7552454055475
 30
0.0
 11
267.65299176113211
 21
146.2552454055473
 31
0.0
  0
LINE
  5
24AE
  8
RKC_OUTWORD
 10
260.45299176113201
 20
153.7552454055475
 30
0.0
 11
260.45299176113201
 21
146.2552454055473
 31
0.0
  0
ARC
  5
24AF
  8
RKC_OUTWORD
 10
265.98299176113193
 20
158.5052454055475
 30
0.0
 40
2.0
 50
349.37530427439782
 51
10.62469572560043
  0
ARC
  5
24B0
  8
RKC_OUTWORD
 10
267.55556131444212
 20
158.8002454055474
 30
0.0
 40
0.4
 50
10.62469572560043
 51
90.0
  0
ARC
  5
24B1
  8
RKC_OUTWORD
 10
267.55556131444212
 20
158.2102454055474
 30
0.0
 40
0.4
 50
270.0
 51
349.3753042743997
  0
ARC
  5
24B2
  8
RKC_OUTWORD
 10
267.66480973889668
 20
153.2012400895174
 30
0.0
 40
6.0
 50
91.043303260423286
 51
104.49544266380531
  0
ARC
  5
24B3
  8
RKC_OUTWORD
 10
265.75299175742492
 20
158.5052454055475
 30
0.0
 40
0.3
 50
121.7883306170524
 51
238.21166938294391
  0
ARC
  5
24B4
  8
RKC_OUTWORD
 10
267.66480973889668
 20
163.80925072157731
 30
0.0
 40
6.0
 50
255.50455733619469
 51
268.95669673957678
  0
ARC
  5
24B5
  8
RKC_OUTWORD
 10
266.6748700264319
 20
157.0768596060955
 30
0.0
 40
2.0
 50
104.8292403639407
 51
122.6806802250395
  0
ARC
  5
24B6
  8
RKC_OUTWORD
 10
266.6748700264319
 20
159.9336312049993
 30
0.0
 40
2.0
 50
237.31931977496041
 51
255.1707596360593
  0
ARC
  5
24B7
  8
RKC_OUTWORD
 10
265.98299176113193
 20
161.0052454055475
 30
0.0
 40
2.0
 50
349.37530427439782
 51
10.62469572560043
  0
ARC
  5
24B8
  8
RKC_OUTWORD
 10
267.55556131444212
 20
161.3002454055474
 30
0.0
 40
0.4
 50
10.62469572560043
 51
90.0
  0
ARC
  5
24B9
  8
RKC_OUTWORD
 10
267.55556131444212
 20
160.7102454055474
 30
0.0
 40
0.4
 50
270.0
 51
349.3753042743997
  0
ARC
  5
24BA
  8
RKC_OUTWORD
 10
267.66480973889668
 20
155.7012400895176
 30
0.0
 40
6.0
 50
91.043303260423286
 51
104.49544266380531
  0
ARC
  5
24BB
  8
RKC_OUTWORD
 10
265.75299175742492
 20
161.0052454055475
 30
0.0
 40
0.3
 50
121.7883306170524
 51
238.21166938294391
  0
ARC
  5
24BC
  8
RKC_OUTWORD
 10
267.66480973889668
 20
166.30925072157731
 30
0.0
 40
6.0
 50
255.50455733619469
 51
268.95669673957678
  0
ARC
  5
24BD
  8
RKC_OUTWORD
 10
266.6748700264319
 20
159.5768596060955
 30
0.0
 40
2.0
 50
104.8292403639407
 51
122.6806802250395
  0
ARC
  5
24BE
  8
RKC_OUTWORD
 10
266.6748700264319
 20
162.4336312049995
 30
0.0
 40
2.0
 50
237.31931977496041
 51
255.1707596360593
  0
ARC
  5
24BF
  8
RKC_OUTWORD
 10
265.98299176113193
 20
163.5052454055475
 30
0.0
 40
2.0
 50
349.37530427439782
 51
10.62469572560043
  0
ARC
  5
24C0
  8
RKC_OUTWORD
 10
267.55556131444212
 20
163.8002454055474
 30
0.0
 40
0.4
 50
10.62469572560043
 51
90.0
  0
ARC
  5
24C1
  8
RKC_OUTWORD
 10
267.55556131444212
 20
163.2102454055474
 30
0.0
 40
0.4
 50
270.0
 51
349.3753042743997
  0
ARC
  5
24C2
  8
RKC_OUTWORD
 10
267.66480973889668
 20
158.20124008951751
 30
0.0
 40
6.0
 50
91.043303260423286
 51
104.49544266380531
  0
ARC
  5
24C3
  8
RKC_OUTWORD
 10
265.75299175742492
 20
163.5052454055475
 30
0.0
 40
0.3
 50
121.7883306170524
 51
238.21166938294391
  0
ARC
  5
24C4
  8
RKC_OUTWORD
 10
267.66480973889668
 20
168.80925072157731
 30
0.0
 40
6.0
 50
255.50455733619469
 51
268.95669673957678
  0
ARC
  5
24C5
  8
RKC_OUTWORD
 10
266.6748700264319
 20
162.0768596060955
 30
0.0
 40
2.0
 50
104.8292403639407
 51
122.6806802250395
  0
ARC
  5
24C6
  8
RKC_OUTWORD
 10
266.6748700264319
 20
164.9336312049993
 30
0.0
 40
2.0
 50
237.31931977496041
 51
255.1707596360593
  0
ARC
  5
24C7
  8
RKC_OUTWORD
 10
265.98299176113193
 20
166.0052454055475
 30
0.0
 40
2.0
 50
349.37530427439782
 51
10.62469572560043
  0
ARC
  5
24C8
  8
RKC_OUTWORD
 10
267.55556131444212
 20
166.3002454055474
 30
0.0
 40
0.4
 50
10.62469572560043
 51
90.0
  0
ARC
  5
24C9
  8
RKC_OUTWORD
 10
267.55556131444212
 20
165.7102454055474
 30
0.0
 40
0.4
 50
270.0
 51
349.3753042743997
  0
ARC
  5
24CA
  8
RKC_OUTWORD
 10
267.66480973889668
 20
160.7012400895176
 30
0.0
 40
6.0
 50
91.043303260423286
 51
104.49544266380531
  0
ARC
  5
24CB
  8
RKC_OUTWORD
 10
265.75299175742492
 20
166.0052454055475
 30
0.0
 40
0.3
 50
121.7883306170524
 51
238.21166938294391
  0
ARC
  5
24CC
  8
RKC_OUTWORD
 10
267.66480973889668
 20
171.30925072157731
 30
0.0
 40
6.0
 50
255.50455733619469
 51
268.95669673957678
  0
ARC
  5
24CD
  8
RKC_OUTWORD
 10
266.6748700264319
 20
164.5768596060955
 30
0.0
 40
2.0
 50
104.8292403639407
 51
122.6806802250395
  0
ARC
  5
24CE
  8
RKC_OUTWORD
 10
266.6748700264319
 20
167.4336312049995
 30
0.0
 40
2.0
 50
237.31931977496041
 51
255.1707596360593
  0
ARC
  5
24CF
  8
RKC_OUTWORD
 10
265.98299176113193
 20
168.5052454055475
 30
0.0
 40
2.0
 50
349.37530427439782
 51
10.62469572560043
  0
ARC
  5
24D0
  8
RKC_OUTWORD
 10
267.55556131444212
 20
168.8002454055474
 30
0.0
 40
0.4
 50
10.62469572560043
 51
90.0
  0
ARC
  5
24D1
  8
RKC_OUTWORD
 10
267.55556131444212
 20
168.2102454055474
 30
0.0
 40
0.4
 50
270.0
 51
349.3753042743997
  0
ARC
  5
24D2
  8
RKC_OUTWORD
 10
267.66480973889668
 20
163.2012400895176
 30
0.0
 40
6.0
 50
91.043303260423286
 51
104.49544266380531
  0
ARC
  5
24D3
  8
RKC_OUTWORD
 10
265.75299175742492
 20
168.5052454055475
 30
0.0
 40
0.3
 50
121.7883306170524
 51
238.21166938294391
  0
ARC
  5
24D4
  8
RKC_OUTWORD
 10
267.66480973889668
 20
173.80925072157731
 30
0.0
 40
6.0
 50
255.50455733619469
 51
268.95669673957678
  0
ARC
  5
24D5
  8
RKC_OUTWORD
 10
266.6748700264319
 20
167.0768596060955
 30
0.0
 40
2.0
 50
104.8292403639407
 51
122.6806802250395
  0
ARC
  5
24D6
  8
RKC_OUTWORD
 10
266.6748700264319
 20
169.9336312049993
 30
0.0
 40
2.0
 50
237.31931977496041
 51
255.1707596360593
  0
ARC
  5
24D7
  8
RKC_OUTWORD
 10
265.98299176113193
 20
171.5052454055475
 30
0.0
 40
2.0
 50
349.37530427439782
 51
10.62469572560043
  0
ARC
  5
24D8
  8
RKC_OUTWORD
 10
267.55556131444212
 20
171.80024540554751
 30
0.0
 40
0.4
 50
10.62469572560043
 51
90.0
  0
ARC
  5
24D9
  8
RKC_OUTWORD
 10
267.55556131444212
 20
171.21024540554751
 30
0.0
 40
0.4
 50
270.0
 51
349.3753042743997
  0
ARC
  5
24DA
  8
RKC_OUTWORD
 10
267.66480973889668
 20
166.20124008951751
 30
0.0
 40
6.0
 50
91.043303260423286
 51
104.49544266380531
  0
ARC
  5
24DB
  8
RKC_OUTWORD
 10
265.75299175742492
 20
171.5052454055475
 30
0.0
 40
0.3
 50
121.7883306170524
 51
238.21166938294391
  0
ARC
  5
24DC
  8
RKC_OUTWORD
 10
267.66480973889668
 20
176.80925072157731
 30
0.0
 40
6.0
 50
255.50455733619469
 51
268.95669673957678
  0
ARC
  5
24DD
  8
RKC_OUTWORD
 10
266.6748700264319
 20
170.0768596060957
 30
0.0
 40
2.0
 50
104.8292403639407
 51
122.6806802250395
  0
ARC
  5
24DE
  8
RKC_OUTWORD
 10
266.6748700264319
 20
172.93363120499939
 30
0.0
 40
2.0
 50
237.31931977496041
 51
255.1707596360593
  0
LINE
  5
2726
  8
RKC_OUTWORD
 10
77.302991761131921
 20
154.85524540554729
 30
0.0
 11
77.302991761131921
 21
119.7552454055474
 31
0.0
  0
LINE
  5
2727
  8
RKC_OUTWORD
 10
73.302991761131921
 20
199.85524540554741
 30
0.0
 11
98.002991761131852
 21
199.85524540554741
 31
0.0
  0
LINE
  5
2728
  8
RKC_OUTWORD
 10
73.302991761131921
 20
90.555245405547396
 30
0.0
 11
98.002991761131852
 21
90.555245405547396
 31
0.0
  0
LINE
  5
2729
  8
RKC_OUTWORD
 10
98.002991761131852
 20
90.555245405547396
 30
0.0
 11
98.002991761131852
 21
74.855245405547421
 31
0.0
  0
LINE
  5
272A
  8
RKC_OUTWORD
 10
73.302991761131921
 20
154.85524540554729
 30
0.0
 11
77.302991761131921
 21
154.85524540554729
 31
0.0
  0
LINE
  5
272B
  8
RKC_OUTWORD
 10
171.0029917611318
 20
176.35524540554741
 30
0.0
 11
182.60299176113139
 21
176.35524540554741
 31
0.0
  0
LINE
  5
272C
  8
RKC_OUTWORD
 10
100.8529917611319
 20
174.65524540554759
 30
0.0
 11
132.1029917611319
 21
174.65524540554759
 31
0.0
  0
LINE
  5
272D
  8
RKC_OUTWORD
 10
73.302991761131921
 20
96.115245405547256
 30
0.0
 11
91.202991761131827
 21
96.115245405547256
 31
0.0
  0
LINE
  5
272E
  8
RKC_OUTWORD
 10
91.202991761131827
 20
119.7552454055474
 30
0.0
 11
91.202991761131827
 21
96.115245405547256
 31
0.0
  0
LINE
  5
272F
  8
RKC_OUTWORD
 10
77.302991761131921
 20
119.7552454055474
 30
0.0
 11
91.202991761131827
 21
119.7552454055474
 31
0.0
  0
CIRCLE
  5
2730
  8
RKC_OUTWORD
 10
131.30299176113189
 20
178.35524540554741
 30
0.0
 40
0.85
  0
ARC
  5
2731
  8
RKC_OUTWORD
 10
132.1029917611319
 20
175.65524540554759
 30
0.0
 40
1.0
 50
270.0
 51
7.6502886028555892
  0
ARC
  5
2732
  8
RKC_OUTWORD
 10
130.5329917611314
 20
194.85524540554741
 30
0.0
 40
0.85
 50
90.0
 51
270.0
  0
ARC
  5
2733
  8
RKC_OUTWORD
 10
128.30299176113189
 20
196.85524540554741
 30
0.0
 40
3.0
 50
4.83070491995836
 51
90.0
  0
ARC
  5
2734
  8
RKC_OUTWORD
 10
-565.23883937904986
 20
127.5067129563262
 30
0.0
 40
700.0
 50
3.9550477218616962
 51
5.4363126851720383
  0
LINE
  5
2735
  8
RKC_OUTWORD
 10
73.302991761131921
 20
74.855245405547421
 30
0.0
 11
98.002991761131852
 21
74.855245405547421
 31
0.0
  0
LINE
  5
2736
  8
RKC_OUTWORD
 10
100.8529917611319
 20
100.0552454055473
 30
0.0
 11
132.1029917611319
 21
100.0552454055473
 31
0.0
  0
CIRCLE
  5
2737
  8
RKC_OUTWORD
 10
131.30299176113189
 20
96.355245405547564
 30
0.0
 40
0.85
  0
ARC
  5
2738
  8
RKC_OUTWORD
 10
132.1029917611319
 20
99.055245405547353
 30
0.0
 40
1.0
 50
352.3497113971444
 51
90.0
  0
ARC
  5
2739
  8
RKC_OUTWORD
 10
130.5329917611314
 20
79.855245405547421
 30
0.0
 40
0.85
 50
90.0
 51
270.0
  0
ARC
  5
273A
  8
RKC_OUTWORD
 10
128.30299176113189
 20
77.855245405547421
 30
0.0
 40
3.0
 50
270.0
 51
355.16929508004011
  0
ARC
  5
273B
  8
RKC_OUTWORD
 10
-565.23883937904986
 20
147.20377785476819
 30
0.0
 40
700.0
 50
354.29363788162868
 51
354.39094896573221
  0
LINE
  5
273C
  8
RKC_OUTWORD
 10
183.30299176113189
 20
99.055245405547495
 30
0.0
 11
183.30299176113141
 21
137.35524540554749
 31
0.0
  0
LINE
  5
273D
  8
RKC_OUTWORD
 10
171.0029917611318
 20
98.355245405547564
 30
0.0
 11
182.60299176113179
 21
98.355245405547564
 31
0.0
  0
LINE
  5
273E
  8
RKC_OUTWORD
 10
156.0029917611316
 20
99.95524540554743
 30
0.0
 11
154.4029917611316
 21
99.95524540554743
 31
0.0
  0
LINE
  5
273F
  8
RKC_OUTWORD
 10
154.4029917611316
 20
99.95524540554743
 30
0.0
 11
154.4029917611316
 21
98.355245405547564
 31
0.0
  0
LINE
  5
2740
  8
RKC_OUTWORD
 10
154.4029917611316
 20
98.355245405547564
 30
0.0
 11
153.0029917611318
 21
98.355245405547564
 31
0.0
  0
LINE
  5
2741
  8
RKC_OUTWORD
 10
153.0029917611318
 20
98.355245405547564
 30
0.0
 11
153.0029917611318
 21
99.95524540554743
 31
0.0
  0
LINE
  5
2742
  8
RKC_OUTWORD
 10
153.0029917611318
 20
99.95524540554743
 30
0.0
 11
151.4029917611316
 21
99.95524540554743
 31
0.0
  0
LINE
  5
2743
  8
RKC_OUTWORD
 10
151.4029917611316
 20
99.95524540554743
 30
0.0
 11
151.4029917611316
 21
98.355245405547564
 31
0.0
  0
LINE
  5
2744
  8
RKC_OUTWORD
 10
151.4029917611316
 20
98.355245405547564
 30
0.0
 11
150.00299176113171
 21
98.355245405547564
 31
0.0
  0
LINE
  5
2745
  8
RKC_OUTWORD
 10
150.00299176113171
 20
98.355245405547564
 30
0.0
 11
150.00299176113171
 21
99.95524540554743
 31
0.0
  0
LINE
  5
2746
  8
RKC_OUTWORD
 10
150.00299176113171
 20
99.95524540554743
 30
0.0
 11
148.40299176113149
 21
99.95524540554743
 31
0.0
  0
LINE
  5
2747
  8
RKC_OUTWORD
 10
148.40299176113149
 20
99.95524540554743
 30
0.0
 11
148.40299176113149
 21
98.355245405547564
 31
0.0
  0
LINE
  5
2748
  8
RKC_OUTWORD
 10
148.40299176113149
 20
98.355245405547564
 30
0.0
 11
147.0029917611318
 21
98.355245405547564
 31
0.0
  0
LINE
  5
2749
  8
RKC_OUTWORD
 10
147.0029917611318
 20
98.355245405547564
 30
0.0
 11
147.0029917611318
 21
99.95524540554743
 31
0.0
  0
LINE
  5
274A
  8
RKC_OUTWORD
 10
147.0029917611318
 20
99.95524540554743
 30
0.0
 11
145.40299176113149
 21
99.95524540554743
 31
0.0
  0
LINE
  5
274B
  8
RKC_OUTWORD
 10
101.1529917611318
 20
100.35524540554739
 30
0.0
 11
134.30299176113141
 21
100.35524540554719
 31
0.0
  0
LINE
  5
274C
  8
RKC_OUTWORD
 10
133.05466687570299
 20
98.355245405547365
 30
0.0
 11
145.40299176113149
 21
98.355245405547365
 31
0.0
  0
LINE
  5
274D
  8
RKC_OUTWORD
 10
145.4029917611316
 20
98.355245405547365
 30
0.0
 11
145.4029917611316
 21
99.95524540554743
 31
0.0
  0
LINE
  5
274E
  8
RKC_OUTWORD
 10
159.0029917611318
 20
99.95524540554743
 30
0.0
 11
157.40299176113149
 21
99.95524540554743
 31
0.0
  0
LINE
  5
274F
  8
RKC_OUTWORD
 10
157.40299176113149
 20
99.95524540554743
 30
0.0
 11
157.40299176113149
 21
98.355245405547564
 31
0.0
  0
LINE
  5
2750
  8
RKC_OUTWORD
 10
157.40299176113149
 20
98.355245405547564
 30
0.0
 11
156.0029917611316
 21
98.355245405547564
 31
0.0
  0
LINE
  5
2751
  8
RKC_OUTWORD
 10
156.0029917611316
 20
98.355245405547564
 30
0.0
 11
156.0029917611316
 21
99.95524540554743
 31
0.0
  0
LINE
  5
2752
  8
RKC_OUTWORD
 10
162.0029917611316
 20
99.95524540554743
 30
0.0
 11
160.40299176113149
 21
99.95524540554743
 31
0.0
  0
LINE
  5
2753
  8
RKC_OUTWORD
 10
160.40299176113149
 20
99.95524540554743
 30
0.0
 11
160.40299176113149
 21
98.355245405547564
 31
0.0
  0
LINE
  5
2754
  8
RKC_OUTWORD
 10
160.40299176113149
 20
98.355245405547564
 30
0.0
 11
159.0029917611318
 21
98.355245405547564
 31
0.0
  0
LINE
  5
2755
  8
RKC_OUTWORD
 10
159.0029917611318
 20
98.355245405547564
 30
0.0
 11
159.0029917611318
 21
99.95524540554743
 31
0.0
  0
LINE
  5
2756
  8
RKC_OUTWORD
 10
165.0029917611318
 20
99.95524540554743
 30
0.0
 11
163.40299176113149
 21
99.95524540554743
 31
0.0
  0
LINE
  5
2757
  8
RKC_OUTWORD
 10
163.40299176113149
 20
99.95524540554743
 30
0.0
 11
163.40299176113149
 21
98.355245405547564
 31
0.0
  0
LINE
  5
2758
  8
RKC_OUTWORD
 10
163.40299176113149
 20
98.355245405547564
 30
0.0
 11
162.0029917611316
 21
98.355245405547564
 31
0.0
  0
LINE
  5
2759
  8
RKC_OUTWORD
 10
162.0029917611316
 20
98.355245405547564
 30
0.0
 11
162.0029917611316
 21
99.95524540554743
 31
0.0
  0
LINE
  5
275A
  8
RKC_OUTWORD
 10
168.0029917611318
 20
99.95524540554743
 30
0.0
 11
166.4029917611316
 21
99.95524540554743
 31
0.0
  0
LINE
  5
275B
  8
RKC_OUTWORD
 10
166.4029917611316
 20
99.95524540554743
 30
0.0
 11
166.4029917611316
 21
98.355245405547564
 31
0.0
  0
LINE
  5
275C
  8
RKC_OUTWORD
 10
166.4029917611316
 20
98.355245405547564
 30
0.0
 11
165.0029917611318
 21
98.355245405547564
 31
0.0
  0
LINE
  5
275D
  8
RKC_OUTWORD
 10
165.0029917611318
 20
98.355245405547564
 30
0.0
 11
165.0029917611318
 21
99.95524540554743
 31
0.0
  0
LINE
  5
275E
  8
RKC_OUTWORD
 10
171.0029917611318
 20
99.95524540554743
 30
0.0
 11
169.40299176113149
 21
99.95524540554743
 31
0.0
  0
LINE
  5
275F
  8
RKC_OUTWORD
 10
169.40299176113149
 20
99.95524540554743
 30
0.0
 11
169.40299176113149
 21
98.355245405547564
 31
0.0
  0
LINE
  5
2760
  8
RKC_OUTWORD
 10
169.40299176113149
 20
98.355245405547564
 30
0.0
 11
168.0029917611318
 21
98.355245405547564
 31
0.0
  0
LINE
  5
2761
  8
RKC_OUTWORD
 10
168.0029917611318
 20
98.355245405547564
 30
0.0
 11
168.0029917611318
 21
99.95524540554743
 31
0.0
  0
LINE
  5
2762
  8
RKC_OUTWORD
 10
171.0029917611318
 20
99.95524540554743
 30
0.0
 11
171.0029917611318
 21
98.355245405547564
 31
0.0
  0
LINE
  5
2763
  8
RKC_OUTWORD
 10
183.30299176113141
 20
175.6552454055473
 30
0.0
 11
183.30299176113141
 21
137.35524540554749
 31
0.0
  0
LINE
  5
2764
  8
RKC_OUTWORD
 10
73.302991761131921
 20
199.85524540554741
 30
0.0
 11
73.302991761131921
 21
154.85524540554729
 31
0.0
  0
LINE
  5
2765
  8
RKC_OUTWORD
 10
77.302991761131807
 20
154.85524540554729
 30
0.0
 11
77.302991761131807
 21
119.5552454055474
 31
0.0
  0
LINE
  5
2766
  8
RKC_OUTWORD
 10
73.302991761131921
 20
74.855245405547421
 30
0.0
 11
73.302991761131921
 21
79.855245405547421
 31
0.0
  0
LINE
  5
2767
  8
RKC_OUTWORD
 10
73.302991761131921
 20
74.855245405547421
 30
0.0
 11
73.302991761131921
 21
69.855245405547421
 31
0.0
  0
LINE
  5
2768
  8
RKC_OUTWORD
 10
73.302991761131921
 20
69.855245405547421
 30
0.0
 11
75.502991761131952
 21
69.855245405547421
 31
0.0
  0
LINE
  5
2769
  8
RKC_OUTWORD
 10
75.502991761131952
 20
69.855245405547421
 30
0.0
 11
75.502991761131952
 21
74.855245405547421
 31
0.0
  0
LINE
  5
276A
  8
RKC_OUTWORD
 10
75.502991761131952
 20
69.855245405547421
 30
0.0
 11
77.202991761131955
 21
69.855245405547421
 31
0.0
  0
LINE
  5
276B
  8
RKC_OUTWORD
 10
77.202991761131955
 20
69.855245405547421
 30
0.0
 11
77.202991761131955
 21
74.855245405547421
 31
0.0
  0
LINE
  5
276C
  8
RKC_OUTWORD
 10
73.302991761131921
 20
154.85524540554729
 30
0.0
 11
73.802991761131807
 21
152.85524540554729
 31
0.0
  0
LINE
  5
276D
  8
RKC_OUTWORD
 10
73.802991761131807
 20
152.85524540554729
 30
0.0
 11
75.102991761131932
 21
152.85524540554729
 31
0.0
  0
LINE
  5
276E
  8
RKC_OUTWORD
 10
75.802991761131807
 20
153.55524540554731
 30
0.0
 11
75.802991761131807
 21
154.85524540554729
 31
0.0
  0
LINE
  5
276F
  8
RKC_OUTWORD
 10
75.102991761131932
 20
152.85524540554729
 30
0.0
 11
75.802991761131807
 21
153.55524540554731
 31
0.0
  0
LINE
  5
2770
  8
RKC_OUTWORD
 10
77.302991761131921
 20
151.35524540554721
 30
0.0
 11
77.302991761131921
 21
151.85524540554729
 31
0.0
  0
LINE
  5
2771
  8
RKC_OUTWORD
 10
77.302991761131921
 20
151.85524540554729
 30
0.0
 11
76.702991761131955
 21
151.85524540554729
 31
0.0
  0
LINE
  5
2772
  8
RKC_OUTWORD
 10
76.702991761131955
 20
151.85524540554729
 30
0.0
 11
76.702991761131955
 21
150.85524540554721
 31
0.0
  0
LINE
  5
2773
  8
RKC_OUTWORD
 10
76.702991761131955
 20
150.85524540554721
 30
0.0
 11
77.302991761131921
 21
150.85524540554721
 31
0.0
  0
LINE
  5
2774
  8
RKC_OUTWORD
 10
73.802991761131807
 20
122.85524540554729
 30
0.0
 11
75.052991761131807
 21
122.85524540554751
 31
0.0
  0
LINE
  5
2775
  8
RKC_OUTWORD
 10
75.75299176113198
 20
122.1552454055474
 30
0.0
 11
75.752991761131796
 21
119.5552454055474
 31
0.0
  0
LINE
  5
2776
  8
RKC_OUTWORD
 10
73.302991761131921
 20
120.85524540554729
 30
0.0
 11
73.802991761131807
 21
122.85524540554729
 31
0.0
  0
LINE
  5
2777
  8
RKC_OUTWORD
 10
75.052991761131807
 20
122.85524540554751
 30
0.0
 11
75.75299176113198
 21
122.1552454055474
 31
0.0
  0
LINE
  5
2778
  8
RKC_OUTWORD
 10
73.302991761131807
 20
118.93524540554741
 30
0.0
 11
73.302991761131921
 21
74.855245405547421
 31
0.0
  0
LINE
  5
2779
  8
RKC_OUTWORD
 10
77.302991761131921
 20
122.85524540554751
 30
0.0
 11
76.702991761131955
 21
122.85524540554751
 31
0.0
  0
LINE
  5
277A
  8
RKC_OUTWORD
 10
76.702991761131955
 20
122.85524540554751
 30
0.0
 11
76.702991761131955
 21
123.85524540554751
 31
0.0
  0
LINE
  5
277B
  8
RKC_OUTWORD
 10
76.702991761131955
 20
123.85524540554751
 30
0.0
 11
77.302991761131921
 21
123.85524540554751
 31
0.0
  0
LINE
  5
277C
  8
RKC_OUTWORD
 10
73.302991761131921
 20
90.855245405547507
 30
0.0
 11
98.302991761131935
 21
90.855245405547407
 31
0.0
  0
LINE
  5
277D
  8
RKC_OUTWORD
 10
98.302991761131935
 20
90.855245405547507
 30
0.0
 11
98.302991761131935
 21
74.855245405547421
 31
0.0
  0
LINE
  5
277E
  8
RKC_OUTWORD
 10
98.002991761131852
 20
74.855245405547421
 30
0.0
 11
98.002991761131852
 21
75.855245405547393
 31
0.0
  0
LINE
  5
277F
  8
RKC_OUTWORD
 10
98.002991761131852
 20
75.855245405547393
 30
0.0
 11
98.302991761131935
 21
75.855245405547393
 31
0.0
  0
LINE
  5
2780
  8
RKC_OUTWORD
 10
98.002991761131852
 20
77.155245405547433
 30
0.0
 11
98.302991761131935
 21
77.155245405547433
 31
0.0
  0
LINE
  5
2781
  8
RKC_OUTWORD
 10
84.002991761131796
 20
74.855245405547421
 30
0.0
 11
84.002991761131796
 21
76.855245405547421
 31
0.0
  0
LINE
  5
2782
  8
RKC_OUTWORD
 10
84.002991761131796
 20
76.855245405547421
 30
0.0
 11
90.602991761131918
 21
76.855245405547421
 31
0.0
  0
LINE
  5
2783
  8
RKC_OUTWORD
 10
90.602991761131918
 20
76.855245405547421
 30
0.0
 11
90.602991761131918
 21
74.855245405547421
 31
0.0
  0
LINE
  5
2784
  8
RKC_OUTWORD
 10
84.202991761131841
 20
76.055245405547439
 30
0.0
 11
90.402991761131915
 21
76.055245405547439
 31
0.0
  0
LINE
  5
2785
  8
RKC_OUTWORD
 10
84.202991761131841
 20
75.05524540554741
 30
0.0
 11
84.202991761131955
 21
76.855245405547421
 31
0.0
  0
LINE
  5
2786
  8
RKC_OUTWORD
 10
90.402991761131915
 20
76.855245405547421
 30
0.0
 11
90.402991761131915
 21
75.05524540554741
 31
0.0
  0
LINE
  5
2787
  8
RKC_OUTWORD
 10
84.002991761131796
 20
74.855245405547421
 30
0.0
 11
84.202991761131955
 21
75.05524540554741
 31
0.0
  0
LINE
  5
2788
  8
RKC_OUTWORD
 10
90.602991761131918
 20
74.855245405547421
 30
0.0
 11
90.402991761131915
 21
75.05524540554741
 31
0.0
  0
LINE
  5
2789
  8
RKC_OUTWORD
 10
98.302991761131935
 20
74.855245405547421
 30
0.0
 11
128.30299176113189
 21
74.855245405547421
 31
0.0
  0
LINE
  5
278A
  8
RKC_OUTWORD
 10
73.302991761131921
 20
184.15524540554711
 30
0.0
 11
98.002991761131852
 21
184.15524540554711
 31
0.0
  0
LINE
  5
278B
  8
RKC_OUTWORD
 10
98.002991761131852
 20
184.15524540554711
 30
0.0
 11
98.002991761131852
 21
199.85524540554741
 31
0.0
  0
LINE
  5
278C
  8
RKC_OUTWORD
 10
73.302991761131921
 20
183.85524540554721
 30
0.0
 11
98.302991761131935
 21
183.85524540554721
 31
0.0
  0
LINE
  5
278D
  8
RKC_OUTWORD
 10
98.302991761131935
 20
183.85524540554721
 30
0.0
 11
98.302991761131935
 21
199.85524540554741
 31
0.0
  0
LINE
  5
278E
  8
RKC_OUTWORD
 10
98.002991761131852
 20
198.85524540554761
 30
0.0
 11
98.302991761131935
 21
198.85524540554761
 31
0.0
  0
LINE
  5
278F
  8
RKC_OUTWORD
 10
98.002991761131852
 20
197.5552454055474
 30
0.0
 11
98.302991761131935
 21
197.5552454055474
 31
0.0
  0
LINE
  5
2790
  8
RKC_OUTWORD
 10
84.002991761131796
 20
199.85524540554741
 30
0.0
 11
84.002991761131796
 21
197.85524540554741
 31
0.0
  0
LINE
  5
2791
  8
RKC_OUTWORD
 10
84.002991761131796
 20
197.85524540554741
 30
0.0
 11
90.602991761131918
 21
197.85524540554741
 31
0.0
  0
LINE
  5
2792
  8
RKC_OUTWORD
 10
90.602991761131918
 20
197.85524540554741
 30
0.0
 11
90.602991761131918
 21
199.85524540554741
 31
0.0
  0
LINE
  5
2793
  8
RKC_OUTWORD
 10
84.202991761131841
 20
198.65524540554759
 30
0.0
 11
90.402991761131915
 21
198.65524540554759
 31
0.0
  0
LINE
  5
2794
  8
RKC_OUTWORD
 10
84.202991761131841
 20
199.65524540554759
 30
0.0
 11
84.202991761131955
 21
197.85524540554741
 31
0.0
  0
LINE
  5
2795
  8
RKC_OUTWORD
 10
90.402991761131915
 20
197.85524540554741
 30
0.0
 11
90.402991761131915
 21
199.65524540554759
 31
0.0
  0
LINE
  5
2796
  8
RKC_OUTWORD
 10
84.002991761131796
 20
199.85524540554741
 30
0.0
 11
84.202991761131955
 21
199.65524540554759
 31
0.0
  0
LINE
  5
2797
  8
RKC_OUTWORD
 10
90.602991761131918
 20
199.85524540554741
 30
0.0
 11
90.402991761131915
 21
199.65524540554759
 31
0.0
  0
LINE
  5
2798
  8
RKC_OUTWORD
 10
98.302991761131935
 20
199.85524540554741
 30
0.0
 11
128.30299176113189
 21
199.85524540554741
 31
0.0
  0
LINE
  5
2799
  8
RKC_OUTWORD
 10
79.302991761131807
 20
170.35524540554741
 30
0.0
 11
83.102991761131761
 21
170.35524540554741
 31
0.0
  0
LINE
  5
279A
  8
RKC_OUTWORD
 10
83.102991761131761
 20
170.35524540554741
 30
0.0
 11
83.102991761131761
 21
174.35524540554729
 31
0.0
  0
LINE
  5
279B
  8
RKC_OUTWORD
 10
83.102991761131761
 20
174.35524540554729
 30
0.0
 11
79.302991761131807
 21
174.35524540554729
 31
0.0
  0
LINE
  5
279C
  8
RKC_OUTWORD
 10
79.302991761131807
 20
174.35524540554729
 30
0.0
 11
79.302991761131807
 21
173.55524540554711
 31
0.0
  0
LINE
  5
279D
  8
RKC_OUTWORD
 10
83.002991761131796
 20
170.35524540554741
 30
0.0
 11
83.002991761131796
 21
174.35524540554729
 31
0.0
  0
LINE
  5
279E
  8
RKC_OUTWORD
 10
81.802991761131807
 20
170.35524540554741
 30
0.0
 11
81.802991761131807
 21
174.35524540554729
 31
0.0
  0
LINE
  5
279F
  8
RKC_OUTWORD
 10
81.302991761131807
 20
170.35524540554741
 30
0.0
 11
81.302991761131807
 21
171.15524540554719
 31
0.0
  0
LINE
  5
27A0
  8
RKC_OUTWORD
 10
83.102991761131761
 20
173.55524540554711
 30
0.0
 11
79.302991761131807
 21
173.55524540554711
 31
0.0
  0
LINE
  5
27A1
  8
RKC_OUTWORD
 10
79.302991761131807
 20
171.15524540554719
 30
0.0
 11
83.102991761131761
 21
171.15524540554719
 31
0.0
  0
LINE
  5
27A2
  8
RKC_OUTWORD
 10
81.302991761131807
 20
173.55524540554711
 30
0.0
 11
81.302991761131807
 21
174.35524540554729
 31
0.0
  0
LINE
  5
27A3
  8
RKC_OUTWORD
 10
79.302991761131807
 20
171.15524540554719
 30
0.0
 11
79.302991761131807
 21
170.35524540554741
 31
0.0
  0
LINE
  5
27A4
  8
RKC_OUTWORD
 10
77.302991761131921
 20
119.7552454055474
 30
0.0
 11
79.302991761131921
 21
119.7552454055474
 31
0.0
  0
LINE
  5
27A5
  8
RKC_OUTWORD
 10
79.302991761131807
 20
170.35524540554741
 30
0.0
 11
83.102991761131761
 21
170.35524540554741
 31
0.0
  0
LINE
  5
27A6
  8
RKC_OUTWORD
 10
83.102991761131761
 20
170.35524540554741
 30
0.0
 11
83.102991761131761
 21
174.35524540554729
 31
0.0
  0
LINE
  5
27A7
  8
RKC_OUTWORD
 10
83.102991761131761
 20
174.35524540554729
 30
0.0
 11
79.302991761131807
 21
174.35524540554729
 31
0.0
  0
LINE
  5
27A8
  8
RKC_OUTWORD
 10
79.302991761131807
 20
174.35524540554729
 30
0.0
 11
79.302991761131807
 21
173.55524540554711
 31
0.0
  0
LINE
  5
27A9
  8
RKC_OUTWORD
 10
83.002991761131796
 20
170.35524540554741
 30
0.0
 11
83.002991761131796
 21
174.35524540554729
 31
0.0
  0
LINE
  5
27AA
  8
RKC_OUTWORD
 10
81.802991761131807
 20
170.35524540554741
 30
0.0
 11
81.802991761131807
 21
174.35524540554729
 31
0.0
  0
LINE
  5
27AB
  8
RKC_OUTWORD
 10
81.302991761131807
 20
170.35524540554741
 30
0.0
 11
81.302991761131807
 21
171.15524540554719
 31
0.0
  0
LINE
  5
27AC
  8
RKC_OUTWORD
 10
83.102991761131761
 20
173.55524540554711
 30
0.0
 11
79.302991761131807
 21
173.55524540554711
 31
0.0
  0
LINE
  5
27AD
  8
RKC_OUTWORD
 10
79.302991761131807
 20
171.15524540554719
 30
0.0
 11
83.102991761131761
 21
171.15524540554719
 31
0.0
  0
LINE
  5
27AE
  8
RKC_OUTWORD
 10
81.302991761131807
 20
173.55524540554711
 30
0.0
 11
81.302991761131807
 21
174.35524540554729
 31
0.0
  0
LINE
  5
27AF
  8
RKC_OUTWORD
 10
79.302991761131807
 20
171.15524540554719
 30
0.0
 11
79.302991761131807
 21
170.35524540554741
 31
0.0
  0
LINE
  5
27B0
  8
RKC_OUTWORD
 10
79.302991761131807
 20
125.43524540554741
 30
0.0
 11
83.102991761131761
 21
125.43524540554741
 31
0.0
  0
LINE
  5
27B1
  8
RKC_OUTWORD
 10
83.102991761131761
 20
125.43524540554741
 30
0.0
 11
83.102991761131761
 21
129.43524540554739
 31
0.0
  0
LINE
  5
27B2
  8
RKC_OUTWORD
 10
83.102991761131761
 20
129.43524540554739
 30
0.0
 11
79.302991761131807
 21
129.43524540554739
 31
0.0
  0
LINE
  5
27B3
  8
RKC_OUTWORD
 10
79.302991761131807
 20
129.43524540554739
 30
0.0
 11
79.302991761131807
 21
128.63524540554741
 31
0.0
  0
LINE
  5
27B4
  8
RKC_OUTWORD
 10
83.002991761131796
 20
125.43524540554741
 30
0.0
 11
83.002991761131796
 21
129.43524540554739
 31
0.0
  0
LINE
  5
27B5
  8
RKC_OUTWORD
 10
81.802991761131807
 20
125.43524540554741
 30
0.0
 11
81.802991761131807
 21
129.43524540554739
 31
0.0
  0
LINE
  5
27B6
  8
RKC_OUTWORD
 10
81.302991761131807
 20
125.43524540554741
 30
0.0
 11
81.302991761131807
 21
126.2352454055473
 31
0.0
  0
LINE
  5
27B7
  8
RKC_OUTWORD
 10
83.102991761131761
 20
128.63524540554741
 30
0.0
 11
79.302991761131807
 21
128.63524540554741
 31
0.0
  0
LINE
  5
27B8
  8
RKC_OUTWORD
 10
79.302991761131807
 20
126.2352454055473
 30
0.0
 11
83.102991761131761
 21
126.2352454055473
 31
0.0
  0
LINE
  5
27B9
  8
RKC_OUTWORD
 10
81.302991761131807
 20
128.63524540554741
 30
0.0
 11
81.302991761131807
 21
129.43524540554739
 31
0.0
  0
LINE
  5
27BA
  8
RKC_OUTWORD
 10
79.302991761131807
 20
126.2352454055473
 30
0.0
 11
79.302991761131807
 21
125.43524540554741
 31
0.0
  0
LINE
  5
27BB
  8
RKC_OUTWORD
 10
79.302991761131807
 20
125.43524540554741
 30
0.0
 11
83.102991761131761
 21
125.43524540554741
 31
0.0
  0
LINE
  5
27BC
  8
RKC_OUTWORD
 10
83.102991761131761
 20
125.43524540554741
 30
0.0
 11
83.102991761131761
 21
129.43524540554739
 31
0.0
  0
LINE
  5
27BD
  8
RKC_OUTWORD
 10
83.102991761131761
 20
129.43524540554739
 30
0.0
 11
79.302991761131807
 21
129.43524540554739
 31
0.0
  0
LINE
  5
27BE
  8
RKC_OUTWORD
 10
79.302991761131807
 20
129.43524540554739
 30
0.0
 11
79.302991761131807
 21
128.63524540554741
 31
0.0
  0
LINE
  5
27BF
  8
RKC_OUTWORD
 10
83.002991761131796
 20
125.43524540554741
 30
0.0
 11
83.002991761131796
 21
129.43524540554739
 31
0.0
  0
LINE
  5
27C0
  8
RKC_OUTWORD
 10
81.802991761131807
 20
125.43524540554741
 30
0.0
 11
81.802991761131807
 21
129.43524540554739
 31
0.0
  0
LINE
  5
27C1
  8
RKC_OUTWORD
 10
81.302991761131807
 20
125.43524540554741
 30
0.0
 11
81.302991761131807
 21
126.2352454055473
 31
0.0
  0
LINE
  5
27C2
  8
RKC_OUTWORD
 10
83.102991761131761
 20
128.63524540554741
 30
0.0
 11
79.302991761131807
 21
128.63524540554741
 31
0.0
  0
LINE
  5
27C3
  8
RKC_OUTWORD
 10
79.302991761131807
 20
126.2352454055473
 30
0.0
 11
83.102991761131761
 21
126.2352454055473
 31
0.0
  0
LINE
  5
27C4
  8
RKC_OUTWORD
 10
81.302991761131807
 20
128.63524540554741
 30
0.0
 11
81.302991761131807
 21
129.43524540554739
 31
0.0
  0
LINE
  5
27C5
  8
RKC_OUTWORD
 10
79.302991761131807
 20
126.2352454055473
 30
0.0
 11
79.302991761131807
 21
125.43524540554741
 31
0.0
  0
LINE
  5
27C6
  8
RKC_OUTWORD
 10
90.002991761131796
 20
118.6752454055474
 30
0.0
 11
90.002991761131796
 21
97.035245405547244
 31
0.0
  0
LINE
  5
27C7
  8
RKC_OUTWORD
 10
83.002991761131796
 20
118.6752454055474
 30
0.0
 11
90.002991761131796
 21
118.6752454055474
 31
0.0
  0
LINE
  5
27C8
  8
RKC_OUTWORD
 10
83.002991761131796
 20
97.035245405547244
 30
0.0
 11
90.002991761131796
 21
97.035245405547244
 31
0.0
  0
LINE
  5
27C9
  8
RKC_OUTWORD
 10
83.402991761131815
 20
118.6752454055474
 30
0.0
 11
83.402991761131616
 21
97.035245405547244
 31
0.0
  0
LINE
  5
27CA
  8
RKC_OUTWORD
 10
83.002991761131796
 20
119.7552454055474
 30
0.0
 11
83.002991761131796
 21
96.115245405547256
 31
0.0
  0
LINE
  5
27CB
  8
RKC_OUTWORD
 10
81.802991761131807
 20
119.7552454055474
 30
0.0
 11
81.802991761131807
 21
96.115245405547256
 31
0.0
  0
LINE
  5
27CC
  8
RKC_OUTWORD
 10
81.302991761131807
 20
119.7552454055474
 30
0.0
 11
81.302991761131807
 21
96.535245405547357
 31
0.0
  0
LINE
  5
27CD
  8
RKC_OUTWORD
 10
73.302991761131921
 20
96.535245405547357
 30
0.0
 11
81.302991761131807
 21
96.535245405547357
 31
0.0
  0
LINE
  5
27CE
  8
RKC_OUTWORD
 10
78.702991761131841
 20
96.535245405547357
 30
0.0
 11
78.702991761131841
 21
96.115245405547256
 31
0.0
  0
LINE
  5
27CF
  8
RKC_OUTWORD
 10
74.002991761131824
 20
119.5552454055474
 30
0.0
 11
81.302991761131622
 21
119.5552454055474
 31
0.0
  0
LINE
  5
27D0
  8
RKC_OUTWORD
 10
73.302991761131807
 20
118.85524540554751
 30
0.0
 11
74.002991761131824
 21
119.5552454055474
 31
0.0
  0
LINE
  5
27D1
  8
RKC_OUTWORD
 10
73.302991761131921
 20
120.85524540554729
 30
0.0
 11
73.302991761131807
 21
118.93524540554741
 31
0.0
  0
LINE
  5
27D2
  8
RKC_OUTWORD
 10
182.60299176113139
 20
176.35524540554741
 30
0.0
 11
171.9529917611319
 21
176.35524540554741
 31
0.0
  0
ARC
  5
27D3
  8
RKC_OUTWORD
 10
182.60299176113139
 20
175.6552454055473
 30
0.0
 40
0.7
 50
0.0
 51
90.0
  0
ARC
  5
27D4
  8
RKC_OUTWORD
 10
182.60299176113179
 20
99.055245405547495
 30
0.0
 40
0.7
 50
270.0
 51
0.0
  0
LINE
  5
27D5
  8
RKC_OUTWORD
 10
183.30299176113141
 20
175.6552454055473
 30
0.0
 11
183.30299176113141
 21
137.35524540554749
 31
0.0
  0
LINE
  5
27D6
  8
RKC_OUTWORD
 10
182.30299176113161
 20
175.6552454055473
 30
0.0
 11
182.30299176113161
 21
137.35524540554749
 31
0.0
  0
LINE
  5
27D7
  8
RKC_OUTWORD
 10
182.30299176113181
 20
99.055245405547495
 30
0.0
 11
182.3029917611309
 21
175.6552454055473
 31
0.0
  0
LINE
  5
27D8
  8
RKC_OUTWORD
 10
100.6529917611318
 20
174.45524540554729
 30
0.0
 11
100.6529917611318
 21
100.2552454055473
 31
0.0
  0
LINE
  5
27D9
  8
RKC_OUTWORD
 10
101.1529917611318
 20
174.35524540554741
 30
0.0
 11
101.1529917611318
 21
100.35524540554739
 31
0.0
  0
ARC
  5
27DA
  8
RKC_OUTWORD
 10
100.8529917611319
 20
174.45524540554729
 30
0.0
 40
0.2
 50
90.0
 51
180.0
  0
ARC
  5
27DB
  8
RKC_OUTWORD
 10
100.8529917611319
 20
100.2552454055473
 30
0.0
 40
0.2
 50
180.0
 51
270.0
  0
LINE
  5
27DC
  8
RKC_OUTWORD
 10
134.30299176113141
 20
98.355245405547365
 30
0.0
 11
134.30299176113141
 21
100.35524540554739
 31
0.0
  0
LINE
  5
27DD
  8
RKC_OUTWORD
 10
156.0029917611316
 20
174.75524540554741
 30
0.0
 11
154.4029917611316
 21
174.75524540554741
 31
0.0
  0
LINE
  5
27DE
  8
RKC_OUTWORD
 10
154.4029917611316
 20
174.75524540554741
 30
0.0
 11
154.4029917611316
 21
176.35524540554741
 31
0.0
  0
LINE
  5
27DF
  8
RKC_OUTWORD
 10
154.4029917611316
 20
176.35524540554741
 30
0.0
 11
153.0029917611318
 21
176.35524540554741
 31
0.0
  0
LINE
  5
27E0
  8
RKC_OUTWORD
 10
153.0029917611318
 20
176.35524540554741
 30
0.0
 11
153.0029917611318
 21
174.75524540554741
 31
0.0
  0
LINE
  5
27E1
  8
RKC_OUTWORD
 10
153.0029917611318
 20
174.75524540554741
 30
0.0
 11
151.4029917611316
 21
174.75524540554741
 31
0.0
  0
LINE
  5
27E2
  8
RKC_OUTWORD
 10
151.4029917611316
 20
174.75524540554741
 30
0.0
 11
151.4029917611316
 21
176.35524540554741
 31
0.0
  0
LINE
  5
27E3
  8
RKC_OUTWORD
 10
151.4029917611316
 20
176.35524540554741
 30
0.0
 11
150.00299176113171
 21
176.35524540554741
 31
0.0
  0
LINE
  5
27E4
  8
RKC_OUTWORD
 10
150.00299176113171
 20
176.35524540554741
 30
0.0
 11
150.00299176113171
 21
174.75524540554741
 31
0.0
  0
LINE
  5
27E5
  8
RKC_OUTWORD
 10
150.00299176113171
 20
174.75524540554741
 30
0.0
 11
148.40299176113149
 21
174.75524540554741
 31
0.0
  0
LINE
  5
27E6
  8
RKC_OUTWORD
 10
148.40299176113149
 20
174.75524540554741
 30
0.0
 11
148.40299176113149
 21
176.35524540554741
 31
0.0
  0
LINE
  5
27E7
  8
RKC_OUTWORD
 10
148.40299176113149
 20
176.35524540554741
 30
0.0
 11
147.0029917611318
 21
176.35524540554741
 31
0.0
  0
LINE
  5
27E8
  8
RKC_OUTWORD
 10
147.0029917611318
 20
176.35524540554741
 30
0.0
 11
147.0029917611318
 21
174.75524540554741
 31
0.0
  0
LINE
  5
27E9
  8
RKC_OUTWORD
 10
147.0029917611318
 20
174.75524540554741
 30
0.0
 11
145.40299176113149
 21
174.75524540554741
 31
0.0
  0
LINE
  5
27EA
  8
RKC_OUTWORD
 10
101.1529917611318
 20
174.35524540554741
 30
0.0
 11
134.30299176113141
 21
174.35524540554741
 31
0.0
  0
LINE
  5
27EB
  8
RKC_OUTWORD
 10
133.05466687570299
 20
176.35524540554741
 30
0.0
 11
145.40299176113149
 21
176.35524540554741
 31
0.0
  0
LINE
  5
27EC
  8
RKC_OUTWORD
 10
145.4029917611316
 20
176.35524540554741
 30
0.0
 11
145.4029917611316
 21
174.75524540554741
 31
0.0
  0
LINE
  5
27ED
  8
RKC_OUTWORD
 10
159.0029917611318
 20
174.75524540554741
 30
0.0
 11
157.40299176113149
 21
174.75524540554741
 31
0.0
  0
LINE
  5
27EE
  8
RKC_OUTWORD
 10
157.40299176113149
 20
174.75524540554741
 30
0.0
 11
157.40299176113149
 21
176.35524540554741
 31
0.0
  0
LINE
  5
27EF
  8
RKC_OUTWORD
 10
157.40299176113149
 20
176.35524540554741
 30
0.0
 11
156.0029917611316
 21
176.35524540554741
 31
0.0
  0
LINE
  5
27F0
  8
RKC_OUTWORD
 10
156.0029917611316
 20
176.35524540554741
 30
0.0
 11
156.0029917611316
 21
174.75524540554741
 31
0.0
  0
LINE
  5
27F1
  8
RKC_OUTWORD
 10
162.0029917611316
 20
174.75524540554741
 30
0.0
 11
160.40299176113149
 21
174.75524540554741
 31
0.0
  0
LINE
  5
27F2
  8
RKC_OUTWORD
 10
160.40299176113149
 20
174.75524540554741
 30
0.0
 11
160.40299176113149
 21
176.35524540554741
 31
0.0
  0
LINE
  5
27F3
  8
RKC_OUTWORD
 10
160.40299176113149
 20
176.35524540554741
 30
0.0
 11
159.0029917611318
 21
176.35524540554741
 31
0.0
  0
LINE
  5
27F4
  8
RKC_OUTWORD
 10
159.0029917611318
 20
176.35524540554741
 30
0.0
 11
159.0029917611318
 21
174.75524540554741
 31
0.0
  0
LINE
  5
27F5
  8
RKC_OUTWORD
 10
165.0029917611318
 20
174.75524540554741
 30
0.0
 11
163.40299176113149
 21
174.75524540554741
 31
0.0
  0
LINE
  5
27F6
  8
RKC_OUTWORD
 10
163.40299176113149
 20
174.75524540554741
 30
0.0
 11
163.40299176113149
 21
176.35524540554741
 31
0.0
  0
LINE
  5
27F7
  8
RKC_OUTWORD
 10
163.40299176113149
 20
176.35524540554741
 30
0.0
 11
162.0029917611316
 21
176.35524540554741
 31
0.0
  0
LINE
  5
27F8
  8
RKC_OUTWORD
 10
162.0029917611316
 20
176.35524540554741
 30
0.0
 11
162.0029917611316
 21
174.75524540554741
 31
0.0
  0
LINE
  5
27F9
  8
RKC_OUTWORD
 10
168.0029917611318
 20
174.75524540554741
 30
0.0
 11
166.4029917611316
 21
174.75524540554741
 31
0.0
  0
LINE
  5
27FA
  8
RKC_OUTWORD
 10
166.4029917611316
 20
174.75524540554741
 30
0.0
 11
166.4029917611316
 21
176.35524540554741
 31
0.0
  0
LINE
  5
27FB
  8
RKC_OUTWORD
 10
166.4029917611316
 20
176.35524540554741
 30
0.0
 11
165.0029917611318
 21
176.35524540554741
 31
0.0
  0
LINE
  5
27FC
  8
RKC_OUTWORD
 10
165.0029917611318
 20
176.35524540554741
 30
0.0
 11
165.0029917611318
 21
174.75524540554741
 31
0.0
  0
LINE
  5
27FD
  8
RKC_OUTWORD
 10
171.0029917611318
 20
174.75524540554741
 30
0.0
 11
169.40299176113149
 21
174.75524540554741
 31
0.0
  0
LINE
  5
27FE
  8
RKC_OUTWORD
 10
169.40299176113149
 20
174.75524540554741
 30
0.0
 11
169.40299176113149
 21
176.35524540554741
 31
0.0
  0
LINE
  5
27FF
  8
RKC_OUTWORD
 10
169.40299176113149
 20
176.35524540554741
 30
0.0
 11
168.0029917611318
 21
176.35524540554741
 31
0.0
  0
LINE
  5
2800
  8
RKC_OUTWORD
 10
168.0029917611318
 20
176.35524540554741
 30
0.0
 11
168.0029917611318
 21
174.75524540554741
 31
0.0
  0
LINE
  5
2801
  8
RKC_OUTWORD
 10
171.0029917611318
 20
174.75524540554741
 30
0.0
 11
171.0029917611318
 21
176.35524540554741
 31
0.0
  0
LINE
  5
2802
  8
RKC_OUTWORD
 10
134.30299176113141
 20
176.35524540554741
 30
0.0
 11
134.30299176113141
 21
174.35524540554741
 31
0.0
  0
CIRCLE
  5
2803
  8
RKC_OUTWORD
 10
130.5329917611314
 20
79.855245405547421
 30
0.0
 40
0.8
  0
LINE
  5
2804
  8
RKC_OUTWORD
 10
130.5329917611314
 20
80.705245405547416
 30
0.0
 11
131.4135449526764
 21
80.705245405547416
 31
0.0
  0
LINE
  5
2805
  8
RKC_OUTWORD
 10
130.5329917611314
 20
79.005245405547413
 30
0.0
 11
131.21049887807879
 21
79.005245405547413
 31
0.0
  0
ARC
  5
2806
  8
RKC_OUTWORD
 10
131.4135449526764
 20
80.905245405547447
 30
0.0
 40
0.2
 50
270.0
 51
354.56368731482797
  0
ARC
  5
2807
  8
RKC_OUTWORD
 10
131.21049887807879
 20
78.80524540554741
 30
0.0
 40
0.2
 50
354.39094896573221
 51
90.0
  0
ARC
  5
2808
  8
RKC_OUTWORD
 10
-565.23883937904986
 20
147.20377785476819
 30
0.0
 40
700.0
 50
354.56368731482797
 51
356.04495227813987
  0
CIRCLE
  5
2809
  8
RKC_OUTWORD
 10
130.5329917611314
 20
194.85524540554741
 30
0.0
 40
0.8
  0
LINE
  5
280A
  8
RKC_OUTWORD
 10
130.5329917611314
 20
195.70524540554709
 30
0.0
 11
131.21049887807879
 21
195.70524540554709
 31
0.0
  0
LINE
  5
280B
  8
RKC_OUTWORD
 10
130.5329917611314
 20
194.0052454055473
 30
0.0
 11
131.41354495267609
 21
194.0052454055473
 31
0.0
  0
ARC
  5
280C
  8
RKC_OUTWORD
 10
131.21049887807879
 20
195.90524540554739
 30
0.0
 40
0.2
 50
270.0
 51
5.6090510342645761
  0
ARC
  5
280D
  8
RKC_OUTWORD
 10
131.41354495267609
 20
193.80524540554731
 30
0.0
 40
0.2
 50
5.4363126851720383
 51
90.0
  0
ARC
  5
280E
  8
RKC_OUTWORD
 10
-565.23883937904986
 20
127.5067129563262
 30
0.0
 40
700.0
 50
5.6090510342678161
 51
5.7063621183712367
  0
LINE
  5
280F
  8
RKC_OUTWORD
 10
137.9429917611314
 20
176.85524540554729
 30
0.0
 11
137.9429917611314
 21
176.35524540554741
 31
0.0
  0
LINE
  5
2810
  8
RKC_OUTWORD
 10
140.95299176113181
 20
176.85524540554729
 30
0.0
 11
140.95299176113181
 21
176.35524540554741
 31
0.0
  0
LINE
  5
2811
  8
RKC_OUTWORD
 10
138.4429917611314
 20
177.35524540554741
 30
0.0
 11
140.45299176113181
 21
177.35524540554721
 31
0.0
  0
ARC
  5
2812
  8
RKC_OUTWORD
 10
138.4429917611314
 20
176.85524540554729
 30
0.0
 40
0.5
 50
89.999999999996732
 51
180.00000000000321
  0
ARC
  5
2813
  8
RKC_OUTWORD
 10
140.45299176113181
 20
176.85524540554729
 30
0.0
 40
0.5
 50
0.0
 51
89.999999999996732
  0
LINE
  5
2814
  8
RKC_OUTWORD
 10
137.9429917611314
 20
97.85524540554735
 30
0.0
 11
137.9429917611314
 21
98.355245405547365
 31
0.0
  0
LINE
  5
2815
  8
RKC_OUTWORD
 10
140.95299176113181
 20
97.85524540554735
 30
0.0
 11
140.95299176113181
 21
98.355245405547365
 31
0.0
  0
LINE
  5
2816
  8
RKC_OUTWORD
 10
138.4429917611314
 20
97.35524540554735
 30
0.0
 11
140.45299176113181
 21
97.35524540554735
 31
0.0
  0
ARC
  5
2817
  8
RKC_OUTWORD
 10
138.4429917611314
 20
97.85524540554735
 30
0.0
 40
0.5
 50
179.99999999999511
 51
270.0
  0
ARC
  5
2818
  8
RKC_OUTWORD
 10
140.45299176113181
 20
97.85524540554735
 30
0.0
 40
0.5
 50
270.0
 51
0.0
  0
ARC
  5
2819
  8
RKC_OUTWORD
 10
181.6029917611319
 20
99.055245405547495
 30
0.0
 40
0.7
 50
270.0
 51
0.0
  0
ARC
  5
281A
  8
RKC_OUTWORD
 10
181.60299176113091
 20
175.6552454055473
 30
0.0
 40
0.7
 50
0.0
 51
90.0
  0
DIMENSION
  5
281B
  8
RKC_DIM
  2
*D27
 10
205.5329917611318
 20
176.35524540554741
 30
0.0
 11
203.3079917611318
 21
137.35524540554741
 31
0.0
 70
     0
 13
182.60299176113179
 23
98.355245405547436
 33
0.0
 14
182.60299176113139
 24
176.35524540554741
 34
0.0
 50
90.0
1001
ACAD
1000
DSTYLE
1002
{
1070
   271
1070
     8
1070
    40
1040
1.0
1002
}
  0
DIMENSION
  5
281C
  8
RKC_DIM
  2
*D28
 10
73.302991761131921
 20
207.85524540554741
 30
0.0
 11
128.30299176113161
 21
210.0802454055474
 31
0.0
 70
     0
 13
183.30299176113141
 23
175.6552454055473
 33
0.0
 14
73.302991761131921
 24
199.85524540554741
 34
0.0
1001
ACAD
1000
DSTYLE
1002
{
1070
   271
1070
     8
1070
    40
1040
1.0
1002
}
  0
DIMENSION
  5
281D
  8
RKC_DIM
  2
*D29
 10
65.302991761131921
 20
69.855245405547421
 30
0.0
 11
63.077991761131898
 21
72.355245405547436
 31
0.0
 70
     0
 13
73.302991761131921
 23
74.855245405547421
 33
0.0
 14
73.302991761131921
 24
69.855245405547421
 34
0.0
 50
90.0
1001
ACAD
1000
DSTYLE
1002
{
1070
   271
1070
     8
1070
    40
1040
1.0
1002
}
  0
DIMENSION
  5
281E
  8
RKC_DIM
  2
*D30
 10
65.302991761131921
 20
199.85524540554741
 30
0.0
 11
63.077991761131891
 21
137.35524540554741
 31
0.0
 70
     0
 13
73.302991761131921
 23
74.855245405547421
 33
0.0
 14
73.302991761131921
 24
199.85524540554741
 34
0.0
 50
90.0
1001
ACAD
1000
DSTYLE
1002
{
1070
   271
1070
     8
1070
    40
1040
1.0
1002
}
  0
CIRCLE
  5
281F
  8
RKC_OUTWORD
 10
77.302991761131921
 20
192.35524540554721
 30
0.0
 40
1.399999999999999
  0
CIRCLE
  5
2820
  8
RKC_OUTWORD
 10
77.302991761131921
 20
82.355245405547521
 30
0.0
 40
1.399999999999999
  0
DIMENSION
  5
28D2
  8
RKC_DIM
  2
*D32
 10
237.00299176113171
 20
207.85524540554741
 30
0.0
 11
230.67799176113169
 21
210.0802454055474
 31
0.0
 70
     0
 13
243.80299176113169
 23
199.6552454055475
 33
0.0
 14
237.00299176113171
 24
117.4752454055474
 34
0.0
1001
ACAD
1000
DSTYLE
1002
{
1070
   287
1070
     3
1070
   271
1070
     8
1070
    40
1040
1.0
1070
   274
1070
     2
1070
   279
1070
     0
1070
   284
1070
     0
1070
   285
1070
     0
1070
   286
1070
     0
1070
   341
1005
25C3
1070
     5
1000
OPEN30
1002
}
  0
LINE
  5
28E0
  8
RKC_OUTWORD
 10
243.80299176113169
 20
98.235245405547431
 30
0.0
 11
237.00299176113171
 21
98.235245405547431
 31
0.0
  0
LINE
  5
28F0
  8
RKC_OUTWORD
 10
241.30299176113209
 20
83.755245405547328
 30
0.0
 11
243.80299176113209
 21
83.755245405547328
 31
0.0
  0
LINE
  5
28F1
  8
RKC_OUTWORD
 10
241.30299176113189
 20
80.955245405547487
 30
0.0
 11
243.80299176113189
 21
80.955245405547288
 31
0.0
  0
LINE
  5
28F2
  8
RKC_OUTWORD
 10
240.80299176113201
 20
83.255245405547427
 30
0.0
 11
240.80299176113201
 21
81.455245405547416
 31
0.0
  0
ARC
  5
28F3
  8
RKC_OUTWORD
 10
241.30299176113189
 20
81.455245405547416
 30
0.0
 40
0.5
 50
180.0
 51
269.9999999999992
  0
ARC
  5
28F4
  8
RKC_OUTWORD
 10
241.30299176113209
 20
83.255245405547427
 30
0.0
 40
0.5
 50
90.0
 51
180.0
  0
ARC
  5
29D1
  8
RKC_OUTWORD
 10
244.50299176113191
 20
175.65524540554759
 30
0.0
 40
0.7
 50
90.0
 51
180.0
  0
ARC
  5
29D4
  8
RKC_OUTWORD
 10
244.50299176113191
 20
99.055245405547694
 30
0.0
 40
0.7
 50
180.0
 51
270.0
  0
ARC
  5
29D5
  8
RKC_OUTWORD
 10
273.60299176113199
 20
176.95524540554749
 30
0.0
 40
0.2
 50
270.0
 51
0.0
  0
LINE
  5
29D6
  8
RKC_OUTWORD
 10
272.60299176113199
 20
176.7552454055475
 30
0.0
 11
272.60299176113199
 21
176.35524540554749
 31
0.0
  0
LINE
  5
3210
  8
RKC_OUTWORD
 10
260.10299176113199
 20
136.65524540554759
 30
0.0
 11
260.10299176113222
 21
107.2552454055476
 31
0.0
  0
LINE
  5
3211
  8
RKC_OUTWORD
 10
268.6029917611321
 20
136.65524540554759
 30
0.0
 11
268.6029917611321
 21
107.2552454055476
 31
0.0
  0
LINE
  5
3212
  8
RKC_OUTWORD
 10
261.10299176113222
 20
106.2552454055476
 30
0.0
 11
267.60299176113199
 21
106.2552454055476
 31
0.0
  0
LINE
  5
3213
  8
RKC_OUTWORD
 10
261.10299176113199
 20
137.65524540554759
 30
0.0
 11
267.60299176113199
 21
137.65524540554759
 31
0.0
  0
LINE
  5
3218
  8
RKC_OUTWORD
 62
     3
 10
260.51299176113201
 20
137.15524540554759
 30
0.0
 11
268.19299176113191
 21
137.15524540554759
 31
0.0
  0
LINE
  5
3219
  8
RKC_OUTWORD
 62
     3
 10
268.19299176113191
 20
137.4626486505251
 30
0.0
 11
268.19299176113191
 21
106.4478421605701
 31
0.0
  0
LINE
  5
321A
  8
RKC_OUTWORD
 62
     3
 10
260.51299176113201
 20
137.15524540554759
 30
0.0
 11
260.51299176113213
 21
106.7552454055475
 31
0.0
  0
LINE
  5
321B
  8
RKC_OUTWORD
 62
     3
 10
260.51299176113201
 20
106.7552454055475
 30
0.0
 11
268.19299176113191
 21
106.7552454055475
 31
0.0
  0
LINE
  5
321C
  8
RKC_OUTWORD
 62
     3
 10
267.89299176113201
 20
137.15524540554759
 30
0.0
 11
267.89299176113212
 21
106.7552454055475
 31
0.0
  0
LINE
  5
321D
  8
RKC_OUTWORD
 62
     3
 10
261.31299176113203
 20
131.34524540554759
 30
0.0
 11
261.31299176113208
 21
112.57524540554751
 31
0.0
  0
LINE
  5
321E
  8
RKC_OUTWORD
 62
     3
 10
267.092991761132
 20
131.34524540554759
 30
0.0
 11
267.092991761132
 21
112.57524540554761
 31
0.0
  0
LINE
  5
321F
  8
RKC_OUTWORD
 62
     3
 10
261.31299176113203
 20
131.34524540554759
 30
0.0
 11
262.26299176113201
 21
131.34524540554759
 31
0.0
  0
LINE
  5
3220
  8
RKC_OUTWORD
 62
     3
 10
261.31299176113203
 20
112.57524540554761
 30
0.0
 11
262.26299176113218
 21
112.57524540554761
 31
0.0
  0
LINE
  5
3221
  8
RKC_OUTWORD
 62
     3
 10
262.26299176113201
 20
137.15524540554759
 30
0.0
 11
262.26299176113201
 21
129.2052454055476
 31
0.0
  0
LINE
  5
3222
  8
RKC_OUTWORD
 62
     3
 10
266.14299176113201
 20
137.15524540554759
 30
0.0
 11
266.14299176113201
 21
129.2052454055476
 31
0.0
  0
LINE
  5
3223
  8
RKC_OUTWORD
 62
     3
 10
262.26299176113218
 20
109.8152454055475
 30
0.0
 11
266.14299176113178
 21
109.8152454055475
 31
0.0
  0
LINE
  5
3224
  8
RKC_OUTWORD
 62
     3
 10
262.26299176113201
 20
134.1152454055476
 30
0.0
 11
266.14299176113178
 21
134.1152454055476
 31
0.0
  0
LINE
  5
3225
  8
RKC_OUTWORD
 62
     3
 10
262.26299176113201
 20
133.09524540554759
 30
0.0
 11
266.14299176113178
 21
133.09524540554759
 31
0.0
  0
LINE
  5
3226
  8
RKC_OUTWORD
 62
     3
 10
262.26299176113218
 20
110.8352454055475
 30
0.0
 11
266.14299176113178
 21
110.8352454055475
 31
0.0
  0
LINE
  5
3227
  8
RKC_OUTWORD
 62
     3
 10
262.26299176113201
 20
130.83524540554751
 30
0.0
 11
266.14299176113178
 21
130.83524540554751
 31
0.0
  0
LINE
  5
3228
  8
RKC_OUTWORD
 62
     3
 10
262.26299176113218
 20
113.0952454055476
 30
0.0
 11
266.14299176113178
 21
113.0952454055476
 31
0.0
  0
LINE
  5
3229
  8
RKC_OUTWORD
 62
     3
 10
262.26299176113218
 20
114.7252454055476
 30
0.0
 11
266.14299176113178
 21
114.7252454055475
 31
0.0
  0
LINE
  5
322A
  8
RKC_OUTWORD
 62
     3
 10
262.26299176113201
 20
129.2052454055476
 30
0.0
 11
266.14299176113178
 21
129.2052454055476
 31
0.0
  0
LINE
  5
322B
  8
RKC_OUTWORD
 62
     3
 10
262.26299176113218
 20
114.7252454055476
 30
0.0
 11
262.26299176113218
 21
106.7552454055475
 31
0.0
  0
LINE
  5
322C
  8
RKC_OUTWORD
 62
     3
 10
266.14299176113212
 20
114.7252454055475
 30
0.0
 11
266.14299176113212
 21
106.7552454055475
 31
0.0
  0
LINE
  5
322D
  8
RKC_OUTWORD
 62
     3
 10
266.14299176113212
 20
112.57524540554761
 30
0.0
 11
267.092991761132
 21
112.57524540554761
 31
0.0
  0
LINE
  5
322E
  8
RKC_OUTWORD
 62
     3
 10
266.14299176113201
 20
131.34524540554759
 30
0.0
 11
267.09299176113188
 21
131.34524540554759
 31
0.0
  0
LINE
  5
322F
  8
RKC_OUTWORD
 62
     3
 10
262.59299176113211
 20
127.91524540554759
 30
0.0
 11
262.59299176113223
 21
127.41524540554759
 31
0.0
  0
LINE
  5
3230
  8
RKC_OUTWORD
 62
     3
 10
263.09299176113211
 20
127.91524540554759
 30
0.0
 11
263.09299176113211
 21
127.41524540554759
 31
0.0
  0
LINE
  5
3231
  8
RKC_OUTWORD
 62
     3
 10
262.59299176113211
 20
127.91524540554759
 30
0.0
 11
263.09299176113211
 21
127.91524540554759
 31
0.0
  0
LINE
  5
3232
  8
RKC_OUTWORD
 62
     3
 10
262.59299176113211
 20
127.41524540554759
 30
0.0
 11
263.09299176113211
 21
127.41524540554759
 31
0.0
  0
LINE
  5
3233
  8
RKC_OUTWORD
 62
     3
 10
262.59299176113211
 20
126.6452454055476
 30
0.0
 11
263.09299176113211
 21
126.6452454055476
 31
0.0
  0
LINE
  5
3234
  8
RKC_OUTWORD
 62
     3
 10
262.59299176113211
 20
126.1452454055475
 30
0.0
 11
263.09299176113211
 21
126.1452454055475
 31
0.0
  0
LINE
  5
3235
  8
RKC_OUTWORD
 62
     3
 10
262.59299176113211
 20
126.6452454055476
 30
0.0
 11
262.59299176113223
 21
126.1452454055476
 31
0.0
  0
LINE
  5
3236
  8
RKC_OUTWORD
 62
     3
 10
263.09299176113211
 20
126.6452454055476
 30
0.0
 11
263.09299176113211
 21
126.1452454055476
 31
0.0
  0
LINE
  5
3237
  8
RKC_OUTWORD
 62
     3
 10
262.59299176113211
 20
125.3752454055475
 30
0.0
 11
263.09299176113211
 21
125.3752454055475
 31
0.0
  0
LINE
  5
3238
  8
RKC_OUTWORD
 62
     3
 10
262.59299176113211
 20
124.8752454055475
 30
0.0
 11
263.09299176113211
 21
124.8752454055475
 31
0.0
  0
LINE
  5
3239
  8
RKC_OUTWORD
 62
     3
 10
262.59299176113211
 20
125.3752454055475
 30
0.0
 11
262.59299176113223
 21
124.8752454055476
 31
0.0
  0
LINE
  5
323A
  8
RKC_OUTWORD
 62
     3
 10
263.09299176113211
 20
125.3752454055475
 30
0.0
 11
263.09299176113211
 21
124.8752454055476
 31
0.0
  0
LINE
  5
323B
  8
RKC_OUTWORD
 62
     3
 10
262.59299176113211
 20
124.10524540554751
 30
0.0
 11
263.09299176113211
 21
124.10524540554751
 31
0.0
  0
LINE
  5
323C
  8
RKC_OUTWORD
 62
     3
 10
262.59299176113211
 20
123.60524540554761
 30
0.0
 11
263.09299176113211
 21
123.60524540554761
 31
0.0
  0
LINE
  5
323D
  8
RKC_OUTWORD
 62
     3
 10
262.59299176113211
 20
124.10524540554751
 30
0.0
 11
262.59299176113223
 21
123.60524540554761
 31
0.0
  0
LINE
  5
323E
  8
RKC_OUTWORD
 62
     3
 10
263.09299176113211
 20
124.10524540554751
 30
0.0
 11
263.09299176113211
 21
123.60524540554761
 31
0.0
  0
LINE
  5
323F
  8
RKC_OUTWORD
 62
     3
 10
262.59299176113211
 20
122.8352454055476
 30
0.0
 11
263.09299176113211
 21
122.8352454055476
 31
0.0
  0
LINE
  5
3240
  8
RKC_OUTWORD
 62
     3
 10
262.59299176113211
 20
122.3352454055475
 30
0.0
 11
263.09299176113211
 21
122.3352454055475
 31
0.0
  0
LINE
  5
3241
  8
RKC_OUTWORD
 62
     3
 10
262.59299176113211
 20
122.8352454055476
 30
0.0
 11
262.59299176113223
 21
122.3352454055477
 31
0.0
  0
LINE
  5
3242
  8
RKC_OUTWORD
 62
     3
 10
263.09299176113211
 20
122.8352454055476
 30
0.0
 11
263.09299176113211
 21
122.3352454055477
 31
0.0
  0
LINE
  5
3243
  8
RKC_OUTWORD
 62
     3
 10
262.59299176113211
 20
121.5652454055476
 30
0.0
 11
263.09299176113211
 21
121.5652454055476
 31
0.0
  0
LINE
  5
3244
  8
RKC_OUTWORD
 62
     3
 10
262.59299176113211
 20
121.0652454055475
 30
0.0
 11
263.09299176113211
 21
121.0652454055475
 31
0.0
  0
LINE
  5
3245
  8
RKC_OUTWORD
 62
     3
 10
262.59299176113211
 20
121.5652454055476
 30
0.0
 11
262.59299176113223
 21
121.0652454055477
 31
0.0
  0
LINE
  5
3246
  8
RKC_OUTWORD
 62
     3
 10
263.09299176113211
 20
121.5652454055476
 30
0.0
 11
263.09299176113211
 21
121.0652454055477
 31
0.0
  0
LINE
  5
3247
  8
RKC_OUTWORD
 62
     3
 10
262.59299176113211
 20
120.2952454055475
 30
0.0
 11
263.09299176113211
 21
120.2952454055475
 31
0.0
  0
LINE
  5
3248
  8
RKC_OUTWORD
 62
     3
 10
262.59299176113211
 20
119.7952454055476
 30
0.0
 11
263.09299176113211
 21
119.7952454055476
 31
0.0
  0
LINE
  5
3249
  8
RKC_OUTWORD
 62
     3
 10
262.59299176113211
 20
120.2952454055475
 30
0.0
 11
262.59299176113223
 21
119.7952454055476
 31
0.0
  0
LINE
  5
324A
  8
RKC_OUTWORD
 62
     3
 10
263.09299176113211
 20
120.2952454055475
 30
0.0
 11
263.09299176113211
 21
119.7952454055476
 31
0.0
  0
LINE
  5
324B
  8
RKC_OUTWORD
 62
     3
 10
262.59299176113211
 20
119.02524540554759
 30
0.0
 11
263.09299176113211
 21
119.02524540554759
 31
0.0
  0
LINE
  5
324C
  8
RKC_OUTWORD
 62
     3
 10
262.59299176113211
 20
118.52524540554759
 30
0.0
 11
263.09299176113211
 21
118.52524540554759
 31
0.0
  0
LINE
  5
324D
  8
RKC_OUTWORD
 62
     3
 10
262.59299176113211
 20
119.02524540554759
 30
0.0
 11
262.59299176113223
 21
118.52524540554769
 31
0.0
  0
LINE
  5
324E
  8
RKC_OUTWORD
 62
     3
 10
263.09299176113211
 20
119.02524540554759
 30
0.0
 11
263.09299176113211
 21
118.52524540554769
 31
0.0
  0
LINE
  5
324F
  8
RKC_OUTWORD
 62
     3
 10
262.59299176113211
 20
117.7552454055476
 30
0.0
 11
263.09299176113211
 21
117.7552454055476
 31
0.0
  0
LINE
  5
3250
  8
RKC_OUTWORD
 62
     3
 10
262.59299176113211
 20
117.2552454055475
 30
0.0
 11
263.09299176113211
 21
117.2552454055475
 31
0.0
  0
LINE
  5
3251
  8
RKC_OUTWORD
 62
     3
 10
262.59299176113211
 20
117.7552454055476
 30
0.0
 11
262.59299176113223
 21
117.2552454055475
 31
0.0
  0
LINE
  5
3252
  8
RKC_OUTWORD
 62
     3
 10
263.09299176113211
 20
117.7552454055476
 30
0.0
 11
263.09299176113211
 21
117.2552454055475
 31
0.0
  0
LINE
  5
3253
  8
RKC_OUTWORD
 62
     3
 10
262.59299176113211
 20
116.4852454055475
 30
0.0
 11
263.09299176113211
 21
116.4852454055475
 31
0.0
  0
LINE
  5
3254
  8
RKC_OUTWORD
 62
     3
 10
262.59299176113211
 20
115.9852454055476
 30
0.0
 11
263.09299176113211
 21
115.9852454055476
 31
0.0
  0
LINE
  5
3255
  8
RKC_OUTWORD
 62
     3
 10
262.59299176113211
 20
116.4852454055475
 30
0.0
 11
262.59299176113223
 21
115.9852454055476
 31
0.0
  0
LINE
  5
3256
  8
RKC_OUTWORD
 62
     3
 10
263.09299176113211
 20
116.4852454055475
 30
0.0
 11
263.09299176113211
 21
115.9852454055476
 31
0.0
  0
LINE
  5
3257
  8
RKC_OUTWORD
 62
     3
 10
265.13299176113202
 20
127.91524540554759
 30
0.0
 11
265.63299176113202
 21
127.91524540554759
 31
0.0
  0
LINE
  5
3258
  8
RKC_OUTWORD
 62
     3
 10
265.13299176113202
 20
127.41524540554759
 30
0.0
 11
265.63299176113202
 21
127.41524540554759
 31
0.0
  0
LINE
  5
3259
  8
RKC_OUTWORD
 62
     3
 10
265.13299176113202
 20
127.91524540554759
 30
0.0
 11
265.13299176113219
 21
127.41524540554759
 31
0.0
  0
LINE
  5
325A
  8
RKC_OUTWORD
 62
     3
 10
265.63299176113219
 20
127.91524540554759
 30
0.0
 11
265.63299176113219
 21
127.41524540554759
 31
0.0
  0
LINE
  5
325B
  8
RKC_OUTWORD
 62
     3
 10
265.13299176113202
 20
126.6452454055476
 30
0.0
 11
265.63299176113202
 21
126.6452454055476
 31
0.0
  0
LINE
  5
325C
  8
RKC_OUTWORD
 62
     3
 10
265.13299176113202
 20
126.1452454055475
 30
0.0
 11
265.63299176113202
 21
126.1452454055475
 31
0.0
  0
LINE
  5
325D
  8
RKC_OUTWORD
 62
     3
 10
265.13299176113202
 20
126.6452454055476
 30
0.0
 11
265.13299176113219
 21
126.1452454055476
 31
0.0
  0
LINE
  5
325E
  8
RKC_OUTWORD
 62
     3
 10
265.63299176113219
 20
126.6452454055476
 30
0.0
 11
265.63299176113219
 21
126.1452454055476
 31
0.0
  0
LINE
  5
325F
  8
RKC_OUTWORD
 62
     3
 10
265.13299176113202
 20
125.3752454055475
 30
0.0
 11
265.63299176113202
 21
125.3752454055475
 31
0.0
  0
LINE
  5
3260
  8
RKC_OUTWORD
 62
     3
 10
265.13299176113202
 20
124.8752454055475
 30
0.0
 11
265.63299176113202
 21
124.8752454055475
 31
0.0
  0
LINE
  5
3261
  8
RKC_OUTWORD
 62
     3
 10
265.13299176113202
 20
125.3752454055475
 30
0.0
 11
265.13299176113219
 21
124.8752454055476
 31
0.0
  0
LINE
  5
3262
  8
RKC_OUTWORD
 62
     3
 10
265.63299176113219
 20
125.3752454055475
 30
0.0
 11
265.63299176113219
 21
124.8752454055476
 31
0.0
  0
LINE
  5
3263
  8
RKC_OUTWORD
 62
     3
 10
265.13299176113202
 20
124.10524540554751
 30
0.0
 11
265.63299176113202
 21
124.10524540554751
 31
0.0
  0
LINE
  5
3264
  8
RKC_OUTWORD
 62
     3
 10
265.13299176113202
 20
123.60524540554761
 30
0.0
 11
265.63299176113202
 21
123.60524540554761
 31
0.0
  0
LINE
  5
3265
  8
RKC_OUTWORD
 62
     3
 10
265.13299176113202
 20
124.10524540554751
 30
0.0
 11
265.13299176113219
 21
123.60524540554761
 31
0.0
  0
LINE
  5
3266
  8
RKC_OUTWORD
 62
     3
 10
265.63299176113219
 20
124.10524540554751
 30
0.0
 11
265.63299176113219
 21
123.60524540554761
 31
0.0
  0
LINE
  5
3267
  8
RKC_OUTWORD
 62
     3
 10
265.13299176113202
 20
122.8352454055476
 30
0.0
 11
265.63299176113202
 21
122.8352454055476
 31
0.0
  0
LINE
  5
3268
  8
RKC_OUTWORD
 62
     3
 10
265.13299176113202
 20
122.3352454055475
 30
0.0
 11
265.63299176113202
 21
122.3352454055475
 31
0.0
  0
LINE
  5
3269
  8
RKC_OUTWORD
 62
     3
 10
265.13299176113202
 20
122.8352454055476
 30
0.0
 11
265.13299176113219
 21
122.3352454055477
 31
0.0
  0
LINE
  5
326A
  8
RKC_OUTWORD
 62
     3
 10
265.63299176113219
 20
122.8352454055476
 30
0.0
 11
265.63299176113219
 21
122.3352454055477
 31
0.0
  0
LINE
  5
326B
  8
RKC_OUTWORD
 62
     3
 10
265.13299176113202
 20
121.5652454055476
 30
0.0
 11
265.63299176113202
 21
121.5652454055476
 31
0.0
  0
LINE
  5
326C
  8
RKC_OUTWORD
 62
     3
 10
265.13299176113202
 20
121.0652454055475
 30
0.0
 11
265.63299176113202
 21
121.0652454055475
 31
0.0
  0
LINE
  5
326D
  8
RKC_OUTWORD
 62
     3
 10
265.13299176113202
 20
121.5652454055476
 30
0.0
 11
265.13299176113219
 21
121.0652454055477
 31
0.0
  0
LINE
  5
326E
  8
RKC_OUTWORD
 62
     3
 10
265.63299176113219
 20
121.5652454055476
 30
0.0
 11
265.63299176113219
 21
121.0652454055477
 31
0.0
  0
LINE
  5
326F
  8
RKC_OUTWORD
 62
     3
 10
265.13299176113202
 20
120.2952454055475
 30
0.0
 11
265.63299176113202
 21
120.2952454055475
 31
0.0
  0
LINE
  5
3270
  8
RKC_OUTWORD
 62
     3
 10
265.13299176113202
 20
119.7952454055476
 30
0.0
 11
265.63299176113202
 21
119.7952454055476
 31
0.0
  0
LINE
  5
3271
  8
RKC_OUTWORD
 62
     3
 10
265.13299176113202
 20
120.2952454055475
 30
0.0
 11
265.13299176113219
 21
119.7952454055476
 31
0.0
  0
LINE
  5
3272
  8
RKC_OUTWORD
 62
     3
 10
265.63299176113219
 20
120.2952454055475
 30
0.0
 11
265.63299176113219
 21
119.7952454055476
 31
0.0
  0
LINE
  5
3273
  8
RKC_OUTWORD
 62
     3
 10
265.13299176113202
 20
119.02524540554759
 30
0.0
 11
265.63299176113202
 21
119.02524540554759
 31
0.0
  0
LINE
  5
3274
  8
RKC_OUTWORD
 62
     3
 10
265.13299176113202
 20
118.52524540554759
 30
0.0
 11
265.63299176113202
 21
118.52524540554759
 31
0.0
  0
LINE
  5
3275
  8
RKC_OUTWORD
 62
     3
 10
265.13299176113202
 20
119.02524540554759
 30
0.0
 11
265.13299176113219
 21
118.52524540554769
 31
0.0
  0
LINE
  5
3276
  8
RKC_OUTWORD
 62
     3
 10
265.63299176113219
 20
119.02524540554759
 30
0.0
 11
265.63299176113219
 21
118.52524540554769
 31
0.0
  0
LINE
  5
3277
  8
RKC_OUTWORD
 62
     3
 10
265.13299176113202
 20
117.7552454055476
 30
0.0
 11
265.63299176113202
 21
117.7552454055476
 31
0.0
  0
LINE
  5
3278
  8
RKC_OUTWORD
 62
     3
 10
265.13299176113202
 20
117.2552454055475
 30
0.0
 11
265.63299176113202
 21
117.2552454055475
 31
0.0
  0
LINE
  5
3279
  8
RKC_OUTWORD
 62
     3
 10
265.13299176113202
 20
117.7552454055476
 30
0.0
 11
265.13299176113219
 21
117.2552454055475
 31
0.0
  0
LINE
  5
327A
  8
RKC_OUTWORD
 62
     3
 10
265.63299176113219
 20
117.7552454055476
 30
0.0
 11
265.63299176113219
 21
117.2552454055475
 31
0.0
  0
LINE
  5
327B
  8
RKC_OUTWORD
 62
     3
 10
265.13299176113202
 20
116.4852454055475
 30
0.0
 11
265.63299176113202
 21
116.4852454055475
 31
0.0
  0
LINE
  5
327C
  8
RKC_OUTWORD
 62
     3
 10
265.13299176113202
 20
115.9852454055476
 30
0.0
 11
265.63299176113202
 21
115.9852454055476
 31
0.0
  0
LINE
  5
327D
  8
RKC_OUTWORD
 62
     3
 10
265.13299176113202
 20
116.4852454055475
 30
0.0
 11
265.13299176113219
 21
115.9852454055476
 31
0.0
  0
LINE
  5
327E
  8
RKC_OUTWORD
 62
     3
 10
265.63299176113219
 20
116.4852454055475
 30
0.0
 11
265.63299176113219
 21
115.9852454055476
 31
0.0
  0
LINE
  5
327F
  8
RKC_OUTWORD
 62
     3
 10
197.5329917611318
 20
109.8352454055475
 30
0.0
 11
197.5329917611318
 21
110.8352454055475
 31
0.0
  0
LINE
  5
3280
  8
RKC_OUTWORD
 62
     3
 10
183.30299176113161
 20
107.4352454055476
 30
0.0
 11
189.03299176113171
 21
109.0952454055476
 31
0.0
  0
LINE
  5
3281
  8
RKC_OUTWORD
 62
     3
 10
189.03299176113171
 20
109.0952454055476
 30
0.0
 11
197.53299176113171
 21
109.8352454055475
 31
0.0
  0
LINE
  5
3282
  8
RKC_OUTWORD
 62
     3
 10
193.33299176113181
 20
112.5952454055476
 30
0.0
 11
193.33299176113161
 21
114.7252454055476
 31
0.0
  0
LINE
  5
3283
  8
RKC_OUTWORD
 62
     3
 10
186.73299176113181
 20
112.5952454055476
 30
0.0
 11
189.0329917611318
 21
112.5952454055476
 31
0.0
  0
LINE
  5
3284
  8
RKC_OUTWORD
 62
     3
 10
183.30299176113161
 20
113.8952454055476
 30
0.0
 11
186.73299176113159
 21
113.8952454055476
 31
0.0
  0
LINE
  5
3285
  8
RKC_OUTWORD
 62
     3
 10
186.73299176113181
 20
112.5952454055476
 30
0.0
 11
186.73299176113159
 21
113.8952454055476
 31
0.0
  0
LINE
  5
3286
  8
RKC_OUTWORD
 62
     3
 10
193.33299176113181
 20
112.5952454055476
 30
0.0
 11
193.33299176113161
 21
114.7252454055476
 31
0.0
  0
LINE
  5
3287
  8
RKC_OUTWORD
 62
     3
 10
193.33299176113161
 20
114.7252454055476
 30
0.0
 11
194.83299176113181
 21
114.7252454055476
 31
0.0
  0
LINE
  5
3288
  8
RKC_OUTWORD
 62
     3
 10
197.53299176113171
 20
110.8352454055475
 30
0.0
 11
195.27299176113189
 21
113.0952454055476
 31
0.0
  0
LINE
  5
3289
  8
RKC_OUTWORD
 62
     3
 10
195.27299176113189
 20
113.0952454055476
 30
0.0
 11
194.83299176113181
 21
114.7252454055476
 31
0.0
  0
LINE
  5
328A
  8
RKC_OUTWORD
 62
     3
 10
186.73299176113181
 20
112.5952454055476
 30
0.0
 11
193.33299176113181
 21
112.5952454055476
 31
0.0
  0
LINE
  5
328B
  8
RKC_OUTWORD
 62
     3
 10
186.73299176113181
 20
112.5952454055476
 30
0.0
 11
186.73299176113181
 21
113.8952454055476
 31
0.0
  0
LINE
  5
328D
  8
RKC_OUTWORD
 62
     3
 10
186.73299176113181
 20
131.33524540554751
 30
0.0
 11
186.73299176113159
 21
130.03524540554761
 31
0.0
  0
LINE
  5
328E
  8
RKC_OUTWORD
 62
     3
 10
193.33299176113181
 20
131.33524540554751
 30
0.0
 11
193.33299176113161
 21
129.20524540554749
 31
0.0
  0
LINE
  5
328F
  8
RKC_OUTWORD
 62
     3
 10
186.73299176113181
 20
131.33524540554751
 30
0.0
 11
186.73299176113181
 21
130.03524540554761
 31
0.0
  0
LINE
  5
3290
  8
RKC_OUTWORD
 62
     3
 10
197.5329917611318
 20
134.09524540554759
 30
0.0
 11
197.5329917611318
 21
133.09524540554759
 31
0.0
  0
LINE
  5
3291
  8
RKC_OUTWORD
 62
     3
 10
193.33299176113181
 20
131.33524540554751
 30
0.0
 11
193.33299176113161
 21
129.20524540554749
 31
0.0
  0
LINE
  5
3292
  8
RKC_OUTWORD
 62
     3
 10
186.73299176113181
 20
131.33524540554751
 30
0.0
 11
189.0329917611318
 21
131.33524540554751
 31
0.0
  0
LINE
  5
3293
  8
RKC_OUTWORD
 62
     3
 10
183.30299176113161
 20
130.03524540554761
 30
0.0
 11
186.73299176113159
 21
130.03524540554761
 31
0.0
  0
LINE
  5
3294
  8
RKC_OUTWORD
 62
     3
 10
193.33299176113161
 20
129.20524540554749
 30
0.0
 11
194.83299176113181
 21
129.20524540554749
 31
0.0
  0
LINE
  5
3295
  8
RKC_OUTWORD
 62
     3
 10
186.73299176113181
 20
131.33524540554751
 30
0.0
 11
193.33299176113181
 21
131.33524540554751
 31
0.0
  0
LINE
  5
3296
  8
RKC_OUTWORD
 62
     3
 10
183.30299176113161
 20
136.49524540554739
 30
0.0
 11
189.03299176113171
 21
134.83524540554751
 31
0.0
  0
LINE
  5
3297
  8
RKC_OUTWORD
 62
     3
 10
189.03299176113171
 20
134.83524540554751
 30
0.0
 11
197.53299176113171
 21
134.09524540554759
 31
0.0
  0
LINE
  5
3298
  8
RKC_OUTWORD
 62
     3
 10
197.53299176113171
 20
133.09524540554759
 30
0.0
 11
195.27299176113189
 21
130.83524540554751
 31
0.0
  0
LINE
  5
3299
  8
RKC_OUTWORD
 62
     3
 10
195.27299176113189
 20
130.83524540554751
 30
0.0
 11
194.83299176113181
 21
129.20524540554749
 31
0.0
  0
ARC
  5
3372
  8
RKC_OUTWORD
 10
261.10299176113199
 20
136.65524540554759
 30
0.0
 40
1.0
 50
89.999999999999758
 51
180.00000000000031
  0
ARC
  5
3373
  8
RKC_OUTWORD
 10
267.60299176113199
 20
136.65524540554759
 30
0.0
 40
1.0
 50
0.0
 51
89.999999999999758
  0
ARC
  5
3374
  8
RKC_OUTWORD
 10
267.60299176113199
 20
107.2552454055476
 30
0.0
 40
1.0
 50
270.0
 51
0.0
  0
ARC
  5
3375
  8
RKC_OUTWORD
 10
261.10299176113222
 20
107.2552454055476
 30
0.0
 40
1.0
 50
180.00000000000031
 51
270.00000000000011
  0
DIMENSION
  5
3389
  8
RKC_DIM
  2
*D52
 10
197.5329917611318
 20
215.85524540554741
 30
0.0
 11
135.41799176113179
 21
218.0802454055474
 31
0.0
 70
     0
  1
(<>)
 13
73.302991761131921
 23
199.85524540554741
 33
0.0
 14
197.5329917611318
 24
134.09524540554759
 34
0.0
1001
ACAD
1000
DSTYLE
1002
{
1070
   287
1070
     3
1070
   271
1070
     8
1070
    40
1040
1.0
1070
   274
1070
     2
1070
   279
1070
     0
1070
   284
1070
     0
1070
   285
1070
     0
1070
   286
1070
     0
1070
   341
1005
25C3
1070
     5
1000
OPEN30
1002
}
  0
LINE
  5
33D1
  8
RKC_OUTWORD
 62
     3
 10
197.5329917611318
 20
271.15524540554759
 30
0.0
 11
197.5329917611318
 21
274.85524540554758
 31
0.0
  0
LINE
  5
33D2
  8
RKC_OUTWORD
 62
     3
 10
197.5329917611318
 20
274.85524540554758
 30
0.0
 11
189.5329917611318
 21
274.85524540554758
 31
0.0
  0
LINE
  5
33D3
  8
RKC_OUTWORD
 62
     3
 10
197.5329917611318
 20
271.15524540554759
 30
0.0
 11
189.5329917611318
 21
271.15524540554759
 31
0.0
  0
LINE
  5
33D4
  8
RKC_OUTWORD
 62
     3
 10
189.5329917611318
 20
274.85524540554758
 30
0.0
 11
189.5329917611318
 21
274.35524540554758
 31
0.0
  0
LINE
  5
33D5
  8
RKC_OUTWORD
 62
     3
 10
189.5329917611318
 20
271.65524540554759
 30
0.0
 11
189.5329917611318
 21
271.15524540554759
 31
0.0
  0
LINE
  5
33D6
  8
RKC_OUTWORD
 62
     3
 10
189.5329917611318
 20
274.35524540554758
 30
0.0
 11
183.20587660524501
 21
274.35524540554752
 31
0.0
  0
LINE
  5
33D7
  8
RKC_OUTWORD
 62
     3
 10
189.5329917611318
 20
271.65524540554759
 30
0.0
 11
183.2454239171326
 21
271.65524540554759
 31
0.0
  0
LINE
  5
33D8
  8
RKC_OUTWORD
 62
     3
 10
183.10637745309319
 20
276.60524540554758
 30
0.0
 11
189.0329917611318
 21
276.60524540554758
 31
0.0
  0
LINE
  5
33D9
  8
RKC_OUTWORD
 62
     3
 10
183.1988007451927
 20
269.40524540554759
 30
0.0
 11
189.0329917611318
 21
269.40524540554759
 31
0.0
  0
LINE
  5
33DA
  8
RKC_OUTWORD
 62
     3
 10
189.0329917611318
 20
269.40524540554759
 30
0.0
 11
189.0329917611318
 21
271.65524540554759
 31
0.0
  0
LINE
  5
33DB
  8
RKC_OUTWORD
 62
     3
 10
189.0329917611318
 20
274.35524540554758
 30
0.0
 11
189.0329917611318
 21
276.9052454055477
 31
0.0
  0
LINE
  5
33DC
  8
RKC_OUTWORD
 62
     3
 10
183.10637745309319
 20
276.9052454055477
 30
0.0
 11
189.0329917611318
 21
276.9052454055477
 31
0.0
  0
VIEWPORT
  5
7D
 67
     1
  8
0
 10
0.0
 20
0.0
 30
0.0
 40
0.0
 41
0.0
 68
     1
 69
     1
1001
ACAD
1000
MVIEW
1002
{
1070
    16
1010
0.0
1020
0.0
1030
0.0
1010
0.0
1020
0.0
1030
1.0
1040
0.0
1040
0.0
1040
0.0
1040
0.0
1040
50.0
1040
0.0
1040
0.0
1070
     0
1070
   100
1070
     1
1070
     1
1070
     0
1070
     0
1070
     0
1070
     0
1040
0.0
1040
0.0
1040
0.0
1040
10.0
1040
10.0
1040
10.0
1040
10.0
1070
     0
1002
{
1002
}
1002
}
  0
VIEWPORT
  5
7F
 67
     1
  8
0
 10
0.0
 20
0.0
 30
0.0
 40
0.0
 41
0.0
 68
     2
 69
     2
1001
ACAD
1000
MVIEW
1002
{
1070
    16
1010
0.0
1020
0.0
1030
0.0
1010
0.0
1020
0.0
1030
1.0
1040
0.0
1040
304.1654196696486
1040
210.0
1040
148.5
1040
50.0
1040
0.0
1040
0.0
1070
     0
1070
   100
1070
     1
1070
     3
1070
     0
1070
     0
1070
     0
1070
     0
1040
0.0
1040
0.0
1040
0.0
1040
10.0
1040
10.0
1040
10.0
1040
10.0
1070
     0
1002
{
1002
}
1002
}
  0
ENDSEC
  0
EOF
