  0
SECTION
  2
HEADER
  9
$ACADVER
  1
AC1015
  9
$ACADMAINTVER
 70
     6
  9
$DWGCODEPAGE
  3
DOS932
  9
$INSBASE
 10
0.0
 20
0.0
 30
0.0
  9
$EXTMIN
 10
0.0
 20
0.0
 30
0.0
  9
$EXTMAX
 10
297.0
 20
210.0
 30
0.0
  9
$LIMMIN
 10
0.0
 20
0.0
  9
$LIMMAX
 10
297.0
 20
210.0
  9
$ORTHOMODE
 70
     0
  9
$REGENMODE
 70
     1
  9
$FILLMODE
 70
     1
  9
$QTEXTMODE
 70
     0
  9
$MIRRTEXT
 70
     1
  9
$LTSCALE
 40
1.0
  9
$ATTMODE
 70
     1
  9
$TEXTSIZE
 40
3.5277777778
  9
$TRACEWID
 40
1.0
  9
$TEXTSTYLE
  7
STANDARD
  9
$CLAYER
  8
0
  9
$CELTYPE
  6
ByLayer
  9
$CECOLOR
 62
   256
  9
$CELTSCALE
 40
1.0
  9
$DISPSILH
 70
     0
  9
$DIMSCALE
 40
1.0
  9
$DIMASZ
 40
3.0
  9
$DIMEXO
 40
1.0
  9
$DIMDLI
 40
3.75
  9
$DIMRND
 40
0.0
  9
$DIMDLE
 40
0.0
  9
$DIMEXE
 40
1.0
  9
$DIMTP
 40
0.0
  9
$DIMTM
 40
0.0
  9
$DIMTXT
 40
3.5277777778
  9
$DIMCEN
 40
2.5
  9
$DIMTSZ
 40
0.0
  9
$DIMTOL
 70
     0
  9
$DIMLIM
 70
     0
  9
$DIMTIH
 70
     1
  9
$DIMTOH
 70
     1
  9
$DIMSE1
 70
     0
  9
$DIMSE2
 70
     0
  9
$DIMTAD
 70
     1
  9
$DIMZIN
 70
     0
  9
$DIMBLK
  1

  9
$DIMASO
 70
     1
  9
$DIMSHO
 70
     1
  9
$DIMPOST
  1

  9
$DIMAPOST
  1

  9
$DIMALT
 70
     0
  9
$DIMALTD
 70
     3
  9
$DIMALTF
 40
0.0393700787
  9
$DIMLFAC
 40
2.0
  9
$DIMTOFL
 70
     1
  9
$DIMTVP
 40
0.0
  9
$DIMTIX
 70
     0
  9
$DIMSOXD
 70
     0
  9
$DIMSAH
 70
     0
  9
$DIMBLK1
  1

  9
$DIMBLK2
  1

  9
$DIMSTYLE
  2
ISO-25
  9
$DIMCLRD
 70
     0
  9
$DIMCLRE
 70
     0
  9
$DIMCLRT
 70
     0
  9
$DIMTFAC
 40
1.0
  9
$DIMGAP
 40
1.524
  9
$DIMJUST
 70
     0
  9
$DIMSD1
 70
     0
  9
$DIMSD2
 70
     0
  9
$DIMTOLJ
 70
     0
  9
$DIMTZIN
 70
     0
  9
$DIMALTZ
 70
     0
  9
$DIMALTTZ
 70
     0
  9
$DIMUPT
 70
     0
  9
$DIMDEC
 70
     8
  9
$DIMTDEC
 70
     8
  9
$DIMALTU
 70
     2
  9
$DIMALTTD
 70
     3
  9
$DIMTXSTY
  7
STANDARD
  9
$DIMAUNIT
 70
     0
  9
$DIMADEC
 70
     2
  9
$DIMALTRND
 40
0.0
  9
$DIMAZIN
 70
     0
  9
$DIMDSEP
 70
    44
  9
$DIMATFIT
 70
     3
  9
$DIMFRAC
 70
     0
  9
$DIMLDRBLK
  1

  9
$DIMLUNIT
 70
     2
  9
$DIMLWD
 70
    -2
  9
$DIMLWE
 70
    -2
  9
$DIMTMOVE
 70
     0
  9
$LUNITS
 70
     2
  9
$LUPREC
 70
     2
  9
$SKETCHINC
 40
1.0
  9
$FILLETRAD
 40
10.0
  9
$AUNITS
 70
     0
  9
$AUPREC
 70
     2
  9
$MENU
  1
.
  9
$ELEVATION
 40
0.0
  9
$PELEVATION
 40
0.0
  9
$THICKNESS
 40
0.0
  9
$LIMCHECK
 70
     0
  9
$CHAMFERA
 40
0.0
  9
$CHAMFERB
 40
0.0
  9
$CHAMFERC
 40
0.0
  9
$CHAMFERD
 40
0.0
  9
$SKPOLY
 70
     0
  9
$TDCREATE
 40
2460104.71906765
  9
$TDUCREATE
 40
2460104.34406765
  9
$TDUPDATE
 40
2460104.719070544
  9
$TDUUPDATE
 40
2460104.344070544
  9
$TDINDWG
 40
0.0000000116
  9
$TDUSRTIMER
 40
0.0000000116
  9
$USRTIMER
 70
     1
  9
$ANGBASE
 50
0.0
  9
$ANGDIR
 70
     0
  9
$PDMODE
 70
     0
  9
$PDSIZE
 40
-1.0
  9
$PLINEWID
 40
0.0
  9
$SPLFRAME
 70
     0
  9
$SPLINETYPE
 70
     6
  9
$SPLINESEGS
 70
     8
  9
$HANDSEED
  5
43B
  9
$SURFTAB1
 70
     6
  9
$SURFTAB2
 70
     6
  9
$SURFTYPE
 70
     6
  9
$SURFU
 70
     6
  9
$SURFV
 70
     6
  9
$UCSBASE
  2

  9
$UCSNAME
  2

  9
$UCSORG
 10
0.0
 20
0.0
 30
0.0
  9
$UCSXDIR
 10
1.0
 20
0.0
 30
0.0
  9
$UCSYDIR
 10
0.0
 20
1.0
 30
0.0
  9
$UCSORTHOREF
  2

  9
$UCSORTHOVIEW
 70
     0
  9
$UCSORGTOP
 10
0.0
 20
0.0
 30
0.0
  9
$UCSORGBOTTOM
 10
0.0
 20
0.0
 30
0.0
  9
$UCSORGLEFT
 10
0.0
 20
0.0
 30
0.0
  9
$UCSORGRIGHT
 10
0.0
 20
0.0
 30
0.0
  9
$UCSORGFRONT
 10
0.0
 20
0.0
 30
0.0
  9
$UCSORGBACK
 10
0.0
 20
0.0
 30
0.0
  9
$PUCSBASE
  2

  9
$PUCSNAME
  2

  9
$PUCSORG
 10
0.0
 20
0.0
 30
0.0
  9
$PUCSXDIR
 10
1.0
 20
0.0
 30
0.0
  9
$PUCSYDIR
 10
0.0
 20
1.0
 30
0.0
  9
$PUCSORTHOREF
  2

  9
$PUCSORTHOVIEW
 70
     0
  9
$PUCSORGTOP
 10
0.0
 20
0.0
 30
0.0
  9
$PUCSORGBOTTOM
 10
0.0
 20
0.0
 30
0.0
  9
$PUCSORGLEFT
 10
0.0
 20
0.0
 30
0.0
  9
$PUCSORGRIGHT
 10
0.0
 20
0.0
 30
0.0
  9
$PUCSORGFRONT
 10
0.0
 20
0.0
 30
0.0
  9
$PUCSORGBACK
 10
0.0
 20
0.0
 30
0.0
  9
$USERI1
 70
     0
  9
$USERI2
 70
     0
  9
$USERI3
 70
     0
  9
$USERI4
 70
     0
  9
$USERI5
 70
     0
  9
$USERR1
 40
0.0
  9
$USERR2
 40
0.0
  9
$USERR3
 40
0.0
  9
$USERR4
 40
0.0
  9
$USERR5
 40
0.0
  9
$WORLDVIEW
 70
     1
  9
$SHADEDGE
 70
     3
  9
$SHADEDIF
 70
    70
  9
$TILEMODE
 70
     1
  9
$MAXACTVP
 70
    64
  9
$PINSBASE
 10
0.0
 20
0.0
 30
0.0
  9
$PLIMCHECK
 70
     0
  9
$PEXTMIN
 10
1.0000000000E+20
 20
1.0000000000E+20
 30
1.0000000000E+20
  9
$PEXTMAX
 10
-1.0000000000E+20
 20
-1.0000000000E+20
 30
-1.0000000000E+20
  9
$PLIMMIN
 10
0.0
 20
0.0
  9
$PLIMMAX
 10
420.0
 20
297.0
  9
$UNITMODE
 70
     0
  9
$VISRETAIN
 70
     1
  9
$PLINEGEN
 70
     0
  9
$PSLTSCALE
 70
     1
  9
$TREEDEPTH
 70
  3020
  9
$CMLSTYLE
  2
Standard
  9
$CMLJUST
 70
     0
  9
$CMLSCALE
 40
20.0
  9
$PROXYGRAPHICS
 70
     1
  9
$MEASUREMENT
 70
     1
  9
$CELWEIGHT
370
    -1
  9
$ENDCAPS
280
     0
  9
$JOINSTYLE
280
     0
  9
$LWDISPLAY
290
     1
  9
$INSUNITS
 70
     4
  9
$HYPERLINKBASE
  1

  9
$STYLESHEET
  1

  9
$XEDIT
290
     1
  9
$CEPSNTYPE
380
     0
  9
$PSTYLEMODE
290
     1
  9
$FINGERPRINTGUID
  2
{9fe47630-2213-4678-b298-bdf34e88abd5}
  9
$VERSIONGUID
  2
{FAEB1C32-E019-11D5-929B-00C0DF256EC4}
  9
$EXTNAMES
290
     1
  9
$PSVPSCALE
 40
0.0
  9
$OLESTARTUP
290
     0
  0
ENDSEC
  0
SECTION
  2
CLASSES
  0
CLASS
  1
ACDBDICTIONARYWDFLT
  2
AcDbDictionaryWithDefault
  3
ObjectDBX Classes
 90
        0
280
     0
281
     0
  0
CLASS
  1
VISUALSTYLE
  2
AcDbVisualStyle
  3
ObjectDBX Classes
 90
     4095
280
     0
281
     0
  0
CLASS
  1
MATERIAL
  2
AcDbMaterial
  3
ObjectDBX Classes
 90
     1153
280
     0
281
     0
  0
CLASS
  1
SCALE
  2
AcDbScale
  3
ObjectDBX Classes
 90
     1153
280
     0
281
     0
  0
CLASS
  1
TABLESTYLE
  2
AcDbTableStyle
  3
ObjectDBX Classes
 90
     4095
280
     0
281
     0
  0
CLASS
  1
MLEADERSTYLE
  2
AcDbMLeaderStyle
  3
ACDB_MLEADERSTYLE_CLASS
 90
     4095
280
     0
281
     0
  0
CLASS
  1
SUN
  2
AcDbSun
  3
SCENEOE
 90
     1153
280
     0
281
     0
  0
CLASS
  1
ACDBPLACEHOLDER
  2
AcDbPlaceHolder
  3
ObjectDBX Classes
 90
        0
280
     0
281
     0
  0
CLASS
  1
LAYOUT
  2
AcDbLayout
  3
ObjectDBX Classes
 90
        0
280
     0
281
     0
  0
ENDSEC
  0
SECTION
  2
TABLES
  0
TABLE
  2
VPORT
  5
8
330
0
100
AcDbSymbolTable
 70
     1
  0
VPORT
  5
29
330
8
100
AcDbSymbolTableRecord
100
AcDbViewportTableRecord
  2
*Active
 70
     0
 10
0.0
 20
0.0
 11
1.0
 21
1.0
 12
148.5
 22
105.0
 13
0.0
 23
0.0
 14
10.0
 24
10.0
 15
10.0
 25
10.0
 16
0.0
 26
0.0
 36
1.0
 17
0.0
 27
0.0
 37
0.0
 40
210.0
 41
1.4142857143
 42
50.0
 43
0.0
 44
0.0
 50
0.0
 51
0.0
 71
     0
 72
  2000
 73
     1
 74
     3
 75
     0
 76
     0
 77
     0
 78
     0
281
     0
 65
     1
110
0.0
120
0.0
130
0.0
111
1.0
121
0.0
131
0.0
112
0.0
122
1.0
132
0.0
 79
     0
146
0.0
  0
ENDTAB
  0
TABLE
  2
LTYPE
  5
5
330
0
100
AcDbSymbolTable
 70
     6
  0
LTYPE
  5
14
330
5
100
AcDbSymbolTableRecord
100
AcDbLinetypeTableRecord
  2
ByBlock
 70
     0
  3

 72
    65
 73
     0
 40
0.0
  0
LTYPE
  5
15
330
5
100
AcDbSymbolTableRecord
100
AcDbLinetypeTableRecord
  2
ByLayer
 70
     0
  3

 72
    65
 73
     0
 40
0.0
  0
LTYPE
  5
16
330
5
100
AcDbSymbolTableRecord
100
AcDbLinetypeTableRecord
  2
Continuous
 70
     0
  3
Solid line
 72
    65
 73
     0
 40
0.0
  0
LTYPE
  5
6E
330
5
100
AcDbSymbolTableRecord
100
AcDbLinetypeTableRecord
  2
HIDDEN
 70
     0
  3
Hidden __ __ __ __ __ __ __ __ __ __ __ __ __ __
 72
    65
 73
     2
 40
1.905
 49
1.27
 74
     0
 49
-0.635
 74
     0
  0
LTYPE
  5
6F
330
5
100
AcDbSymbolTableRecord
100
AcDbLinetypeTableRecord
  2
PHANTOM
 70
     0
  3
Phantom ______  __  __  ______  __  __  ______
 72
    65
 73
     6
 40
12.7
 49
6.35
 74
     0
 49
-1.27
 74
     0
 49
1.27
 74
     0
 49
-1.27
 74
     0
 49
1.27
 74
     0
 49
-1.27
 74
     0
  0
LTYPE
  5
70
330
5
100
AcDbSymbolTableRecord
100
AcDbLinetypeTableRecord
  2
CENTER
 70
     0
  3
Center ____ _ ____ _ ____ _ ____ _ ____ _ ____
 72
    65
 73
     4
 40
10.16
 49
6.35
 74
     0
 49
-1.27
 74
     0
 49
1.27
 74
     0
 49
-1.27
 74
     0
  0
LTYPE
  5
71
330
5
100
AcDbSymbolTableRecord
100
AcDbLinetypeTableRecord
  2
CENTERX2
 70
     0
  3
Center (2x) ________  __  ________  __  _____
 72
    65
 73
     4
 40
20.32
 49
12.7
 74
     0
 49
-2.54
 74
     0
 49
2.54
 74
     0
 49
-2.54
 74
     0
  0
LTYPE
  5
72
330
5
100
AcDbSymbolTableRecord
100
AcDbLinetypeTableRecord
  2
DOT2
 70
     0
  3
Dot (.5x) ........................................
 72
    65
 73
     2
 40
0.635
 49
0.0
 74
     0
 49
-0.635
 74
     0
  0
ENDTAB
  0
TABLE
  2
LAYER
  5
2
330
0
100
AcDbSymbolTable
 70
     1
  0
LAYER
  5
10
330
2
100
AcDbSymbolTableRecord
100
AcDbLayerTableRecord
  2
0
 70
     0
 62
     7
  6
Continuous
370
    -3
390
F
  0
ENDTAB
  0
TABLE
  2
STYLE
  5
3
330
0
100
AcDbSymbolTable
 70
     3
  0
STYLE
  5
11
330
3
100
AcDbSymbolTableRecord
100
AcDbTextStyleTableRecord
  2
STANDARD
 70
     0
 40
0.0
 41
1.0
 50
0.0
 71
     0
 42
3.5277777778
  3
MSGOTHIC.TTC
  4

1001
ACAD
1000
MS UI GOTHIC
1071
    32818
  0
STYLE
  5
77
330
3
100
AcDbSymbolTableRecord
100
AcDbTextStyleTableRecord
  2
SLDTEXTSTYLE0
 70
     0
 40
0.0
 41
1.0
 50
0.0
 71
     0
 42
3.5277777778
  3
MSGOTHIC.TTC
  4

1001
ACAD
1000
MS UI Gothic
1071
      306
  0
STYLE
  5
79
330
3
100
AcDbSymbolTableRecord
100
AcDbTextStyleTableRecord
  2
SLDTEXTSTYLE1
 70
     0
 40
0.0
 41
1.0
 50
0.0
 71
     0
 42
3.5277777778
  3
MSGOTHIC.TTC
  4
bigfont
1001
ACAD
1000
MS UI Gothic
1071
      306
  0
ENDTAB
  0
TABLE
  2
VIEW
  5
6
330
0
100
AcDbSymbolTable
 70
     0
  0
ENDTAB
  0
TABLE
  2
UCS
  5
7
330
0
100
AcDbSymbolTable
 70
     0
  0
ENDTAB
  0
TABLE
  2
APPID
  5
9
330
0
100
AcDbSymbolTable
 70
     1
  0
APPID
  5
12
330
9
100
AcDbSymbolTableRecord
100
AcDbRegAppTableRecord
  2
ACAD
 70
     0
  0
ENDTAB
  0
TABLE
  2
DIMSTYLE
  5
A
330
0
100
AcDbSymbolTable
 70
     6
100
AcDbDimStyleTable
  0
DIMSTYLE
105
27
330
A
100
AcDbSymbolTableRecord
100
AcDbDimStyleTableRecord
  2
ISO-25
 70
     0
 41
2.5
 42
0.625
 43
3.75
 44
1.25
 73
     0
 74
     0
 77
     1
 78
     8
140
2.5
141
2.5
143
0.0393700787
147
0.625
171
     3
172
     1
178
     0
271
     2
272
     2
274
     3
278
    44
283
     0
284
     8
340
11
  0
DIMSTYLE
105
26D
102
{ACAD_REACTORS
330
26C
330
27D
330
29F
330
2A9
330
405
102
}
330
A
100
AcDbSymbolTableRecord
100
AcDbDimStyleTableRecord
  2
SLDDIMSTYLE0
 70
     0
 41
3.0
 44
0.0
 45
0.000000001
 73
     0
 74
     0
 77
     3
 78
    12
 79
     3
140
3.0316840278
147
0.7579210069
173
     1
178
     0
271
     8
272
     8
276
     2
284
    12
340
77
341
26E
343
26E
344
26E
  0
DIMSTYLE
105
288
102
{ACAD_REACTORS
330
287
330
412
102
}
330
A
100
AcDbSymbolTableRecord
100
AcDbDimStyleTableRecord
  2
SLDDIMSTYLE1
 70
     0
 41
3.0
 44
0.0
 45
0.000000001
 73
     0
 74
     0
 77
     3
 78
    12
 79
     3
140
3.0316840278
147
0.7579210069
173
     1
178
     0
271
     1
272
     1
276
     2
284
    12
340
77
341
26E
343
26E
344
26E
  0
DIMSTYLE
105
294
102
{ACAD_REACTORS
330
293
330
3F9
102
}
330
A
100
AcDbSymbolTableRecord
100
AcDbDimStyleTableRecord
  2
SLDDIMSTYLE2
 70
     0
 41
3.0
 44
0.0
 45
0.000000001
 73
     0
 74
     0
 77
     3
 78
    12
 79
     3
140
3.0316840278
147
0.7579210069
172
     1
173
     1
178
     0
271
     8
272
     8
276
     2
284
    12
289
     0
340
77
341
26E
343
26E
344
26E
  0
DIMSTYLE
105
2BB
330
A
100
AcDbSymbolTableRecord
100
AcDbDimStyleTableRecord
  2
SLDDIMSTYLE3
 70
     0
 41
3.0
 44
0.0
 45
0.000000001
146
3.0
147
0.0
173
     1
178
     0
271
     0
272
     0
276
     2
340
11
341
26E
343
26E
344
26E
  0
DIMSTYLE
105
420
102
{ACAD_REACTORS
330
41F
102
}
330
A
100
AcDbSymbolTableRecord
100
AcDbDimStyleTableRecord
  2
SLDDIMSTYLE4
 70
     0
 41
3.0
 44
0.0
 45
0.000000001
 73
     0
 74
     0
 77
     3
 78
     8
 79
     2
140
3.0316840278
147
0.7579210069
172
     1
173
     1
178
     0
271
     8
272
     8
276
     2
284
    12
289
     0
340
77
341
26E
343
26E
344
26E
  0
ENDTAB
  0
TABLE
  2
BLOCK_RECORD
  5
1
330
0
100
AcDbSymbolTable
 70
    20
  0
BLOCK_RECORD
  5
1F
330
1
100
AcDbSymbolTableRecord
100
AcDbBlockTableRecord
  2
*Model_Space
340
22
  0
BLOCK_RECORD
  5
1B
330
1
100
AcDbSymbolTableRecord
100
AcDbBlockTableRecord
  2
*Paper_Space
340
1E
  0
BLOCK_RECORD
  5
23
330
1
100
AcDbSymbolTableRecord
100
AcDbBlockTableRecord
  2
*Paper_Space0
340
26
  0
BLOCK_RECORD
  5
7B
330
1
100
AcDbSymbolTableRecord
100
AcDbBlockTableRecord
  2
SW_BROKEN_VIEW_0
340
0
102
{BLKREFS
331
7E
102
}
  0
BLOCK_RECORD
  5
26E
330
1
100
AcDbSymbolTableRecord
100
AcDbBlockTableRecord
  2
_Open30
340
0
102
{BLKREFS
331
277
331
278
331
281
331
282
331
28C
331
28D
331
298
331
299
331
2A3
331
2A4
331
2AF
331
2B0
331
3FD
331
3FE
331
40B
331
40C
331
418
331
419
331
426
331
427
102
}
  0
BLOCK_RECORD
  5
274
330
1
100
AcDbSymbolTableRecord
100
AcDbBlockTableRecord
  2
_D
340
0
  0
BLOCK_RECORD
  5
27E
330
1
100
AcDbSymbolTableRecord
100
AcDbBlockTableRecord
  2
_D_1
340
0
  0
BLOCK_RECORD
  5
289
330
1
100
AcDbSymbolTableRecord
100
AcDbBlockTableRecord
  2
_D_2
340
0
  0
BLOCK_RECORD
  5
295
330
1
100
AcDbSymbolTableRecord
100
AcDbBlockTableRecord
  2
_D_3
340
0
  0
BLOCK_RECORD
  5
2A0
330
1
100
AcDbSymbolTableRecord
100
AcDbBlockTableRecord
  2
_D_4
340
0
  0
BLOCK_RECORD
  5
2AA
330
1
100
AcDbSymbolTableRecord
100
AcDbBlockTableRecord
  2
_D_5
340
0
  0
BLOCK_RECORD
  5
2B5
330
1
100
AcDbSymbolTableRecord
100
AcDbBlockTableRecord
  2
SW_NOTE_0
340
0
102
{BLKREFS
331
2BA
102
}
  0
BLOCK_RECORD
  5
2BD
330
1
100
AcDbSymbolTableRecord
100
AcDbBlockTableRecord
  2
SW_NOTE_0_1
340
0
102
{BLKREFS
331
2C2
102
}
  0
BLOCK_RECORD
  5
2C4
330
1
100
AcDbSymbolTableRecord
100
AcDbBlockTableRecord
  2
SW_NOTE_0_2
340
0
102
{BLKREFS
331
2C9
102
}
  0
BLOCK_RECORD
  5
2CC
330
1
100
AcDbSymbolTableRecord
100
AcDbBlockTableRecord
  2
SW_NOTE_0_3
340
0
102
{BLKREFS
331
2D1
102
}
  0
BLOCK_RECORD
  5
2D4
330
1
100
AcDbSymbolTableRecord
100
AcDbBlockTableRecord
  2
SW_CENTERMARKSYMBOL_0
340
0
102
{BLKREFS
331
2DF
102
}
  0
BLOCK_RECORD
  5
2E0
330
1
100
AcDbSymbolTableRecord
100
AcDbBlockTableRecord
  2
SW_CENTERMARKSYMBOL_1
340
0
102
{BLKREFS
331
2EB
102
}
  0
BLOCK_RECORD
  5
2F7
330
1
100
AcDbSymbolTableRecord
100
AcDbBlockTableRecord
  2
SW_BROKEN_VIEW_1
340
0
102
{BLKREFS
331
2FA
102
}
  0
BLOCK_RECORD
  5
3FA
330
1
100
AcDbSymbolTableRecord
100
AcDbBlockTableRecord
  2
_D_6
340
0
  0
BLOCK_RECORD
  5
406
330
1
100
AcDbSymbolTableRecord
100
AcDbBlockTableRecord
  2
_D_7
340
0
  0
BLOCK_RECORD
  5
413
330
1
100
AcDbSymbolTableRecord
100
AcDbBlockTableRecord
  2
_D_8
340
0
  0
BLOCK_RECORD
  5
421
330
1
100
AcDbSymbolTableRecord
100
AcDbBlockTableRecord
  2
_D_9
340
0
  0
ENDTAB
  0
ENDSEC
  0
SECTION
  2
BLOCKS
  0
BLOCK
  5
20
330
1F
100
AcDbEntity
  8
0
100
AcDbBlockBegin
  2
*Model_Space
 70
     0
 10
0.0
 20
0.0
 30
0.0
  3
*Model_Space
  1

  0
ENDBLK
  5
21
330
1F
100
AcDbEntity
  8
0
100
AcDbBlockEnd
  0
BLOCK
  5
1C
330
1B
100
AcDbEntity
 67
     1
  8
0
100
AcDbBlockBegin
  2
*Paper_Space
 70
     0
 10
0.0
 20
0.0
 30
0.0
  3
*Paper_Space
  1

  0
ENDBLK
  5
1D
330
1B
100
AcDbEntity
 67
     1
  8
0
100
AcDbBlockEnd
  0
BLOCK
  5
24
330
23
100
AcDbEntity
  8
0
100
AcDbBlockBegin
  2
*Paper_Space0
 70
     0
 10
0.0
 20
0.0
 30
0.0
  3
*Paper_Space0
  1

  0
ENDBLK
  5
25
330
23
100
AcDbEntity
  8
0
100
AcDbBlockEnd
  0
BLOCK
  5
7C
330
7B
100
AcDbEntity
  8
0
100
AcDbBlockBegin
  2
SW_BROKEN_VIEW_0
 70
     0
 10
0.0
 20
0.0
 30
0.0
  3
SW_BROKEN_VIEW_0
  1

  0
ENDBLK
  5
7D
330
7B
100
AcDbEntity
  8
0
100
AcDbBlockEnd
  0
BLOCK
  5
26F
330
26E
100
AcDbEntity
  8
0
100
AcDbBlockBegin
  2
_Open30
 70
     0
 10
0.0
 20
0.0
 30
0.0
  3
_Open30
  1

  0
LINE
  5
271
330
26E
100
AcDbEntity
  8
0
  6
ByBlock
 62
     0
370
    -2
100
AcDbLine
 10
-1.0
 20
0.267949
 30
0.0
 11
0.0
 21
0.0
 31
0.0
  0
LINE
  5
272
330
26E
100
AcDbEntity
  8
0
  6
ByBlock
 62
     0
370
    -2
100
AcDbLine
 10
0.0
 20
0.0
 30
0.0
 11
-1.0
 21
-0.267949
 31
0.0
  0
LINE
  5
273
330
26E
100
AcDbEntity
  8
0
  6
ByBlock
 62
     0
370
    -2
100
AcDbLine
 10
0.0
 20
0.0
 30
0.0
 11
-1.0
 21
0.0
 31
0.0
  0
ENDBLK
  5
270
330
26E
100
AcDbEntity
  8
0
100
AcDbBlockEnd
  0
BLOCK
  5
275
330
274
100
AcDbEntity
  8
0
100
AcDbBlockBegin
  2
_D
 70
     0
 10
0.0
 20
0.0
 30
0.0
  3
_D
  1

  0
INSERT
  5
277
330
274
100
AcDbEntity
  8
0
  6
Continuous
 62
     7
370
    18
100
AcDbBlockReference
  2
_Open30
 10
48.4539435414
 20
140.1508318996
 30
-5.3055951913
 41
3.0
 42
3.0
 50
90.0
  0
INSERT
  5
278
330
274
100
AcDbEntity
  8
0
  6
Continuous
 62
     7
370
    18
100
AcDbBlockReference
  2
_Open30
 10
48.4539435414
 20
127.4508318996
 30
-5.3055951913
 41
3.0
 42
3.0
 50
270.0
  0
LINE
  5
279
330
274
100
AcDbEntity
  8
0
  6
Continuous
 62
     7
370
    18
100
AcDbLine
 10
54.2539435414
 20
140.1508318996
 30
0.0
 11
47.4539435414
 21
140.1508318996
 31
0.0
  0
LINE
  5
27A
330
274
100
AcDbEntity
  8
0
  6
Continuous
 62
     7
370
    18
100
AcDbLine
 10
54.2539435414
 20
127.4508318996
 30
0.0
 11
47.4539435414
 21
127.4508318996
 31
0.0
  0
LINE
  5
27B
330
274
100
AcDbEntity
  8
0
  6
Continuous
 62
     7
370
    18
100
AcDbLine
 10
48.4539435414
 20
140.1508318996
 30
0.0
 11
48.4539435414
 21
127.4508318996
 31
0.0
  0
MTEXT
  5
27C
330
274
100
AcDbEntity
  8
0
  6
Continuous
 62
     7
370
    18
100
AcDbMText
 10
45.375155779
 20
130.7973212531
 30
0.0
 40
2.6458333333
 41
0.0
 71
     1
 72
     1
  1
12.7
  7
SLDTEXTSTYLE0
 11
-7.044195017643634E-15
 21
1.0
 31
0.0
 73
     1
 44
1.0
  0
ENDBLK
  5
276
330
274
100
AcDbEntity
  8
0
100
AcDbBlockEnd
  0
BLOCK
  5
27F
330
27E
100
AcDbEntity
  8
0
100
AcDbBlockBegin
  2
_D_1
 70
     0
 10
0.0
 20
0.0
 30
0.0
  3
_D_1
  1

  0
INSERT
  5
281
330
27E
100
AcDbEntity
  8
0
  6
Continuous
 62
     7
370
    18
100
AcDbBlockReference
  2
_Open30
 10
54.4539435414
 20
161.3670569407
 30
-5.3055951913
 41
3.0
 42
3.0
 50
180.0
  0
INSERT
  5
282
330
27E
100
AcDbEntity
  8
0
  6
Continuous
 62
     7
370
    18
100
AcDbBlockReference
  2
_Open30
 10
89.4539435414
 20
161.3670569407
 30
-5.3055951913
 41
3.0
 42
3.0
 50
0.0
  0
LINE
  5
283
330
27E
100
AcDbEntity
  8
0
  6
Continuous
 62
     7
370
    18
100
AcDbLine
 10
54.4539435414
 20
138.9758318996
 30
0.0
 11
54.4539435414
 21
162.3670569407
 31
0.0
  0
LINE
  5
284
330
27E
100
AcDbEntity
  8
0
  6
Continuous
 62
     7
370
    18
100
AcDbLine
 10
89.4539435414
 20
139.4758318996
 30
0.0
 11
89.4539435414
 21
162.3670569407
 31
0.0
  0
LINE
  5
285
330
27E
100
AcDbEntity
  8
0
  6
Continuous
 62
     7
370
    18
100
AcDbLine
 10
54.4539435414
 20
161.3670569407
 30
0.0
 11
89.4539435414
 21
161.3670569407
 31
0.0
  0
MTEXT
  5
286
330
27E
100
AcDbEntity
  8
0
  6
Continuous
 62
     7
370
    18
100
AcDbMText
 10
70.1900546738
 20
164.445844703
 30
0.0
 40
2.6458333333
 41
0.0
 71
     1
 72
     1
  1
35
  7
SLDTEXTSTYLE0
 73
     1
 44
1.0
  0
ENDBLK
  5
280
330
27E
100
AcDbEntity
  8
0
100
AcDbBlockEnd
  0
BLOCK
  5
28A
330
289
100
AcDbEntity
  8
0
100
AcDbBlockBegin
  2
_D_2
 70
     0
 10
0.0
 20
0.0
 30
0.0
  3
_D_2
  1

  0
INSERT
  5
28C
330
289
100
AcDbEntity
  8
0
  6
Continuous
 62
     7
370
    18
100
AcDbBlockReference
  2
_Open30
 10
98.7457830424
 20
138.9758318996
 30
-5.3055951913
 41
3.0
 42
3.0
 50
90.0
  0
INSERT
  5
28D
330
289
100
AcDbEntity
  8
0
  6
Continuous
 62
     7
370
    18
100
AcDbBlockReference
  2
_Open30
 10
98.7457830424
 20
128.6258318996
 30
-5.3055951913
 41
3.0
 42
3.0
 50
270.0
  0
LINE
  5
28E
330
289
100
AcDbEntity
  8
0
  6
Continuous
 62
     7
370
    18
100
AcDbLine
 10
89.9539435414
 20
138.9758318996
 30
0.0
 11
99.7457830424
 21
138.9758318996
 31
0.0
  0
LINE
  5
28F
330
289
100
AcDbEntity
  8
0
  6
Continuous
 62
     7
370
    18
100
AcDbLine
 10
89.9539435414
 20
128.6258318996
 30
0.0
 11
99.7457830424
 21
128.6258318996
 31
0.0
  0
LINE
  5
290
330
289
100
AcDbEntity
  8
0
  6
Continuous
 62
     7
370
    18
100
AcDbLine
 10
98.7457830424
 20
138.9758318996
 30
0.0
 11
98.7457830424
 21
147.9993862499
 31
0.0
  0
LINE
  5
291
330
289
100
AcDbEntity
  8
0
  6
Continuous
 62
     7
370
    18
100
AcDbLine
 10
98.7457830424
 20
138.9758318996
 30
0.0
 11
98.7457830424
 21
128.6258318996
 31
0.0
  0
MTEXT
  5
292
330
289
100
AcDbEntity
  8
0
  6
Continuous
 62
     7
370
    18
100
AcDbMText
 10
95.66699528
 20
141.9923649569
 30
0.0
 40
2.6458333333
 41
0.0
 71
     1
 72
     1
  1
10.4
  7
SLDTEXTSTYLE0
 11
-6.156016597943509E-15
 21
1.0
 31
0.0
 73
     1
 44
1.0
  0
ENDBLK
  5
28B
330
289
100
AcDbEntity
  8
0
100
AcDbBlockEnd
  0
BLOCK
  5
296
330
295
100
AcDbEntity
  8
0
100
AcDbBlockBegin
  2
_D_3
 70
     0
 10
0.0
 20
0.0
 30
0.0
  3
_D_3
  1

  0
INSERT
  5
298
330
295
100
AcDbEntity
  8
0
  6
Continuous
 62
     7
370
    18
100
AcDbBlockReference
  2
_Open30
 10
110.4419258326
 20
132.1508318996
 30
-5.3055951913
 41
3.0
 42
3.0
 50
90.0
  0
INSERT
  5
299
330
295
100
AcDbEntity
  8
0
  6
Continuous
 62
     7
370
    18
100
AcDbBlockReference
  2
_Open30
 10
110.4419258326
 20
135.4508318996
 30
-5.3055951913
 41
3.0
 42
3.0
 50
270.0
  0
LINE
  5
29A
330
295
100
AcDbEntity
  8
0
  6
Continuous
 62
     7
370
    18
100
AcDbLine
 10
110.4419258326
 20
132.1508318996
 30
0.0
 11
110.4419258326
 21
128.6508318996
 31
0.0
  0
LINE
  5
29B
330
295
100
AcDbEntity
  8
0
  6
Continuous
 62
     7
370
    18
100
AcDbLine
 10
110.4419258326
 20
132.1508318996
 30
0.0
 11
110.4419258326
 21
135.4508318996
 31
0.0
  0
LINE
  5
29C
330
295
100
AcDbEntity
  8
0
  6
Continuous
 62
     7
370
    18
100
AcDbLine
 10
110.4419258326
 20
135.4508318996
 30
0.0
 11
110.4419258326
 21
148.7931366478
 31
0.0
  0
MTEXT
  5
29D
330
295
100
AcDbEntity
  8
0
  6
Continuous
 62
     7
370
    18
100
AcDbMText
 10
107.3631378374
 20
141.198614559
 30
0.0
 40
2.6458333333
 41
0.0
 71
     1
 72
     1
  1
%%c
  7
SLDTEXTSTYLE0
 11
6.123233995736766E-17
 21
1.0
 31
0.0
 73
     1
 44
1.0
  0
MTEXT
  5
29E
330
295
100
AcDbEntity
  8
0
  6
Continuous
 62
     7
370
    18
100
AcDbMText
 10
107.3631378374
 20
144.5500035238
 30
0.0
 40
2.6458333333
 41
0.0
 71
     1
 72
     1
  1
3.3
  7
SLDTEXTSTYLE0
 11
6.123233995736766E-17
 21
1.0
 31
0.0
 73
     1
 44
1.0
  0
ENDBLK
  5
297
330
295
100
AcDbEntity
  8
0
100
AcDbBlockEnd
  0
BLOCK
  5
2A1
330
2A0
100
AcDbEntity
  8
0
100
AcDbBlockBegin
  2
_D_4
 70
     0
 10
0.0
 20
0.0
 30
0.0
  3
_D_4
  1

  0
INSERT
  5
2A3
330
2A0
100
AcDbEntity
  8
0
  6
Continuous
 62
     7
370
    18
100
AcDbBlockReference
  2
_Open30
 10
89.4539435414
 20
161.3670569407
 30
-5.3055951913
 41
3.0
 42
3.0
 50
180.0
  0
INSERT
  5
2A4
330
2A0
100
AcDbEntity
  8
0
  6
Continuous
 62
     7
370
    18
100
AcDbBlockReference
  2
_Open30
 10
243.8176534733
 20
161.3670569407
 30
-5.3055951913
 41
3.0
 42
3.0
 50
0.0
  0
LINE
  5
2A5
330
2A0
100
AcDbEntity
  8
0
  6
Continuous
 62
     7
370
    18
100
AcDbLine
 10
89.4539435414
 20
139.4758318996
 30
0.0
 11
89.4539435414
 21
162.3670569407
 31
0.0
  0
LINE
  5
2A6
330
2A0
100
AcDbEntity
  8
0
  6
Continuous
 62
     7
370
    18
100
AcDbLine
 10
243.8176534733
 20
143.8670569407
 30
0.0
 11
243.8176534733
 21
162.3670569407
 31
0.0
  0
LINE
  5
2A7
330
2A0
100
AcDbEntity
  8
0
  6
Continuous
 62
     7
370
    18
100
AcDbLine
 10
89.4539435414
 20
161.3670569407
 30
0.0
 11
243.8176534733
 21
161.3670569407
 31
0.0
  0
MTEXT
  5
2A8
330
2A0
100
AcDbEntity
  8
0
  6
Continuous
 62
     7
370
    18
100
AcDbMText
 10
155.9838692033
 20
164.445844703
 30
0.0
 40
2.6458333333
 41
0.0
 71
     1
 72
     1
  1
L=500～20000
  7
SLDTEXTSTYLE1
 73
     1
 44
1.0
  0
ENDBLK
  5
2A2
330
2A0
100
AcDbEntity
  8
0
100
AcDbBlockEnd
  0
BLOCK
  5
2AB
330
2AA
100
AcDbEntity
  8
0
100
AcDbBlockBegin
  2
_D_5
 70
     0
 10
0.0
 20
0.0
 30
0.0
  3
_D_5
  1

  0
ARC
  5
2AD
330
2AA
100
AcDbEntity
  8
0
  6
Continuous
 62
     7
370
    18
100
AcDbCircle
 10
217.7617224055
 20
151.3881668909
 30
0.0
 40
3.944175412646004
100
AcDbArc
 50
153.4349488229
 51
206.5650511771
  0
ARC
  5
2AE
330
2AA
100
AcDbEntity
  8
0
  6
Continuous
 62
     7
370
    18
100
AcDbCircle
 10
214.2339446704
 20
151.3881668909
 30
0.0
 40
3.944175412646004
100
AcDbArc
 50
333.4349488229
 51
26.5650511771
  0
INSERT
  5
2AF
330
2AA
100
AcDbEntity
  8
0
  6
Continuous
 62
     7
370
    18
100
AcDbBlockReference
  2
_Open30
 10
188.178013428
 20
149.6242782562
 30
-5.3055951913
 41
3.0
 42
3.0
 50
180.0
  0
INSERT
  5
2B0
330
2AA
100
AcDbEntity
  8
0
  6
Continuous
 62
     7
370
    18
100
AcDbBlockReference
  2
_Open30
 10
243.8176534733
 20
149.6242782562
 30
-5.3055951913
 41
3.0
 42
3.0
 50
0.0
  0
LINE
  5
2B1
330
2AA
100
AcDbEntity
  8
0
  6
Continuous
 62
     7
370
    18
100
AcDbLine
 10
188.178013428
 20
136.5508318996
 30
0.0
 11
188.178013428
 21
150.6242782562
 31
0.0
  0
LINE
  5
2B2
330
2AA
100
AcDbEntity
  8
0
  6
Continuous
 62
     7
370
    18
100
AcDbLine
 10
243.8176534733
 20
143.8670569407
 30
0.0
 11
243.8176534733
 21
150.6242782562
 31
0.0
  0
LINE
  5
2B3
330
2AA
100
AcDbEntity
  8
0
  6
Continuous
 62
     7
370
    18
100
AcDbLine
 10
188.178013428
 20
149.6242782562
 30
0.0
 11
243.8176534733
 21
149.6242782562
 31
0.0
  0
MTEXT
  5
2B4
330
2AA
100
AcDbEntity
  8
0
  6
Continuous
 62
     7
370
    18
100
AcDbMText
 10
214.2339446704
 20
152.7030657857
 30
0.0
 40
2.6458333333
 41
0.0
 71
     1
 72
     1
  1
80
  7
SLDTEXTSTYLE0
 73
     1
 44
1.0
  0
ENDBLK
  5
2AC
330
2AA
100
AcDbEntity
  8
0
100
AcDbBlockEnd
  0
BLOCK
  5
2B6
330
2B5
100
AcDbEntity
  8
0
100
AcDbBlockBegin
  2
SW_NOTE_0
 70
     0
 10
0.0
 20
0.0
 30
0.0
  3
SW_NOTE_0
  1

  0
LINE
  5
2B8
330
2B5
100
AcDbEntity
  8
0
  6
Continuous
 62
     0
370
    18
100
AcDbLine
 10
-19.6640763652
 20
0.0
 30
0.0
 11
0.0
 21
0.0
 31
0.0
  0
MTEXT
  5
2B9
330
2B5
100
AcDbEntity
  8
0
  6
Continuous
 62
     0
370
    18
100
AcDbMText
 10
-20.1071242568
 20
3.1435739976
 30
0.0
 40
2.6458333333
 41
0.0
 71
     1
 72
     1
  1
熱収縮ﾁｭｰﾌﾞ
  7
SLDTEXTSTYLE1
 73
     1
 44
1.0
  0
ENDBLK
  5
2B7
330
2B5
100
AcDbEntity
  8
0
100
AcDbBlockEnd
  0
BLOCK
  5
2BE
330
2BD
100
AcDbEntity
  8
0
100
AcDbBlockBegin
  2
SW_NOTE_0_1
 70
     0
 10
0.0
 20
0.0
 30
0.0
  3
SW_NOTE_0_1
  1

  0
LINE
  5
2C0
330
2BD
100
AcDbEntity
  8
0
  6
Continuous
 62
     0
370
    18
100
AcDbLine
 10
-13.470867857
 20
0.0
 30
0.0
 11
0.0
 21
0.0
 31
0.0
  0
MTEXT
  5
2C1
330
2BD
100
AcDbEntity
  8
0
  6
Continuous
 62
     0
370
    18
100
AcDbMText
 10
-13.8772865351
 20
3.1435739976
 30
0.0
 40
2.6458333333
 41
0.0
 71
     1
 72
     1
  1
Yﾗｸﾞ(M3)
  7
SLDTEXTSTYLE1
 73
     1
 44
1.0
  0
ENDBLK
  5
2BF
330
2BD
100
AcDbEntity
  8
0
100
AcDbBlockEnd
  0
BLOCK
  5
2C5
330
2C4
100
AcDbEntity
  8
0
100
AcDbBlockBegin
  2
SW_NOTE_0_2
 70
     0
 10
0.0
 20
0.0
 30
0.0
  3
SW_NOTE_0_2
  1

  0
LINE
  5
2C7
330
2C4
100
AcDbEntity
  8
0
  6
Continuous
 62
     0
370
    18
100
AcDbLine
 10
-25.6123032641
 20
0.0
 30
0.0
 11
0.0
 21
0.0
 31
0.0
  0
MTEXT
  5
2C8
330
2C4
100
AcDbEntity
  8
0
  6
Continuous
 62
     0
370
    18
100
AcDbMText
 10
-26.0623747099
 20
3.1435739976
 30
0.0
 40
2.6458333333
 41
0.0
 71
     1
 72
     1
  1
ｼﾘｺﾝｺﾞﾑ被覆(緑)
  7
SLDTEXTSTYLE1
 73
     1
 44
1.0
  0
ENDBLK
  5
2C6
330
2C4
100
AcDbEntity
  8
0
100
AcDbBlockEnd
  0
BLOCK
  5
2CD
330
2CC
100
AcDbEntity
  8
0
100
AcDbBlockBegin
  2
SW_NOTE_0_3
 70
     0
 10
0.0
 20
0.0
 30
0.0
  3
SW_NOTE_0_3
  1

  0
LINE
  5
2CF
330
2CC
100
AcDbEntity
  8
0
  6
Continuous
 62
     0
370
    18
100
AcDbLine
 10
-8.0077119392
 20
0.0
 30
0.0
 11
0.0
 21
0.0
 31
0.0
  0
MTEXT
  5
2D0
330
2CC
100
AcDbEntity
  8
0
  6
Continuous
 62
     0
370
    18
100
AcDbMText
 10
-8.4841994726
 20
3.1435739976
 30
0.0
 40
2.6458333333
 41
0.0
 71
     1
 72
     1
  1
ｺﾈｸﾀ
  7
SLDTEXTSTYLE1
 73
     1
 44
1.0
  0
ENDBLK
  5
2CE
330
2CC
100
AcDbEntity
  8
0
100
AcDbBlockEnd
  0
BLOCK
  5
2D5
330
2D4
100
AcDbEntity
  8
0
100
AcDbBlockBegin
  2
SW_CENTERMARKSYMBOL_0
 70
     0
 10
0.0
 20
0.0
 30
0.0
  3
SW_CENTERMARKSYMBOL_0
  1

  0
LINE
  5
2D7
330
2D4
100
AcDbEntity
  8
0
  6
Continuous
 62
     0
370
    18
100
AcDbLine
 10
0.0
 20
0.0
 30
0.0
 11
0.0
 21
2.4999999441
 31
0.0
  0
LINE
  5
2D8
330
2D4
100
AcDbEntity
  8
0
  6
Continuous
 62
     0
370
    18
100
AcDbLine
 10
0.0
 20
0.0
 30
0.0
 11
-2.4999976158
 21
0.0
 31
0.0
  0
LINE
  5
2D9
330
2D4
100
AcDbEntity
  8
0
  6
Continuous
 62
     0
370
    18
100
AcDbLine
 10
0.0
 20
0.0
 30
0.0
 11
0.0
 21
-2.4999999441
 31
0.0
  0
LINE
  5
2DA
330
2D4
100
AcDbEntity
  8
0
  6
Continuous
 62
     0
370
    18
100
AcDbLine
 10
0.0
 20
0.0
 30
0.0
 11
2.4999976158
 21
0.0
 31
0.0
  0
LINE
  5
2DB
330
2D4
100
AcDbEntity
  8
0
  6
Continuous
 62
     0
370
    18
100
AcDbLine
 10
0.0
 20
2.4999999441
 30
0.0
 11
0.0
 21
4.1000000201
 31
0.0
  0
LINE
  5
2DC
330
2D4
100
AcDbEntity
  8
0
  6
Continuous
 62
     0
370
    18
100
AcDbLine
 10
-2.4999976158
 20
0.0
 30
0.0
 11
-15.431560576
 21
0.0
 31
0.0
  0
LINE
  5
2DD
330
2D4
100
AcDbEntity
  8
0
  6
Continuous
 62
     0
370
    18
100
AcDbLine
 10
0.0
 20
-2.4999999441
 30
0.0
 11
0.0
 21
-4.0999999619
 31
0.0
  0
LINE
  5
2DE
330
2D4
100
AcDbEntity
  8
0
  6
Continuous
 62
     0
370
    18
100
AcDbLine
 10
2.4999976158
 20
0.0
 30
0.0
 11
4.1000023484
 21
0.0
 31
0.0
  0
ENDBLK
  5
2D6
330
2D4
100
AcDbEntity
  8
0
100
AcDbBlockEnd
  0
BLOCK
  5
2E1
330
2E0
100
AcDbEntity
  8
0
100
AcDbBlockBegin
  2
SW_CENTERMARKSYMBOL_1
 70
     0
 10
0.0
 20
0.0
 30
0.0
  3
SW_CENTERMARKSYMBOL_1
  1

  0
LINE
  5
2E3
330
2E0
100
AcDbEntity
  8
0
  6
Continuous
 62
     0
370
    18
100
AcDbLine
 10
0.0
 20
0.0
 30
0.0
 11
0.0
 21
2.4999999441
 31
0.0
  0
LINE
  5
2E4
330
2E0
100
AcDbEntity
  8
0
  6
Continuous
 62
     0
370
    18
100
AcDbLine
 10
0.0
 20
0.0
 30
0.0
 11
-2.4999976158
 21
0.0
 31
0.0
  0
LINE
  5
2E5
330
2E0
100
AcDbEntity
  8
0
  6
Continuous
 62
     0
370
    18
100
AcDbLine
 10
0.0
 20
0.0
 30
0.0
 11
0.0
 21
-2.4999999441
 31
0.0
  0
LINE
  5
2E6
330
2E0
100
AcDbEntity
  8
0
  6
Continuous
 62
     0
370
    18
100
AcDbLine
 10
0.0
 20
0.0
 30
0.0
 11
2.4999976158
 21
0.0
 31
0.0
  0
LINE
  5
2E7
330
2E0
100
AcDbEntity
  8
0
  6
Continuous
 62
     0
370
    18
100
AcDbLine
 10
0.0
 20
2.4999999441
 30
0.0
 11
0.0
 21
4.0999999619
 31
0.0
  0
LINE
  5
2E8
330
2E0
100
AcDbEntity
  8
0
  6
Continuous
 62
     0
370
    18
100
AcDbLine
 10
-2.4999976158
 20
0.0
 30
0.0
 11
-15.3610855341
 21
0.0
 31
0.0
  0
LINE
  5
2E9
330
2E0
100
AcDbEntity
  8
0
  6
Continuous
 62
     0
370
    18
100
AcDbLine
 10
0.0
 20
-2.4999999441
 30
0.0
 11
0.0
 21
-4.1000000201
 31
0.0
  0
LINE
  5
2EA
330
2E0
100
AcDbEntity
  8
0
  6
Continuous
 62
     0
370
    18
100
AcDbLine
 10
2.4999976158
 20
0.0
 30
0.0
 11
4.1000023484
 21
0.0
 31
0.0
  0
ENDBLK
  5
2E2
330
2E0
100
AcDbEntity
  8
0
100
AcDbBlockEnd
  0
BLOCK
  5
2F8
330
2F7
100
AcDbEntity
  8
0
100
AcDbBlockBegin
  2
SW_BROKEN_VIEW_1
 70
     0
 10
0.0
 20
0.0
 30
0.0
  3
SW_BROKEN_VIEW_1
  1

  0
ENDBLK
  5
2F9
330
2F7
100
AcDbEntity
  8
0
100
AcDbBlockEnd
  0
BLOCK
  5
3FB
330
3FA
100
AcDbEntity
  8
0
100
AcDbBlockBegin
  2
_D_6
 70
     0
 10
0.0
 20
0.0
 30
0.0
  3
_D_6
  1

  0
INSERT
  5
3FD
330
3FA
100
AcDbEntity
  8
0
  6
Continuous
 62
     7
370
    18
100
AcDbBlockReference
  2
_Open30
 10
48.4539435414
 20
75.5976202309
 30
0.0
 41
3.0
 42
3.0
 50
90.0
  0
INSERT
  5
3FE
330
3FA
100
AcDbEntity
  8
0
  6
Continuous
 62
     7
370
    18
100
AcDbBlockReference
  2
_Open30
 10
48.4539435414
 20
78.0976202309
 30
0.0
 41
3.0
 42
3.0
 50
270.0
  0
LINE
  5
3FF
330
3FA
100
AcDbEntity
  8
0
  6
Continuous
 62
     7
370
    18
100
AcDbLine
 10
64.4539435414
 20
75.5976202309
 30
0.0
 11
47.4539435414
 21
75.5976202309
 31
0.0
  0
LINE
  5
400
330
3FA
100
AcDbEntity
  8
0
  6
Continuous
 62
     7
370
    18
100
AcDbLine
 10
53.9539435414
 20
78.0976202309
 30
0.0
 11
47.4539435414
 21
78.0976202309
 31
0.0
  0
LINE
  5
401
330
3FA
100
AcDbEntity
  8
0
  6
Continuous
 62
     7
370
    18
100
AcDbLine
 10
48.4539435414
 20
75.5976202309
 30
0.0
 11
48.4539435414
 21
65.8758918767
 31
0.0
  0
LINE
  5
402
330
3FA
100
AcDbEntity
  8
0
  6
Continuous
 62
     7
370
    18
100
AcDbLine
 10
48.4539435414
 20
75.5976202309
 30
0.0
 11
48.4539435414
 21
78.0976202309
 31
0.0
  0
LINE
  5
403
330
3FA
100
AcDbEntity
  8
0
  6
Continuous
 62
     7
370
    18
100
AcDbLine
 10
48.4539435414
 20
78.0976202309
 30
0.0
 11
48.4539435414
 21
81.5976202309
 31
0.0
  0
MTEXT
  5
404
330
3FA
100
AcDbEntity
  8
0
  6
Continuous
 62
     7
370
    18
100
AcDbMText
 10
45.375155779
 20
65.8758918767
 30
0.0
 40
2.6458333333
 41
0.0
 71
     1
 72
     1
  1
2.5
  7
SLDTEXTSTYLE0
 11
6.123233995736766E-17
 21
1.0
 31
0.0
 73
     1
 44
1.0
  0
ENDBLK
  5
3FC
330
3FA
100
AcDbEntity
  8
0
100
AcDbBlockEnd
  0
BLOCK
  5
407
330
406
100
AcDbEntity
  8
0
100
AcDbBlockBegin
  2
_D_7
 70
     0
 10
0.0
 20
0.0
 30
0.0
  3
_D_7
  1

  0
ARC
  5
409
330
406
100
AcDbEntity
  8
0
  6
Continuous
 62
     7
370
    18
100
AcDbCircle
 10
96.3583423338
 20
69.4036696991
 30
0.0
 40
3.944175412646004
100
AcDbArc
 50
243.4349488229
 51
296.5650511771
  0
ARC
  5
40A
330
406
100
AcDbEntity
  8
0
  6
Continuous
 62
     7
370
    18
100
AcDbCircle
 10
96.3583423338
 20
66.5912468871
 30
0.0
 40
3.944175412646004
100
AcDbArc
 50
63.4349488229
 51
116.5650511771
  0
INSERT
  5
40B
330
406
100
AcDbEntity
  8
0
  6
Continuous
 62
     7
370
    18
100
AcDbBlockReference
  2
_Open30
 10
98.1222309685
 20
75.5976202309
 30
0.0
 41
3.0
 42
3.0
 50
270.0
  0
INSERT
  5
40C
330
406
100
AcDbEntity
  8
0
  6
Continuous
 62
     7
370
    18
100
AcDbBlockReference
  2
_Open30
 10
98.1222309685
 20
83.8976202309
 30
0.0
 41
3.0
 42
3.0
 50
90.0
  0
LINE
  5
40D
330
406
100
AcDbEntity
  8
0
  6
Continuous
 62
     7
370
    18
100
AcDbLine
 10
89.9539435414
 20
75.5976202309
 30
0.0
 11
99.1222309685
 21
75.5976202309
 31
0.0
  0
LINE
  5
40E
330
406
100
AcDbEntity
  8
0
  6
Continuous
 62
     7
370
    18
100
AcDbLine
 10
88.2039435414
 20
83.8976202309
 30
0.0
 11
99.1222309685
 21
83.8976202309
 31
0.0
  0
LINE
  5
40F
330
406
100
AcDbEntity
  8
0
  6
Continuous
 62
     7
370
    18
100
AcDbLine
 10
98.1222309685
 20
75.5976202309
 30
0.0
 11
98.1222309685
 21
65.4594942939
 31
0.0
  0
LINE
  5
410
330
406
100
AcDbEntity
  8
0
  6
Continuous
 62
     7
370
    18
100
AcDbLine
 10
98.1222309685
 20
75.5976202309
 30
0.0
 11
98.1222309685
 21
83.8976202309
 31
0.0
  0
MTEXT
  5
411
330
406
100
AcDbEntity
  8
0
  6
Continuous
 62
     7
370
    18
100
AcDbMText
 10
95.043443439
 20
65.875891964
 30
0.0
 40
2.6458333333
 41
0.0
 71
     1
 72
     1
  1
8.3
  7
SLDTEXTSTYLE0
 11
6.123233995736766E-17
 21
1.0
 31
0.0
 73
     1
 44
1.0
  0
ENDBLK
  5
408
330
406
100
AcDbEntity
  8
0
100
AcDbBlockEnd
  0
BLOCK
  5
414
330
413
100
AcDbEntity
  8
0
100
AcDbBlockBegin
  2
_D_8
 70
     0
 10
0.0
 20
0.0
 30
0.0
  3
_D_8
  1

  0
ARC
  5
416
330
413
100
AcDbEntity
  8
0
  6
Continuous
 62
     7
370
    18
100
AcDbCircle
 10
105.3202358151
 20
68.5217253817
 30
0.0
 40
3.944175412646004
100
AcDbArc
 50
243.4349488229
 51
296.5650511771
  0
ARC
  5
417
330
413
100
AcDbEntity
  8
0
  6
Continuous
 62
     7
370
    18
100
AcDbCircle
 10
105.3202358151
 20
67.4731912045
 30
0.0
 40
3.944175412646004
100
AcDbArc
 50
63.4349488229
 51
116.5650511771
  0
INSERT
  5
418
330
413
100
AcDbEntity
  8
0
  6
Continuous
 62
     7
370
    18
100
AcDbBlockReference
  2
_Open30
 10
107.0841244499
 20
75.5976202309
 30
0.0
 41
3.0
 42
3.0
 50
270.0
  0
INSERT
  5
419
330
413
100
AcDbEntity
  8
0
  6
Continuous
 62
     7
370
    18
100
AcDbBlockReference
  2
_Open30
 10
107.0841244499
 20
86.2088106136
 30
0.0
 41
3.0
 42
3.0
 50
90.0
  0
LINE
  5
41A
330
413
100
AcDbEntity
  8
0
  6
Continuous
 62
     7
370
    18
100
AcDbLine
 10
89.9539435414
 20
75.5976202309
 30
0.0
 11
108.0841244499
 21
75.5976202309
 31
0.0
  0
LINE
  5
41B
330
413
100
AcDbEntity
  8
0
  6
Continuous
 62
     7
370
    18
100
AcDbLine
 10
68.0539435414
 20
86.2088106136
 30
0.0
 11
108.0841244499
 21
86.2088106136
 31
0.0
  0
LINE
  5
41C
330
413
100
AcDbEntity
  8
0
  6
Continuous
 62
     7
370
    18
100
AcDbLine
 10
107.0841244499
 20
75.5976202309
 30
0.0
 11
107.0841244499
 21
64.5775499765
 31
0.0
  0
LINE
  5
41D
330
413
100
AcDbEntity
  8
0
  6
Continuous
 62
     7
370
    18
100
AcDbLine
 10
107.0841244499
 20
75.5976202309
 30
0.0
 11
107.0841244499
 21
86.2088106136
 31
0.0
  0
MTEXT
  5
41E
330
413
100
AcDbEntity
  8
0
  6
Continuous
 62
     7
370
    18
100
AcDbMText
 10
104.0053369203
 20
64.9939476466
 30
0.0
 40
2.6458333333
 41
0.0
 71
     1
 72
     1
  1
10.6
  7
SLDTEXTSTYLE0
 11
6.123233995736766E-17
 21
1.0
 31
0.0
 73
     1
 44
1.0
  0
ENDBLK
  5
415
330
413
100
AcDbEntity
  8
0
100
AcDbBlockEnd
  0
BLOCK
  5
422
330
421
100
AcDbEntity
  8
0
100
AcDbBlockBegin
  2
_D_9
 70
     0
 10
0.0
 20
0.0
 30
0.0
  3
_D_9
  1

  0
ARC
  5
424
330
421
100
AcDbEntity
  8
0
  6
Continuous
 62
     7
370
    18
100
AcDbCircle
 10
254.5857428202
 20
65.8219953952
 30
0.0
 40
3.944175412646011
100
AcDbArc
 50
243.4349488229
 51
296.5650511771
  0
ARC
  5
425
330
421
100
AcDbEntity
  8
0
  6
Continuous
 62
     7
370
    18
100
AcDbCircle
 10
254.5857428202
 20
70.172921191
 30
0.0
 40
3.944175412646017
100
AcDbArc
 50
63.4349488229
 51
116.5650511771
  0
INSERT
  5
426
330
421
100
AcDbEntity
  8
0
  6
Continuous
 62
     7
370
    18
100
AcDbBlockReference
  2
_Open30
 10
252.5591478247
 20
79.0976202309
 30
0.0
 41
3.0
 42
3.0
 50
270.0
  0
INSERT
  5
427
330
421
100
AcDbEntity
  8
0
  6
Continuous
 62
     7
370
    18
100
AcDbBlockReference
  2
_Open30
 10
252.5591478247
 20
78.4476202309
 30
0.0
 41
3.0
 42
3.0
 50
90.0
  0
LINE
  5
428
330
421
100
AcDbEntity
  8
0
  6
Continuous
 62
     7
370
    18
100
AcDbLine
 10
247.4176534733
 20
79.0976202309
 30
0.0
 11
253.5591478247
 21
79.0976202309
 31
0.0
  0
LINE
  5
429
330
421
100
AcDbEntity
  8
0
  6
Continuous
 62
     7
370
    18
100
AcDbLine
 10
247.4176534733
 20
78.4476202309
 30
0.0
 11
253.5591478247
 21
78.4476202309
 31
0.0
  0
LINE
  5
42A
330
421
100
AcDbEntity
  8
0
  6
Continuous
 62
     7
370
    18
100
AcDbLine
 10
252.5591478247
 20
79.0976202309
 30
0.0
 11
252.5591478247
 21
82.5976202309
 31
0.0
  0
LINE
  5
42B
330
421
100
AcDbEntity
  8
0
  6
Continuous
 62
     7
370
    18
100
AcDbLine
 10
252.5591478247
 20
79.0976202309
 30
0.0
 11
252.5591478247
 21
78.4476202309
 31
0.0
  0
LINE
  5
42C
330
421
100
AcDbEntity
  8
0
  6
Continuous
 62
     7
370
    18
100
AcDbLine
 10
252.5591478247
 20
78.4476202309
 30
0.0
 11
252.5591478247
 21
61.8778199901
 31
0.0
  0
MTEXT
  5
42D
330
421
100
AcDbEntity
  8
0
  6
Continuous
 62
     7
370
    18
100
AcDbMText
 10
249.2126744915
 20
64.9939475593
 30
0.0
 40
2.6458333333
 41
0.0
 71
     1
 72
     1
  1
0.65
  7
SLDTEXTSTYLE0
 11
-7.044195017643634E-15
 21
1.0
 31
0.0
 73
     1
 44
1.0
  0
MTEXT
  5
42E
330
421
100
AcDbEntity
  8
0
  6
Continuous
 62
     7
370
    18
100
AcDbMText
 10
253.2708439254
 20
62.2942176601
 30
0.0
 40
2.6458333333
 41
0.0
 71
     1
 72
     1
  1
ﾗｸﾞ厚み
  7
SLDTEXTSTYLE1
 11
-7.044195017643634E-15
 21
1.0
 31
0.0
 73
     1
 44
1.0
  0
ENDBLK
  5
423
330
421
100
AcDbEntity
  8
0
100
AcDbBlockEnd
  0
ENDSEC
  0
SECTION
  2
ENTITIES
  0
LINE
  5
73
330
1F
100
AcDbEntity
  8
0
  6
Continuous
 62
     7
370
    25
100
AcDbLine
 10
12.8700158558
 20
190.0085404097
 30
0.0
 11
12.8700749558
 21
18.0082352097
 31
0.0
  0
LINE
  5
74
330
1F
100
AcDbEntity
  8
0
  6
Continuous
 62
     7
370
    25
100
AcDbLine
 10
12.8700749558
 20
18.0082352097
 30
0.0
 11
282.5707921135
 21
18.0082352097
 31
0.0
  0
LINE
  5
75
330
1F
100
AcDbEntity
  8
0
  6
Continuous
 62
     7
370
    25
100
AcDbLine
 10
12.8700158558
 20
190.0085404097
 30
0.0
 11
282.5707921135
 21
190.0085404097
 31
0.0
  0
LINE
  5
76
330
1F
100
AcDbEntity
  8
0
  6
Continuous
 62
     7
370
    25
100
AcDbLine
 10
282.5707921135
 20
18.0082352097
 30
0.0
 11
282.5707921135
 21
190.0085404097
 31
0.0
  0
MTEXT
  5
78
330
1F
100
AcDbEntity
  8
0
  6
Continuous
 62
     7
370
    18
100
AcDbMText
 10
171.4287607507
 20
35.9701970249
 30
0.0
 40
4.7625
 41
0.0
 71
     1
 72
     1
  1
RKC INSTRUMENT INC.
  7
SLDTEXTSTYLE0
 73
     1
 44
1.0
  0
MTEXT
  5
7A
330
1F
100
AcDbEntity
  8
0
  6
Continuous
 62
     7
370
    18
100
AcDbMText
 10
171.4287607507
 20
44.770952704
 30
0.0
 40
4.7625
 41
0.0
 71
     1
 72
     1
  1
MODEL：W-ST50A-ﾛﾛﾛﾛ-Y3
  7
SLDTEXTSTYLE1
 73
     1
 44
1.0
  0
INSERT
  5
7E
330
1F
100
AcDbEntity
  8
0
  6
Continuous
 62
     7
100
AcDbBlockReference
  2
SW_BROKEN_VIEW_0
 10
0.0
 20
0.0
 30
0.0
  0
LINE
  5
7F
330
1F
100
AcDbEntity
  8
0
  6
Continuous
 62
     7
370
    25
100
AcDbLine
 10
228.4176526746
 20
137.2120569428
 30
0.0
 11
237.9176570257
 21
137.2120569428
 31
0.0
  0
LINE
  5
80
330
1F
100
AcDbEntity
  8
0
  6
Continuous
 62
     7
370
    25
100
AcDbLine
 10
237.9176570257
 20
140.3220568752
 30
0.0
 11
228.4176526746
 21
140.3220568752
 31
0.0
  0
LINE
  5
81
330
1F
100
AcDbEntity
  8
0
  6
Continuous
 62
     7
370
    25
100
AcDbLine
 10
228.4176526746
 20
127.279606924
 30
0.0
 11
237.9176570257
 21
127.279606924
 31
0.0
  0
LINE
  5
82
330
1F
100
AcDbEntity
  8
0
  6
Continuous
 62
     7
370
    25
100
AcDbLine
 10
237.9176570257
 20
130.3896068564
 30
0.0
 11
228.4176526746
 21
130.3896068564
 31
0.0
  0
LINE
  5
83
330
1F
100
AcDbEntity
  8
0
  6
Continuous
 62
     7
370
    25
100
AcDbLine
 10
228.4176526746
 20
129.2096067188
 30
0.0
 11
223.4438760361
 21
129.2096067188
 31
0.0
  0
LINE
  5
84
330
1F
100
AcDbEntity
  8
0
  6
Continuous
 62
     7
370
    25
100
AcDbLine
 10
223.3914313992
 20
128.4596070616
 30
0.0
 11
228.4176526746
 21
128.4596070616
 31
0.0
  0
LINE
  5
85
330
1F
100
AcDbEntity
  8
0
  6
Continuous
 62
     7
370
    25
100
AcDbLine
 10
223.4438760361
 20
129.2096067188
 30
0.0
 11
213.2590366682
 21
130.6409922397
 31
0.0
  0
LINE
  5
86
330
1F
100
AcDbEntity
  8
0
  6
Continuous
 62
     7
370
    25
100
AcDbLine
 10
213.2556317529
 20
129.8841003297
 30
0.0
 11
223.3914313992
 21
128.4596070616
 31
0.0
  0
LINE
  5
87
330
1F
100
AcDbEntity
  8
0
  6
Continuous
 62
     7
370
    25
100
AcDbLine
 10
223.3914313992
 20
139.1420567377
 30
0.0
 11
211.8691234073
 21
137.5227016831
 31
0.0
  0
LINE
  5
88
330
1F
100
AcDbEntity
  8
0
  6
Continuous
 62
     7
370
    25
100
AcDbLine
 10
211.8818713507
 20
136.7671234036
 30
0.0
 11
223.4438760361
 21
138.3920570804
 31
0.0
  0
LINE
  5
89
330
1F
100
AcDbEntity
  8
0
  6
Continuous
 62
     7
370
    25
100
AcDbLine
 10
228.4176526746
 20
139.1420567377
 30
0.0
 11
223.3914313992
 21
139.1420567377
 31
0.0
  0
LINE
  5
8A
330
1F
100
AcDbEntity
  8
0
  6
Continuous
 62
     7
370
    25
100
AcDbLine
 10
223.4438760361
 20
138.3920570804
 30
0.0
 11
228.4176526746
 21
138.3920570804
 31
0.0
  0
LINE
  5
8B
330
1F
100
AcDbEntity
  8
0
  6
Continuous
 62
     7
370
    25
100
AcDbLine
 10
228.4176526746
 20
137.2120569428
 30
0.0
 11
228.4176526746
 21
140.3220568752
 31
0.0
  0
LINE
  5
8C
330
1F
100
AcDbEntity
  8
0
  6
Continuous
 62
     7
370
    25
100
AcDbLine
 10
237.9176570257
 20
137.2120569428
 30
0.0
 11
237.9176570257
 21
140.3220568752
 31
0.0
  0
LINE
  5
8D
330
1F
100
AcDbEntity
  8
0
  6
Continuous
 62
     7
370
    25
100
AcDbLine
 10
228.4176526746
 20
127.279606924
 30
0.0
 11
228.4176526746
 21
130.3896068564
 31
0.0
  0
LINE
  5
8E
330
1F
100
AcDbEntity
  8
0
  6
Continuous
 62
     7
370
    25
100
AcDbLine
 10
237.9176570257
 20
127.279606924
 30
0.0
 11
237.9176570257
 21
130.3896068564
 31
0.0
  0
LINE
  5
8F
330
1F
100
AcDbEntity
  8
0
  6
Continuous
 62
     7
370
    25
100
AcDbLine
 10
246.4176518997
 20
127.2346068142
 30
0.0
 11
243.8176525911
 21
127.2346068142
 31
0.0
  0
LINE
  5
90
330
1F
100
AcDbEntity
  8
0
  6
Continuous
 62
     7
370
    25
100
AcDbLine
 10
246.4176518997
 20
126.2346066503
 30
0.0
 11
246.4176518997
 21
127.2346068142
 31
0.0
  0
LINE
  5
91
330
1F
100
AcDbEntity
  8
0
  6
Continuous
 62
     7
370
    25
100
AcDbLine
 10
240.1176570138
 20
126.2346066503
 30
0.0
 11
246.4176518997
 21
126.2346066503
 31
0.0
  0
ARC
  5
92
330
1F
100
AcDbEntity
  8
0
  6
Continuous
 62
     7
370
    25
100
AcDbCircle
 10
240.117655146
 20
127.4162759619
 30
0.0
 40
1.181669311569079
100
AcDbArc
 50
201.4263270812
 51
270.0000905617
  0
ARC
  5
93
330
1F
100
AcDbEntity
  8
0
  6
Continuous
 62
     7
370
    25
100
AcDbCircle
 10
237.9176526901
 20
126.5529394139
 30
0.0
 40
1.181667482272071
100
AcDbArc
 50
21.4262666054
 51
89.9997897792
  0
ARC
  5
94
330
1F
100
AcDbEntity
  8
0
  6
Continuous
 62
     7
370
    25
100
AcDbCircle
 10
237.9176526146
 20
131.1162746112
 30
0.0
 40
1.181667727000563
100
AcDbArc
 50
270.0002138811
 51
338.5737131766
  0
ARC
  5
95
330
1F
100
AcDbEntity
  8
0
  6
Continuous
 62
     7
370
    25
100
AcDbCircle
 10
240.1176545224
 20
130.2529385004
 30
0.0
 40
1.181668396914131
100
AcDbArc
 50
89.9998792003
 51
158.5737031568
  0
LINE
  5
96
330
1F
100
AcDbEntity
  8
0
  6
Continuous
 62
     7
370
    25
100
AcDbLine
 10
246.4176518997
 20
131.4346068973
 30
0.0
 11
240.1176570138
 21
131.4346068973
 31
0.0
  0
LINE
  5
97
330
1F
100
AcDbEntity
  8
0
  6
Continuous
 62
     7
370
    25
100
AcDbLine
 10
246.4176518997
 20
130.4346069662
 30
0.0
 11
246.4176518997
 21
131.4346068973
 31
0.0
  0
LINE
  5
98
330
1F
100
AcDbEntity
  8
0
  6
Continuous
 62
     7
370
    25
100
AcDbLine
 10
243.8176525911
 20
130.4346069662
 30
0.0
 11
246.4176518997
 21
130.4346069662
 31
0.0
  0
ARC
  5
99
330
1F
100
AcDbEntity
  8
0
  6
Continuous
 62
     7
370
    25
100
AcDbCircle
 10
243.8176515518
 20
128.8346068902
 30
0.0
 40
1.60000007599626
100
AcDbArc
 50
89.9999627805
 51
270.0000372195
  0
LINE
  5
9A
330
1F
100
AcDbEntity
  8
0
  6
Continuous
 62
     7
370
    25
100
AcDbLine
 10
246.4176518997
 20
137.167056833
 30
0.0
 11
243.8176525911
 21
137.167056833
 31
0.0
  0
LINE
  5
9B
330
1F
100
AcDbEntity
  8
0
  6
Continuous
 62
     7
370
    25
100
AcDbLine
 10
246.4176518997
 20
136.1670569019
 30
0.0
 11
246.4176518997
 21
137.167056833
 31
0.0
  0
LINE
  5
9C
330
1F
100
AcDbEntity
  8
0
  6
Continuous
 62
     7
370
    25
100
AcDbLine
 10
240.1176570138
 20
136.1670569019
 30
0.0
 11
246.4176518997
 21
136.1670569019
 31
0.0
  0
ARC
  5
9D
330
1F
100
AcDbEntity
  8
0
  6
Continuous
 62
     7
370
    25
100
AcDbCircle
 10
240.1176545224
 20
137.3487252988
 30
0.0
 40
1.181668396914103
100
AcDbArc
 50
201.4262968432
 51
270.0001207997
  0
ARC
  5
9E
330
1F
100
AcDbEntity
  8
0
  6
Continuous
 62
     7
370
    25
100
AcDbCircle
 10
237.9176526146
 20
136.485389188
 30
0.0
 40
1.181667727000578
100
AcDbArc
 50
21.4262868234
 51
89.9997861189
  0
ARC
  5
9F
330
1F
100
AcDbEntity
  8
0
  6
Continuous
 62
     7
370
    25
100
AcDbCircle
 10
237.9176526901
 20
141.0487243853
 30
0.0
 40
1.18166748227208
100
AcDbArc
 50
270.0002102208
 51
338.5737333946
  0
ARC
  5
A0
330
1F
100
AcDbEntity
  8
0
  6
Continuous
 62
     7
370
    25
100
AcDbCircle
 10
240.117655146
 20
140.1853878374
 30
0.0
 40
1.181669311569008
100
AcDbArc
 50
89.9999094383
 51
158.5736729188
  0
LINE
  5
A1
330
1F
100
AcDbEntity
  8
0
  6
Continuous
 62
     7
370
    25
100
AcDbLine
 10
246.4176518997
 20
141.3670571489
 30
0.0
 11
240.1176570138
 21
141.3670571489
 31
0.0
  0
LINE
  5
A2
330
1F
100
AcDbEntity
  8
0
  6
Continuous
 62
     7
370
    25
100
AcDbLine
 10
246.4176518997
 20
140.367056985
 30
0.0
 11
246.4176518997
 21
141.3670571489
 31
0.0
  0
LINE
  5
A3
330
1F
100
AcDbEntity
  8
0
  6
Continuous
 62
     7
370
    25
100
AcDbLine
 10
243.8176525911
 20
140.367056985
 30
0.0
 11
246.4176518997
 21
140.367056985
 31
0.0
  0
ARC
  5
A4
330
1F
100
AcDbEntity
  8
0
  6
Continuous
 62
     7
370
    25
100
AcDbCircle
 10
243.8176515518
 20
138.767056909
 30
0.0
 40
1.60000007599626
100
AcDbArc
 50
89.9999627805
 51
270.0000372195
  0
LINE
  5
A5
330
1F
100
AcDbEntity
  8
0
  6
Continuous
 62
     7
370
    25
100
AcDbLine
 10
173.1780132551
 20
132.0508318456
 30
0.0
 11
188.1780101259
 21
132.0508318456
 31
0.0
  0
LINE
  5
A6
330
1F
100
AcDbEntity
  8
0
  6
Continuous
 62
     7
370
    25
100
AcDbLine
 10
188.1780101259
 20
135.5508319536
 30
0.0
 11
173.1780132551
 21
135.5508319536
 31
0.0
  0
LINE
  5
A7
330
1F
100
AcDbEntity
  8
0
  6
Continuous
 62
     7
370
    25
100
AcDbLine
 10
188.1780101259
 20
132.0508318456
 30
0.0
 11
189.1780121524
 21
132.20083194
 31
0.0
  0
LINE
  5
A8
330
1F
100
AcDbEntity
  8
0
  6
Continuous
 62
     7
370
    25
100
AcDbLine
 10
189.1780121524
 20
135.4008318592
 30
0.0
 11
188.1780101259
 21
135.5508319536
 31
0.0
  0
LINE
  5
A9
330
1F
100
AcDbEntity
  8
0
  6
Continuous
 62
     7
370
    25
100
AcDbLine
 10
189.1780121524
 20
132.20083194
 30
0.0
 11
193.1780128081
 21
132.20083194
 31
0.0
  0
LINE
  5
AA
330
1F
100
AcDbEntity
  8
0
  6
Continuous
 62
     7
370
    25
100
AcDbLine
 10
193.1780128081
 20
135.4008318592
 30
0.0
 11
189.1780121524
 21
135.4008318592
 31
0.0
  0
LINE
  5
AB
330
1F
100
AcDbEntity
  8
0
  6
Continuous
 62
     7
370
    25
100
AcDbLine
 10
173.1780132551
 20
135.4508318907
 30
0.0
 11
143.2052420725
 21
135.4508318907
 31
0.0
  0
LINE
  5
AC
330
1F
100
AcDbEntity
  8
0
  6
Continuous
 62
     7
370
    25
100
AcDbLine
 10
144.0772058715
 20
132.1508319085
 30
0.0
 11
173.1780132551
 21
132.1508319085
 31
0.0
  0
LINE
  5
AD
330
1F
100
AcDbEntity
  8
0
  6
Continuous
 62
     7
370
    25
100
AcDbLine
 10
210.2460040052
 20
130.7496861989
 30
0.0
 11
193.1780128081
 21
133.1484355466
 31
0.0
  0
LINE
  5
AE
330
1F
100
AcDbEntity
  8
0
  6
Continuous
 62
     7
370
    25
100
AcDbLine
 10
193.1780128081
 20
132.3910649369
 30
0.0
 11
210.2471886475
 21
129.9921486495
 31
0.0
  0
LINE
  5
AF
330
1F
100
AcDbEntity
  8
0
  6
Continuous
 62
     7
370
    25
100
AcDbLine
 10
208.8786958058
 20
137.4171858622
 30
0.0
 11
193.1780128081
 21
135.2105988624
 31
0.0
  0
LINE
  5
B0
330
1F
100
AcDbEntity
  8
0
  6
Continuous
 62
     7
370
    25
100
AcDbLine
 10
193.1780128081
 20
134.4532282526
 30
0.0
 11
208.8960035045
 21
136.6622480998
 31
0.0
  0
LINE
  5
B1
330
1F
100
AcDbEntity
  8
0
  6
Continuous
 62
     7
370
    25
100
AcDbLine
 10
173.1780132551
 20
134.8675436309
 30
0.0
 11
173.1780132551
 21
135.5508319536
 31
0.0
  0
LINE
  5
B2
330
1F
100
AcDbEntity
  8
0
  6
Continuous
 62
     7
370
    25
100
AcDbLine
 10
173.1780132551
 20
132.0508318456
 30
0.0
 11
173.1780132551
 21
134.8675436309
 31
0.0
  0
LINE
  5
B3
330
1F
100
AcDbEntity
  8
0
  6
Continuous
 62
     7
370
    25
100
AcDbLine
 10
193.1780128081
 20
134.7761111535
 30
0.0
 11
193.1780128081
 21
135.4008318592
 31
0.0
  0
LINE
  5
B4
330
1F
100
AcDbEntity
  8
0
  6
Continuous
 62
     7
370
    25
100
AcDbLine
 10
193.1780128081
 20
132.20083194
 30
0.0
 11
193.1780128081
 21
134.7761111535
 31
0.0
  0
LINE
  5
B5
330
1F
100
AcDbEntity
  8
0
  6
Continuous
 62
     7
370
    25
100
AcDbLine
 10
140.20524393
 20
135.4508318907
 30
0.0
 11
89.4539415387
 21
135.4508318907
 31
0.0
  0
LINE
  5
B6
330
1F
100
AcDbEntity
  8
0
  6
Continuous
 62
     7
370
    25
100
AcDbLine
 10
87.4539449362
 20
135.4508318907
 30
0.0
 11
87.4039440898
 21
135.4508318907
 31
0.0
  0
LINE
  5
B7
330
1F
100
AcDbEntity
  8
0
  6
Continuous
 62
     7
370
    25
100
AcDbLine
 10
87.4039440898
 20
132.1508319085
 30
0.0
 11
87.4539449362
 21
132.1508319085
 31
0.0
  0
LINE
  5
B8
330
1F
100
AcDbEntity
  8
0
  6
Continuous
 62
     7
370
    25
100
AcDbLine
 10
89.4539415387
 20
132.1508319085
 30
0.0
 11
141.077207729
 21
132.1508319085
 31
0.0
  0
SPLINE
  5
B9
330
1F
100
AcDbEntity
  8
0
  6
Continuous
 62
     7
370
    25
100
AcDbSpline
210
0.0
220
0.0
230
1.0
 70
     8
 71
     3
 72
     9
 73
     5
 74
     0
 42
0.00000001
 43
0.00000001
 40
0.0
 40
0.0
 40
0.0
 40
0.0
 40
0.3965833969578829
 40
0.9999999999999999
 40
0.9999999999999999
 40
0.9999999999999999
 40
0.9999999999999999
 10
66.65689344681196
 20
139.5100311344468
 30
0.0
 10
66.63202197814921
 20
139.5139533642349
 30
0.0
 10
66.56930763142287
 20
139.5238434146459
 30
0.0
 10
66.50789961524676
 20
139.5061666358126
 30
0.0
 10
66.4708449987262
 20
139.4955001739763
 30
0.0
  0
SPLINE
  5
BA
330
1F
100
AcDbEntity
  8
0
  6
Continuous
 62
     7
370
    25
100
AcDbSpline
210
0.0
220
0.0
230
1.0
 70
     8
 71
     3
 72
     9
 73
     5
 74
     0
 42
0.00000001
 43
0.00000001
 40
0.0
 40
0.0
 40
0.0
 40
0.0
 40
0.5589878995220047
 40
0.9999999999999999
 40
0.9999999999999999
 40
0.9999999999999999
 40
0.9999999999999999
 10
82.30335856951172
 20
133.9895843263694
 30
0.0
 10
82.22268574011079
 20
133.9989436231764
 30
0.0
 10
82.07836628441257
 20
134.015686913711
 30
0.0
 10
81.96924516654502
 20
134.1101063576836
 30
0.0
 10
81.92112143314773
 20
134.1517464749959
 30
0.0
  0
SPLINE
  5
BB
330
1F
100
AcDbEntity
  8
0
  6
Continuous
 62
     7
370
    25
100
AcDbSpline
210
0.0
220
0.0
230
1.0
 70
     8
 71
     3
 72
    10
 73
     6
 74
     0
 42
0.00000001
 43
0.00000001
 40
0.0
 40
0.0
 40
0.0
 40
0.0
 40
0.2796480228565801
 40
0.5597363350968213
 40
1.0
 40
1.0
 40
1.0
 40
1.0
 10
81.92112143314773
 20
134.1517464749959
 30
0.0
 10
81.88943236811487
 20
134.1908449760096
 30
0.0
 10
81.82600434547788
 20
134.2691035363301
 30
0.0
 10
81.76893119240361
 20
134.4421364505617
 30
0.0
 10
81.76274215391943
 20
134.5710355759506
 30
0.0
 10
81.75895954645569
 20
134.6498159543589
 30
0.0
  0
SPLINE
  5
BC
330
1F
100
AcDbEntity
  8
0
  6
Continuous
 62
     7
370
    25
100
AcDbSpline
210
0.0
220
0.0
230
1.0
 70
     8
 71
     3
 72
     9
 73
     5
 74
     0
 42
0.00000001
 43
0.00000001
 40
0.0
 40
0.0
 40
0.0
 40
0.0
 40
0.560797841726001
 40
0.9999999999999999
 40
0.9999999999999999
 40
0.9999999999999999
 40
0.9999999999999999
 10
81.75895954645569
 20
134.6498159543589
 30
0.0
 10
81.76397077119626
 20
134.7624976823238
 30
0.0
 10
81.77290665569453
 20
134.9634287836599
 30
0.0
 10
81.89198557142831
 20
135.123787559776
 30
0.0
 10
81.94428528822355
 20
135.1942174803444
 30
0.0
  0
SPLINE
  5
BD
330
1F
100
AcDbEntity
  8
0
  6
Continuous
 62
     7
370
    25
100
AcDbSpline
210
0.0
220
0.0
230
1.0
 70
     8
 71
     3
 72
     9
 73
     5
 74
     0
 42
0.00000001
 43
0.00000001
 40
0.0
 40
0.0
 40
0.0
 40
0.0
 40
0.559343222877615
 40
1.0
 40
1.0
 40
1.0
 40
1.0
 10
81.94428528822357
 20
135.1942174803444
 30
0.0
 10
82.00701406923298
 20
135.2460521825084
 30
0.0
 10
82.11916127767986
 20
135.3387228363109
 30
0.0
 10
82.26310159766537
 20
135.35097896855
 30
0.0
 10
82.32652987516813
 20
135.3563797162824
 30
0.0
  0
LINE
  5
BE
330
1F
100
AcDbEntity
  8
0
  6
Continuous
 62
     7
370
    25
100
AcDbLine
 10
82.3265298752
 20
135.3563797163
 30
0.0
 11
82.3265298752
 21
135.08997047
 31
0.0
  0
SPLINE
  5
BF
330
1F
100
AcDbEntity
  8
0
  6
Continuous
 62
     7
370
    25
100
AcDbSpline
210
0.0
220
0.0
230
1.0
 70
     8
 71
     3
 72
     9
 73
     5
 74
     0
 42
0.00000001
 43
0.00000001
 40
0.0
 40
0.0
 40
0.0
 40
0.0
 40
0.5594830020843979
 40
1.0
 40
1.0
 40
1.0
 40
1.0
 10
82.32652987516815
 20
135.0899704700314
 30
0.0
 10
82.2778283419149
 20
135.0855050032993
 30
0.0
 10
82.19078095518142
 20
135.0775235870355
 30
0.0
 10
82.12419931633077
 20
135.0218371435068
 30
0.0
 10
82.094868972668
 20
134.9973063185789
 30
0.0
  0
SPLINE
  5
C0
330
1F
100
AcDbEntity
  8
0
  6
Continuous
 62
     7
370
    25
100
AcDbSpline
210
0.0
220
0.0
230
1.0
 70
     8
 71
     3
 72
     9
 73
     5
 74
     0
 42
0.00000001
 43
0.00000001
 40
0.0
 40
0.0
 40
0.0
 40
0.0
 40
0.5573409001875779
 40
1.0
 40
1.0
 40
1.0
 40
1.0
 10
82.094868972668
 20
134.9973063185789
 30
0.0
 10
82.05883332847094
 20
134.9420120086521
 30
0.0
 10
81.99417694996912
 20
134.8428010770513
 30
0.0
 10
81.99171170990391
 20
134.7250885448616
 30
0.0
 10
81.99062044895584
 20
134.6729820213259
 30
0.0
  0
SPLINE
  5
C1
330
1F
100
AcDbEntity
  8
0
  6
Continuous
 62
     7
370
    25
100
AcDbSpline
210
0.0
220
0.0
230
1.0
 70
     8
 71
     3
 72
     9
 73
     5
 74
     0
 42
0.00000001
 43
0.00000001
 40
0.0
 40
0.0
 40
0.0
 40
0.0
 40
0.5622188107609967
 40
1.0
 40
1.0
 40
1.0
 40
1.0
 10
81.99062044895584
 20
134.6729820213259
 30
0.0
 10
81.99107631327416
 20
134.6049373951062
 30
0.0
 10
81.99188714405679
 20
134.4839086694265
 30
0.0
 10
82.05545465799216
 20
134.3817832695839
 30
0.0
 10
82.08328331983978
 20
134.3370746905894
 30
0.0
  0
SPLINE
  5
C2
330
1F
100
AcDbEntity
  8
0
  6
Continuous
 62
     7
370
    25
100
AcDbSpline
210
0.0
220
0.0
230
1.0
 70
     8
 71
     3
 72
     9
 73
     5
 74
     0
 42
0.00000001
 43
0.00000001
 40
0.0
 40
0.0
 40
0.0
 40
0.0
 40
0.5595981004894117
 40
1.0
 40
1.0
 40
1.0
 40
1.0
 10
82.08328331983978
 20
134.3370746905894
 30
0.0
 10
82.11355389356031
 20
134.3114166358623
 30
0.0
 10
82.16764731112922
 20
134.2655657748522
 30
0.0
 10
82.23774007517842
 20
134.2589202871371
 30
0.0
 10
82.26860906160765
 20
134.2559936017242
 30
0.0
  0
SPLINE
  5
C3
330
1F
100
AcDbEntity
  8
0
  6
Continuous
 62
     7
370
    25
100
AcDbSpline
210
0.0
220
0.0
230
1.0
 70
     8
 71
     3
 72
     9
 73
     5
 74
     0
 42
0.00000001
 43
0.00000001
 40
0.0
 40
0.0
 40
0.0
 40
0.0
 40
0.5612712081863317
 40
0.9999999999999999
 40
0.9999999999999999
 40
0.9999999999999999
 40
0.9999999999999999
 10
82.26860906160766
 20
134.2559936017242
 30
0.0
 10
82.29943338168793
 20
134.2567311606379
 30
0.0
 10
82.35435214400941
 20
134.2580452471312
 30
0.0
 10
82.39942012514082
 20
134.2888226955755
 30
0.0
 10
82.41919274605209
 20
134.3023256483466
 30
0.0
  0
SPLINE
  5
C4
330
1F
100
AcDbEntity
  8
0
  6
Continuous
 62
     7
370
    25
100
AcDbSpline
210
0.0
220
0.0
230
1.0
 70
     8
 71
     3
 72
     9
 73
     5
 74
     0
 42
0.00000001
 43
0.00000001
 40
0.0
 40
0.0
 40
0.0
 40
0.0
 40
0.5592477375199726
 40
1.0
 40
1.0
 40
1.0
 40
1.0
 10
82.41919274605209
 20
134.3023256483466
 30
0.0
 10
82.44571627620589
 20
134.3385191795238
 30
0.0
 10
82.49314343303524
 20
134.4032374228871
 30
0.0
 10
82.52220883176281
 20
134.4779084287985
 30
0.0
 10
82.53501947201187
 20
134.5108198435955
 30
0.0
  0
SPLINE
  5
C5
330
1F
100
AcDbEntity
  8
0
  6
Continuous
 62
     7
370
    25
100
AcDbSpline
210
0.0
220
0.0
230
1.0
 70
     8
 71
     3
 72
     9
 73
     5
 74
     0
 42
0.00000001
 43
0.00000001
 40
0.0
 40
0.0
 40
0.0
 40
0.0
 40
0.5600001693160928
 40
1.0
 40
1.0
 40
1.0
 40
1.0
 10
82.53501947201187
 20
134.5108198435955
 30
0.0
 10
82.58425799238456
 20
134.6234698871113
 30
0.0
 10
82.67218389503712
 20
134.8246306182828
 30
0.0
 10
82.76193806349251
 20
135.0249818934376
 30
0.0
 10
82.80142988241607
 20
135.113136420583
 30
0.0
  0
SPLINE
  5
C6
330
1F
100
AcDbEntity
  8
0
  6
Continuous
 62
     7
370
    25
100
AcDbSpline
210
0.0
220
0.0
230
1.0
 70
     8
 71
     3
 72
     9
 73
     5
 74
     0
 42
0.00000001
 43
0.00000001
 40
0.0
 40
0.0
 40
0.0
 40
0.0
 40
0.5596903110225796
 40
1.0
 40
1.0
 40
1.0
 40
1.0
 10
82.80142988241606
 20
135.113136420583
 30
0.0
 10
82.81810702288817
 20
135.148931344864
 30
0.0
 10
82.84790410914044
 20
135.21288622058
 30
0.0
 10
82.89606038438234
 20
135.264260874089
 30
0.0
 10
82.91726405895645
 20
135.2868816317969
 30
0.0
  0
SPLINE
  5
C7
330
1F
100
AcDbEntity
  8
0
  6
Continuous
 62
     7
370
    25
100
AcDbSpline
210
0.0
220
0.0
230
1.0
 70
     8
 71
     3
 72
     9
 73
     5
 74
     0
 42
0.00000001
 43
0.00000001
 40
0.0
 40
0.0
 40
0.0
 40
0.0
 40
0.5592519707232054
 40
1.0
 40
1.0
 40
1.0
 40
1.0
 10
82.91726405895645
 20
135.2868816317969
 30
0.0
 10
82.96671067918454
 20
135.3276069325152
 30
0.0
 10
83.05512631796024
 20
135.4004279556859
 30
0.0
 10
83.16846342160758
 20
135.4100526458532
 30
0.0
 10
83.21841652668411
 20
135.4142947090768
 30
0.0
  0
SPLINE
  5
C8
330
1F
100
AcDbEntity
  8
0
  6
Continuous
 62
     7
370
    25
100
AcDbSpline
210
0.0
220
0.0
230
1.0
 70
     8
 71
     3
 72
     9
 73
     5
 74
     0
 42
0.00000001
 43
0.00000001
 40
0.0
 40
0.0
 40
0.0
 40
0.0
 40
0.5592201265149839
 40
1.0
 40
1.0
 40
1.0
 40
1.0
 10
83.21841652668411
 20
135.4142947090768
 30
0.0
 10
83.30138960086717
 20
135.4057598637353
 30
0.0
 10
83.44976243340479
 20
135.3904978140757
 30
0.0
 10
83.56253252789432
 20
135.2944628630967
 30
0.0
 10
83.61223931587631
 20
135.2521325895541
 30
0.0
  0
SPLINE
  5
C9
330
1F
100
AcDbEntity
  8
0
  6
Continuous
 62
     7
370
    25
100
AcDbSpline
210
0.0
220
0.0
230
1.0
 70
     8
 71
     3
 72
    10
 73
     6
 74
     0
 42
0.00000001
 43
0.00000001
 40
0.0
 40
0.0
 40
0.0
 40
0.0
 40
0.2795036957259752
 40
0.5596308240701603
 40
1.0
 40
1.0
 40
1.0
 40
1.0
 10
83.61223931587631
 20
135.2521325895541
 30
0.0
 10
83.64749725369738
 20
135.207305915866
 30
0.0
 10
83.71809177212253
 20
135.1175525826543
 30
0.0
 10
83.7756679484955
 20
134.9194217409027
 30
0.0
 10
83.78207242378843
 20
134.7736568618635
 30
0.0
 10
83.78598685539657
 20
134.6845649966017
 30
0.0
  0
SPLINE
  5
CA
330
1F
100
AcDbEntity
  8
0
  6
Continuous
 62
     7
370
    25
100
AcDbSpline
210
0.0
220
0.0
230
1.0
 70
     8
 71
     3
 72
     9
 73
     5
 74
     0
 42
0.00000001
 43
0.00000001
 40
0.0
 40
0.0
 40
0.0
 40
0.0
 40
0.5605363191822099
 40
1.0
 40
1.0
 40
1.0
 40
1.0
 10
83.78598685539656
 20
134.6845649966017
 30
0.0
 10
83.77932139624698
 20
134.5618820438938
 30
0.0
 10
83.76743017899402
 20
134.3430149544482
 30
0.0
 10
83.63547799878073
 20
134.1699063628422
 30
0.0
 10
83.57748980797226
 20
134.0938314239938
 30
0.0
  0
SPLINE
  5
CB
330
1F
100
AcDbEntity
  8
0
  6
Continuous
 62
     7
370
    25
100
AcDbSpline
210
0.0
220
0.0
230
1.0
 70
     8
 71
     3
 72
     9
 73
     5
 74
     0
 42
0.00000001
 43
0.00000001
 40
0.0
 40
0.0
 40
0.0
 40
0.0
 40
0.5577334248292782
 40
0.9999999999999999
 40
0.9999999999999999
 40
0.9999999999999999
 40
0.9999999999999999
 10
83.57748980797224
 20
134.0938314239938
 30
0.0
 10
83.50306201551963
 20
134.0424874757883
 30
0.0
 10
83.36961512290172
 20
133.9504292524153
 30
0.0
 10
83.20856596716861
 20
133.9454530761717
 30
0.0
 10
83.13733930862838
 20
133.943252279747
 30
0.0
  0
LINE
  5
CC
330
1F
100
AcDbEntity
  8
0
  6
Continuous
 62
     7
370
    25
100
AcDbLine
 10
83.1373393086
 20
133.9432522797
 30
0.0
 11
83.1373393086
 21
134.2096615551
 31
0.0
  0
SPLINE
  5
CD
330
1F
100
AcDbEntity
  8
0
  6
Continuous
 62
     7
370
    25
100
AcDbSpline
210
0.0
220
0.0
230
1.0
 70
     8
 71
     3
 72
     9
 73
     5
 74
     0
 42
0.00000001
 43
0.00000001
 40
0.0
 40
0.0
 40
0.0
 40
0.0
 40
0.5615190141590181
 40
1.0
 40
1.0
 40
1.0
 40
1.0
 10
83.13733930862837
 20
134.2096615551018
 30
0.0
 10
83.19901573336534
 20
134.2111372851899
 30
0.0
 10
83.30885426631218
 20
134.213765388693
 30
0.0
 10
83.39898056057714
 20
134.275330512268
 30
0.0
 10
83.43849922693664
 20
134.3023256483466
 30
0.0
  0
SPLINE
  5
CE
330
1F
100
AcDbEntity
  8
0
  6
Continuous
 62
     7
370
    25
100
AcDbSpline
210
0.0
220
0.0
230
1.0
 70
     8
 71
     3
 72
    10
 73
     6
 74
     0
 42
0.00000001
 43
0.00000001
 40
0.0
 40
0.0
 40
0.0
 40
0.0
 40
0.2796204051689316
 40
0.5597010511459453
 40
1.0
 40
1.0
 40
1.0
 40
1.0
 10
83.43849922693664
 20
134.3023256483466
 30
0.0
 10
83.4635406274217
 20
134.3332313557731
 30
0.0
 10
83.51366464524929
 20
134.3950936398312
 30
0.0
 10
83.55783195724644
 20
134.5321303421585
 30
0.0
 10
83.5628466220981
 20
134.6339285499539
 30
0.0
 10
83.56591160572464
 20
134.6961480300852
 30
0.0
  0
SPLINE
  5
CF
330
1F
100
AcDbEntity
  8
0
  6
Continuous
 62
     7
370
    25
100
AcDbSpline
210
0.0
220
0.0
230
1.0
 70
     8
 71
     3
 72
     9
 73
     5
 74
     0
 42
0.00000001
 43
0.00000001
 40
0.0
 40
0.0
 40
0.0
 40
0.0
 40
0.5612119208379603
 40
1.0
 40
1.0
 40
1.0
 40
1.0
 10
83.56591160572464
 20
134.6961480300852
 30
0.0
 10
83.56342509487958
 20
134.7700314686728
 30
0.0
 10
83.55899448542046
 20
134.9016812712595
 30
0.0
 10
83.48329393033966
 20
135.0083961924858
 30
0.0
 10
83.45007742918426
 20
135.0552214277886
 30
0.0
  0
SPLINE
  5
D0
330
1F
100
AcDbEntity
  8
0
  6
Continuous
 62
     7
370
    25
100
AcDbSpline
210
0.0
220
0.0
230
1.0
 70
     8
 71
     3
 72
     9
 73
     5
 74
     0
 42
0.00000001
 43
0.00000001
 40
0.0
 40
0.0
 40
0.0
 40
0.0
 40
0.560839404249921
 40
0.9999999999999999
 40
0.9999999999999999
 40
0.9999999999999999
 40
0.9999999999999999
 10
83.45007742918426
 20
135.0552214277886
 30
0.0
 10
83.4202427043814
 20
135.0827926046915
 30
0.0
 10
83.36704614833204
 20
135.131953160626
 30
0.0
 10
83.29596689476037
 20
135.1430237126178
 30
0.0
 10
83.26475168741638
 20
135.1478854628258
 30
0.0
  0
SPLINE
  5
D1
330
1F
100
AcDbEntity
  8
0
  6
Continuous
 62
     7
370
    25
100
AcDbSpline
210
0.0
220
0.0
230
1.0
 70
     8
 71
     3
 72
     9
 73
     5
 74
     0
 42
0.00000001
 43
0.00000001
 40
0.0
 40
0.0
 40
0.0
 40
0.0
 40
0.5595274157395437
 40
0.9999999999999999
 40
0.9999999999999999
 40
0.9999999999999999
 40
0.9999999999999999
 10
83.26475168741638
 20
135.1478854628258
 30
0.0
 10
83.22817634166034
 20
135.1446358299374
 30
0.0
 10
83.16280805991545
 20
135.1388280128456
 30
0.0
 10
83.11296059124167
 20
135.0968691202115
 30
0.0
 10
83.09100414789611
 20
135.0783873783403
 30
0.0
  0
SPLINE
  5
D2
330
1F
100
AcDbEntity
  8
0
  6
Continuous
 62
     7
370
    25
100
AcDbSpline
210
0.0
220
0.0
230
1.0
 70
     8
 71
     3
 72
     9
 73
     5
 74
     0
 42
0.00000001
 43
0.00000001
 40
0.0
 40
0.0
 40
0.0
 40
0.0
 40
0.5595228607033527
 40
1.0
 40
1.0
 40
1.0
 40
1.0
 10
83.09100414789611
 20
135.0783873783403
 30
0.0
 10
83.06532177085386
 20
135.0463173838692
 30
0.0
 10
83.01942127447381
 20
134.9890007008104
 30
0.0
 10
82.9887065541006
 20
134.9223967219325
 30
0.0
 10
82.97517742193634
 20
134.8930591918506
 30
0.0
  0
SPLINE
  5
D3
330
1F
100
AcDbEntity
  8
0
  6
Continuous
 62
     7
370
    25
100
AcDbSpline
210
0.0
220
0.0
230
1.0
 70
     8
 71
     3
 72
     9
 73
     5
 74
     0
 42
0.00000001
 43
0.00000001
 40
0.0
 40
0.0
 40
0.0
 40
0.0
 40
0.5599871663369949
 40
1.0
 40
1.0
 40
1.0
 40
1.0
 10
82.97517742193632
 20
134.8930591918506
 30
0.0
 10
82.94816747318752
 20
134.8373334293743
 30
0.0
 10
82.8999343164788
 20
134.7378208586831
 30
0.0
 10
82.85566045678236
 20
134.6364884594745
 30
0.0
 10
82.83617939032013
 20
134.5919009033569
 30
0.0
  0
SPLINE
  5
D4
330
1F
100
AcDbEntity
  8
0
  6
Continuous
 62
     7
370
    25
100
AcDbSpline
210
0.0
220
0.0
230
1.0
 70
     8
 71
     3
 72
     9
 73
     5
 74
     0
 42
0.00000001
 43
0.00000001
 40
0.0
 40
0.0
 40
0.0
 40
0.0
 40
0.5600052000642545
 40
1.0
 40
1.0
 40
1.0
 40
1.0
 10
82.83617939032013
 20
134.5919009033569
 30
0.0
 10
82.80822479865014
 20
134.5291288979935
 30
0.0
 10
82.75830634848793
 20
134.4170370721387
 30
0.0
 10
82.70781783836631
 20
134.3052009249376
 30
0.0
 10
82.6856031564563
 20
134.2559936017242
 30
0.0
  0
SPLINE
  5
D5
330
1F
100
AcDbEntity
  8
0
  6
Continuous
 62
     7
370
    25
100
AcDbSpline
210
0.0
220
0.0
230
1.0
 70
     8
 71
     3
 72
     9
 73
     5
 74
     0
 42
0.00000001
 43
0.00000001
 40
0.0
 40
0.0
 40
0.0
 40
0.0
 40
0.5599081109426651
 40
1.0
 40
1.0
 40
1.0
 40
1.0
 10
82.6856031564563
 20
134.2559936017242
 30
0.0
 10
82.67084076230948
 20
134.2226235206447
 30
0.0
 10
82.64447501789836
 20
134.1630243106542
 30
0.0
 10
82.6006442140213
 20
134.1149767609207
 30
0.0
 10
82.58135463274414
 20
134.0938314239938
 30
0.0
  0
SPLINE
  5
D6
330
1F
100
AcDbEntity
  8
0
  6
Continuous
 62
     7
370
    25
100
AcDbSpline
210
0.0
220
0.0
230
1.0
 70
     8
 71
     3
 72
     9
 73
     5
 74
     0
 42
0.00000001
 43
0.00000001
 40
0.0
 40
0.0
 40
0.0
 40
0.0
 40
0.5583983133423414
 40
1.0
 40
1.0
 40
1.0
 40
1.0
 10
82.58135463274414
 20
134.0938314239938
 30
0.0
 10
82.5349125461628
 20
134.0592033755361
 30
0.0
 10
82.45174236911954
 20
133.9971902074617
 30
0.0
 10
82.34881255086174
 20
133.9919142139867
 30
0.0
 10
82.30335856951172
 20
133.9895843263694
 30
0.0
  0
LINE
  5
D7
330
1F
100
AcDbEntity
  8
0
  6
Continuous
 62
     7
370
    25
100
AcDbLine
 10
81.7821234015
 20
132.0758134095
 30
0.0
 11
81.7821234015
 21
132.3499447169
 31
0.0
  0
LINE
  5
D8
330
1F
100
AcDbEntity
  8
0
  6
Continuous
 62
     7
370
    25
100
AcDbLine
 10
81.7821234015
 20
132.3499447169
 30
0.0
 11
83.1720888165
 21
132.3499447169
 31
0.0
  0
SPLINE
  5
D9
330
1F
100
AcDbEntity
  8
0
  6
Continuous
 62
     7
370
    25
100
AcDbSpline
210
0.0
220
0.0
230
1.0
 70
     8
 71
     3
 72
     9
 73
     5
 74
     0
 42
0.00000001
 43
0.00000001
 40
0.0
 40
0.0
 40
0.0
 40
0.0
 40
0.559638609067423
 40
1.0
 40
1.0
 40
1.0
 40
1.0
 10
83.17208881653244
 20
132.3499447168761
 30
0.0
 10
83.2279481794829
 20
132.3547233415551
 30
0.0
 10
83.32776145548893
 20
132.3632621103277
 30
0.0
 10
83.40464339091488
 20
132.4263919150066
 30
0.0
 10
83.43849922693664
 20
132.4541918436043
 30
0.0
  0
SPLINE
  5
DA
330
1F
100
AcDbEntity
  8
0
  6
Continuous
 62
     7
370
    25
100
AcDbSpline
210
0.0
220
0.0
230
1.0
 70
     8
 71
     3
 72
     9
 73
     5
 74
     0
 42
0.00000001
 43
0.00000001
 40
0.0
 40
0.0
 40
0.0
 40
0.0
 40
0.5576201082495975
 40
0.9999999999999999
 40
0.9999999999999999
 40
0.9999999999999999
 40
0.9999999999999999
 10
83.43849922693664
 20
132.4541918436043
 30
0.0
 10
83.4817662583238
 20
132.5168448411902
 30
0.0
 10
83.55935856668407
 20
132.6292026931739
 30
0.0
 10
83.56390177966009
 20
132.7648434257722
 30
0.0
 10
83.56591160572464
 20
132.824848158376
 30
0.0
  0
SPLINE
  5
DB
330
1F
100
AcDbEntity
  8
0
  6
Continuous
 62
     7
370
    25
100
AcDbSpline
210
0.0
220
0.0
230
1.0
 70
     8
 71
     3
 72
     9
 73
     5
 74
     0
 42
0.00000001
 43
0.00000001
 40
0.0
 40
0.0
 40
0.0
 40
0.0
 40
0.5607889272070798
 40
1.0
 40
1.0
 40
1.0
 40
1.0
 10
83.56591160572464
 20
132.824848158376
 30
0.0
 10
83.56238687922905
 20
132.9016817953338
 30
0.0
 10
83.55610157949405
 20
133.0386916991145
 30
0.0
 10
83.47438851128565
 20
133.1476491934009
 30
0.0
 10
83.43849922693663
 20
133.1955045313553
 30
0.0
  0
LINE
  5
DC
330
1F
100
AcDbEntity
  8
0
  6
Continuous
 62
     7
370
    25
100
AcDbLine
 10
83.1720888165
 20
133.292029597
 30
0.0
 11
81.7821234015
 21
133.292029597
 31
0.0
  0
LINE
  5
DD
330
1F
100
AcDbEntity
  8
0
  6
Continuous
 62
     7
370
    25
100
AcDbLine
 10
81.7821234015
 20
133.292029597
 30
0.0
 11
81.7821234015
 21
133.5661609043
 31
0.0
  0
LINE
  5
DE
330
1F
100
AcDbEntity
  8
0
  6
Continuous
 62
     7
370
    25
100
AcDbLine
 10
81.7821234015
 20
133.5661609043
 30
0.0
 11
83.1836670188
 21
133.5661609043
 31
0.0
  0
SPLINE
  5
DF
330
1F
100
AcDbEntity
  8
0
  6
Continuous
 62
     7
370
    25
100
AcDbSpline
210
0.0
220
0.0
230
1.0
 70
     8
 71
     3
 72
     9
 73
     5
 74
     0
 42
0.00000001
 43
0.00000001
 40
0.0
 40
0.0
 40
0.0
 40
0.0
 40
0.5596756434871404
 40
1.0
 40
1.0
 40
1.0
 40
1.0
 10
83.18366701878006
 20
133.5661609043345
 30
0.0
 10
83.27110401967303
 20
133.5589911240678
 30
0.0
 10
83.42733200977847
 20
133.5461805250179
 30
0.0
 10
83.54767233664057
 20
133.4474654003511
 30
0.0
 10
83.60066111362869
 20
133.4039987266042
 30
0.0
  0
SPLINE
  5
E0
330
1F
100
AcDbEntity
  8
0
  6
Continuous
 62
     7
370
    25
100
AcDbSpline
210
0.0
220
0.0
230
1.0
 70
     8
 71
     3
 72
     9
 73
     5
 74
     0
 42
0.00000001
 43
0.00000001
 40
0.0
 40
0.0
 40
0.0
 40
0.0
 40
0.5572809731631799
 40
1.0
 40
1.0
 40
1.0
 40
1.0
 10
83.60066111362869
 20
133.4039987266042
 30
0.0
 10
83.66464457835124
 20
133.3051723131936
 30
0.0
 10
83.77945823215207
 20
133.1278355330597
 30
0.0
 10
83.78398345371154
 20
132.9178241801575
 30
0.0
 10
83.78598685539657
 20
132.824848158376
 30
0.0
  0
SPLINE
  5
E1
330
1F
100
AcDbEntity
  8
0
  6
Continuous
 62
     7
370
    25
100
AcDbSpline
210
0.0
220
0.0
230
1.0
 70
     8
 71
     3
 72
     9
 73
     5
 74
     0
 42
0.00000001
 43
0.00000001
 40
0.0
 40
0.0
 40
0.0
 40
0.0
 40
0.5586579531754905
 40
0.9999999999999999
 40
0.9999999999999999
 40
0.9999999999999999
 40
0.9999999999999999
 10
83.60066111362869
 20
132.2456975901478
 30
0.0
 10
83.53206832870151
 20
132.1901410891408
 30
0.0
 10
83.40928696572745
 20
132.0906947272102
 30
0.0
 10
83.25275233368471
 20
132.0803701011124
 30
0.0
 10
83.18366701878004
 20
132.0758134094976
 30
0.0
  0
LINE
  5
E2
330
1F
100
AcDbEntity
  8
0
  6
Continuous
 62
     7
370
    25
100
AcDbLine
 10
83.1836670188
 20
132.0758134095
 30
0.0
 11
81.7821234015
 21
132.0758134095
 31
0.0
  0
SPLINE
  5
E3
330
1F
100
AcDbEntity
  8
0
  6
Continuous
 62
     7
370
    25
100
AcDbSpline
210
0.0
220
0.0
230
1.0
 70
     8
 71
     3
 72
     9
 73
     5
 74
     0
 42
0.00000001
 43
0.00000001
 40
0.0
 40
0.0
 40
0.0
 40
0.0
 40
0.5612390421476113
 40
1.0
 40
1.0
 40
1.0
 40
1.0
 10
83.78598685539657
 20
132.824848158376
 30
0.0
 10
83.78227199032192
 20
132.7057514399528
 30
0.0
 10
83.7756529478183
 20
132.493548244025
 30
0.0
 10
83.65402618749056
 20
132.3212815081753
 30
0.0
 10
83.60066111362868
 20
132.2456975901478
 30
0.0
  0
SPLINE
  5
E4
330
1F
100
AcDbEntity
  8
0
  6
Continuous
 62
     7
370
    25
100
AcDbSpline
210
0.0
220
0.0
230
1.0
 70
     8
 71
     3
 72
     9
 73
     5
 74
     0
 42
0.00000001
 43
0.00000001
 40
0.0
 40
0.0
 40
0.0
 40
0.0
 40
0.5586220710596536
 40
1.0
 40
1.0
 40
1.0
 40
1.0
 10
83.43849922693664
 20
133.1955045313553
 30
0.0
 10
83.39356175095678
 20
133.2273354772892
 30
0.0
 10
83.3131183200436
 20
133.2843166593495
 30
0.0
 10
83.21527479082093
 20
133.2896677455926
 30
0.0
 10
83.17208881653242
 20
133.2920295969561
 30
0.0
  0
LINE
  5
E5
330
1F
100
AcDbEntity
  8
0
  6
Continuous
 62
     7
370
    25
100
AcDbLine
 10
87.2039407042
 20
128.7008317156
 30
0.0
 11
78.3039465097
 21
128.7008317156
 31
0.0
  0
LINE
  5
E6
330
1F
100
AcDbEntity
  8
0
  6
Continuous
 62
     7
370
    25
100
AcDbLine
 10
82.6161041406
 20
136.971137297
 30
0.0
 11
81.7821234015
 21
136.971137297
 31
0.0
  0
LINE
  5
E7
330
1F
100
AcDbEntity
  8
0
  6
Continuous
 62
     7
370
    25
100
AcDbLine
 10
83.7628230003
 20
135.7549210513
 30
0.0
 11
81.7821234015
 21
135.7549210513
 31
0.0
  0
LINE
  5
E8
330
1F
100
AcDbEntity
  8
0
  6
Continuous
 62
     7
370
    25
100
AcDbLine
 10
83.7628230003
 20
136.0290523587
 30
0.0
 11
83.7628230003
 21
135.7549210513
 31
0.0
  0
LINE
  5
E9
330
1F
100
AcDbEntity
  8
0
  6
Continuous
 62
     7
370
    25
100
AcDbLine
 10
82.8353225736
 20
136.0290523587
 30
0.0
 11
83.7628230003
 21
136.0290523587
 31
0.0
  0
LINE
  5
EA
330
1F
100
AcDbEntity
  8
0
  6
Continuous
 62
     7
370
    25
100
AcDbLine
 10
82.8353225736
 20
136.971137297
 30
0.0
 11
82.8353225736
 21
136.0290523587
 31
0.0
  0
LINE
  5
EB
330
1F
100
AcDbEntity
  8
0
  6
Continuous
 62
     7
370
    25
100
AcDbLine
 10
83.7628230003
 20
136.971137297
 30
0.0
 11
82.8353225736
 21
136.971137297
 31
0.0
  0
LINE
  5
EC
330
1F
100
AcDbEntity
  8
0
  6
Continuous
 62
     7
370
    25
100
AcDbLine
 10
83.7628230003
 20
137.2452686043
 30
0.0
 11
83.7628230003
 21
136.971137297
 31
0.0
  0
LINE
  5
ED
330
1F
100
AcDbEntity
  8
0
  6
Continuous
 62
     7
370
    25
100
AcDbLine
 10
81.7821234015
 20
137.2452686043
 30
0.0
 11
83.7628230003
 21
137.2452686043
 31
0.0
  0
LINE
  5
EE
330
1F
100
AcDbEntity
  8
0
  6
Continuous
 62
     7
370
    25
100
AcDbLine
 10
81.7821234015
 20
136.971137297
 30
0.0
 11
81.7821234015
 21
137.2452686043
 31
0.0
  0
LINE
  5
EF
330
1F
100
AcDbEntity
  8
0
  6
Continuous
 62
     7
370
    25
100
AcDbLine
 10
82.6161041406
 20
136.0290523587
 30
0.0
 11
82.6161041406
 21
136.971137297
 31
0.0
  0
LINE
  5
F0
330
1F
100
AcDbEntity
  8
0
  6
Continuous
 62
     7
370
    25
100
AcDbLine
 10
81.7821234015
 20
136.0290523587
 30
0.0
 11
82.6161041406
 21
136.0290523587
 31
0.0
  0
LINE
  5
F1
330
1F
100
AcDbEntity
  8
0
  6
Continuous
 62
     7
370
    25
100
AcDbLine
 10
81.7821234015
 20
135.7549210513
 30
0.0
 11
81.7821234015
 21
136.0290523587
 31
0.0
  0
LINE
  5
F2
330
1F
100
AcDbEntity
  8
0
  6
Continuous
 62
     7
370
    25
100
AcDbLine
 10
81.0039400605
 20
137.8008320896
 30
0.0
 11
81.0039400605
 21
129.8008317096
 31
0.0
  0
LINE
  5
F3
330
1F
100
AcDbEntity
  8
0
  6
Continuous
 62
     7
370
    25
100
AcDbLine
 10
81.0039400605
 20
129.8008317096
 30
0.0
 11
84.5039471535
 21
129.8008317096
 31
0.0
  0
LINE
  5
F4
330
1F
100
AcDbEntity
  8
0
  6
Continuous
 62
     7
370
    25
100
AcDbLine
 10
84.5039471535
 20
129.8008317096
 30
0.0
 11
84.5039471535
 21
137.8008320896
 31
0.0
  0
LINE
  5
F5
330
1F
100
AcDbEntity
  8
0
  6
Continuous
 62
     7
370
    25
100
AcDbLine
 10
84.5039471535
 20
137.8008320896
 30
0.0
 11
81.0039400605
 21
137.8008320896
 31
0.0
  0
LINE
  5
F6
330
1F
100
AcDbEntity
  8
0
  6
Continuous
 62
     7
370
    25
100
AcDbLine
 10
78.3039465097
 20
138.9008320836
 30
0.0
 11
87.2039407042
 21
138.9008320836
 31
0.0
  0
ARC
  5
F7
330
1F
100
AcDbEntity
  8
0
  6
Continuous
 62
     7
370
    25
100
AcDbCircle
 10
78.3039396591
 20
128.9008282504
 30
0.0
 40
0.1999965349608647
100
AcDbArc
 50
179.998971216
 51
270.0019625907
  0
LINE
  5
F8
330
1F
100
AcDbEntity
  8
0
  6
Continuous
 62
     7
370
    25
100
AcDbLine
 10
78.1039431242
 20
128.9008318415
 30
0.0
 11
78.1039431242
 21
129.4008319234
 31
0.0
  0
LINE
  5
F9
330
1F
100
AcDbEntity
  8
0
  6
Continuous
 62
     7
370
    25
100
AcDbLine
 10
87.4039440898
 20
129.4008319234
 30
0.0
 11
87.4039440898
 21
128.9008318415
 31
0.0
  0
ARC
  5
FA
330
1F
100
AcDbEntity
  8
0
  6
Continuous
 62
     7
370
    25
100
AcDbCircle
 10
87.2039475549
 20
128.9008282504
 30
0.0
 40
0.1999965349608931
100
AcDbArc
 50
269.9980374093
 51
0.001028784
  0
SPLINE
  5
FB
330
1F
100
AcDbEntity
  8
0
  6
Continuous
 62
     7
370
    25
100
AcDbSpline
210
0.0
220
0.0
230
1.0
 70
     8
 71
     3
 72
     9
 73
     5
 74
     0
 42
0.00000001
 43
0.00000001
 40
0.0
 40
0.0
 40
0.0
 40
0.0
 40
0.5596909225633078
 40
1.0
 40
1.0
 40
1.0
 40
1.0
 10
81.78212340153152
 20
131.1474563987904
 30
0.0
 10
81.78930624110595
 20
131.2348892636388
 30
0.0
 10
81.80213982350807
 20
131.3911055989833
 30
0.0
 10
81.9008307690435
 20
131.5114542862448
 30
0.0
 10
81.94428528822355
 20
131.5644449057036
 30
0.0
  0
SPLINE
  5
FC
330
1F
100
AcDbEntity
  8
0
  6
Continuous
 62
     7
370
    25
100
AcDbSpline
210
0.0
220
0.0
230
1.0
 70
     8
 71
     3
 72
     9
 73
     5
 74
     0
 42
0.00000001
 43
0.00000001
 40
0.0
 40
0.0
 40
0.0
 40
0.0
 40
0.5607428825804515
 40
1.0
 40
1.0
 40
1.0
 40
1.0
 10
82.39602144039566
 20
131.7266070252263
 30
0.0
 10
82.48714270241501
 20
131.7223790691597
 30
0.0
 10
82.64964367184334
 20
131.7148391498886
 30
0.0
 10
82.77924922752835
 20
131.6183927604187
 30
0.0
 10
82.83617939032013
 20
131.5760279973947
 30
0.0
  0
SPLINE
  5
FD
330
1F
100
AcDbEntity
  8
0
  6
Continuous
 62
     7
370
    25
100
AcDbSpline
210
0.0
220
0.0
230
1.0
 70
     8
 71
     3
 72
     9
 73
     5
 74
     0
 42
0.00000001
 43
0.00000001
 40
0.0
 40
0.0
 40
0.0
 40
0.0
 40
0.557821483316946
 40
1.0
 40
1.0
 40
1.0
 40
1.0
 10
82.83617939032013
 20
131.5760279973947
 30
0.0
 10
82.88685480563797
 20
131.5037371738823
 30
0.0
 10
82.97770002553973
 20
131.3741422664173
 30
0.0
 10
82.98338502346526
 20
131.2169593206137
 30
0.0
 10
82.98589880741531
 20
131.1474563987904
 30
0.0
  0
LINE
  5
FE
330
1F
100
AcDbEntity
  8
0
  6
Continuous
 62
     7
370
    25
100
AcDbLine
 10
82.9858988074
 20
130.487224829
 30
0.0
 11
83.7628230003
 21
130.487224829
 31
0.0
  0
LINE
  5
FF
330
1F
100
AcDbEntity
  8
0
  6
Continuous
 62
     7
370
    25
100
AcDbLine
 10
83.7628230003
 20
130.487224829
 30
0.0
 11
83.7628230003
 21
130.2130935216
 31
0.0
  0
SPLINE
  5
100
330
1F
100
AcDbEntity
  8
0
  6
Continuous
 62
     7
370
    25
100
AcDbSpline
210
0.0
220
0.0
230
1.0
 70
     8
 71
     3
 72
     9
 73
     5
 74
     0
 42
0.00000001
 43
0.00000001
 40
0.0
 40
0.0
 40
0.0
 40
0.0
 40
0.5602459698623138
 40
1.0
 40
1.0
 40
1.0
 40
1.0
 10
82.76668037451202
 20
131.089541405996
 30
0.0
 10
82.76343748370364
 20
131.1426444081957
 30
0.0
 10
82.75764914968107
 20
131.2374295651736
 30
0.0
 10
82.69956169564213
 20
131.3117049108052
 30
0.0
 10
82.67401750362808
 20
131.3443677933865
 30
0.0
  0
SPLINE
  5
101
330
1F
100
AcDbEntity
  8
0
  6
Continuous
 62
     7
370
    25
100
AcDbSpline
210
0.0
220
0.0
230
1.0
 70
     8
 71
     3
 72
     9
 73
     5
 74
     0
 42
0.00000001
 43
0.00000001
 40
0.0
 40
0.0
 40
0.0
 40
0.0
 40
0.5583753756296406
 40
1.0
 40
1.0
 40
1.0
 40
1.0
 10
82.67401750362808
 20
131.3443677933865
 30
0.0
 10
82.62757793586367
 20
131.378995805358
 30
0.0
 10
82.5444088532156
 20
131.4410114555512
 30
0.0
 10
82.4414781663284
 20
131.4462855273202
 30
0.0
 10
82.39602144039566
 20
131.4486146872841
 30
0.0
  0
SPLINE
  5
102
330
1F
100
AcDbEntity
  8
0
  6
Continuous
 62
     7
370
    25
100
AcDbSpline
210
0.0
220
0.0
230
1.0
 70
     8
 71
     3
 72
     9
 73
     5
 74
     0
 42
0.00000001
 43
0.00000001
 40
0.0
 40
0.0
 40
0.0
 40
0.0
 40
0.5612843130905475
 40
0.9999999999999999
 40
0.9999999999999999
 40
0.9999999999999999
 40
0.9999999999999999
 10
82.39602144039566
 20
131.4486146872841
 30
0.0
 10
82.33646778141608
 20
131.4467576170629
 30
0.0
 10
82.23036529896531
 20
131.4434490082564
 30
0.0
 10
82.14423422722041
 20
131.3826320193228
 30
0.0
 10
82.10644717491562
 20
131.355950652247
 30
0.0
  0
LINE
  5
103
330
1F
100
AcDbEntity
  8
0
  6
Continuous
 62
     7
370
    25
100
AcDbLine
 10
81.7821234015
 20
130.2130935216
 30
0.0
 11
81.7821234015
 21
131.1474563988
 31
0.0
  0
LINE
  5
104
330
1F
100
AcDbEntity
  8
0
  6
Continuous
 62
     7
370
    25
100
AcDbLine
 10
83.7628230003
 20
130.2130935216
 30
0.0
 11
81.7821234015
 21
130.2130935216
 31
0.0
  0
LINE
  5
105
330
1F
100
AcDbEntity
  8
0
  6
Continuous
 62
     7
370
    25
100
AcDbLine
 10
82.7666803745
 20
130.487224829
 30
0.0
 11
82.7666803745
 21
131.089541406
 31
0.0
  0
LINE
  5
106
330
1F
100
AcDbEntity
  8
0
  6
Continuous
 62
     7
370
    25
100
AcDbLine
 10
82.0013418344
 20
131.089541406
 30
0.0
 11
82.0013418344
 21
130.487224829
 31
0.0
  0
LINE
  5
107
330
1F
100
AcDbEntity
  8
0
  6
Continuous
 62
     7
370
    25
100
AcDbLine
 10
82.9858988074
 20
131.1474563988
 30
0.0
 11
82.9858988074
 21
130.487224829
 31
0.0
  0
SPLINE
  5
108
330
1F
100
AcDbEntity
  8
0
  6
Continuous
 62
     7
370
    25
100
AcDbSpline
210
0.0
220
0.0
230
1.0
 70
     8
 71
     3
 72
     9
 73
     5
 74
     0
 42
0.00000001
 43
0.00000001
 40
0.0
 40
0.0
 40
0.0
 40
0.0
 40
0.5579892355628723
 40
1.0
 40
1.0
 40
1.0
 40
1.0
 10
81.94428528822357
 20
131.5644449057036
 30
0.0
 10
82.02017420061085
 20
131.6190276218932
 30
0.0
 10
82.15617845938608
 20
131.7168479967515
 30
0.0
 10
82.32250383428936
 20
131.7236156497507
 30
0.0
 10
82.39602144039566
 20
131.7266070252263
 30
0.0
  0
LINE
  5
109
330
1F
100
AcDbEntity
  8
0
  6
Continuous
 62
     7
370
    25
100
AcDbLine
 10
82.0013418344
 20
130.487224829
 30
0.0
 11
82.7666803745
 21
130.487224829
 31
0.0
  0
SPLINE
  5
10A
330
1F
100
AcDbEntity
  8
0
  6
Continuous
 62
     7
370
    25
100
AcDbSpline
210
0.0
220
0.0
230
1.0
 70
     8
 71
     3
 72
     9
 73
     5
 74
     0
 42
0.00000001
 43
0.00000001
 40
0.0
 40
0.0
 40
0.0
 40
0.0
 40
0.5587720557649678
 40
0.9999999999999999
 40
0.9999999999999999
 40
0.9999999999999999
 40
0.9999999999999999
 10
82.10644717491562
 20
131.355950652247
 30
0.0
 10
82.07189783862695
 20
131.3118190904581
 30
0.0
 10
82.01006701524877
 20
131.2328395471298
 30
0.0
 10
82.00401302438017
 20
131.1334117350984
 30
0.0
 10
82.00134183443481
 20
131.089541405996
 30
0.0
  0
LINE
  5
10B
330
1F
100
AcDbEntity
  8
0
  6
Continuous
 62
     7
370
    25
100
AcDbLine
 10
78.1039431242
 20
129.4008319234
 30
0.0
 11
78.1039431242
 21
138.2008318758
 31
0.0
  0
ARC
  5
10C
330
1F
100
AcDbEntity
  8
0
  6
Continuous
 62
     7
370
    25
100
AcDbCircle
 10
87.2039475549
 20
138.7008355488
 30
0.0
 40
0.1999965349608931
100
AcDbArc
 50
359.998971216
 51
90.0019625907
  0
LINE
  5
10D
330
1F
100
AcDbEntity
  8
0
  6
Continuous
 62
     7
370
    25
100
AcDbLine
 10
87.4039440898
 20
138.7008319577
 30
0.0
 11
87.4039440898
 21
138.2008318758
 31
0.0
  0
LINE
  5
10E
330
1F
100
AcDbEntity
  8
0
  6
Continuous
 62
     7
370
    25
100
AcDbLine
 10
87.4039440898
 20
138.2008318758
 30
0.0
 11
87.4039440898
 21
129.4008319234
 31
0.0
  0
LINE
  5
10F
330
1F
100
AcDbEntity
  8
0
  6
Continuous
 62
     7
370
    25
100
AcDbLine
 10
78.1039431242
 20
138.2008318758
 30
0.0
 11
78.1039431242
 21
138.7008319577
 31
0.0
  0
ARC
  5
110
330
1F
100
AcDbEntity
  8
0
  6
Continuous
 62
     7
370
    25
100
AcDbCircle
 10
78.3039396591
 20
138.7008355488
 30
0.0
 40
0.1999965349608647
100
AcDbArc
 50
89.9980374093
 51
180.001028784
  0
LWPOLYLINE
  5
111
330
1F
100
AcDbEntity
  8
0
  6
Continuous
 62
     7
370
    25
100
AcDbPolyline
 90
       17
 70
   128
 43
0.0
 10
68.0589511541
 20
128.5711981324
 10
68.0254831461
 20
128.4798251433
 10
67.976666942
 20
128.393955805
 10
67.9141491202
 20
128.316505157
 10
67.8400679973
 20
128.2501018574
 10
67.7569195179
 20
128.1970006382
 10
67.667542353
 20
128.1590040741
 10
67.5749614385
 20
128.137402047
 10
67.4823209194
 20
128.1329270421
 10
67.3927723912
 20
128.1457317961
 10
67.3093482403
 20
128.1753813816
 10
67.2348796872
 20
128.2208690388
 10
67.1718924788
 20
128.2806511005
 10
67.122539833
 20
128.3526982149
 10
67.0884757785
 20
128.4345642632
 10
67.0708775071
 20
128.5234706445
 10
67.0703261641
 20
128.6163989423
  0
SPLINE
  5
112
330
1F
100
AcDbEntity
  8
0
  6
Continuous
 62
     7
370
    25
100
AcDbSpline
210
0.0
220
0.0
230
1.0
 70
     8
 71
     3
 72
    13
 73
     9
 74
     0
 42
0.00000001
 43
0.00000001
 40
0.0
 40
0.0
 40
0.0
 40
0.0
 40
0.2922057303833261
 40
0.5471434435092319
 40
0.7569152277211257
 40
0.9230588848785296
 40
0.992527407485478
 40
1.0
 40
1.0
 40
1.0
 40
1.0
 10
67.07032616413528
 20
128.6163989422821
 30
0.0
 10
67.08568402956782
 20
128.6173702234887
 30
0.0
 10
67.11444101310369
 20
128.6191889083697
 30
0.0
 10
67.15328753604628
 20
128.6291279412651
 30
0.0
 10
67.1834124243819
 20
128.6434085789696
 30
0.0
 10
67.20066081877155
 20
128.6609929591613
 30
0.0
 10
67.2038954765422
 20
128.6737375335176
 30
0.0
 10
67.2039405035005
 20
128.6777829977242
 30
0.0
 10
67.2039448765605
 20
128.6781758969628
 30
0.0
  0
LWPOLYLINE
  5
113
330
1F
100
AcDbEntity
  8
0
  6
Continuous
 62
     7
370
    25
100
AcDbPolyline
 90
       17
 70
   128
 43
0.0
 10
67.2039448766
 20
128.678175897
 10
67.209622219
 20
128.5893547317
 10
67.2264679817
 20
128.5055943733
 10
67.2539382724
 20
128.4295742368
 10
67.2911688236
 20
128.3637264712
 10
67.336960092
 20
128.3101586593
 10
67.389844313
 20
128.2705839692
 10
67.448130205
 20
128.2462685337
 10
67.5099551228
 20
128.237990473
 10
67.5733446626
 20
128.246015214
 10
67.6362648157
 20
128.2700852459
 10
67.6967039255
 20
128.3094303651
 10
67.7527322916
 20
128.3627923546
 10
67.8025468735
 20
128.4284636347
 10
67.844568148
 20
128.5043431414
 10
67.8774401096
 20
128.5880033826
 10
67.900119677
 20
128.6767672716
  0
ARC
  5
114
330
1F
100
AcDbEntity
  8
0
  6
Continuous
 62
     7
370
    25
100
AcDbCircle
 10
68.060410451
 20
128.745661267
 30
0.0
 40
0.1744692375588174
100
AcDbArc
 50
203.2583410777
 51
269.5207606229
  0
ARC
  5
115
330
1F
100
AcDbEntity
  8
0
  6
Continuous
 62
     7
370
    25
100
AcDbCircle
 10
55.6863340263
 20
128.5652476916
 30
0.0
 40
0.4406938489853869
100
AcDbArc
 50
254.725474725
 51
0.7718397288
  0
LWPOLYLINE
  5
116
330
1F
100
AcDbEntity
  8
0
  6
Continuous
 62
     7
370
    25
100
AcDbPolyline
 90
       17
 70
   128
 43
0.0
 10
57.1191519049
 20
128.5711841626
 10
57.1109488157
 20
128.4816533295
 10
57.0866003183
 20
128.3971041409
 10
57.0469036249
 20
128.3202891206
 10
56.9931551365
 20
128.2537098011
 10
56.9270982889
 20
128.1995338356
 10
56.8508863
 20
128.1595256148
 10
56.767000213
 20
128.1349875933
 10
56.6781669406
 20
128.1267183801
 10
56.5872847585
 20
128.1349875933
 10
56.4973189977
 20
128.1595256148
 10
56.4111828355
 20
128.1995338356
 10
56.3316925911
 20
128.2537098011
 10
56.2614410666
 20
128.3202891206
 10
56.2027006892
 20
128.3971041409
 10
56.157386258
 20
128.4816533295
 10
56.1269878892
 20
128.5711841626
  0
LWPOLYLINE
  5
117
330
1F
100
AcDbEntity
  8
0
  6
Continuous
 62
     7
370
    25
100
AcDbPolyline
 90
       17
 70
   128
 43
0.0
 10
58.1113159207
 20
128.5711841626
 10
58.1031128315
 20
128.4816533295
 10
58.0787643341
 20
128.3971041409
 10
58.0390676407
 20
128.3202891206
 10
57.9853191522
 20
128.2537098011
 10
57.9192623047
 20
128.1995338356
 10
57.8430503157
 20
128.1595256148
 10
57.7591642288
 20
128.1349875933
 10
57.6703309563
 20
128.1267183801
 10
57.5794487742
 20
128.1349875933
 10
57.4894830135
 20
128.1595256148
 10
57.4033468512
 20
128.1995338356
 10
57.3238566068
 20
128.2537098011
 10
57.2535976318
 20
128.3202891206
 10
57.194864705
 20
128.3971041409
 10
57.1495502738
 20
128.4816533295
 10
57.1191519049
 20
128.5711841626
  0
LWPOLYLINE
  5
118
330
1F
100
AcDbEntity
  8
0
  6
Continuous
 62
     7
370
    25
100
AcDbPolyline
 90
       17
 70
   128
 43
0.0
 10
59.1034799365
 20
128.5711841626
 10
59.0952768473
 20
128.4816533295
 10
59.0709283499
 20
128.3971041409
 10
59.0312316564
 20
128.3202891206
 10
58.977483168
 20
128.2537098011
 10
58.9114263204
 20
128.1995338356
 10
58.8352143315
 20
128.1595256148
 10
58.751320794
 20
128.1349875933
 10
58.6624949721
 20
128.1267183801
 10
58.57161279
 20
128.1349875933
 10
58.4816470293
 20
128.1595256148
 10
58.395510867
 20
128.1995338356
 10
58.3160206226
 20
128.2537098011
 10
58.2457616476
 20
128.3202891206
 10
58.1870212702
 20
128.3971041409
 10
58.1417142896
 20
128.4816533295
 10
58.1113159207
 20
128.5711841626
  0
LWPOLYLINE
  5
119
330
1F
100
AcDbEntity
  8
0
  6
Continuous
 62
     7
370
    25
100
AcDbPolyline
 90
       17
 70
   128
 43
0.0
 10
60.0956439523
 20
128.5711841626
 10
60.0874334124
 20
128.4816533295
 10
60.0630923656
 20
128.3971041409
 10
60.0233956722
 20
128.3202891206
 10
59.9696471838
 20
128.2537098011
 10
59.9035903362
 20
128.1995338356
 10
59.8273783473
 20
128.1595256148
 10
59.7434848098
 20
128.1349875933
 10
59.6546589879
 20
128.1267183801
 10
59.5637768058
 20
128.1349875933
 10
59.4738110451
 20
128.1595256148
 10
59.3876748828
 20
128.1995338356
 10
59.3081846384
 20
128.2537098011
 10
59.2379256634
 20
128.3202891206
 10
59.1791852859
 20
128.3971041409
 10
59.1338783053
 20
128.4816533295
 10
59.1034799365
 20
128.5711841626
  0
LWPOLYLINE
  5
11A
330
1F
100
AcDbEntity
  8
0
  6
Continuous
 62
     7
370
    25
100
AcDbPolyline
 90
       17
 70
   128
 43
0.0
 10
61.087807968
 20
128.5711841626
 10
61.0795974282
 20
128.4816533295
 10
61.0552563814
 20
128.3971041409
 10
61.015559688
 20
128.3202891206
 10
60.9618111996
 20
128.2537098011
 10
60.895754352
 20
128.1995338356
 10
60.8195349125
 20
128.1595256148
 10
60.7356488255
 20
128.1349875933
 10
60.6468230037
 20
128.1267183801
 10
60.5559408215
 20
128.1349875933
 10
60.4659750608
 20
128.1595256148
 10
60.3798388985
 20
128.1995338356
 10
60.3003486542
 20
128.2537098011
 10
60.2300896791
 20
128.3202891206
 10
60.1713493017
 20
128.3971041409
 10
60.1260423211
 20
128.4816533295
 10
60.0956439523
 20
128.5711841626
  0
LWPOLYLINE
  5
11B
330
1F
100
AcDbEntity
  8
0
  6
Continuous
 62
     7
370
    25
100
AcDbPolyline
 90
       17
 70
   128
 43
0.0
 10
62.0799719838
 20
128.5711841626
 10
62.071761444
 20
128.4816533295
 10
62.0474203972
 20
128.3971041409
 10
62.0077237038
 20
128.3202891206
 10
61.9539752153
 20
128.2537098011
 10
61.8879183678
 20
128.1995338356
 10
61.8116989282
 20
128.1595256148
 10
61.7278128413
 20
128.1349875933
 10
61.6389870194
 20
128.1267183801
 10
61.5481048373
 20
128.1349875933
 10
61.4581390766
 20
128.1595256148
 10
61.3720029143
 20
128.1995338356
 10
61.2925126699
 20
128.2537098011
 10
61.2222536949
 20
128.3202891206
 10
61.1635133175
 20
128.3971041409
 10
61.1182063369
 20
128.4816533295
 10
61.087807968
 20
128.5711841626
  0
LWPOLYLINE
  5
11C
330
1F
100
AcDbEntity
  8
0
  6
Continuous
 62
     7
370
    25
100
AcDbPolyline
 90
       17
 70
   128
 43
0.0
 10
63.072128549
 20
128.5711841626
 10
63.0639254598
 20
128.4816533295
 10
63.0395844129
 20
128.3971041409
 10
62.9998877195
 20
128.3202891206
 10
62.9461392311
 20
128.2537098011
 10
62.8800749329
 20
128.1995338356
 10
62.803862944
 20
128.1595256148
 10
62.7199768571
 20
128.1349875933
 10
62.6311510352
 20
128.1267183801
 10
62.5402688531
 20
128.1349875933
 10
62.4502956418
 20
128.1595256148
 10
62.3641669301
 20
128.1995338356
 10
62.2846766857
 20
128.2537098011
 10
62.2144177107
 20
128.3202891206
 10
62.1556773332
 20
128.3971041409
 10
62.1103703526
 20
128.4816533295
 10
62.0799719838
 20
128.5711841626
  0
LWPOLYLINE
  5
11D
330
1F
100
AcDbEntity
  8
0
  6
Continuous
 62
     7
370
    25
100
AcDbPolyline
 90
       17
 70
   128
 43
0.0
 10
64.0642925648
 20
128.5711841626
 10
64.0560894755
 20
128.4816533295
 10
64.0317484287
 20
128.3971041409
 10
63.9920517353
 20
128.3202891206
 10
63.9382957963
 20
128.2537098011
 10
63.8722389487
 20
128.1995338356
 10
63.7960269598
 20
128.1595256148
 10
63.7121408728
 20
128.1349875933
 10
63.623315051
 20
128.1267183801
 10
63.5324328688
 20
128.1349875933
 10
63.4424596576
 20
128.1595256148
 10
63.3563309459
 20
128.1995338356
 10
63.2768407015
 20
128.2537098011
 10
63.2065817264
 20
128.3202891206
 10
63.147841349
 20
128.3971041409
 10
63.1025343684
 20
128.4816533295
 10
63.072128549
 20
128.5711841626
  0
LWPOLYLINE
  5
11E
330
1F
100
AcDbEntity
  8
0
  6
Continuous
 62
     7
370
    25
100
AcDbPolyline
 90
       17
 70
   128
 43
0.0
 10
65.0564565805
 20
128.5711841626
 10
65.0482534913
 20
128.4816533295
 10
65.0239124445
 20
128.3971041409
 10
64.9842157511
 20
128.3202891206
 10
64.9304598121
 20
128.2537098011
 10
64.8644029645
 20
128.1995338356
 10
64.7881909756
 20
128.1595256148
 10
64.7043048886
 20
128.1349875933
 10
64.6154790667
 20
128.1267183801
 10
64.5245968846
 20
128.1349875933
 10
64.4346236733
 20
128.1595256148
 10
64.3484949616
 20
128.1995338356
 10
64.2690047172
 20
128.2537098011
 10
64.1987457422
 20
128.3202891206
 10
64.1400053648
 20
128.3971041409
 10
64.0946983842
 20
128.4816533295
 10
64.0642925648
 20
128.5711841626
  0
LWPOLYLINE
  5
11F
330
1F
100
AcDbEntity
  8
0
  6
Continuous
 62
     7
370
    25
100
AcDbPolyline
 90
       17
 70
   128
 43
0.0
 10
66.0486205963
 20
128.5711841626
 10
66.0404175071
 20
128.4816533295
 10
66.0160690097
 20
128.3971041409
 10
65.9763797668
 20
128.3202891206
 10
65.9226238278
 20
128.2537098011
 10
65.8565669803
 20
128.1995338356
 10
65.7803549913
 20
128.1595256148
 10
65.6964689044
 20
128.1349875933
 10
65.6076430825
 20
128.1267183801
 10
65.5167609004
 20
128.1349875933
 10
65.4267876891
 20
128.1595256148
 10
65.3406589774
 20
128.1995338356
 10
65.261168733
 20
128.2537098011
 10
65.190909758
 20
128.3202891206
 10
65.1321693806
 20
128.3971041409
 10
65.0868623999
 20
128.4816533295
 10
65.0564565805
 20
128.5711841626
  0
LWPOLYLINE
  5
120
330
1F
100
AcDbEntity
  8
0
  6
Continuous
 62
     7
370
    25
100
AcDbPolyline
 90
       18
 70
   128
 43
0.0
 10
67.0387506036
 20
128.6161875321
 10
67.0386686472
 20
128.5280979207
 10
67.0232459453
 20
128.4433005346
 10
66.9929593352
 20
128.3643858476
 10
66.9487252382
 20
128.293764588
 10
66.8919071106
 20
128.2335946305
 10
66.8242260364
 20
128.1857144056
 10
66.7477607278
 20
128.1515870212
 10
66.6648432163
 20
128.1322541615
 10
66.57801415
 20
128.1283076821
 10
66.4899110345
 20
128.1398672579
 10
66.403245881
 20
128.1665799176
 10
66.3206487445
 20
128.2076298228
 10
66.2446453718
 20
128.2617629474
 10
66.1775677947
 20
128.327324797
 10
66.1214574722
 20
128.4023125624
 10
66.0780354885
 20
128.4844356557
 10
66.0486205963
 20
128.5711841626
  0
ARC
  5
121
330
1F
100
AcDbEntity
  8
0
  6
Continuous
 62
     7
370
    25
100
AcDbCircle
 10
67.0350605262
 20
128.4655174797
 30
0.0
 40
0.1507152326395096
100
AcDbArc
 50
82.8029950093
 51
88.597042999
  0
LINE
  5
122
330
1F
100
AcDbEntity
  8
0
  6
Continuous
 62
     7
370
    25
100
AcDbLine
 10
67.0539423374
 20
127.5100729397
 30
0.0
 11
67.0539423374
 21
128.6150452649
 31
0.0
  0
LINE
  5
123
330
1F
100
AcDbEntity
  8
0
  6
Continuous
 62
     7
370
    25
100
AcDbLine
 10
67.0539423374
 20
127.5099677002
 30
0.0
 11
67.0539423374
 21
127.5100729397
 31
0.0
  0
LINE
  5
124
330
1F
100
AcDbEntity
  8
0
  6
Continuous
 62
     7
370
    25
100
AcDbLine
 10
55.240637019
 20
128.1816286935
 30
0.0
 11
55.2362039236
 21
128.1819900466
 31
0.0
  0
LINE
  5
125
330
1F
100
AcDbEntity
  8
0
  6
Continuous
 62
     7
370
    25
100
AcDbLine
 10
55.5702358035
 20
128.1401215089
 30
0.0
 11
55.240637019
 21
128.1816286935
 31
0.0
  0
ARC
  5
126
330
1F
100
AcDbEntity
  8
0
  6
Continuous
 62
     7
370
    25
100
AcDbCircle
 10
67.0745409907
 20
128.4655608587
 30
0.0
 40
0.1508969589505543
100
AcDbArc
 50
91.6005835347
 51
97.8458335824
  0
LWPOLYLINE
  5
127
330
1F
100
AcDbEntity
  8
0
  6
Continuous
 62
     7
370
    25
100
AcDbPolyline
 90
       17
 70
   128
 43
0.0
 10
69.0496474055
 20
128.5711981324
 10
69.0175875572
 20
128.4823094463
 10
68.970976725
 20
128.3984932085
 10
68.911305025
 20
128.3224358192
 10
68.8404872564
 20
128.2565754807
 10
68.7608032969
 20
128.2030235013
 10
68.6747937945
 20
128.1634967742
 10
68.5852229146
 20
128.1392623639
 10
68.4949591307
 20
128.1310969932
 10
68.406893268
 20
128.1392623639
 10
68.3238565472
 20
128.1634967742
 10
68.2485088257
 20
128.2030235013
 10
68.1832640914
 20
128.2565754807
 10
68.130208507
 20
128.3224358192
 10
68.0910482553
 20
128.3984932085
 10
68.0670424846
 20
128.4823094463
 10
68.0589511541
 20
128.5711981324
  0
LWPOLYLINE
  5
128
330
1F
100
AcDbEntity
  8
0
  6
Continuous
 62
     7
370
    25
100
AcDbPolyline
 90
       17
 70
   128
 43
0.0
 10
70.0403436569
 20
128.5711981324
 10
70.008276358
 20
128.4823094463
 10
69.9616655258
 20
128.3984932085
 10
69.9020012764
 20
128.3224358192
 10
69.8311835078
 20
128.2565754807
 10
69.7514920977
 20
128.2030235013
 10
69.6654900459
 20
128.1634967742
 10
69.5759117154
 20
128.1392623639
 10
69.4856479315
 20
128.1310969932
 10
69.3975895194
 20
128.1392623639
 10
69.3145527986
 20
128.1634967742
 10
69.2392050771
 20
128.2030235013
 10
69.1739528922
 20
128.2565754807
 10
69.1209047583
 20
128.3224358192
 10
69.0817445067
 20
128.3984932085
 10
69.0577312855
 20
128.4823094463
 10
69.0496474055
 20
128.5711981324
  0
LWPOLYLINE
  5
129
330
1F
100
AcDbEntity
  8
0
  6
Continuous
 62
     7
370
    25
100
AcDbPolyline
 90
       17
 70
   128
 43
0.0
 10
71.0310324577
 20
128.5711981324
 10
70.9989726094
 20
128.4823094463
 10
70.9523617772
 20
128.3984932085
 10
70.8926900772
 20
128.3224358192
 10
70.8218797592
 20
128.2565754807
 10
70.7421883491
 20
128.2030235013
 10
70.6561788467
 20
128.1634967742
 10
70.5666079668
 20
128.1392623639
 10
70.4763441829
 20
128.1310969932
 10
70.3882857708
 20
128.1392623639
 10
70.30524905
 20
128.1634967742
 10
70.2299013285
 20
128.2030235013
 10
70.1646491436
 20
128.2565754807
 10
70.1116010097
 20
128.3224358192
 10
70.0724407581
 20
128.3984932085
 10
70.0484275369
 20
128.4823094463
 10
70.0403436569
 20
128.5711981324
  0
LWPOLYLINE
  5
12A
330
1F
100
AcDbEntity
  8
0
  6
Continuous
 62
     7
370
    25
100
AcDbPolyline
 90
       17
 70
   128
 43
0.0
 10
72.0217287091
 20
128.5711981324
 10
71.9896688608
 20
128.4823094463
 10
71.9430580286
 20
128.3984932085
 10
71.8833863286
 20
128.3224358192
 10
71.8125760106
 20
128.2565754807
 10
71.7328846005
 20
128.2030235013
 10
71.6468750981
 20
128.1634967742
 10
71.5573042182
 20
128.1392623639
 10
71.4670404343
 20
128.1310969932
 10
71.3789820222
 20
128.1392623639
 10
71.2959453014
 20
128.1634967742
 10
71.2205901293
 20
128.2030235013
 10
71.155345395
 20
128.2565754807
 10
71.1022898105
 20
128.3224358192
 10
71.0631295589
 20
128.3984932085
 10
71.0391237882
 20
128.4823094463
 10
71.0310324577
 20
128.5711981324
  0
LWPOLYLINE
  5
12B
330
1F
100
AcDbEntity
  8
0
  6
Continuous
 62
     7
370
    25
100
AcDbPolyline
 90
       17
 70
   128
 43
0.0
 10
73.0124249605
 20
128.5711981324
 10
72.9803651122
 20
128.4823094463
 10
72.93375428
 20
128.3984932085
 10
72.87408258
 20
128.3224358192
 10
72.8032648114
 20
128.2565754807
 10
72.7235808519
 20
128.2030235013
 10
72.6375713495
 20
128.1634967742
 10
72.5480004696
 20
128.1392623639
 10
72.4577366856
 20
128.1310969932
 10
72.369670823
 20
128.1392623639
 10
72.2866341022
 20
128.1634967742
 10
72.2112863807
 20
128.2030235013
 10
72.1460416464
 20
128.2565754807
 10
72.0929860619
 20
128.3224358192
 10
72.0538258103
 20
128.3984932085
 10
72.0298200396
 20
128.4823094463
 10
72.0217287091
 20
128.5711981324
  0
LWPOLYLINE
  5
12C
330
1F
100
AcDbEntity
  8
0
  6
Continuous
 62
     7
370
    25
100
AcDbPolyline
 90
       17
 70
   128
 43
0.0
 10
74.0031212119
 20
128.5711981324
 10
73.9710613636
 20
128.4823094463
 10
73.9244505314
 20
128.3984932085
 10
73.8647788314
 20
128.3224358192
 10
73.7939610628
 20
128.2565754807
 10
73.7142771033
 20
128.2030235013
 10
73.6282676009
 20
128.1634967742
 10
73.538696721
 20
128.1392623639
 10
73.448432937
 20
128.1310969932
 10
73.3603670744
 20
128.1392623639
 10
73.2773303536
 20
128.1634967742
 10
73.201982632
 20
128.2030235013
 10
73.1367378978
 20
128.2565754807
 10
73.0836823133
 20
128.3224358192
 10
73.0445220617
 20
128.3984932085
 10
73.020516291
 20
128.4823094463
 10
73.0124249605
 20
128.5711981324
  0
LWPOLYLINE
  5
12D
330
1F
100
AcDbEntity
  8
0
  6
Continuous
 62
     7
370
    25
100
AcDbPolyline
 90
       17
 70
   128
 43
0.0
 10
74.9938174633
 20
128.5711981324
 10
74.9617501644
 20
128.4823094463
 10
74.9151393322
 20
128.3984932085
 10
74.8554750828
 20
128.3224358192
 10
74.7846573142
 20
128.2565754807
 10
74.7049659041
 20
128.2030235013
 10
74.6189638523
 20
128.1634967742
 10
74.5293855218
 20
128.1392623639
 10
74.4391217378
 20
128.1310969932
 10
74.3510633258
 20
128.1392623639
 10
74.268026605
 20
128.1634967742
 10
74.1926788834
 20
128.2030235013
 10
74.1274266986
 20
128.2565754807
 10
74.0743785647
 20
128.3224358192
 10
74.0352183131
 20
128.3984932085
 10
74.0112050918
 20
128.4823094463
 10
74.0031212119
 20
128.5711981324
  0
LWPOLYLINE
  5
12E
330
1F
100
AcDbEntity
  8
0
  6
Continuous
 62
     7
370
    25
100
AcDbPolyline
 90
       17
 70
   128
 43
0.0
 10
75.9845062641
 20
128.5711981324
 10
75.9524464158
 20
128.4823094463
 10
75.9058355836
 20
128.3984932085
 10
75.8461638836
 20
128.3224358192
 10
75.7753535656
 20
128.2565754807
 10
75.6956621555
 20
128.2030235013
 10
75.6096526531
 20
128.1634967742
 10
75.5200817732
 20
128.1392623639
 10
75.4298179892
 20
128.1310969932
 10
75.3417595772
 20
128.1392623639
 10
75.2587228564
 20
128.1634967742
 10
75.1833751348
 20
128.2030235013
 10
75.11812295
 20
128.2565754807
 10
75.0650748161
 20
128.3224358192
 10
75.0259145645
 20
128.3984932085
 10
75.0019013432
 20
128.4823094463
 10
74.9938174633
 20
128.5711981324
  0
LWPOLYLINE
  5
12F
330
1F
100
AcDbEntity
  8
0
  6
Continuous
 62
     7
370
    25
100
AcDbPolyline
 90
       17
 70
   128
 43
0.0
 10
76.9752025155
 20
128.5711981324
 10
76.9431426672
 20
128.4823094463
 10
76.896531835
 20
128.3984932085
 10
76.836860135
 20
128.3224358192
 10
76.766049817
 20
128.2565754807
 10
76.6863584069
 20
128.2030235013
 10
76.6003489045
 20
128.1634967742
 10
76.5107780246
 20
128.1392623639
 10
76.4205142406
 20
128.1310969932
 10
76.3324558286
 20
128.1392623639
 10
76.2494191078
 20
128.1634967742
 10
76.1740639356
 20
128.2030235013
 10
76.1088192014
 20
128.2565754807
 10
76.0557636169
 20
128.3224358192
 10
76.0166033653
 20
128.3984932085
 10
75.9925975946
 20
128.4823094463
 10
75.9845062641
 20
128.5711981324
  0
ARC
  5
130
330
1F
100
AcDbEntity
  8
0
  6
Continuous
 62
     7
370
    25
100
AcDbCircle
 10
77.4071366157
 20
128.5617048441
 30
0.0
 40
0.432038412046506
100
AcDbArc
 50
178.7409241377
 51
279.695546031
  0
LINE
  5
131
330
1F
100
AcDbEntity
  8
0
  6
Continuous
 62
     7
370
    25
100
AcDbLine
 10
77.8684451727
 20
128.1892161785
 30
0.0
 11
77.4798973945
 21
128.1358374251
 31
0.0
  0
LINE
  5
132
330
1F
100
AcDbEntity
  8
0
  6
Continuous
 62
     7
370
    25
100
AcDbLine
 10
77.8732805995
 20
128.1896464495
 30
0.0
 11
77.8684451727
 21
128.1892161785
 31
0.0
  0
LINE
  5
133
330
1F
100
AcDbEntity
  8
0
  6
Continuous
 62
     7
370
    25
100
AcDbLine
 10
67.0539423374
 20
140.091696099
 30
0.0
 11
67.0539423374
 21
140.0915908596
 31
0.0
  0
LINE
  5
134
330
1F
100
AcDbEntity
  8
0
  6
Continuous
 62
     7
370
    25
100
AcDbLine
 10
67.0539423374
 20
140.0915908596
 30
0.0
 11
67.0539423374
 21
138.9866185343
 31
0.0
  0
ARC
  5
135
330
1F
100
AcDbEntity
  8
0
  6
Continuous
 62
     7
370
    25
100
AcDbCircle
 10
67.0350605262
 20
139.1361463195
 30
0.0
 40
0.1507152326395378
100
AcDbArc
 50
271.402957001
 51
277.1970049907
  0
LWPOLYLINE
  5
136
330
1F
100
AcDbEntity
  8
0
  6
Continuous
 62
     7
370
    25
100
AcDbPolyline
 90
       18
 70
   128
 43
0.0
 10
66.0486205963
 20
139.0304796366
 10
66.0780354885
 20
139.1172281435
 10
66.1214574722
 20
139.1993512368
 10
66.1775677947
 20
139.2743390022
 10
66.2446453718
 20
139.3399008518
 10
66.3206487445
 20
139.3940339765
 10
66.403245881
 20
139.4350838816
 10
66.4899110345
 20
139.4617965413
 10
66.57801415
 20
139.4733561171
 10
66.6648432163
 20
139.4694096377
 10
66.7477607278
 20
139.450076778
 10
66.8242260364
 20
139.4159493936
 10
66.8919071106
 20
139.3680691687
 10
66.9487252382
 20
139.3078992112
 10
66.9929593352
 20
139.2372779516
 10
67.0232459453
 20
139.1583632646
 10
67.0386686472
 20
139.0735658785
 10
67.0387506036
 20
138.9854762671
  0
LWPOLYLINE
  5
137
330
1F
100
AcDbEntity
  8
0
  6
Continuous
 62
     7
370
    25
100
AcDbPolyline
 90
       17
 70
   128
 43
0.0
 10
65.0564565805
 20
139.0304796366
 10
65.0868623999
 20
139.1200104697
 10
65.1321693806
 20
139.2045596583
 10
65.190909758
 20
139.2813746786
 10
65.261168733
 20
139.3479539981
 10
65.3406589774
 20
139.4021299636
 10
65.4267876891
 20
139.4421381844
 10
65.5167609004
 20
139.466676206
 10
65.6076430825
 20
139.4749454191
 10
65.6964689044
 20
139.466676206
 10
65.7803549913
 20
139.4421381844
 10
65.8565669803
 20
139.4021299636
 10
65.9226238278
 20
139.3479539981
 10
65.9763797668
 20
139.2813746786
 10
66.0160690097
 20
139.2045596583
 10
66.0404175071
 20
139.1200104697
 10
66.0486205963
 20
139.0304796366
  0
LWPOLYLINE
  5
138
330
1F
100
AcDbEntity
  8
0
  6
Continuous
 62
     7
370
    25
100
AcDbPolyline
 90
       17
 70
   128
 43
0.0
 10
64.0642925648
 20
139.0304796366
 10
64.0946983842
 20
139.1200104697
 10
64.1400053648
 20
139.2045596583
 10
64.1987457422
 20
139.2813746786
 10
64.2690047172
 20
139.3479539981
 10
64.3484949616
 20
139.4021299636
 10
64.4346236733
 20
139.4421381844
 10
64.5245968846
 20
139.466676206
 10
64.6154790667
 20
139.4749454191
 10
64.7043048886
 20
139.466676206
 10
64.7881909756
 20
139.4421381844
 10
64.8644029645
 20
139.4021299636
 10
64.9304598121
 20
139.3479539981
 10
64.9842157511
 20
139.2813746786
 10
65.0239124445
 20
139.2045596583
 10
65.0482534913
 20
139.1200104697
 10
65.0564565805
 20
139.0304796366
  0
LWPOLYLINE
  5
139
330
1F
100
AcDbEntity
  8
0
  6
Continuous
 62
     7
370
    25
100
AcDbPolyline
 90
       17
 70
   128
 43
0.0
 10
63.072128549
 20
139.0304796366
 10
63.1025343684
 20
139.1200104697
 10
63.147841349
 20
139.2045596583
 10
63.2065817264
 20
139.2813746786
 10
63.2768407015
 20
139.3479539981
 10
63.3563309459
 20
139.4021299636
 10
63.4424596576
 20
139.4421381844
 10
63.5324328688
 20
139.466676206
 10
63.623315051
 20
139.4749454191
 10
63.7121408728
 20
139.466676206
 10
63.7960269598
 20
139.4421381844
 10
63.8722389487
 20
139.4021299636
 10
63.9382957963
 20
139.3479539981
 10
63.9920517353
 20
139.2813746786
 10
64.0317484287
 20
139.2045596583
 10
64.0560894755
 20
139.1200104697
 10
64.0642925648
 20
139.0304796366
  0
LWPOLYLINE
  5
13A
330
1F
100
AcDbEntity
  8
0
  6
Continuous
 62
     7
370
    25
100
AcDbPolyline
 90
       17
 70
   128
 43
0.0
 10
62.0799719838
 20
139.0304796366
 10
62.1103703526
 20
139.1200104697
 10
62.1556773332
 20
139.2045596583
 10
62.2144177107
 20
139.2813746786
 10
62.2846766857
 20
139.3479539981
 10
62.3641669301
 20
139.4021299636
 10
62.4502956418
 20
139.4421381844
 10
62.5402688531
 20
139.466676206
 10
62.6311510352
 20
139.4749454191
 10
62.7199768571
 20
139.466676206
 10
62.803862944
 20
139.4421381844
 10
62.8800749329
 20
139.4021299636
 10
62.9461392311
 20
139.3479539981
 10
62.9998877195
 20
139.2813746786
 10
63.0395844129
 20
139.2045596583
 10
63.0639254598
 20
139.1200104697
 10
63.072128549
 20
139.0304796366
  0
LWPOLYLINE
  5
13B
330
1F
100
AcDbEntity
  8
0
  6
Continuous
 62
     7
370
    25
100
AcDbPolyline
 90
       17
 70
   128
 43
0.0
 10
61.087807968
 20
139.0304796366
 10
61.1182063369
 20
139.1200104697
 10
61.1635133175
 20
139.2045596583
 10
61.2222536949
 20
139.2813746786
 10
61.2925126699
 20
139.3479539981
 10
61.3720029143
 20
139.4021299636
 10
61.4581390766
 20
139.4421381844
 10
61.5481048373
 20
139.466676206
 10
61.6389870194
 20
139.4749454191
 10
61.7278128413
 20
139.466676206
 10
61.8116989282
 20
139.4421381844
 10
61.8879183678
 20
139.4021299636
 10
61.9539752153
 20
139.3479539981
 10
62.0077237038
 20
139.2813746786
 10
62.0474203972
 20
139.2045596583
 10
62.071761444
 20
139.1200104697
 10
62.0799719838
 20
139.0304796366
  0
LWPOLYLINE
  5
13C
330
1F
100
AcDbEntity
  8
0
  6
Continuous
 62
     7
370
    25
100
AcDbPolyline
 90
       17
 70
   128
 43
0.0
 10
60.0956439523
 20
139.0304796366
 10
60.1260423211
 20
139.1200104697
 10
60.1713493017
 20
139.2045596583
 10
60.2300896791
 20
139.2813746786
 10
60.3003486542
 20
139.3479539981
 10
60.3798388985
 20
139.4021299636
 10
60.4659750608
 20
139.4421381844
 10
60.5559408215
 20
139.466676206
 10
60.6468230037
 20
139.4749454191
 10
60.7356488255
 20
139.466676206
 10
60.8195349125
 20
139.4421381844
 10
60.895754352
 20
139.4021299636
 10
60.9618111996
 20
139.3479539981
 10
61.015559688
 20
139.2813746786
 10
61.0552563814
 20
139.2045596583
 10
61.0795974282
 20
139.1200104697
 10
61.087807968
 20
139.0304796366
  0
LWPOLYLINE
  5
13D
330
1F
100
AcDbEntity
  8
0
  6
Continuous
 62
     7
370
    25
100
AcDbPolyline
 90
       17
 70
   128
 43
0.0
 10
59.1034799365
 20
139.0304796366
 10
59.1338783053
 20
139.1200104697
 10
59.1791852859
 20
139.2045596583
 10
59.2379256634
 20
139.2813746786
 10
59.3081846384
 20
139.3479539981
 10
59.3876748828
 20
139.4021299636
 10
59.4738110451
 20
139.4421381844
 10
59.5637768058
 20
139.466676206
 10
59.6546589879
 20
139.4749454191
 10
59.7434848098
 20
139.466676206
 10
59.8273783473
 20
139.4421381844
 10
59.9035903362
 20
139.4021299636
 10
59.9696471838
 20
139.3479539981
 10
60.0233956722
 20
139.2813746786
 10
60.0630923656
 20
139.2045596583
 10
60.0874334124
 20
139.1200104697
 10
60.0956439523
 20
139.0304796366
  0
LWPOLYLINE
  5
13E
330
1F
100
AcDbEntity
  8
0
  6
Continuous
 62
     7
370
    25
100
AcDbPolyline
 90
       17
 70
   128
 43
0.0
 10
58.1113159207
 20
139.0304796366
 10
58.1417142896
 20
139.1200104697
 10
58.1870212702
 20
139.2045596583
 10
58.2457616476
 20
139.2813746786
 10
58.3160206226
 20
139.3479539981
 10
58.395510867
 20
139.4021299636
 10
58.4816470293
 20
139.4421381844
 10
58.57161279
 20
139.466676206
 10
58.6624949721
 20
139.4749454191
 10
58.751320794
 20
139.466676206
 10
58.8352143315
 20
139.4421381844
 10
58.9114263204
 20
139.4021299636
 10
58.977483168
 20
139.3479539981
 10
59.0312316564
 20
139.2813746786
 10
59.0709283499
 20
139.2045596583
 10
59.0952768473
 20
139.1200104697
 10
59.1034799365
 20
139.0304796366
  0
LWPOLYLINE
  5
13F
330
1F
100
AcDbEntity
  8
0
  6
Continuous
 62
     7
370
    25
100
AcDbPolyline
 90
       17
 70
   128
 43
0.0
 10
57.1191519049
 20
139.0304796366
 10
57.1495502738
 20
139.1200104697
 10
57.194864705
 20
139.2045596583
 10
57.2535976318
 20
139.2813746786
 10
57.3238566068
 20
139.3479539981
 10
57.4033468512
 20
139.4021299636
 10
57.4894830135
 20
139.4421381844
 10
57.5794487742
 20
139.466676206
 10
57.6703309563
 20
139.4749454191
 10
57.7591642288
 20
139.466676206
 10
57.8430503157
 20
139.4421381844
 10
57.9192623047
 20
139.4021299636
 10
57.9853191522
 20
139.3479539981
 10
58.0390676407
 20
139.2813746786
 10
58.0787643341
 20
139.2045596583
 10
58.1031128315
 20
139.1200104697
 10
58.1113159207
 20
139.0304796366
  0
LWPOLYLINE
  5
140
330
1F
100
AcDbEntity
  8
0
  6
Continuous
 62
     7
370
    25
100
AcDbPolyline
 90
       17
 70
   128
 43
0.0
 10
56.1269878892
 20
139.0304796366
 10
56.157386258
 20
139.1200104697
 10
56.2027006892
 20
139.2045596583
 10
56.2614410666
 20
139.2813746786
 10
56.3316925911
 20
139.3479539981
 10
56.4111828355
 20
139.4021299636
 10
56.4973189977
 20
139.4421381844
 10
56.5872847585
 20
139.466676206
 10
56.6781669406
 20
139.4749454191
 10
56.767000213
 20
139.466676206
 10
56.8508863
 20
139.4421381844
 10
56.9270982889
 20
139.4021299636
 10
56.9931551365
 20
139.3479539981
 10
57.0469036249
 20
139.2813746786
 10
57.0866003183
 20
139.2045596583
 10
57.1109488157
 20
139.1200104697
 10
57.1191519049
 20
139.0304796366
  0
ARC
  5
141
330
1F
100
AcDbEntity
  8
0
  6
Continuous
 62
     7
370
    25
100
AcDbCircle
 10
55.6867111244
 20
139.0369031601
 30
0.0
 40
0.4403236210084167
100
AcDbArc
 50
359.1641287761
 51
105.3385567701
  0
LINE
  5
142
330
1F
100
AcDbEntity
  8
0
  6
Continuous
 62
     7
370
    25
100
AcDbLine
 10
55.240637019
 20
139.4200351058
 30
0.0
 11
55.5702358035
 21
139.4615422903
 31
0.0
  0
LINE
  5
143
330
1F
100
AcDbEntity
  8
0
  6
Continuous
 62
     7
370
    25
100
AcDbLine
 10
55.2362039236
 20
139.4196737526
 30
0.0
 11
55.240637019
 21
139.4200351058
 31
0.0
  0
ARC
  5
144
330
1F
100
AcDbEntity
  8
0
  6
Continuous
 62
     7
370
    25
100
AcDbCircle
 10
77.4077704581
 20
139.039224169
 30
0.0
 40
0.4326566032921063
100
AcDbArc
 50
80.4035810655
 51
181.1599487658
  0
LWPOLYLINE
  5
145
330
1F
100
AcDbEntity
  8
0
  6
Continuous
 62
     7
370
    25
100
AcDbPolyline
 90
       17
 70
   128
 43
0.0
 10
75.9845062641
 20
139.0304656668
 10
75.9925975946
 20
139.1193543529
 10
76.0166033653
 20
139.2031705907
 10
76.0557636169
 20
139.27922798
 10
76.1088192014
 20
139.3450883185
 10
76.1740639356
 20
139.3986402979
 10
76.2494191078
 20
139.438167025
 10
76.3324558286
 20
139.4624014353
 10
76.4205142406
 20
139.470566806
 10
76.5107780246
 20
139.4624014353
 10
76.6003489045
 20
139.438167025
 10
76.6863584069
 20
139.3986402979
 10
76.766049817
 20
139.3450883185
 10
76.836860135
 20
139.27922798
 10
76.896531835
 20
139.2031705907
 10
76.9431426672
 20
139.1193543529
 10
76.9752025155
 20
139.0304656668
  0
LWPOLYLINE
  5
146
330
1F
100
AcDbEntity
  8
0
  6
Continuous
 62
     7
370
    25
100
AcDbPolyline
 90
       17
 70
   128
 43
0.0
 10
74.9938174633
 20
139.0304656668
 10
75.0019013432
 20
139.1193543529
 10
75.0259145645
 20
139.2031705907
 10
75.0650748161
 20
139.27922798
 10
75.11812295
 20
139.3450883185
 10
75.1833751348
 20
139.3986402979
 10
75.2587228564
 20
139.438167025
 10
75.3417595772
 20
139.4624014353
 10
75.4298179892
 20
139.470566806
 10
75.5200817732
 20
139.4624014353
 10
75.6096526531
 20
139.438167025
 10
75.6956621555
 20
139.3986402979
 10
75.7753535656
 20
139.3450883185
 10
75.8461638836
 20
139.27922798
 10
75.9058355836
 20
139.2031705907
 10
75.9524464158
 20
139.1193543529
 10
75.9845062641
 20
139.0304656668
  0
LWPOLYLINE
  5
147
330
1F
100
AcDbEntity
  8
0
  6
Continuous
 62
     7
370
    25
100
AcDbPolyline
 90
       17
 70
   128
 43
0.0
 10
74.0031212119
 20
139.0304656668
 10
74.0112050918
 20
139.1193543529
 10
74.0352183131
 20
139.2031705907
 10
74.0743785647
 20
139.27922798
 10
74.1274266986
 20
139.3450883185
 10
74.1926788834
 20
139.3986402979
 10
74.268026605
 20
139.438167025
 10
74.3510633258
 20
139.4624014353
 10
74.4391217378
 20
139.470566806
 10
74.5293855218
 20
139.4624014353
 10
74.6189638523
 20
139.438167025
 10
74.7049659041
 20
139.3986402979
 10
74.7846573142
 20
139.3450883185
 10
74.8554750828
 20
139.27922798
 10
74.9151393322
 20
139.2031705907
 10
74.9617501644
 20
139.1193543529
 10
74.9938174633
 20
139.0304656668
  0
LWPOLYLINE
  5
148
330
1F
100
AcDbEntity
  8
0
  6
Continuous
 62
     7
370
    25
100
AcDbPolyline
 90
       17
 70
   128
 43
0.0
 10
73.0124249605
 20
139.0304656668
 10
73.020516291
 20
139.1193543529
 10
73.0445220617
 20
139.2031705907
 10
73.0836823133
 20
139.27922798
 10
73.1367378978
 20
139.3450883185
 10
73.201982632
 20
139.3986402979
 10
73.2773303536
 20
139.438167025
 10
73.3603670744
 20
139.4624014353
 10
73.448432937
 20
139.470566806
 10
73.538696721
 20
139.4624014353
 10
73.6282676009
 20
139.438167025
 10
73.7142771033
 20
139.3986402979
 10
73.7939610628
 20
139.3450883185
 10
73.8647788314
 20
139.27922798
 10
73.9244505314
 20
139.2031705907
 10
73.9710613636
 20
139.1193543529
 10
74.0031212119
 20
139.0304656668
  0
LWPOLYLINE
  5
149
330
1F
100
AcDbEntity
  8
0
  6
Continuous
 62
     7
370
    25
100
AcDbPolyline
 90
       17
 70
   128
 43
0.0
 10
72.0217287091
 20
139.0304656668
 10
72.0298200396
 20
139.1193543529
 10
72.0538258103
 20
139.2031705907
 10
72.0929860619
 20
139.27922798
 10
72.1460416464
 20
139.3450883185
 10
72.2112863807
 20
139.3986402979
 10
72.2866341022
 20
139.438167025
 10
72.369670823
 20
139.4624014353
 10
72.4577366856
 20
139.470566806
 10
72.5480004696
 20
139.4624014353
 10
72.6375713495
 20
139.438167025
 10
72.7235808519
 20
139.3986402979
 10
72.8032648114
 20
139.3450883185
 10
72.87408258
 20
139.27922798
 10
72.93375428
 20
139.2031705907
 10
72.9803651122
 20
139.1193543529
 10
73.0124249605
 20
139.0304656668
  0
LWPOLYLINE
  5
14A
330
1F
100
AcDbEntity
  8
0
  6
Continuous
 62
     7
370
    25
100
AcDbPolyline
 90
       17
 70
   128
 43
0.0
 10
71.0310324577
 20
139.0304656668
 10
71.0391237882
 20
139.1193543529
 10
71.0631295589
 20
139.2031705907
 10
71.1022898105
 20
139.27922798
 10
71.155345395
 20
139.3450883185
 10
71.2205901293
 20
139.3986402979
 10
71.2959453014
 20
139.438167025
 10
71.3789820222
 20
139.4624014353
 10
71.4670404343
 20
139.470566806
 10
71.5573042182
 20
139.4624014353
 10
71.6468750981
 20
139.438167025
 10
71.7328846005
 20
139.3986402979
 10
71.8125760106
 20
139.3450883185
 10
71.8833863286
 20
139.27922798
 10
71.9430580286
 20
139.2031705907
 10
71.9896688608
 20
139.1193543529
 10
72.0217287091
 20
139.0304656668
  0
LWPOLYLINE
  5
14B
330
1F
100
AcDbEntity
  8
0
  6
Continuous
 62
     7
370
    25
100
AcDbPolyline
 90
       17
 70
   128
 43
0.0
 10
70.0403436569
 20
139.0304656668
 10
70.0484275369
 20
139.1193543529
 10
70.0724407581
 20
139.2031705907
 10
70.1116010097
 20
139.27922798
 10
70.1646491436
 20
139.3450883185
 10
70.2299013285
 20
139.3986402979
 10
70.30524905
 20
139.438167025
 10
70.3882857708
 20
139.4624014353
 10
70.4763441829
 20
139.470566806
 10
70.5666079668
 20
139.4624014353
 10
70.6561788467
 20
139.438167025
 10
70.7421883491
 20
139.3986402979
 10
70.8218797592
 20
139.3450883185
 10
70.8926900772
 20
139.27922798
 10
70.9523617772
 20
139.2031705907
 10
70.9989726094
 20
139.1193543529
 10
71.0310324577
 20
139.0304656668
  0
LWPOLYLINE
  5
14C
330
1F
100
AcDbEntity
  8
0
  6
Continuous
 62
     7
370
    25
100
AcDbPolyline
 90
       17
 70
   128
 43
0.0
 10
69.0496474055
 20
139.0304656668
 10
69.0577312855
 20
139.1193543529
 10
69.0817445067
 20
139.2031705907
 10
69.1209047583
 20
139.27922798
 10
69.1739528922
 20
139.3450883185
 10
69.2392050771
 20
139.3986402979
 10
69.3145527986
 20
139.438167025
 10
69.3975895194
 20
139.4624014353
 10
69.4856479315
 20
139.470566806
 10
69.5759117154
 20
139.4624014353
 10
69.6654900459
 20
139.438167025
 10
69.7514920977
 20
139.3986402979
 10
69.8311835078
 20
139.3450883185
 10
69.9020012764
 20
139.27922798
 10
69.9616655258
 20
139.2031705907
 10
70.008276358
 20
139.1193543529
 10
70.0403436569
 20
139.0304656668
  0
LWPOLYLINE
  5
14D
330
1F
100
AcDbEntity
  8
0
  6
Continuous
 62
     7
370
    25
100
AcDbPolyline
 90
       17
 70
   128
 43
0.0
 10
68.0589511541
 20
139.0304656668
 10
68.0670424846
 20
139.1193543529
 10
68.0910482553
 20
139.2031705907
 10
68.130208507
 20
139.27922798
 10
68.1832640914
 20
139.3450883185
 10
68.2485088257
 20
139.3986402979
 10
68.3238565472
 20
139.438167025
 10
68.406893268
 20
139.4624014353
 10
68.4949591307
 20
139.470566806
 10
68.5852229146
 20
139.4624014353
 10
68.6747937945
 20
139.438167025
 10
68.7608032969
 20
139.3986402979
 10
68.8404872564
 20
139.3450883185
 10
68.911305025
 20
139.27922798
 10
68.970976725
 20
139.2031705907
 10
69.0175875572
 20
139.1193543529
 10
69.0496474055
 20
139.0304656668
  0
LWPOLYLINE
  5
14E
330
1F
100
AcDbEntity
  8
0
  6
Continuous
 62
     7
370
    25
100
AcDbPolyline
 90
       17
 70
   128
 43
0.0
 10
67.0703261641
 20
138.9852648569
 10
67.0708775071
 20
139.0781931547
 10
67.0884757785
 20
139.167099536
 10
67.122539833
 20
139.2489655843
 10
67.1718924788
 20
139.3210126987
 10
67.2348796872
 20
139.3807947604
 10
67.3093482403
 20
139.4262824176
 10
67.3927723912
 20
139.4559320031
 10
67.4823209194
 20
139.4687367571
 10
67.5749614385
 20
139.4642617522
 10
67.667542353
 20
139.4426597251
 10
67.7569195179
 20
139.404663161
 10
67.8400679973
 20
139.3515619418
 10
67.9141491202
 20
139.2851586422
 10
67.976666942
 20
139.2077079942
 10
68.0254831461
 20
139.1218386559
 10
68.0589511541
 20
139.0304656668
  0
ARC
  5
14F
330
1F
100
AcDbEntity
  8
0
  6
Continuous
 62
     7
370
    25
100
AcDbCircle
 10
67.0745409907
 20
139.1361029405
 30
0.0
 40
0.1508969589505543
100
AcDbArc
 50
262.1541664176
 51
268.3994164653
  0
LINE
  5
150
330
1F
100
AcDbEntity
  8
0
  6
Continuous
 62
     7
370
    25
100
AcDbLine
 10
77.8684451727
 20
139.4124476207
 30
0.0
 11
77.8732805995
 21
139.4120173497
 31
0.0
  0
LINE
  5
151
330
1F
100
AcDbEntity
  8
0
  6
Continuous
 62
     7
370
    25
100
AcDbLine
 10
77.4798973945
 20
139.4658263741
 30
0.0
 11
77.8684451727
 21
139.4124476207
 31
0.0
  0
SPLINE
  5
152
330
1F
100
AcDbEntity
  8
0
  6
Continuous
 62
     7
370
    25
100
AcDbSpline
210
0.0
220
0.0
230
1.0
 70
     8
 71
     3
 72
    13
 73
     9
 74
     0
 42
0.00000001
 43
0.00000001
 40
0.0
 40
0.0
 40
0.0
 40
0.0
 40
0.2902729059231568
 40
0.5442301902547373
 40
0.7535788930418926
 40
0.9196258667419632
 40
0.9925809864809558
 40
1.0
 40
1.0
 40
1.0
 40
1.0
 10
67.03875060356552
 20
138.9854762671494
 30
0.0
 10
67.02337566584963
 20
138.9845554316114
 30
0.0
 10
66.99454932654086
 20
138.9828289649319
 30
0.0
 10
66.95553257603564
 20
138.9730412981531
 30
0.0
 10
66.92518184325755
 20
138.9588609752712
 30
0.0
 10
66.90745758645912
 20
138.9413126978488
 30
0.0
 10
66.90399909880226
 20
138.9282979299618
 30
0.0
 10
66.90395163043937
 20
138.9240397483867
 30
0.0
 10
66.90394724882538
 20
138.9236466927432
 30
0.0
  0
LWPOLYLINE
  5
153
330
1F
100
AcDbEntity
  8
0
  6
Continuous
 62
     7
370
    25
100
AcDbPolyline
 90
       17
 70
   128
 43
0.0
 10
66.9039472488
 20
138.9236466927
 10
66.89818795
 20
139.0131197838
 10
66.8811112193
 20
139.0976210093
 10
66.8532683996
 20
139.1744034333
 10
66.8155684618
 20
139.2409711113
 10
66.7692333011
 20
139.2951596497
 10
66.7157604841
 20
139.3352079174
 10
66.6569008974
 20
139.3598143911
 10
66.5945693401
 20
139.3681785991
 10
66.530777469
 20
139.3600285953
 10
66.4676114467
 20
139.3356298065
 10
66.4071201829
 20
139.2957752539
 10
66.3512706307
 20
139.2417604072
 10
66.3018807319
 20
139.1753408095
 10
66.2605523614
 20
139.0986761978
 10
66.2286340741
 20
139.0142583257
 10
66.2071540502
 20
138.9248318007
  0
ARC
  5
154
330
1F
100
AcDbEntity
  8
0
  6
Continuous
 62
     7
370
    25
100
AcDbCircle
 10
66.0492266173
 20
138.8596187206
 30
0.0
 40
0.1708619907609598
100
AcDbArc
 50
22.4372315287
 51
90.2032196874
  0
ARC
  5
155
330
1F
100
AcDbEntity
  8
0
  6
Continuous
 62
     7
370
    25
100
AcDbCircle
 10
68.060410451
 20
138.8560025322
 30
0.0
 40
0.1744692375588172
100
AcDbArc
 50
90.4792393771
 51
156.7416589223
  0
LWPOLYLINE
  5
156
330
1F
100
AcDbEntity
  8
0
  6
Continuous
 62
     7
370
    25
100
AcDbPolyline
 90
       17
 70
   128
 43
0.0
 10
67.900119677
 20
138.9248965276
 10
67.8774401096
 20
139.0136604166
 10
67.844568148
 20
139.0973206578
 10
67.8025468735
 20
139.1732001645
 10
67.7527322916
 20
139.2388714446
 10
67.6967039255
 20
139.2922334341
 10
67.6362648157
 20
139.3315785533
 10
67.5733446626
 20
139.3556485852
 10
67.5099551228
 20
139.3636733262
 10
67.448130205
 20
139.3553952655
 10
67.389844313
 20
139.33107983
 10
67.336960092
 20
139.2915051399
 10
67.2911688236
 20
139.237937328
 10
67.2539382724
 20
139.1720895624
 10
67.2264679817
 20
139.0960694259
 10
67.209622219
 20
139.0123090675
 10
67.2039448766
 20
138.9234879022
  0
SPLINE
  5
157
330
1F
100
AcDbEntity
  8
0
  6
Continuous
 62
     7
370
    25
100
AcDbSpline
210
0.0
220
0.0
230
1.0
 70
     8
 71
     3
 72
    13
 73
     9
 74
     0
 42
0.00000001
 43
0.00000001
 40
0.0
 40
0.0
 40
0.0
 40
0.0
 40
0.007472592514522
 40
0.0769411151214703
 40
0.2430847722788743
 40
0.4528565564907681
 40
0.7077942696166739
 40
1.0
 40
1.0
 40
1.0
 40
1.0
 10
67.2039448765605
 20
138.9234879022442
 30
0.0
 10
67.2039405035005
 20
138.9238808014828
 30
0.0
 10
67.20389547654223
 20
138.9279262656894
 30
0.0
 10
67.20066081877151
 20
138.9406708400457
 30
0.0
 10
67.1834124243819
 20
138.9582552202374
 30
0.0
 10
67.1532875360463
 20
138.9725358579419
 30
0.0
 10
67.11444101310369
 20
138.9824748908374
 30
0.0
 10
67.08568402956783
 20
138.9842935757183
 30
0.0
 10
67.07032616413528
 20
138.9852648569249
 30
0.0
  0
ARC
  5
158
330
1F
100
AcDbEntity
  8
0
  6
Continuous
 62
     7
370
    25
100
AcDbCircle
 10
66.0492266173
 20
128.7420450786
 30
0.0
 40
0.1708619907609729
100
AcDbArc
 50
269.7967803126
 51
337.5627684713
  0
LWPOLYLINE
  5
159
330
1F
100
AcDbEntity
  8
0
  6
Continuous
 62
     7
370
    25
100
AcDbPolyline
 90
       17
 70
   128
 43
0.0
 10
66.2071540502
 20
128.6768319985
 10
66.2286340741
 20
128.5874054736
 10
66.2605523614
 20
128.5029876014
 10
66.3018807319
 20
128.4263229897
 10
66.3512706307
 20
128.359903392
 10
66.4071201829
 20
128.3058885453
 10
66.4676114467
 20
128.2660339927
 10
66.530777469
 20
128.2416352039
 10
66.5945693401
 20
128.2334852001
 10
66.6569008974
 20
128.2418494081
 10
66.7157604841
 20
128.2664558819
 10
66.7692333011
 20
128.3065041495
 10
66.8155684618
 20
128.3606926879
 10
66.8532683996
 20
128.4272603659
 10
66.8811112193
 20
128.5040427899
 10
66.89818795
 20
128.5885440154
 10
66.9039472488
 20
128.6780171065
  0
SPLINE
  5
15A
330
1F
100
AcDbEntity
  8
0
  6
Continuous
 62
     7
370
    25
100
AcDbSpline
210
0.0
220
0.0
230
1.0
 70
     8
 71
     3
 72
    13
 73
     9
 74
     0
 42
0.00000001
 43
0.00000001
 40
0.0
 40
0.0
 40
0.0
 40
0.0
 40
0.007419013519044
 40
0.0803741332580367
 40
0.2464211069581073
 40
0.4557698097452626
 40
0.7097270940768431
 40
0.9999999999999999
 40
0.9999999999999999
 40
0.9999999999999999
 40
0.9999999999999999
 10
66.90394724882538
 20
128.6780171064638
 30
0.0
 10
66.90395163043935
 20
128.6776240508203
 30
0.0
 10
66.90399909880226
 20
128.6733658692452
 30
0.0
 10
66.90745758645909
 20
128.6603511013582
 30
0.0
 10
66.92518184325756
 20
128.6428028239358
 30
0.0
 10
66.95553257603561
 20
128.6286225010539
 30
0.0
 10
66.99454932654085
 20
128.6188348342752
 30
0.0
 10
67.02337566584963
 20
128.6171083675956
 30
0.0
 10
67.03875060356552
 20
128.6161875320577
 30
0.0
  0
LINE
  5
15B
330
1F
100
AcDbEntity
  8
0
  6
Continuous
 62
     7
370
    25
100
AcDbLine
 10
66.9039472488
 20
138.9236466927
 30
0.0
 11
66.9039472488
 21
128.6780171065
 31
0.0
  0
LINE
  5
15C
330
1F
100
AcDbEntity
  8
0
  6
Continuous
 62
     7
370
    25
100
AcDbLine
 10
67.2039448766
 20
138.9234879022
 30
0.0
 11
67.2039448766
 21
128.678175897
 31
0.0
  0
ARC
  5
15D
330
1F
100
AcDbEntity
  8
0
  6
Continuous
 62
     7
370
    25
100
AcDbCircle
 10
66.0391718505
 20
138.9014471791
 30
0.0
 40
0.1293779498090101
100
AcDbArc
 50
85.8118391252
 51
169.5867511424
  0
LINE
  5
15E
330
1F
100
AcDbEntity
  8
0
  6
Continuous
 62
     7
370
    25
100
AcDbLine
 10
66.2071540502
 20
138.9248318007
 30
0.0
 11
65.9119247941
 21
138.9248318007
 31
0.0
  0
LINE
  5
15F
330
1F
100
AcDbEntity
  8
0
  6
Continuous
 62
     7
370
    25
100
AcDbLine
 10
66.2071540502
 20
138.9248318007
 30
0.0
 11
66.2071540502
 21
128.6768319985
 31
0.0
  0
LINE
  5
160
330
1F
100
AcDbEntity
  8
0
  6
Continuous
 62
     7
370
    25
100
AcDbLine
 10
65.9119247941
 20
128.6768319985
 30
0.0
 11
66.2071540502
 21
128.6768319985
 31
0.0
  0
LINE
  5
161
330
1F
100
AcDbEntity
  8
0
  6
Continuous
 62
     7
370
    25
100
AcDbLine
 10
65.9119247941
 20
138.9248318007
 30
0.0
 11
65.9119247941
 21
128.6768319985
 31
0.0
  0
ARC
  5
162
330
1F
100
AcDbEntity
  8
0
  6
Continuous
 62
     7
370
    25
100
AcDbCircle
 10
66.0391718505
 20
128.7002166202
 30
0.0
 40
0.1293779498090101
100
AcDbArc
 50
190.4132488576
 51
274.1881608748
  0
LINE
  5
163
330
1F
100
AcDbEntity
  8
0
  6
Continuous
 62
     7
370
    25
100
AcDbLine
 10
68.1944474129
 20
138.9248965276
 30
0.0
 11
67.900119677
 21
138.9248965276
 31
0.0
  0
LINE
  5
164
330
1F
100
AcDbEntity
  8
0
  6
Continuous
 62
     7
370
    25
100
AcDbLine
 10
68.1944474129
 20
138.9248965276
 30
0.0
 11
68.1944474129
 21
128.6767672716
 31
0.0
  0
LINE
  5
165
330
1F
100
AcDbEntity
  8
0
  6
Continuous
 62
     7
370
    25
100
AcDbLine
 10
67.900119677
 20
128.6767672716
 30
0.0
 11
68.1944474129
 21
128.6767672716
 31
0.0
  0
LINE
  5
166
330
1F
100
AcDbEntity
  8
0
  6
Continuous
 62
     7
370
    25
100
AcDbLine
 10
67.900119677
 20
138.9248965276
 30
0.0
 11
67.900119677
 21
128.6767672716
 31
0.0
  0
ARC
  5
167
330
1F
100
AcDbEntity
  8
0
  6
Continuous
 62
     7
370
    25
100
AcDbCircle
 10
68.0675790977
 20
128.6998624909
 30
0.0
 40
0.1289533192720085
100
AcDbArc
 50
266.1636169463
 51
349.6828028287
  0
ARC
  5
168
330
1F
100
AcDbEntity
  8
0
  6
Continuous
 62
     7
370
    25
100
AcDbCircle
 10
68.0675790977
 20
138.9018013083
 30
0.0
 40
0.1289533192720003
100
AcDbArc
 50
10.3171971713
 51
93.8363830537
  0
LWPOLYLINE
  5
169
330
1F
100
AcDbEntity
  8
0
  6
Continuous
 62
     7
370
    25
100
AcDbPolyline
 90
       17
 70
   128
 43
0.0
 10
65.2150794414
 20
128.6768319985
 10
65.2364328054
 20
128.5873011654
 10
65.2682542352
 20
128.5027519768
 10
65.3095155505
 20
128.4259369565
 10
65.3588607458
 20
128.359357637
 10
65.4146879462
 20
128.3051821372
 10
65.4751792101
 20
128.2651734507
 10
65.5383750347
 20
128.2406354291
 10
65.6022041587
 20
128.232366216
 10
65.6645953206
 20
128.2406354291
 10
65.7235070614
 20
128.2651734507
 10
65.777039483
 20
128.3051821372
 10
65.8234342483
 20
128.359357637
 10
65.8611863402
 20
128.4259369565
 10
65.8890664128
 20
128.5027519768
 10
65.9061654953
 20
128.5873011654
 10
65.9119247941
 20
128.6768319985
  0
ARC
  5
16A
330
1F
100
AcDbEntity
  8
0
  6
Continuous
 62
     7
370
    25
100
AcDbCircle
 10
65.0573781399
 20
128.7417050074
 30
0.0
 40
0.1705233349856172
100
AcDbArc
 50
269.6903548579
 51
337.6393829403
  0
LWPOLYLINE
  5
16B
330
1F
100
AcDbEntity
  8
0
  6
Continuous
 62
     7
370
    25
100
AcDbPolyline
 90
       17
 70
   128
 43
0.0
 10
65.9119247941
 20
138.9248318007
 10
65.9061654953
 20
139.0143626338
 10
65.8890664128
 20
139.0989118224
 10
65.8611863402
 20
139.1757268427
 10
65.8234342483
 20
139.2423061622
 10
65.777039483
 20
139.2964816621
 10
65.7235070614
 20
139.3364903485
 10
65.6645953206
 20
139.3610283701
 10
65.6022041587
 20
139.3692975832
 10
65.5383750347
 20
139.3610283701
 10
65.4751792101
 20
139.3364903485
 10
65.4146879462
 20
139.2964816621
 10
65.3588607458
 20
139.2423061622
 10
65.3095155505
 20
139.1757268427
 10
65.2682542352
 20
139.0989118224
 10
65.2364328054
 20
139.0143626338
 10
65.2150794414
 20
138.9248318007
  0
ARC
  5
16C
330
1F
100
AcDbEntity
  8
0
  6
Continuous
 62
     7
370
    25
100
AcDbCircle
 10
65.0573781399
 20
138.8599587918
 30
0.0
 40
0.1705233349856172
100
AcDbArc
 50
22.3606170597
 51
90.3096451421
  0
ARC
  5
16D
330
1F
100
AcDbEntity
  8
0
  6
Continuous
 62
     7
370
    25
100
AcDbCircle
 10
69.0507437703
 20
138.8563679142
 30
0.0
 40
0.1741012046539782
100
AcDbArc
 50
90.3608101899
 51
156.8204600205
  0
LWPOLYLINE
  5
16E
330
1F
100
AcDbEntity
  8
0
  6
Continuous
 62
     7
370
    25
100
AcDbPolyline
 90
       17
 70
   128
 43
0.0
 10
68.8906967191
 20
138.9248965276
 10
68.8681661633
 20
139.0137852138
 10
68.8354059604
 20
139.0976014515
 10
68.7934740929
 20
139.1736588409
 10
68.7437042145
 20
139.2395191794
 10
68.6876982001
 20
139.2930711588
 10
68.6272516397
 20
139.3325978858
 10
68.5643016843
 20
139.3568322962
 10
68.5008674411
 20
139.3649976669
 10
68.4389829186
 20
139.3568322962
 10
68.3806225208
 20
139.3325978858
 10
68.3276637939
 20
139.2930711588
 10
68.2818129209
 20
139.2395191794
 10
68.244522765
 20
139.1736588409
 10
68.2170077709
 20
139.0976014515
 10
68.2001322059
 20
139.0137852138
 10
68.1944474129
 20
138.9248965276
  0
LWPOLYLINE
  5
16F
330
1F
100
AcDbEntity
  8
0
  6
Continuous
 62
     7
370
    25
100
AcDbPolyline
 90
       17
 70
   128
 43
0.0
 10
68.1944474129
 20
128.6767672716
 10
68.2001322059
 20
128.5878785854
 10
68.2170077709
 20
128.5040623477
 10
68.244522765
 20
128.4280049583
 10
68.2818129209
 20
128.3621446198
 10
68.3276637939
 20
128.3085926404
 10
68.3806225208
 20
128.2690659134
 10
68.4389829186
 20
128.244831503
 10
68.5008674411
 20
128.2366661323
 10
68.5643016843
 20
128.244831503
 10
68.6272516397
 20
128.2690659134
 10
68.6876982001
 20
128.3085926404
 10
68.7437042145
 20
128.3621446198
 10
68.7934740929
 20
128.4280049583
 10
68.8354059604
 20
128.5040623477
 10
68.8681661633
 20
128.5878785854
 10
68.8906967191
 20
128.6767672716
  0
ARC
  5
170
330
1F
100
AcDbEntity
  8
0
  6
Continuous
 62
     7
370
    25
100
AcDbCircle
 10
69.0507437703
 20
128.745295885
 30
0.0
 40
0.1741012046539782
100
AcDbArc
 50
203.1795399795
 51
269.6391898101
  0
ARC
  5
171
330
1F
100
AcDbEntity
  8
0
  6
Continuous
 62
     7
370
    25
100
AcDbCircle
 10
65.0470078347
 20
128.7002166202
 30
0.0
 40
0.1293779498090101
100
AcDbArc
 50
190.4132488576
 51
274.1881608748
  0
LINE
  5
172
330
1F
100
AcDbEntity
  8
0
  6
Continuous
 62
     7
370
    25
100
AcDbLine
 10
64.9197607783
 20
128.6768319985
 30
0.0
 11
65.2150794414
 21
128.6768319985
 31
0.0
  0
LINE
  5
173
330
1F
100
AcDbEntity
  8
0
  6
Continuous
 62
     7
370
    25
100
AcDbLine
 10
65.2150794414
 20
138.9248318007
 30
0.0
 11
64.9197607783
 21
138.9248318007
 31
0.0
  0
LINE
  5
174
330
1F
100
AcDbEntity
  8
0
  6
Continuous
 62
     7
370
    25
100
AcDbLine
 10
65.2150794414
 20
138.9248318007
 30
0.0
 11
65.2150794414
 21
128.6768319985
 31
0.0
  0
LINE
  5
175
330
1F
100
AcDbEntity
  8
0
  6
Continuous
 62
     7
370
    25
100
AcDbLine
 10
64.9197607783
 20
138.9248318007
 30
0.0
 11
64.9197607783
 21
128.6768319985
 31
0.0
  0
ARC
  5
176
330
1F
100
AcDbEntity
  8
0
  6
Continuous
 62
     7
370
    25
100
AcDbCircle
 10
65.0470078347
 20
138.9014471791
 30
0.0
 40
0.1293779498090101
100
AcDbArc
 50
85.8118391252
 51
169.5867511424
  0
LINE
  5
177
330
1F
100
AcDbEntity
  8
0
  6
Continuous
 62
     7
370
    25
100
AcDbLine
 10
69.1851436642
 20
138.9248965276
 30
0.0
 11
68.8906967191
 21
138.9248965276
 31
0.0
  0
LINE
  5
178
330
1F
100
AcDbEntity
  8
0
  6
Continuous
 62
     7
370
    25
100
AcDbLine
 10
69.1851436642
 20
138.9248965276
 30
0.0
 11
69.1851436642
 21
128.6767672716
 31
0.0
  0
LINE
  5
179
330
1F
100
AcDbEntity
  8
0
  6
Continuous
 62
     7
370
    25
100
AcDbLine
 10
68.8906967191
 20
128.6767672716
 30
0.0
 11
69.1851436642
 21
128.6767672716
 31
0.0
  0
LINE
  5
17A
330
1F
100
AcDbEntity
  8
0
  6
Continuous
 62
     7
370
    25
100
AcDbLine
 10
68.8906967191
 20
138.9248965276
 30
0.0
 11
68.8906967191
 21
128.6767672716
 31
0.0
  0
ARC
  5
17B
330
1F
100
AcDbEntity
  8
0
  6
Continuous
 62
     7
370
    25
100
AcDbCircle
 10
69.0582643857
 20
128.6998765623
 30
0.0
 40
0.1289666261321724
100
AcDbArc
 50
266.1688950051
 51
349.67752477
  0
ARC
  5
17C
330
1F
100
AcDbEntity
  8
0
  6
Continuous
 62
     7
370
    25
100
AcDbCircle
 10
69.0582643857
 20
138.9017872369
 30
0.0
 40
0.1289666261321774
100
AcDbArc
 50
10.3224752301
 51
93.8311049949
  0
LWPOLYLINE
  5
17D
330
1F
100
AcDbEntity
  8
0
  6
Continuous
 62
     7
370
    25
100
AcDbPolyline
 90
       17
 70
   128
 43
0.0
 10
64.9197607783
 20
138.9248318007
 10
64.9140014795
 20
139.0143626338
 10
64.896902397
 20
139.0989118224
 10
64.8690223245
 20
139.1757268427
 10
64.8312702326
 20
139.2423061622
 10
64.7848754672
 20
139.2964816621
 10
64.7313430456
 20
139.3364903485
 10
64.6724313048
 20
139.3610283701
 10
64.6100401429
 20
139.3692975832
 10
64.5462110189
 20
139.3610283701
 10
64.4830226449
 20
139.3364903485
 10
64.4225239304
 20
139.2964816621
 10
64.36669673
 20
139.2423061622
 10
64.3173515347
 20
139.1757268427
 10
64.2760902194
 20
139.0989118224
 10
64.2442687897
 20
139.0143626338
 10
64.2229154257
 20
138.9248318007
  0
ARC
  5
17E
330
1F
100
AcDbEntity
  8
0
  6
Continuous
 62
     7
370
    25
100
AcDbCircle
 10
64.0652141242
 20
138.8599587918
 30
0.0
 40
0.1705233349856172
100
AcDbArc
 50
22.3606170597
 51
90.3096451421
  0
ARC
  5
17F
330
1F
100
AcDbEntity
  8
0
  6
Continuous
 62
     7
370
    25
100
AcDbCircle
 10
64.0652141242
 20
128.7417050074
 30
0.0
 40
0.1705233349856172
100
AcDbArc
 50
269.6903548579
 51
337.6393829403
  0
LWPOLYLINE
  5
180
330
1F
100
AcDbEntity
  8
0
  6
Continuous
 62
     7
370
    25
100
AcDbPolyline
 90
       17
 70
   128
 43
0.0
 10
64.2229154257
 20
128.6768319985
 10
64.2442687897
 20
128.5873011654
 10
64.2760902194
 20
128.5027519768
 10
64.3173515347
 20
128.4259369565
 10
64.36669673
 20
128.359357637
 10
64.4225239304
 20
128.3051821372
 10
64.4830226449
 20
128.2651734507
 10
64.5462110189
 20
128.2406354291
 10
64.6100401429
 20
128.232366216
 10
64.6724313048
 20
128.2406354291
 10
64.7313430456
 20
128.2651734507
 10
64.7848754672
 20
128.3051821372
 10
64.8312702326
 20
128.359357637
 10
64.8690223245
 20
128.4259369565
 10
64.896902397
 20
128.5027519768
 10
64.9140014795
 20
128.5873011654
 10
64.9197607783
 20
128.6768319985
  0
ARC
  5
181
330
1F
100
AcDbEntity
  8
0
  6
Continuous
 62
     7
370
    25
100
AcDbCircle
 10
70.0414313645
 20
138.8563809489
 30
0.0
 40
0.1740881159071931
100
AcDbArc
 50
90.3579880211
 51
156.8232821894
  0
LWPOLYLINE
  5
182
330
1F
100
AcDbEntity
  8
0
  6
Continuous
 62
     7
370
    25
100
AcDbPolyline
 90
       17
 70
   128
 43
0.0
 10
69.8813929705
 20
138.9248965276
 10
69.8588624147
 20
139.0137852138
 10
69.8261022118
 20
139.0976014515
 10
69.7841703442
 20
139.1736588409
 10
69.7344004659
 20
139.2395191794
 10
69.6783944515
 20
139.2930711588
 10
69.6179478911
 20
139.3325978858
 10
69.5549979357
 20
139.3568322962
 10
69.4915636925
 20
139.3649976669
 10
69.4296717194
 20
139.3568322962
 10
69.3713187722
 20
139.3325978858
 10
69.3183600453
 20
139.2930711588
 10
69.2725091723
 20
139.2395191794
 10
69.2352190164
 20
139.1736588409
 10
69.2077040223
 20
139.0976014515
 10
69.1908284572
 20
139.0137852138
 10
69.1851436642
 20
138.9248965276
  0
LWPOLYLINE
  5
183
330
1F
100
AcDbEntity
  8
0
  6
Continuous
 62
     7
370
    25
100
AcDbPolyline
 90
       17
 70
   128
 43
0.0
 10
69.1851436642
 20
128.6767672716
 10
69.1908284572
 20
128.5878785854
 10
69.2077040223
 20
128.5040623477
 10
69.2352190164
 20
128.4280049583
 10
69.2725091723
 20
128.3621446198
 10
69.3183600453
 20
128.3085926404
 10
69.3713187722
 20
128.2690659134
 10
69.4296717194
 20
128.244831503
 10
69.4915636925
 20
128.2366661323
 10
69.5549979357
 20
128.244831503
 10
69.6179478911
 20
128.2690659134
 10
69.6783944515
 20
128.3085926404
 10
69.7344004659
 20
128.3621446198
 10
69.7841703442
 20
128.4280049583
 10
69.8261022118
 20
128.5040623477
 10
69.8588624147
 20
128.5878785854
 10
69.8813929705
 20
128.6767672716
  0
ARC
  5
184
330
1F
100
AcDbEntity
  8
0
  6
Continuous
 62
     7
370
    25
100
AcDbCircle
 10
70.0414313645
 20
128.7452828503
 30
0.0
 40
0.1740881159071932
100
AcDbArc
 50
203.1767178106
 51
269.6420119789
  0
LINE
  5
185
330
1F
100
AcDbEntity
  8
0
  6
Continuous
 62
     7
370
    25
100
AcDbLine
 10
64.2229154257
 20
138.9248318007
 30
0.0
 11
63.9275967625
 21
138.9248318007
 31
0.0
  0
LINE
  5
186
330
1F
100
AcDbEntity
  8
0
  6
Continuous
 62
     7
370
    25
100
AcDbLine
 10
64.2229154257
 20
138.9248318007
 30
0.0
 11
64.2229154257
 21
128.6768319985
 31
0.0
  0
LINE
  5
187
330
1F
100
AcDbEntity
  8
0
  6
Continuous
 62
     7
370
    25
100
AcDbLine
 10
63.9275967625
 20
128.6768319985
 30
0.0
 11
64.2229154257
 21
128.6768319985
 31
0.0
  0
LINE
  5
188
330
1F
100
AcDbEntity
  8
0
  6
Continuous
 62
     7
370
    25
100
AcDbLine
 10
63.9275967625
 20
138.9248318007
 30
0.0
 11
63.9275967625
 21
128.6768319985
 31
0.0
  0
ARC
  5
189
330
1F
100
AcDbEntity
  8
0
  6
Continuous
 62
     7
370
    25
100
AcDbCircle
 10
64.0548505543
 20
138.9014384643
 30
0.0
 40
0.1293861496187076
100
AcDbArc
 50
85.8150956102
 51
169.5834946574
  0
ARC
  5
18A
330
1F
100
AcDbEntity
  8
0
  6
Continuous
 62
     7
370
    25
100
AcDbCircle
 10
64.0548505543
 20
128.7002253349
 30
0.0
 40
0.1293861496187076
100
AcDbArc
 50
190.4165053426
 51
274.1849043898
  0
LINE
  5
18B
330
1F
100
AcDbEntity
  8
0
  6
Continuous
 62
     7
370
    25
100
AcDbLine
 10
70.1758399156
 20
138.9248965276
 30
0.0
 11
69.8813929705
 21
138.9248965276
 31
0.0
  0
LINE
  5
18C
330
1F
100
AcDbEntity
  8
0
  6
Continuous
 62
     7
370
    25
100
AcDbLine
 10
70.1758399156
 20
138.9248965276
 30
0.0
 11
70.1758399156
 21
128.6767672716
 31
0.0
  0
LINE
  5
18D
330
1F
100
AcDbEntity
  8
0
  6
Continuous
 62
     7
370
    25
100
AcDbLine
 10
69.8813929705
 20
128.6767672716
 30
0.0
 11
70.1758399156
 21
128.6767672716
 31
0.0
  0
LINE
  5
18E
330
1F
100
AcDbEntity
  8
0
  6
Continuous
 62
     7
370
    25
100
AcDbLine
 10
69.8813929705
 20
138.9248965276
 30
0.0
 11
69.8813929705
 21
128.6767672716
 31
0.0
  0
ARC
  5
18F
330
1F
100
AcDbEntity
  8
0
  6
Continuous
 62
     7
370
    25
100
AcDbCircle
 10
70.048960637
 20
128.6998765623
 30
0.0
 40
0.1289666261321724
100
AcDbArc
 50
266.1688950051
 51
349.67752477
  0
ARC
  5
190
330
1F
100
AcDbEntity
  8
0
  6
Continuous
 62
     7
370
    25
100
AcDbCircle
 10
70.048960637
 20
138.9017872369
 30
0.0
 40
0.1289666261321774
100
AcDbArc
 50
10.3224752301
 51
93.8311049949
  0
LWPOLYLINE
  5
191
330
1F
100
AcDbEntity
  8
0
  6
Continuous
 62
     7
370
    25
100
AcDbPolyline
 90
       17
 70
   128
 43
0.0
 10
63.9275967625
 20
138.9248318007
 10
63.9218374637
 20
139.0143626338
 10
63.9047383813
 20
139.0989118224
 10
63.8768583087
 20
139.1757268427
 10
63.8391062168
 20
139.2423061622
 10
63.7927114514
 20
139.2964816621
 10
63.7391864804
 20
139.3364903485
 10
63.6802672891
 20
139.3610283701
 10
63.6178761271
 20
139.3692975832
 10
63.5540470032
 20
139.3610283701
 10
63.4908586291
 20
139.3364903485
 10
63.4303599147
 20
139.2964816621
 10
63.3745327143
 20
139.2423061622
 10
63.325187519
 20
139.1757268427
 10
63.2839262036
 20
139.0989118224
 10
63.2521047739
 20
139.0143626338
 10
63.2307514099
 20
138.9248318007
  0
ARC
  5
192
330
1F
100
AcDbEntity
  8
0
  6
Continuous
 62
     7
370
    25
100
AcDbCircle
 10
63.0730501084
 20
138.8599587918
 30
0.0
 40
0.1705233349856106
100
AcDbArc
 50
22.3606170597
 51
90.3096451421
  0
ARC
  5
193
330
1F
100
AcDbEntity
  8
0
  6
Continuous
 62
     7
370
    25
100
AcDbCircle
 10
63.0730501084
 20
128.7417050074
 30
0.0
 40
0.1705233349856106
100
AcDbArc
 50
269.6903548579
 51
337.6393829403
  0
LWPOLYLINE
  5
194
330
1F
100
AcDbEntity
  8
0
  6
Continuous
 62
     7
370
    25
100
AcDbPolyline
 90
       17
 70
   128
 43
0.0
 10
63.2307514099
 20
128.6768319985
 10
63.2521047739
 20
128.5873011654
 10
63.2839262036
 20
128.5027519768
 10
63.325187519
 20
128.4259369565
 10
63.3745327143
 20
128.359357637
 10
63.4303599147
 20
128.3051821372
 10
63.4908586291
 20
128.2651734507
 10
63.5540470032
 20
128.2406354291
 10
63.6178761271
 20
128.232366216
 10
63.6802672891
 20
128.2406354291
 10
63.7391864804
 20
128.2651734507
 10
63.7927114514
 20
128.3051821372
 10
63.8391062168
 20
128.359357637
 10
63.8768583087
 20
128.4259369565
 10
63.9047383813
 20
128.5027519768
 10
63.9218374637
 20
128.5873011654
 10
63.9275967625
 20
128.6768319985
  0
ARC
  5
195
330
1F
100
AcDbEntity
  8
0
  6
Continuous
 62
     7
370
    25
100
AcDbCircle
 10
71.0321238628
 20
138.8563866765
 30
0.0
 40
0.1740824115434889
100
AcDbArc
 50
90.3592167324
 51
156.8245290253
  0
LWPOLYLINE
  5
196
330
1F
100
AcDbEntity
  8
0
  6
Continuous
 62
     7
370
    25
100
AcDbPolyline
 90
       17
 70
   128
 43
0.0
 10
70.8720892218
 20
138.9248965276
 10
70.8495586661
 20
139.0137852138
 10
70.8167984632
 20
139.0976014515
 10
70.7748665956
 20
139.1736588409
 10
70.7250967172
 20
139.2395191794
 10
70.6690907029
 20
139.2930711588
 10
70.6086441425
 20
139.3325978858
 10
70.5456941871
 20
139.3568322962
 10
70.4822599439
 20
139.3649976669
 10
70.4203679708
 20
139.3568322962
 10
70.3620150236
 20
139.3325978858
 10
70.3090562967
 20
139.2930711588
 10
70.2631979731
 20
139.2395191794
 10
70.2259152678
 20
139.1736588409
 10
70.1983928231
 20
139.0976014515
 10
70.1815247086
 20
139.0137852138
 10
70.1758399156
 20
138.9248965276
  0
LWPOLYLINE
  5
197
330
1F
100
AcDbEntity
  8
0
  6
Continuous
 62
     7
370
    25
100
AcDbPolyline
 90
       17
 70
   128
 43
0.0
 10
70.1758399156
 20
128.6767672716
 10
70.1815247086
 20
128.5878785854
 10
70.1983928231
 20
128.5040623477
 10
70.2259152678
 20
128.4280049583
 10
70.2631979731
 20
128.3621446198
 10
70.3090562967
 20
128.3085926404
 10
70.3620150236
 20
128.2690659134
 10
70.4203679708
 20
128.244831503
 10
70.4822599439
 20
128.2366661323
 10
70.5456941871
 20
128.244831503
 10
70.6086441425
 20
128.2690659134
 10
70.6690907029
 20
128.3085926404
 10
70.7250967172
 20
128.3621446198
 10
70.7748665956
 20
128.4280049583
 10
70.8167984632
 20
128.5040623477
 10
70.8495586661
 20
128.5878785854
 10
70.8720892218
 20
128.6767672716
  0
ARC
  5
198
330
1F
100
AcDbEntity
  8
0
  6
Continuous
 62
     7
370
    25
100
AcDbCircle
 10
71.0321238628
 20
128.7452771227
 30
0.0
 40
0.174082411543489
100
AcDbArc
 50
203.1754709747
 51
269.6407832676
  0
ARC
  5
199
330
1F
100
AcDbEntity
  8
0
  6
Continuous
 62
     7
370
    25
100
AcDbCircle
 10
63.0626790713
 20
138.9014570995
 30
0.0
 40
0.1293681092748966
100
AcDbArc
 50
85.8111949637
 51
169.5904174432
  0
LINE
  5
19A
330
1F
100
AcDbEntity
  8
0
  6
Continuous
 62
     7
370
    25
100
AcDbLine
 10
63.2307514099
 20
138.9248318007
 30
0.0
 11
62.9354401974
 21
138.9248318007
 31
0.0
  0
ARC
  5
19B
330
1F
100
AcDbEntity
  8
0
  6
Continuous
 62
     7
370
    25
100
AcDbCircle
 10
63.0626790713
 20
128.7002066997
 30
0.0
 40
0.1293681092748966
100
AcDbArc
 50
190.4095825568
 51
274.1888050363
  0
LINE
  5
19C
330
1F
100
AcDbEntity
  8
0
  6
Continuous
 62
     7
370
    25
100
AcDbLine
 10
62.9354401974
 20
128.6768319985
 30
0.0
 11
63.2307514099
 21
128.6768319985
 31
0.0
  0
LINE
  5
19D
330
1F
100
AcDbEntity
  8
0
  6
Continuous
 62
     7
370
    25
100
AcDbLine
 10
63.2307514099
 20
138.9248318007
 30
0.0
 11
63.2307514099
 21
128.6768319985
 31
0.0
  0
LINE
  5
19E
330
1F
100
AcDbEntity
  8
0
  6
Continuous
 62
     7
370
    25
100
AcDbLine
 10
62.9354401974
 20
138.9248318007
 30
0.0
 11
62.9354401974
 21
128.6768319985
 31
0.0
  0
ARC
  5
19F
330
1F
100
AcDbEntity
  8
0
  6
Continuous
 62
     7
370
    25
100
AcDbCircle
 10
62.0808858901
 20
128.7417053762
 30
0.0
 40
0.1705236625758332
100
AcDbArc
 50
269.6929269241
 51
337.6392942338
  0
LWPOLYLINE
  5
1A0
330
1F
100
AcDbEntity
  8
0
  6
Continuous
 62
     7
370
    25
100
AcDbPolyline
 90
       17
 70
   128
 43
0.0
 10
62.2385873941
 20
128.6768319985
 10
62.2599407581
 20
128.5873011654
 10
62.2917621878
 20
128.5027519768
 10
62.3330235032
 20
128.4259369565
 10
62.3823686985
 20
128.359357637
 10
62.4381958989
 20
128.3051821372
 10
62.4986946133
 20
128.2651734507
 10
62.5618829874
 20
128.2406354291
 10
62.6257121114
 20
128.232366216
 10
62.6881032733
 20
128.2406354291
 10
62.7470224646
 20
128.2651734507
 10
62.8005474357
 20
128.3051821372
 10
62.846942201
 20
128.359357637
 10
62.8846942929
 20
128.4259369565
 10
62.9125743655
 20
128.5027519768
 10
62.929673448
 20
128.5873011654
 10
62.9354401974
 20
128.6768319985
  0
LWPOLYLINE
  5
1A1
330
1F
100
AcDbEntity
  8
0
  6
Continuous
 62
     7
370
    25
100
AcDbPolyline
 90
       17
 70
   128
 43
0.0
 10
62.9354401974
 20
138.9248318007
 10
62.929673448
 20
139.0143626338
 10
62.9125743655
 20
139.0989118224
 10
62.8846942929
 20
139.1757268427
 10
62.846942201
 20
139.2423061622
 10
62.8005474357
 20
139.2964816621
 10
62.7470224646
 20
139.3364903485
 10
62.6881032733
 20
139.3610283701
 10
62.6257121114
 20
139.3692975832
 10
62.5618829874
 20
139.3610283701
 10
62.4986946133
 20
139.3364903485
 10
62.4381958989
 20
139.2964816621
 10
62.3823686985
 20
139.2423061622
 10
62.3330235032
 20
139.1757268427
 10
62.2917621878
 20
139.0989118224
 10
62.2599407581
 20
139.0143626338
 10
62.2385873941
 20
138.9248318007
  0
ARC
  5
1A2
330
1F
100
AcDbEntity
  8
0
  6
Continuous
 62
     7
370
    25
100
AcDbCircle
 10
62.0808858901
 20
138.859958423
 30
0.0
 40
0.1705236625758332
100
AcDbArc
 50
22.3607057662
 51
90.3070730759
  0
ARC
  5
1A3
330
1F
100
AcDbEntity
  8
0
  6
Continuous
 62
     7
370
    25
100
AcDbCircle
 10
71.0396638551
 20
128.699858058
 30
0.0
 40
0.1289491274236583
100
AcDbArc
 50
266.1619539679
 51
349.6844658071
  0
LINE
  5
1A4
330
1F
100
AcDbEntity
  8
0
  6
Continuous
 62
     7
370
    25
100
AcDbLine
 10
70.8720892218
 20
128.6767672716
 30
0.0
 11
71.1665287165
 21
128.6767672716
 31
0.0
  0
ARC
  5
1A5
330
1F
100
AcDbEntity
  8
0
  6
Continuous
 62
     7
370
    25
100
AcDbCircle
 10
71.0396638551
 20
138.9018057412
 30
0.0
 40
0.1289491274236583
100
AcDbArc
 50
10.3155341929
 51
93.8380460321
  0
LINE
  5
1A6
330
1F
100
AcDbEntity
  8
0
  6
Continuous
 62
     7
370
    25
100
AcDbLine
 10
71.1665287165
 20
138.9248965276
 30
0.0
 11
70.8720892218
 21
138.9248965276
 31
0.0
  0
LINE
  5
1A7
330
1F
100
AcDbEntity
  8
0
  6
Continuous
 62
     7
370
    25
100
AcDbLine
 10
71.1665287165
 20
138.9248965276
 30
0.0
 11
71.1665287165
 21
128.6767672716
 31
0.0
  0
LINE
  5
1A8
330
1F
100
AcDbEntity
  8
0
  6
Continuous
 62
     7
370
    25
100
AcDbLine
 10
70.8720892218
 20
138.9248965276
 30
0.0
 11
70.8720892218
 21
128.6767672716
 31
0.0
  0
ARC
  5
1A9
330
1F
100
AcDbEntity
  8
0
  6
Continuous
 62
     7
370
    25
100
AcDbCircle
 10
72.0228201142
 20
138.8563866765
 30
0.0
 40
0.1740824115434889
100
AcDbArc
 50
90.3592167324
 51
156.8245290253
  0
LWPOLYLINE
  5
1AA
330
1F
100
AcDbEntity
  8
0
  6
Continuous
 62
     7
370
    25
100
AcDbPolyline
 90
       17
 70
   128
 43
0.0
 10
71.8627854732
 20
138.9248965276
 10
71.8402549175
 20
139.0137852138
 10
71.8074947146
 20
139.0976014515
 10
71.7655553964
 20
139.1736588409
 10
71.7157929686
 20
139.2395191794
 10
71.6597869543
 20
139.2930711588
 10
71.5993403939
 20
139.3325978858
 10
71.5363904384
 20
139.3568322962
 10
71.4729561952
 20
139.3649976669
 10
71.4110642222
 20
139.3568322962
 10
71.3527038244
 20
139.3325978858
 10
71.2997525481
 20
139.2930711588
 10
71.2538942245
 20
139.2395191794
 10
71.2166115192
 20
139.1736588409
 10
71.1890890745
 20
139.0976014515
 10
71.1722135094
 20
139.0137852138
 10
71.1665287165
 20
138.9248965276
  0
LWPOLYLINE
  5
1AB
330
1F
100
AcDbEntity
  8
0
  6
Continuous
 62
     7
370
    25
100
AcDbPolyline
 90
       17
 70
   128
 43
0.0
 10
71.1665287165
 20
128.6767672716
 10
71.1722135094
 20
128.5878785854
 10
71.1890890745
 20
128.5040623477
 10
71.2166115192
 20
128.4280049583
 10
71.2538942245
 20
128.3621446198
 10
71.2997525481
 20
128.3085926404
 10
71.3527038244
 20
128.2690659134
 10
71.4110642222
 20
128.244831503
 10
71.4729561952
 20
128.2366661323
 10
71.5363904384
 20
128.244831503
 10
71.5993403939
 20
128.2690659134
 10
71.6597869543
 20
128.3085926404
 10
71.7157929686
 20
128.3621446198
 10
71.7655553964
 20
128.4280049583
 10
71.8074947146
 20
128.5040623477
 10
71.8402549175
 20
128.5878785854
 10
71.8627854732
 20
128.6767672716
  0
ARC
  5
1AC
330
1F
100
AcDbEntity
  8
0
  6
Continuous
 62
     7
370
    25
100
AcDbCircle
 10
72.0228201142
 20
128.7452771227
 30
0.0
 40
0.174082411543489
100
AcDbArc
 50
203.1754709747
 51
269.6407832676
  0
ARC
  5
1AD
330
1F
100
AcDbEntity
  8
0
  6
Continuous
 62
     7
370
    25
100
AcDbCircle
 10
62.0705157673
 20
138.9014568453
 30
0.0
 40
0.1293688552719632
100
AcDbArc
 50
85.8082266297
 51
169.590363638
  0
LINE
  5
1AE
330
1F
100
AcDbEntity
  8
0
  6
Continuous
 62
     7
370
    25
100
AcDbLine
 10
62.2385873941
 20
138.9248318007
 30
0.0
 11
61.9432761816
 21
138.9248318007
 31
0.0
  0
LINE
  5
1AF
330
1F
100
AcDbEntity
  8
0
  6
Continuous
 62
     7
370
    25
100
AcDbLine
 10
62.2385873941
 20
138.9248318007
 30
0.0
 11
62.2385873941
 21
128.6768319985
 31
0.0
  0
LINE
  5
1B0
330
1F
100
AcDbEntity
  8
0
  6
Continuous
 62
     7
370
    25
100
AcDbLine
 10
61.9432761816
 20
128.6768319985
 30
0.0
 11
62.2385873941
 21
128.6768319985
 31
0.0
  0
LINE
  5
1B1
330
1F
100
AcDbEntity
  8
0
  6
Continuous
 62
     7
370
    25
100
AcDbLine
 10
61.9432761816
 20
138.9248318007
 30
0.0
 11
61.9432761816
 21
128.6768319985
 31
0.0
  0
ARC
  5
1B2
330
1F
100
AcDbEntity
  8
0
  6
Continuous
 62
     7
370
    25
100
AcDbCircle
 10
62.0705157673
 20
128.7002069539
 30
0.0
 40
0.1293688552719683
100
AcDbArc
 50
190.409636362
 51
274.1917733703
  0
ARC
  5
1B3
330
1F
100
AcDbEntity
  8
0
  6
Continuous
 62
     7
370
    25
100
AcDbCircle
 10
61.0887218743
 20
128.7417053762
 30
0.0
 40
0.1705236625758332
100
AcDbArc
 50
269.6929269241
 51
337.6392942338
  0
LWPOLYLINE
  5
1B4
330
1F
100
AcDbEntity
  8
0
  6
Continuous
 62
     7
370
    25
100
AcDbPolyline
 90
       17
 70
   128
 43
0.0
 10
61.2464233784
 20
128.6768319985
 10
61.2677767423
 20
128.5873011654
 10
61.2995981721
 20
128.5027519768
 10
61.3408594874
 20
128.4259369565
 10
61.3902046827
 20
128.359357637
 10
61.4460318831
 20
128.3051821372
 10
61.5065305976
 20
128.2651734507
 10
61.5697189716
 20
128.2406354291
 10
61.6335480956
 20
128.232366216
 10
61.6959392575
 20
128.2406354291
 10
61.7548584489
 20
128.2651734507
 10
61.8083834199
 20
128.3051821372
 10
61.8547781853
 20
128.359357637
 10
61.8925302771
 20
128.4259369565
 10
61.9204103497
 20
128.5027519768
 10
61.9375094322
 20
128.5873011654
 10
61.9432761816
 20
128.6768319985
  0
LWPOLYLINE
  5
1B5
330
1F
100
AcDbEntity
  8
0
  6
Continuous
 62
     7
370
    25
100
AcDbPolyline
 90
       17
 70
   128
 43
0.0
 10
61.9432761816
 20
138.9248318007
 10
61.9375094322
 20
139.0143626338
 10
61.9204103497
 20
139.0989118224
 10
61.8925302771
 20
139.1757268427
 10
61.8547781853
 20
139.2423061622
 10
61.8083834199
 20
139.2964816621
 10
61.7548584489
 20
139.3364903485
 10
61.6959392575
 20
139.3610283701
 10
61.6335480956
 20
139.3692975832
 10
61.5697189716
 20
139.3610283701
 10
61.5065305976
 20
139.3364903485
 10
61.4460318831
 20
139.2964816621
 10
61.3902046827
 20
139.2423061622
 10
61.3408594874
 20
139.1757268427
 10
61.2995981721
 20
139.0989118224
 10
61.2677767423
 20
139.0143626338
 10
61.2464233784
 20
138.9248318007
  0
ARC
  5
1B6
330
1F
100
AcDbEntity
  8
0
  6
Continuous
 62
     7
370
    25
100
AcDbCircle
 10
61.0887218743
 20
138.859958423
 30
0.0
 40
0.1705236625758332
100
AcDbArc
 50
22.3607057662
 51
90.3070730759
  0
ARC
  5
1B7
330
1F
100
AcDbEntity
  8
0
  6
Continuous
 62
     7
370
    25
100
AcDbCircle
 10
72.0303566527
 20
128.6998624909
 30
0.0
 40
0.1289533192720085
100
AcDbArc
 50
266.1636169463
 51
349.6828028287
  0
LINE
  5
1B8
330
1F
100
AcDbEntity
  8
0
  6
Continuous
 62
     7
370
    25
100
AcDbLine
 10
71.8627854732
 20
128.6767672716
 30
0.0
 11
72.1572249678
 21
128.6767672716
 31
0.0
  0
LINE
  5
1B9
330
1F
100
AcDbEntity
  8
0
  6
Continuous
 62
     7
370
    25
100
AcDbLine
 10
72.1572249678
 20
138.9248965276
 30
0.0
 11
71.8627854732
 21
138.9248965276
 31
0.0
  0
LINE
  5
1BA
330
1F
100
AcDbEntity
  8
0
  6
Continuous
 62
     7
370
    25
100
AcDbLine
 10
72.1572249678
 20
138.9248965276
 30
0.0
 11
72.1572249678
 21
128.6767672716
 31
0.0
  0
LINE
  5
1BB
330
1F
100
AcDbEntity
  8
0
  6
Continuous
 62
     7
370
    25
100
AcDbLine
 10
71.8627854732
 20
138.9248965276
 30
0.0
 11
71.8627854732
 21
128.6767672716
 31
0.0
  0
ARC
  5
1BC
330
1F
100
AcDbEntity
  8
0
  6
Continuous
 62
     7
370
    25
100
AcDbCircle
 10
72.0303566527
 20
138.9018013083
 30
0.0
 40
0.1289533192720003
100
AcDbArc
 50
10.3171971713
 51
93.8363830537
  0
ARC
  5
1BD
330
1F
100
AcDbEntity
  8
0
  6
Continuous
 62
     7
370
    25
100
AcDbCircle
 10
73.0135112544
 20
138.8563943719
 30
0.0
 40
0.1740746843203274
100
AcDbArc
 50
90.3575503071
 51
156.8261954505
  0
LWPOLYLINE
  5
1BE
330
1F
100
AcDbEntity
  8
0
  6
Continuous
 62
     7
370
    25
100
AcDbPolyline
 90
       17
 70
   128
 43
0.0
 10
72.8534817246
 20
138.9248965276
 10
72.8309437183
 20
139.0137852138
 10
72.798190966
 20
139.0976014515
 10
72.7562516478
 20
139.1736588409
 10
72.7064817695
 20
139.2395191794
 10
72.6504832057
 20
139.2930711588
 10
72.5900366453
 20
139.3325978858
 10
72.5270866898
 20
139.3568322962
 10
72.4636449961
 20
139.3649976669
 10
72.4017604736
 20
139.3568322962
 10
72.3434000758
 20
139.3325978858
 10
72.2904487995
 20
139.2930711588
 10
72.2445904759
 20
139.2395191794
 10
72.2073077706
 20
139.1736588409
 10
72.1797853259
 20
139.0976014515
 10
72.1629097608
 20
139.0137852138
 10
72.1572249678
 20
138.9248965276
  0
LWPOLYLINE
  5
1BF
330
1F
100
AcDbEntity
  8
0
  6
Continuous
 62
     7
370
    25
100
AcDbPolyline
 90
       17
 70
   128
 43
0.0
 10
72.1572249678
 20
128.6767672716
 10
72.1629097608
 20
128.5878785854
 10
72.1797853259
 20
128.5040623477
 10
72.2073077706
 20
128.4280049583
 10
72.2445904759
 20
128.3621446198
 10
72.2904487995
 20
128.3085926404
 10
72.3434000758
 20
128.2690659134
 10
72.4017604736
 20
128.244831503
 10
72.4636449961
 20
128.2366661323
 10
72.5270866898
 20
128.244831503
 10
72.5900366453
 20
128.2690659134
 10
72.6504832057
 20
128.3085926404
 10
72.7064817695
 20
128.3621446198
 10
72.7562516478
 20
128.4280049583
 10
72.798190966
 20
128.5040623477
 10
72.8309437183
 20
128.5878785854
 10
72.8534817246
 20
128.6767672716
  0
ARC
  5
1C0
330
1F
100
AcDbEntity
  8
0
  6
Continuous
 62
     7
370
    25
100
AcDbCircle
 10
73.0135112544
 20
128.7452694273
 30
0.0
 40
0.1740746843203274
100
AcDbArc
 50
203.1738045495
 51
269.6424496929
  0
ARC
  5
1C1
330
1F
100
AcDbEntity
  8
0
  6
Continuous
 62
     7
370
    25
100
AcDbCircle
 10
61.0783517515
 20
138.9014568453
 30
0.0
 40
0.1293688552719632
100
AcDbArc
 50
85.8082266297
 51
169.590363638
  0
LINE
  5
1C2
330
1F
100
AcDbEntity
  8
0
  6
Continuous
 62
     7
370
    25
100
AcDbLine
 10
61.2464233784
 20
138.9248318007
 30
0.0
 11
60.9511121658
 21
138.9248318007
 31
0.0
  0
LINE
  5
1C3
330
1F
100
AcDbEntity
  8
0
  6
Continuous
 62
     7
370
    25
100
AcDbLine
 10
61.2464233784
 20
138.9248318007
 30
0.0
 11
61.2464233784
 21
128.6768319985
 31
0.0
  0
LINE
  5
1C4
330
1F
100
AcDbEntity
  8
0
  6
Continuous
 62
     7
370
    25
100
AcDbLine
 10
60.9511121658
 20
128.6768319985
 30
0.0
 11
61.2464233784
 21
128.6768319985
 31
0.0
  0
LINE
  5
1C5
330
1F
100
AcDbEntity
  8
0
  6
Continuous
 62
     7
370
    25
100
AcDbLine
 10
60.9511121658
 20
138.9248318007
 30
0.0
 11
60.9511121658
 21
128.6768319985
 31
0.0
  0
ARC
  5
1C6
330
1F
100
AcDbEntity
  8
0
  6
Continuous
 62
     7
370
    25
100
AcDbCircle
 10
61.0783517515
 20
128.7002069539
 30
0.0
 40
0.1293688552719683
100
AcDbArc
 50
190.409636362
 51
274.1917733703
  0
LWPOLYLINE
  5
1C7
330
1F
100
AcDbEntity
  8
0
  6
Continuous
 62
     7
370
    25
100
AcDbPolyline
 90
       17
 70
   128
 43
0.0
 10
60.9511121658
 20
138.9248318007
 10
60.9453454164
 20
139.0143626338
 10
60.928246334
 20
139.0989118224
 10
60.9003662614
 20
139.1757268427
 10
60.8626141695
 20
139.2423061622
 10
60.8162194041
 20
139.2964816621
 10
60.7626944331
 20
139.3364903485
 10
60.7037752417
 20
139.3610283701
 10
60.6413840798
 20
139.3692975832
 10
60.5775549558
 20
139.3610283701
 10
60.5143665818
 20
139.3364903485
 10
60.4538678674
 20
139.2964816621
 10
60.3980406669
 20
139.2423061622
 10
60.3486954717
 20
139.1757268427
 10
60.3074416069
 20
139.0989118224
 10
60.2756127266
 20
139.0143626338
 10
60.2542593626
 20
138.9248318007
  0
ARC
  5
1C8
330
1F
100
AcDbEntity
  8
0
  6
Continuous
 62
     7
370
    25
100
AcDbCircle
 10
60.0965578586
 20
138.859958423
 30
0.0
 40
0.1705236625758332
100
AcDbArc
 50
22.3607057662
 51
90.3070730759
  0
ARC
  5
1C9
330
1F
100
AcDbEntity
  8
0
  6
Continuous
 62
     7
370
    25
100
AcDbCircle
 10
60.0965578586
 20
128.7417053762
 30
0.0
 40
0.1705236625758332
100
AcDbArc
 50
269.6929269241
 51
337.6392942338
  0
LWPOLYLINE
  5
1CA
330
1F
100
AcDbEntity
  8
0
  6
Continuous
 62
     7
370
    25
100
AcDbPolyline
 90
       17
 70
   128
 43
0.0
 10
60.2542593626
 20
128.6768319985
 10
60.2756127266
 20
128.5873011654
 10
60.3074416069
 20
128.5027519768
 10
60.3486954717
 20
128.4259369565
 10
60.3980406669
 20
128.359357637
 10
60.4538678674
 20
128.3051821372
 10
60.5143665818
 20
128.2651734507
 10
60.5775549558
 20
128.2406354291
 10
60.6413840798
 20
128.232366216
 10
60.7037752417
 20
128.2406354291
 10
60.7626944331
 20
128.2651734507
 10
60.8162194041
 20
128.3051821372
 10
60.8626141695
 20
128.359357637
 10
60.9003662614
 20
128.4259369565
 10
60.928246334
 20
128.5027519768
 10
60.9453454164
 20
128.5873011654
 10
60.9511121658
 20
128.6768319985
  0
ARC
  5
1CB
330
1F
100
AcDbEntity
  8
0
  6
Continuous
 62
     7
370
    25
100
AcDbCircle
 10
73.0210529041
 20
138.9018013083
 30
0.0
 40
0.1289533192720003
100
AcDbArc
 50
10.3171971713
 51
93.8363830537
  0
LINE
  5
1CC
330
1F
100
AcDbEntity
  8
0
  6
Continuous
 62
     7
370
    25
100
AcDbLine
 10
73.1479212192
 20
138.9248965276
 30
0.0
 11
72.8534817246
 21
138.9248965276
 31
0.0
  0
ARC
  5
1CD
330
1F
100
AcDbEntity
  8
0
  6
Continuous
 62
     7
370
    25
100
AcDbCircle
 10
73.0210529041
 20
128.6998624909
 30
0.0
 40
0.1289533192720085
100
AcDbArc
 50
266.1636169463
 51
349.6828028287
  0
LINE
  5
1CE
330
1F
100
AcDbEntity
  8
0
  6
Continuous
 62
     7
370
    25
100
AcDbLine
 10
72.8534817246
 20
128.6767672716
 30
0.0
 11
73.1479212192
 21
128.6767672716
 31
0.0
  0
LINE
  5
1CF
330
1F
100
AcDbEntity
  8
0
  6
Continuous
 62
     7
370
    25
100
AcDbLine
 10
73.1479212192
 20
138.9248965276
 30
0.0
 11
73.1479212192
 21
128.6767672716
 31
0.0
  0
LINE
  5
1D0
330
1F
100
AcDbEntity
  8
0
  6
Continuous
 62
     7
370
    25
100
AcDbLine
 10
72.8534817246
 20
138.9248965276
 30
0.0
 11
72.8534817246
 21
128.6767672716
 31
0.0
  0
LWPOLYLINE
  5
1D1
330
1F
100
AcDbEntity
  8
0
  6
Continuous
 62
     7
370
    25
100
AcDbPolyline
 90
       17
 70
   128
 43
0.0
 10
73.1479212192
 20
128.6767672716
 10
73.1536060122
 20
128.5878785854
 10
73.1704815773
 20
128.5040623477
 10
73.1979965714
 20
128.4280049583
 10
73.2352867273
 20
128.3621446198
 10
73.2811376003
 20
128.3085926404
 10
73.3340963272
 20
128.2690659134
 10
73.392456725
 20
128.244831503
 10
73.4543412474
 20
128.2366661323
 10
73.5177754907
 20
128.244831503
 10
73.5807254461
 20
128.2690659134
 10
73.6411720065
 20
128.3085926404
 10
73.6971780208
 20
128.3621446198
 10
73.7469478992
 20
128.4280049583
 10
73.7888797668
 20
128.5040623477
 10
73.8216399697
 20
128.5878785854
 10
73.8441705254
 20
128.6767672716
  0
ARC
  5
1D2
330
1F
100
AcDbEntity
  8
0
  6
Continuous
 62
     7
370
    25
100
AcDbCircle
 10
74.0042175767
 20
128.745295885
 30
0.0
 40
0.1741012046539782
100
AcDbArc
 50
203.1795399795
 51
269.6391898101
  0
ARC
  5
1D3
330
1F
100
AcDbEntity
  8
0
  6
Continuous
 62
     7
370
    25
100
AcDbCircle
 10
74.0042175767
 20
138.8563679142
 30
0.0
 40
0.1741012046539782
100
AcDbArc
 50
90.3608101899
 51
156.8204600205
  0
LWPOLYLINE
  5
1D4
330
1F
100
AcDbEntity
  8
0
  6
Continuous
 62
     7
370
    25
100
AcDbPolyline
 90
       17
 70
   128
 43
0.0
 10
73.8441705254
 20
138.9248965276
 10
73.8216399697
 20
139.0137852138
 10
73.7888797668
 20
139.0976014515
 10
73.7469478992
 20
139.1736588409
 10
73.6971780208
 20
139.2395191794
 10
73.6411720065
 20
139.2930711588
 10
73.5807254461
 20
139.3325978858
 10
73.5177754907
 20
139.3568322962
 10
73.4543412474
 20
139.3649976669
 10
73.392456725
 20
139.3568322962
 10
73.3340963272
 20
139.3325978858
 10
73.2811376003
 20
139.2930711588
 10
73.2352867273
 20
139.2395191794
 10
73.1979965714
 20
139.1736588409
 10
73.1704815773
 20
139.0976014515
 10
73.1536060122
 20
139.0137852138
 10
73.1479212192
 20
138.9248965276
  0
LINE
  5
1D5
330
1F
100
AcDbEntity
  8
0
  6
Continuous
 62
     7
370
    25
100
AcDbLine
 10
60.2542593626
 20
138.9248318007
 30
0.0
 11
59.95894815
 21
138.9248318007
 31
0.0
  0
LINE
  5
1D6
330
1F
100
AcDbEntity
  8
0
  6
Continuous
 62
     7
370
    25
100
AcDbLine
 10
60.2542593626
 20
138.9248318007
 30
0.0
 11
60.2542593626
 21
128.6768319985
 31
0.0
  0
LINE
  5
1D7
330
1F
100
AcDbEntity
  8
0
  6
Continuous
 62
     7
370
    25
100
AcDbLine
 10
59.95894815
 20
128.6768319985
 30
0.0
 11
60.2542593626
 21
128.6768319985
 31
0.0
  0
LINE
  5
1D8
330
1F
100
AcDbEntity
  8
0
  6
Continuous
 62
     7
370
    25
100
AcDbLine
 10
59.95894815
 20
138.9248318007
 30
0.0
 11
59.95894815
 21
128.6768319985
 31
0.0
  0
ARC
  5
1D9
330
1F
100
AcDbEntity
  8
0
  6
Continuous
 62
     7
370
    25
100
AcDbCircle
 10
60.0861918262
 20
138.9014515527
 30
0.0
 40
0.1293738347366162
100
AcDbArc
 50
85.8102046408
 51
169.5883856268
  0
ARC
  5
1DA
330
1F
100
AcDbEntity
  8
0
  6
Continuous
 62
     7
370
    25
100
AcDbCircle
 10
60.0861918262
 20
128.7002122465
 30
0.0
 40
0.1293738347366162
100
AcDbArc
 50
190.4116143732
 51
274.1897953592
  0
ARC
  5
1DB
330
1F
100
AcDbEntity
  8
0
  6
Continuous
 62
     7
370
    25
100
AcDbCircle
 10
59.1043938428
 20
128.7417053762
 30
0.0
 40
0.1705236625758332
100
AcDbArc
 50
269.6929269241
 51
337.6392942338
  0
LWPOLYLINE
  5
1DC
330
1F
100
AcDbEntity
  8
0
  6
Continuous
 62
     7
370
    25
100
AcDbPolyline
 90
       17
 70
   128
 43
0.0
 10
59.2620953468
 20
128.6768319985
 10
59.2834487108
 20
128.5873011654
 10
59.3152775911
 20
128.5027519768
 10
59.3565314559
 20
128.4259369565
 10
59.4058766512
 20
128.359357637
 10
59.4617038516
 20
128.3051821372
 10
59.522202566
 20
128.2651734507
 10
59.5853909401
 20
128.2406354291
 10
59.6492200641
 20
128.232366216
 10
59.711611226
 20
128.2406354291
 10
59.7705304173
 20
128.2651734507
 10
59.8240553883
 20
128.3051821372
 10
59.8704501537
 20
128.359357637
 10
59.9082022456
 20
128.4259369565
 10
59.9360823182
 20
128.5027519768
 10
59.9531814007
 20
128.5873011654
 10
59.95894815
 20
128.6768319985
  0
LWPOLYLINE
  5
1DD
330
1F
100
AcDbEntity
  8
0
  6
Continuous
 62
     7
370
    25
100
AcDbPolyline
 90
       17
 70
   128
 43
0.0
 10
59.95894815
 20
138.9248318007
 10
59.9531814007
 20
139.0143626338
 10
59.9360823182
 20
139.0989118224
 10
59.9082022456
 20
139.1757268427
 10
59.8704501537
 20
139.2423061622
 10
59.8240553883
 20
139.2964816621
 10
59.7705304173
 20
139.3364903485
 10
59.711611226
 20
139.3610283701
 10
59.6492200641
 20
139.3692975832
 10
59.5853909401
 20
139.3610283701
 10
59.522202566
 20
139.3364903485
 10
59.4617038516
 20
139.2964816621
 10
59.4058766512
 20
139.2423061622
 10
59.3565314559
 20
139.1757268427
 10
59.3152775911
 20
139.0989118224
 10
59.2834487108
 20
139.0143626338
 10
59.2620953468
 20
138.9248318007
  0
ARC
  5
1DE
330
1F
100
AcDbEntity
  8
0
  6
Continuous
 62
     7
370
    25
100
AcDbCircle
 10
59.1043938428
 20
138.859958423
 30
0.0
 40
0.1705236625758332
100
AcDbArc
 50
22.3607057662
 51
90.3070730759
  0
ARC
  5
1DF
330
1F
100
AcDbEntity
  8
0
  6
Continuous
 62
     7
370
    25
100
AcDbCircle
 10
74.011738192
 20
138.9017872369
 30
0.0
 40
0.1289666261321774
100
AcDbArc
 50
10.3224752301
 51
93.8311049949
  0
LINE
  5
1E0
330
1F
100
AcDbEntity
  8
0
  6
Continuous
 62
     7
370
    25
100
AcDbLine
 10
74.1386174706
 20
138.9248965276
 30
0.0
 11
73.8441705254
 21
138.9248965276
 31
0.0
  0
LINE
  5
1E1
330
1F
100
AcDbEntity
  8
0
  6
Continuous
 62
     7
370
    25
100
AcDbLine
 10
74.1386174706
 20
138.9248965276
 30
0.0
 11
74.1386174706
 21
128.6767672716
 31
0.0
  0
LINE
  5
1E2
330
1F
100
AcDbEntity
  8
0
  6
Continuous
 62
     7
370
    25
100
AcDbLine
 10
73.8441705254
 20
128.6767672716
 30
0.0
 11
74.1386174706
 21
128.6767672716
 31
0.0
  0
LINE
  5
1E3
330
1F
100
AcDbEntity
  8
0
  6
Continuous
 62
     7
370
    25
100
AcDbLine
 10
73.8441705254
 20
138.9248965276
 30
0.0
 11
73.8441705254
 21
128.6767672716
 31
0.0
  0
ARC
  5
1E4
330
1F
100
AcDbEntity
  8
0
  6
Continuous
 62
     7
370
    25
100
AcDbCircle
 10
74.011738192
 20
128.6998765623
 30
0.0
 40
0.1289666261321724
100
AcDbArc
 50
266.1688950051
 51
349.67752477
  0
ARC
  5
1E5
330
1F
100
AcDbEntity
  8
0
  6
Continuous
 62
     7
370
    25
100
AcDbCircle
 10
74.9949051709
 20
138.8563809489
 30
0.0
 40
0.1740881159071931
100
AcDbArc
 50
90.3579880211
 51
156.8232821894
  0
LWPOLYLINE
  5
1E6
330
1F
100
AcDbEntity
  8
0
  6
Continuous
 62
     7
370
    25
100
AcDbPolyline
 90
       17
 70
   128
 43
0.0
 10
74.8348667768
 20
138.9248965276
 10
74.8123362211
 20
139.0137852138
 10
74.7795760182
 20
139.0976014515
 10
74.7376441506
 20
139.1736588409
 10
74.6878742722
 20
139.2395191794
 10
74.6318682579
 20
139.2930711588
 10
74.5714216975
 20
139.3325978858
 10
74.508471742
 20
139.3568322962
 10
74.4450374988
 20
139.3649976669
 10
74.3831455258
 20
139.3568322962
 10
74.3247925786
 20
139.3325978858
 10
74.2718338517
 20
139.2930711588
 10
74.2259829787
 20
139.2395191794
 10
74.1886928228
 20
139.1736588409
 10
74.1611778287
 20
139.0976014515
 10
74.1443022636
 20
139.0137852138
 10
74.1386174706
 20
138.9248965276
  0
LWPOLYLINE
  5
1E7
330
1F
100
AcDbEntity
  8
0
  6
Continuous
 62
     7
370
    25
100
AcDbPolyline
 90
       17
 70
   128
 43
0.0
 10
74.1386174706
 20
128.6767672716
 10
74.1443022636
 20
128.5878785854
 10
74.1611778287
 20
128.5040623477
 10
74.1886928228
 20
128.4280049583
 10
74.2259829787
 20
128.3621446198
 10
74.2718338517
 20
128.3085926404
 10
74.3247925786
 20
128.2690659134
 10
74.3831455258
 20
128.244831503
 10
74.4450374988
 20
128.2366661323
 10
74.508471742
 20
128.244831503
 10
74.5714216975
 20
128.2690659134
 10
74.6318682579
 20
128.3085926404
 10
74.6878742722
 20
128.3621446198
 10
74.7376441506
 20
128.4280049583
 10
74.7795760182
 20
128.5040623477
 10
74.8123362211
 20
128.5878785854
 10
74.8348667768
 20
128.6767672716
  0
ARC
  5
1E8
330
1F
100
AcDbEntity
  8
0
  6
Continuous
 62
     7
370
    25
100
AcDbCircle
 10
74.9949051709
 20
128.7452828503
 30
0.0
 40
0.1740881159071932
100
AcDbArc
 50
203.1767178106
 51
269.6420119789
  0
ARC
  5
1E9
330
1F
100
AcDbEntity
  8
0
  6
Continuous
 62
     7
370
    25
100
AcDbCircle
 10
59.0940278104
 20
128.7002122465
 30
0.0
 40
0.1293738347366162
100
AcDbArc
 50
190.4116143732
 51
274.1897953592
  0
LINE
  5
1EA
330
1F
100
AcDbEntity
  8
0
  6
Continuous
 62
     7
370
    25
100
AcDbLine
 10
58.9667841343
 20
128.6768319985
 30
0.0
 11
59.2620953468
 21
128.6768319985
 31
0.0
  0
ARC
  5
1EB
330
1F
100
AcDbEntity
  8
0
  6
Continuous
 62
     7
370
    25
100
AcDbCircle
 10
59.0940278104
 20
138.9014515527
 30
0.0
 40
0.1293738347366162
100
AcDbArc
 50
85.8102046408
 51
169.5883856268
  0
LINE
  5
1EC
330
1F
100
AcDbEntity
  8
0
  6
Continuous
 62
     7
370
    25
100
AcDbLine
 10
59.2620953468
 20
138.9248318007
 30
0.0
 11
58.9667841343
 21
138.9248318007
 31
0.0
  0
LINE
  5
1ED
330
1F
100
AcDbEntity
  8
0
  6
Continuous
 62
     7
370
    25
100
AcDbLine
 10
59.2620953468
 20
138.9248318007
 30
0.0
 11
59.2620953468
 21
128.6768319985
 31
0.0
  0
LINE
  5
1EE
330
1F
100
AcDbEntity
  8
0
  6
Continuous
 62
     7
370
    25
100
AcDbLine
 10
58.9667841343
 20
138.9248318007
 30
0.0
 11
58.9667841343
 21
128.6768319985
 31
0.0
  0
ARC
  5
1EF
330
1F
100
AcDbEntity
  8
0
  6
Continuous
 62
     7
370
    25
100
AcDbCircle
 10
58.1122201657
 20
128.7417310038
 30
0.0
 40
0.1705492383412348
100
AcDbArc
 50
269.696218731
 51
337.6335190672
  0
LWPOLYLINE
  5
1F0
330
1F
100
AcDbEntity
  8
0
  6
Continuous
 62
     7
370
    25
100
AcDbPolyline
 90
       17
 70
   128
 43
0.0
 10
58.2699387816
 20
128.6768319985
 10
58.291284695
 20
128.5873011654
 10
58.3231135753
 20
128.5027519768
 10
58.3643674401
 20
128.4259369565
 10
58.4137126354
 20
128.359357637
 10
58.4695398358
 20
128.3051821372
 10
58.5300385503
 20
128.2651734507
 10
58.5932269243
 20
128.2406354291
 10
58.6570560483
 20
128.232366216
 10
58.7194472102
 20
128.2406354291
 10
58.7783664016
 20
128.2651734507
 10
58.8318913726
 20
128.3051821372
 10
58.8782861379
 20
128.359357637
 10
58.9160382298
 20
128.4259369565
 10
58.9439183024
 20
128.5027519768
 10
58.9610173849
 20
128.5873011654
 10
58.9667841343
 20
128.6768319985
  0
LWPOLYLINE
  5
1F1
330
1F
100
AcDbEntity
  8
0
  6
Continuous
 62
     7
370
    25
100
AcDbPolyline
 90
       17
 70
   128
 43
0.0
 10
58.9667841343
 20
138.9248318007
 10
58.9610173849
 20
139.0143626338
 10
58.9439183024
 20
139.0989118224
 10
58.9160382298
 20
139.1757268427
 10
58.8782861379
 20
139.2423061622
 10
58.8318913726
 20
139.2964816621
 10
58.7783664016
 20
139.3364903485
 10
58.7194472102
 20
139.3610283701
 10
58.6570560483
 20
139.3692975832
 10
58.5932269243
 20
139.3610283701
 10
58.5300385503
 20
139.3364903485
 10
58.4695398358
 20
139.2964816621
 10
58.4137126354
 20
139.2423061622
 10
58.3643674401
 20
139.1757268427
 10
58.3231135753
 20
139.0989118224
 10
58.291284695
 20
139.0143626338
 10
58.2699387816
 20
138.9248318007
  0
ARC
  5
1F2
330
1F
100
AcDbEntity
  8
0
  6
Continuous
 62
     7
370
    25
100
AcDbCircle
 10
58.1122201657
 20
138.8599327954
 30
0.0
 40
0.1705492383412348
100
AcDbArc
 50
22.3664809328
 51
90.303781269
  0
ARC
  5
1F3
330
1F
100
AcDbEntity
  8
0
  6
Continuous
 62
     7
370
    25
100
AcDbCircle
 10
75.0024344434
 20
138.9017872369
 30
0.0
 40
0.1289666261321774
100
AcDbArc
 50
10.3224752301
 51
93.8311049949
  0
LINE
  5
1F4
330
1F
100
AcDbEntity
  8
0
  6
Continuous
 62
     7
370
    25
100
AcDbLine
 10
75.129313722
 20
138.9248965276
 30
0.0
 11
74.8348667768
 21
138.9248965276
 31
0.0
  0
ARC
  5
1F5
330
1F
100
AcDbEntity
  8
0
  6
Continuous
 62
     7
370
    25
100
AcDbCircle
 10
75.0024344434
 20
128.6998765623
 30
0.0
 40
0.1289666261321724
100
AcDbArc
 50
266.1688950051
 51
349.67752477
  0
LINE
  5
1F6
330
1F
100
AcDbEntity
  8
0
  6
Continuous
 62
     7
370
    25
100
AcDbLine
 10
74.8348667768
 20
128.6767672716
 30
0.0
 11
75.129313722
 21
128.6767672716
 31
0.0
  0
LINE
  5
1F7
330
1F
100
AcDbEntity
  8
0
  6
Continuous
 62
     7
370
    25
100
AcDbLine
 10
75.129313722
 20
138.9248965276
 30
0.0
 11
75.129313722
 21
128.6767672716
 31
0.0
  0
LINE
  5
1F8
330
1F
100
AcDbEntity
  8
0
  6
Continuous
 62
     7
370
    25
100
AcDbLine
 10
74.8348667768
 20
138.9248965276
 30
0.0
 11
74.8348667768
 21
128.6767672716
 31
0.0
  0
ARC
  5
1F9
330
1F
100
AcDbEntity
  8
0
  6
Continuous
 62
     7
370
    25
100
AcDbCircle
 10
65.5204286622
 20
140.1004027709
 30
0.0
 40
1.533538394152648
100
AcDbArc
 50
359.6746837806
 51
1.8844607038
  0
LINE
  5
1FA
330
1F
100
AcDbEntity
  8
0
  6
Continuous
 62
     7
370
    25
100
AcDbLine
 10
67.0531376747
 20
140.1508318229
 30
0.0
 11
77.8539463428
 21
140.1508318229
 31
0.0
  0
LINE
  5
1FB
330
1F
100
AcDbEntity
  8
0
  6
Continuous
 62
     7
370
    25
100
AcDbLine
 10
77.8539463428
 20
127.4508319763
 30
0.0
 11
67.0531376747
 21
127.4508319763
 31
0.0
  0
ARC
  5
1FC
330
1F
100
AcDbEntity
  8
0
  6
Continuous
 62
     7
370
    25
100
AcDbCircle
 10
65.5204286622
 20
127.5012610283
 30
0.0
 40
1.533538394152647
100
AcDbArc
 50
358.1155392962
 51
0.3253162194
  0
LINE
  5
1FD
330
1F
100
AcDbEntity
  8
0
  6
Continuous
 62
     7
370
    25
100
AcDbLine
 10
67.0531376747
 20
127.4508319763
 30
0.0
 11
55.253943756
 21
127.4508319763
 31
0.0
  0
LINE
  5
1FE
330
1F
100
AcDbEntity
  8
0
  6
Continuous
 62
     7
370
    25
100
AcDbLine
 10
55.253943756
 20
140.1508318229
 30
0.0
 11
67.0531376747
 21
140.1508318229
 31
0.0
  0
ARC
  5
1FF
330
1F
100
AcDbEntity
  8
0
  6
Continuous
 62
     7
370
    25
100
AcDbCircle
 10
58.1018637947
 20
128.7002122465
 30
0.0
 40
0.1293738347366162
100
AcDbArc
 50
190.4116143732
 51
274.1897953592
  0
LINE
  5
200
330
1F
100
AcDbEntity
  8
0
  6
Continuous
 62
     7
370
    25
100
AcDbLine
 10
57.9746201185
 20
128.6768319985
 30
0.0
 11
58.2699387816
 21
128.6768319985
 31
0.0
  0
LINE
  5
201
330
1F
100
AcDbEntity
  8
0
  6
Continuous
 62
     7
370
    25
100
AcDbLine
 10
58.2699387816
 20
138.9248318007
 30
0.0
 11
57.9746201185
 21
138.9248318007
 31
0.0
  0
LINE
  5
202
330
1F
100
AcDbEntity
  8
0
  6
Continuous
 62
     7
370
    25
100
AcDbLine
 10
58.2699387816
 20
138.9248318007
 30
0.0
 11
58.2699387816
 21
128.6768319985
 31
0.0
  0
LINE
  5
203
330
1F
100
AcDbEntity
  8
0
  6
Continuous
 62
     7
370
    25
100
AcDbLine
 10
57.9746201185
 20
138.9248318007
 30
0.0
 11
57.9746201185
 21
128.6768319985
 31
0.0
  0
ARC
  5
204
330
1F
100
AcDbEntity
  8
0
  6
Continuous
 62
     7
370
    25
100
AcDbCircle
 10
58.1018637947
 20
138.9014515527
 30
0.0
 40
0.1293738347366162
100
AcDbArc
 50
85.8102046408
 51
169.5883856268
  0
ARC
  5
205
330
1F
100
AcDbEntity
  8
0
  6
Continuous
 62
     7
370
    25
100
AcDbCircle
 10
75.9855976692
 20
138.8563866765
 30
0.0
 40
0.1740824115434889
100
AcDbArc
 50
90.3592167324
 51
156.8245290253
  0
LWPOLYLINE
  5
206
330
1F
100
AcDbEntity
  8
0
  6
Continuous
 62
     7
370
    25
100
AcDbPolyline
 90
       17
 70
   128
 43
0.0
 10
75.8255630282
 20
138.9248965276
 10
75.8030324725
 20
139.0137852138
 10
75.7702722696
 20
139.0976014515
 10
75.728340402
 20
139.1736588409
 10
75.6785705236
 20
139.2395191794
 10
75.6225645093
 20
139.2930711588
 10
75.5621179489
 20
139.3325978858
 10
75.4991679934
 20
139.3568322962
 10
75.4357337502
 20
139.3649976669
 10
75.3738417772
 20
139.3568322962
 10
75.31548883
 20
139.3325978858
 10
75.2625301031
 20
139.2930711588
 10
75.2166717795
 20
139.2395191794
 10
75.1793890742
 20
139.1736588409
 10
75.1518666295
 20
139.0976014515
 10
75.134998515
 20
139.0137852138
 10
75.129313722
 20
138.9248965276
  0
LWPOLYLINE
  5
207
330
1F
100
AcDbEntity
  8
0
  6
Continuous
 62
     7
370
    25
100
AcDbPolyline
 90
       17
 70
   128
 43
0.0
 10
75.129313722
 20
128.6767672716
 10
75.134998515
 20
128.5878785854
 10
75.1518666295
 20
128.5040623477
 10
75.1793890742
 20
128.4280049583
 10
75.2166717795
 20
128.3621446198
 10
75.2625301031
 20
128.3085926404
 10
75.31548883
 20
128.2690659134
 10
75.3738417772
 20
128.244831503
 10
75.4357337502
 20
128.2366661323
 10
75.4991679934
 20
128.244831503
 10
75.5621179489
 20
128.2690659134
 10
75.6225645093
 20
128.3085926404
 10
75.6785705236
 20
128.3621446198
 10
75.728340402
 20
128.4280049583
 10
75.7702722696
 20
128.5040623477
 10
75.8030324725
 20
128.5878785854
 10
75.8255630282
 20
128.6767672716
  0
ARC
  5
208
330
1F
100
AcDbEntity
  8
0
  6
Continuous
 62
     7
370
    25
100
AcDbCircle
 10
75.9855976692
 20
128.7452771227
 30
0.0
 40
0.174082411543489
100
AcDbArc
 50
203.1754709747
 51
269.6407832676
  0
ARC
  5
209
330
1F
100
AcDbEntity
  8
0
  6
Continuous
 62
     7
370
    25
100
AcDbCircle
 10
57.1200601646
 20
128.741724976
 30
0.0
 40
0.1705432319921965
100
AcDbArc
 50
269.6948592381
 51
337.6348785601
  0
LWPOLYLINE
  5
20A
330
1F
100
AcDbEntity
  8
0
  6
Continuous
 62
     7
370
    25
100
AcDbPolyline
 90
       17
 70
   128
 43
0.0
 10
57.2777747659
 20
128.6768319985
 10
57.2991281298
 20
128.5873011654
 10
57.3309495596
 20
128.5027519768
 10
57.3722034243
 20
128.4259369565
 10
57.4215486196
 20
128.359357637
 10
57.47737582
 20
128.3051821372
 10
57.5378745345
 20
128.2651734507
 10
57.6010629085
 20
128.2406354291
 10
57.6648920325
 20
128.232366216
 10
57.7272831944
 20
128.2406354291
 10
57.7862023858
 20
128.2651734507
 10
57.8397273568
 20
128.3051821372
 10
57.8861221222
 20
128.359357637
 10
57.9238742141
 20
128.4259369565
 10
57.9517542867
 20
128.5027519768
 10
57.9688533691
 20
128.5873011654
 10
57.9746201185
 20
128.6768319985
  0
LWPOLYLINE
  5
20B
330
1F
100
AcDbEntity
  8
0
  6
Continuous
 62
     7
370
    25
100
AcDbPolyline
 90
       17
 70
   128
 43
0.0
 10
57.9746201185
 20
138.9248318007
 10
57.9688533691
 20
139.0143626338
 10
57.9517542867
 20
139.0989118224
 10
57.9238742141
 20
139.1757268427
 10
57.8861221222
 20
139.2423061622
 10
57.8397273568
 20
139.2964816621
 10
57.7862023858
 20
139.3364903485
 10
57.7272831944
 20
139.3610283701
 10
57.6648920325
 20
139.3692975832
 10
57.6010629085
 20
139.3610283701
 10
57.5378745345
 20
139.3364903485
 10
57.47737582
 20
139.2964816621
 10
57.4215486196
 20
139.2423061622
 10
57.3722034243
 20
139.1757268427
 10
57.3309495596
 20
139.0989118224
 10
57.2991281298
 20
139.0143626338
 10
57.2777747659
 20
138.9248318007
  0
ARC
  5
20C
330
1F
100
AcDbEntity
  8
0
  6
Continuous
 62
     7
370
    25
100
AcDbCircle
 10
57.1200601646
 20
138.8599388232
 30
0.0
 40
0.1705432319921965
100
AcDbArc
 50
22.3651214399
 51
90.3051407619
  0
ARC
  5
20D
330
1F
100
AcDbEntity
  8
0
  6
Continuous
 62
     7
370
    25
100
AcDbCircle
 10
75.9931376615
 20
128.699858058
 30
0.0
 40
0.1289491274236583
100
AcDbArc
 50
266.1619539679
 51
349.6844658071
  0
LINE
  5
20E
330
1F
100
AcDbEntity
  8
0
  6
Continuous
 62
     7
370
    25
100
AcDbLine
 10
75.8255630282
 20
128.6767672716
 30
0.0
 11
76.1200025228
 21
128.6767672716
 31
0.0
  0
ARC
  5
20F
330
1F
100
AcDbEntity
  8
0
  6
Continuous
 62
     7
370
    25
100
AcDbCircle
 10
75.9931376615
 20
138.9018057412
 30
0.0
 40
0.1289491274236583
100
AcDbArc
 50
10.3155341929
 51
93.8380460321
  0
LINE
  5
210
330
1F
100
AcDbEntity
  8
0
  6
Continuous
 62
     7
370
    25
100
AcDbLine
 10
76.1200025228
 20
138.9248965276
 30
0.0
 11
75.8255630282
 21
138.9248965276
 31
0.0
  0
LINE
  5
211
330
1F
100
AcDbEntity
  8
0
  6
Continuous
 62
     7
370
    25
100
AcDbLine
 10
76.1200025228
 20
138.9248965276
 30
0.0
 11
76.1200025228
 21
128.6767672716
 31
0.0
  0
LINE
  5
212
330
1F
100
AcDbEntity
  8
0
  6
Continuous
 62
     7
370
    25
100
AcDbLine
 10
75.8255630282
 20
138.9248965276
 30
0.0
 11
75.8255630282
 21
128.6767672716
 31
0.0
  0
ARC
  5
213
330
1F
100
AcDbEntity
  8
0
  6
Continuous
 62
     7
370
    25
100
AcDbCircle
 10
57.1096997789
 20
138.9014515527
 30
0.0
 40
0.1293738347366162
100
AcDbArc
 50
85.8102046408
 51
169.5883856268
  0
LINE
  5
214
330
1F
100
AcDbEntity
  8
0
  6
Continuous
 62
     7
370
    25
100
AcDbLine
 10
57.2777747659
 20
138.9248318007
 30
0.0
 11
56.9824561027
 21
138.9248318007
 31
0.0
  0
LINE
  5
215
330
1F
100
AcDbEntity
  8
0
  6
Continuous
 62
     7
370
    25
100
AcDbLine
 10
57.2777747659
 20
138.9248318007
 30
0.0
 11
57.2777747659
 21
128.6768319985
 31
0.0
  0
LINE
  5
216
330
1F
100
AcDbEntity
  8
0
  6
Continuous
 62
     7
370
    25
100
AcDbLine
 10
56.9824561027
 20
128.6768319985
 30
0.0
 11
57.2777747659
 21
128.6768319985
 31
0.0
  0
LINE
  5
217
330
1F
100
AcDbEntity
  8
0
  6
Continuous
 62
     7
370
    25
100
AcDbLine
 10
56.9824561027
 20
138.9248318007
 30
0.0
 11
56.9824561027
 21
128.6768319985
 31
0.0
  0
ARC
  5
218
330
1F
100
AcDbEntity
  8
0
  6
Continuous
 62
     7
370
    25
100
AcDbCircle
 10
57.1096997789
 20
128.7002122465
 30
0.0
 40
0.1293738347366162
100
AcDbArc
 50
190.4116143732
 51
274.1897953592
  0
LWPOLYLINE
  5
219
330
1F
100
AcDbEntity
  8
0
  6
Continuous
 62
     7
370
    25
100
AcDbPolyline
 90
       17
 70
   128
 43
0.0
 10
76.1200025228
 20
128.6767672716
 10
76.1256873158
 20
128.5878785854
 10
76.1425628809
 20
128.5040623477
 10
76.1700853256
 20
128.4280049583
 10
76.2073680309
 20
128.3621446198
 10
76.2532263545
 20
128.3085926404
 10
76.3061776308
 20
128.2690659134
 10
76.3645380286
 20
128.244831503
 10
76.4264300016
 20
128.2366661323
 10
76.4898642448
 20
128.244831503
 10
76.5528142003
 20
128.2690659134
 10
76.6132607607
 20
128.3085926404
 10
76.669266775
 20
128.3621446198
 10
76.7190292028
 20
128.4280049583
 10
76.760968521
 20
128.5040623477
 10
76.7937287239
 20
128.5878785854
 10
76.8162592796
 20
128.6767672716
  0
ARC
  5
21A
330
1F
100
AcDbEntity
  8
0
  6
Continuous
 62
     7
370
    25
100
AcDbCircle
 10
76.9762939206
 20
128.7452771227
 30
0.0
 40
0.174082411543489
100
AcDbArc
 50
203.1754709747
 51
269.6407832676
  0
ARC
  5
21B
330
1F
100
AcDbEntity
  8
0
  6
Continuous
 62
     7
370
    25
100
AcDbCircle
 10
76.9762939206
 20
138.8563866765
 30
0.0
 40
0.1740824115434889
100
AcDbArc
 50
90.3592167324
 51
156.8245290253
  0
LWPOLYLINE
  5
21C
330
1F
100
AcDbEntity
  8
0
  6
Continuous
 62
     7
370
    25
100
AcDbPolyline
 90
       17
 70
   128
 43
0.0
 10
76.8162592796
 20
138.9248965276
 10
76.7937287239
 20
139.0137852138
 10
76.760968521
 20
139.0976014515
 10
76.7190292028
 20
139.1736588409
 10
76.669266775
 20
139.2395191794
 10
76.6132607607
 20
139.2930711588
 10
76.5528142003
 20
139.3325978858
 10
76.4898642448
 20
139.3568322962
 10
76.4264300016
 20
139.3649976669
 10
76.3645380286
 20
139.3568322962
 10
76.3061776308
 20
139.3325978858
 10
76.2532263545
 20
139.2930711588
 10
76.2073680309
 20
139.2395191794
 10
76.1700853256
 20
139.1736588409
 10
76.1425628809
 20
139.0976014515
 10
76.1256873158
 20
139.0137852138
 10
76.1200025228
 20
138.9248965276
  0
ARC
  5
21D
330
1F
100
AcDbEntity
  8
0
  6
Continuous
 62
     7
370
    25
100
AcDbCircle
 10
56.1278961488
 20
128.741724976
 30
0.0
 40
0.1705432319921965
100
AcDbArc
 50
269.6948592381
 51
337.6348785601
  0
LWPOLYLINE
  5
21E
330
1F
100
AcDbEntity
  8
0
  6
Continuous
 62
     7
370
    25
100
AcDbPolyline
 90
       17
 70
   128
 43
0.0
 10
56.2856107501
 20
128.6768319985
 10
56.3069641141
 20
128.5873011654
 10
56.3387855438
 20
128.5027519768
 10
56.3800394086
 20
128.4259369565
 10
56.4293846039
 20
128.359357637
 10
56.4852118043
 20
128.3051821372
 10
56.5457105187
 20
128.2651734507
 10
56.6088988928
 20
128.2406354291
 10
56.6727280167
 20
128.232366216
 10
56.7351191787
 20
128.2406354291
 10
56.79403837
 20
128.2651734507
 10
56.847563341
 20
128.3051821372
 10
56.8939581064
 20
128.359357637
 10
56.9317101983
 20
128.4259369565
 10
56.9595902709
 20
128.5027519768
 10
56.9766893534
 20
128.5873011654
 10
56.9824561027
 20
128.6768319985
  0
LWPOLYLINE
  5
21F
330
1F
100
AcDbEntity
  8
0
  6
Continuous
 62
     7
370
    25
100
AcDbPolyline
 90
       17
 70
   128
 43
0.0
 10
56.9824561027
 20
138.9248318007
 10
56.9766893534
 20
139.0143626338
 10
56.9595902709
 20
139.0989118224
 10
56.9317101983
 20
139.1757268427
 10
56.8939581064
 20
139.2423061622
 10
56.847563341
 20
139.2964816621
 10
56.79403837
 20
139.3364903485
 10
56.7351191787
 20
139.3610283701
 10
56.6727280167
 20
139.3692975832
 10
56.6088988928
 20
139.3610283701
 10
56.5457105187
 20
139.3364903485
 10
56.4852118043
 20
139.2964816621
 10
56.4293846039
 20
139.2423061622
 10
56.3800394086
 20
139.1757268427
 10
56.3387855438
 20
139.0989118224
 10
56.3069641141
 20
139.0143626338
 10
56.2856107501
 20
138.9248318007
  0
ARC
  5
220
330
1F
100
AcDbEntity
  8
0
  6
Continuous
 62
     7
370
    25
100
AcDbCircle
 10
56.1278961488
 20
138.8599388232
 30
0.0
 40
0.1705432319921965
100
AcDbArc
 50
22.3651214399
 51
90.3051407619
  0
ARC
  5
221
330
1F
100
AcDbEntity
  8
0
  6
Continuous
 62
     7
370
    25
100
AcDbCircle
 10
76.9838304591
 20
138.9018013083
 30
0.0
 40
0.1289533192720003
100
AcDbArc
 50
10.3171971713
 51
93.8363830537
  0
LINE
  5
222
330
1F
100
AcDbEntity
  8
0
  6
Continuous
 62
     7
370
    25
100
AcDbLine
 10
77.1106987742
 20
138.9248965276
 30
0.0
 11
76.8162592796
 21
138.9248965276
 31
0.0
  0
LINE
  5
223
330
1F
100
AcDbEntity
  8
0
  6
Continuous
 62
     7
370
    25
100
AcDbLine
 10
77.1106987742
 20
138.9248965276
 30
0.0
 11
77.1106987742
 21
128.6767672716
 31
0.0
  0
LINE
  5
224
330
1F
100
AcDbEntity
  8
0
  6
Continuous
 62
     7
370
    25
100
AcDbLine
 10
76.8162592796
 20
128.6767672716
 30
0.0
 11
77.1106987742
 21
128.6767672716
 31
0.0
  0
LINE
  5
225
330
1F
100
AcDbEntity
  8
0
  6
Continuous
 62
     7
370
    25
100
AcDbLine
 10
76.8162592796
 20
138.9248965276
 30
0.0
 11
76.8162592796
 21
128.6767672716
 31
0.0
  0
ARC
  5
226
330
1F
100
AcDbEntity
  8
0
  6
Continuous
 62
     7
370
    25
100
AcDbCircle
 10
76.9838304591
 20
128.6998624909
 30
0.0
 40
0.1289533192720085
100
AcDbArc
 50
266.1636169463
 51
349.6828028287
  0
LINE
  5
227
330
1F
100
AcDbEntity
  8
0
  6
Continuous
 62
     7
370
    25
100
AcDbLine
 10
55.990292087
 20
128.6768319985
 30
0.0
 11
56.2856107501
 21
128.6768319985
 31
0.0
  0
LINE
  5
228
330
1F
100
AcDbEntity
  8
0
  6
Continuous
 62
     7
370
    25
100
AcDbLine
 10
55.990292087
 20
138.9248318007
 30
0.0
 11
55.990292087
 21
128.6768319985
 31
0.0
  0
LINE
  5
229
330
1F
100
AcDbEntity
  8
0
  6
Continuous
 62
     7
370
    25
100
AcDbLine
 10
56.2856107501
 20
138.9248318007
 30
0.0
 11
55.990292087
 21
138.9248318007
 31
0.0
  0
LINE
  5
22A
330
1F
100
AcDbEntity
  8
0
  6
Continuous
 62
     7
370
    25
100
AcDbLine
 10
56.2856107501
 20
138.9248318007
 30
0.0
 11
56.2856107501
 21
128.6768319985
 31
0.0
  0
ARC
  5
22B
330
1F
100
AcDbEntity
  8
0
  6
Continuous
 62
     7
370
    25
100
AcDbCircle
 10
56.1175357631
 20
138.9014515527
 30
0.0
 40
0.1293738347366162
100
AcDbArc
 50
85.8102046408
 51
169.5883856268
  0
ARC
  5
22C
330
1F
100
AcDbEntity
  8
0
  6
Continuous
 62
     7
370
    25
100
AcDbCircle
 10
56.1175357631
 20
128.7002122465
 30
0.0
 40
0.1293738347366162
100
AcDbArc
 50
190.4116143732
 51
274.1897953592
  0
LWPOLYLINE
  5
22D
330
1F
100
AcDbEntity
  8
0
  6
Continuous
 62
     7
370
    25
100
AcDbPolyline
 90
        9
 70
   128
 43
0.0
 10
77.4653985647
 20
139.360257235
 10
77.4674102215
 20
139.3749092674
 10
77.4693995265
 20
139.3894188074
 10
77.4713590292
 20
139.4036438284
 10
77.4732514767
 20
139.4174464947
 10
77.4750694183
 20
139.4306912987
 10
77.476797953
 20
139.4432501836
 10
77.478414729
 20
139.4549997492
 10
77.4798973945
 20
139.4658263741
  0
LWPOLYLINE
  5
22E
330
1F
100
AcDbEntity
  8
0
  6
Continuous
 62
     7
370
    25
100
AcDbPolyline
 90
       10
 70
   128
 43
0.0
 10
77.4653985647
 20
139.360257235
 10
77.4038046149
 20
139.3646297945
 10
77.3440807608
 20
139.353534483
 10
77.2880449442
 20
139.3273084393
 10
77.2374033479
 20
139.2867488755
 10
77.1936833409
 20
139.2330879314
 10
77.1582185773
 20
139.1679554215
 10
77.1320893911
 20
139.0933313375
 10
77.116085544
 20
139.0114829844
 10
77.1106987742
 20
138.9248965276
  0
LWPOLYLINE
  5
22F
330
1F
100
AcDbEntity
  8
0
  6
Continuous
 62
     7
370
    25
100
AcDbPolyline
 90
        9
 70
   128
 43
0.0
 10
77.1106987742
 20
128.6767672716
 10
77.1175160555
 20
128.5796382433
 10
77.1376996783
 20
128.4889060041
 10
77.1704747824
 20
128.4080578914
 10
77.2145896701
 20
128.3402007973
 10
77.2683381585
 20
128.287942425
 10
77.3296564368
 20
128.2532907059
 10
77.3961975721
 20
128.2375774315
 10
77.4653985647
 20
128.2414065642
  0
LWPOLYLINE
  5
230
330
1F
100
AcDbEntity
  8
0
  6
Continuous
 62
     7
370
    25
100
AcDbPolyline
 90
        9
 70
   128
 43
0.0
 10
77.4798973945
 20
128.1358374251
 10
77.478414729
 20
128.14666405
 10
77.476797953
 20
128.1584136156
 10
77.4750694183
 20
128.1709725006
 10
77.4732514767
 20
128.1842173045
 10
77.4713590292
 20
128.1980199708
 10
77.4693995265
 20
128.2122449918
 10
77.4674102215
 20
128.2267545318
 10
77.4653985647
 20
128.2414065642
  0
ARC
  5
231
330
1F
100
AcDbEntity
  8
0
  6
Continuous
 62
     7
370
    25
100
AcDbCircle
 10
54.507864333
 20
128.4887489267
 30
0.0
 40
1.118111898560765
100
AcDbArc
 50
341.8322527315
 51
347.4487981717
  0
LWPOLYLINE
  5
232
330
1F
100
AcDbEntity
  8
0
  6
Continuous
 62
     7
370
    25
100
AcDbPolyline
 90
       10
 70
   128
 43
0.0
 10
55.5992558149
 20
128.2457698105
 10
55.6650593428
 20
128.2328588856
 10
55.7298719434
 20
128.2374894215
 10
55.791450992
 20
128.2595016962
 10
55.8476656226
 20
128.2981343536
 10
55.8965786842
 20
128.352051877
 10
55.9364914445
 20
128.4193906901
 10
55.9660329965
 20
128.4978229521
 10
55.9841751603
 20
128.5846371172
 10
55.990292087
 20
128.6768319985
  0
LWPOLYLINE
  5
233
330
1F
100
AcDbEntity
  8
0
  6
Continuous
 62
     7
370
    25
100
AcDbPolyline
 90
       10
 70
   128
 43
0.0
 10
55.990292087
 20
138.9248318007
 10
55.9841751603
 20
139.017026682
 10
55.9660329965
 20
139.1038408471
 10
55.9364914445
 20
139.1822731091
 10
55.8965786842
 20
139.2496119222
 10
55.8476656226
 20
139.3035294456
 10
55.791450992
 20
139.342162103
 10
55.7298719434
 20
139.3641743777
 10
55.6650593428
 20
139.3688049136
 10
55.5992558149
 20
139.3558939887
  0
ARC
  5
234
330
1F
100
AcDbEntity
  8
0
  6
Continuous
 62
     7
370
    25
100
AcDbCircle
 10
54.507864333
 20
139.1129148725
 30
0.0
 40
1.118111898560765
100
AcDbArc
 50
12.5512018283
 51
18.1677472685
  0
LINE
  5
235
330
1F
100
AcDbEntity
  8
0
  6
Continuous
 62
     7
370
    25
100
AcDbLine
 10
77.4653985647
 20
128.2414065642
 30
0.0
 11
77.4653985647
 21
139.360257235
 31
0.0
  0
LINE
  5
236
330
1F
100
AcDbEntity
  8
0
  6
Continuous
 62
     7
370
    25
100
AcDbLine
 10
55.5992558149
 20
139.3558939887
 30
0.0
 11
55.5992558149
 21
128.2457698105
 31
0.0
  0
ARC
  5
237
330
1F
100
AcDbEntity
  8
0
  6
Continuous
 62
     7
370
    25
100
AcDbCircle
 10
77.9149567837
 20
128.7319449013
 30
0.0
 40
0.4387133424696276
100
AcDbArc
 50
264.5488879084
 51
288.4696648563
  0
ARC
  5
238
330
1F
100
AcDbEntity
  8
0
  6
Continuous
 62
     7
370
    25
100
AcDbCircle
 10
77.8814012759
 20
127.4957042941
 30
0.0
 40
0.7995525345222272
100
AcDbArc
 50
90.5819360985
 51
91.9678020057
  0
LINE
  5
239
330
1F
100
AcDbEntity
  8
0
  6
Continuous
 62
     7
370
    25
100
AcDbLine
 10
77.8539463428
 20
128.2947853176
 30
0.0
 11
77.8539463428
 21
139.3068784816
 31
0.0
  0
ARC
  5
23A
330
1F
100
AcDbEntity
  8
0
  6
Continuous
 62
     7
370
    25
100
AcDbCircle
 10
77.8814012759
 20
140.1059595051
 30
0.0
 40
0.7995525345222272
100
AcDbArc
 50
268.0321979943
 51
269.4180639015
  0
ARC
  5
23B
330
1F
100
AcDbEntity
  8
0
  6
Continuous
 62
     7
370
    25
100
AcDbCircle
 10
77.9149567837
 20
138.8697188979
 30
0.0
 40
0.4387133424696276
100
AcDbArc
 50
71.5303351437
 51
95.4511120916
  0
LINE
  5
23C
330
1F
100
AcDbEntity
  8
0
  6
Continuous
 62
     7
370
    25
100
AcDbLine
 10
78.0539422778
 20
139.2858347824
 30
0.0
 11
78.0539422778
 21
128.3158290168
 31
0.0
  0
LWPOLYLINE
  5
23D
330
1F
100
AcDbEntity
  8
0
  6
Continuous
 62
     7
370
    25
100
AcDbPolyline
 90
        9
 70
   128
 43
0.0
 10
77.8684451727
 20
139.4124476207
 10
77.8669625071
 20
139.4016209958
 10
77.8653457311
 20
139.3898709645
 10
77.8636171964
 20
139.3773125453
 10
77.8617992548
 20
139.3640672756
 10
77.8599068073
 20
139.3502650751
 10
77.8579473046
 20
139.3360400541
 10
77.8559579996
 20
139.321530514
 10
77.8539463428
 20
139.3068784816
  0
LINE
  5
23E
330
1F
100
AcDbEntity
  8
0
  6
Continuous
 62
     7
370
    25
100
AcDbLine
 10
77.8539463428
 20
139.3068784816
 30
0.0
 11
77.4653985647
 21
139.360257235
 31
0.0
  0
LWPOLYLINE
  5
23F
330
1F
100
AcDbEntity
  8
0
  6
Continuous
 62
     7
370
    25
100
AcDbPolyline
 90
        9
 70
   128
 43
0.0
 10
77.8539463428
 20
128.2947853176
 10
77.8559579996
 20
128.2801332852
 10
77.8579473046
 20
128.2656237451
 10
77.8599068073
 20
128.2513987241
 10
77.8617992548
 20
128.2375965236
 10
77.8636171964
 20
128.2243512539
 10
77.8653457311
 20
128.2117928347
 10
77.8669625071
 20
128.2000428034
 10
77.8684451727
 20
128.1892161785
  0
LINE
  5
240
330
1F
100
AcDbEntity
  8
0
  6
Continuous
 62
     7
370
    25
100
AcDbLine
 10
77.4653985647
 20
128.2414065642
 30
0.0
 11
77.8539463428
 21
128.2947853176
 31
0.0
  0
ARC
  5
241
330
1F
100
AcDbEntity
  8
0
  6
Continuous
 62
     7
370
    25
100
AcDbCircle
 10
77.890835936
 20
128.3569339365
 30
0.0
 40
0.1682061031628925
100
AcDbArc
 50
264.0092437536
 51
345.8552557647
  0
ARC
  5
242
330
1F
100
AcDbEntity
  8
0
  6
Continuous
 62
     7
370
    25
100
AcDbCircle
 10
77.890835936
 20
139.2447298627
 30
0.0
 40
0.1682061031628855
100
AcDbArc
 50
14.1447442352
 51
95.9907562464
  0
LWPOLYLINE
  5
243
330
1F
100
AcDbEntity
  8
0
  6
Continuous
 62
     7
370
    25
100
AcDbPolyline
 90
        9
 70
   128
 43
0.0
 10
55.240637019
 20
128.1816286935
 10
55.2420004753
 20
128.1924678912
 10
55.2434831408
 20
128.204229564
 10
55.2450701145
 20
128.2167986935
 10
55.2467390446
 20
128.230053742
 10
55.2484750298
 20
128.2438652558
 10
55.2502706198
 20
128.2580991244
 10
55.252096012
 20
128.2726165807
 10
55.253943756
 20
128.2872765293
  0
LINE
  5
244
330
1F
100
AcDbEntity
  8
0
  6
Continuous
 62
     7
370
    25
100
AcDbLine
 10
55.253943756
 20
128.2872765293
 30
0.0
 11
55.5835425404
 21
128.2457698105
 31
0.0
  0
LINE
  5
245
330
1F
100
AcDbEntity
  8
0
  6
Continuous
 62
     7
370
    25
100
AcDbLine
 10
55.253943756
 20
139.3143872699
 30
0.0
 11
55.253943756
 21
128.2872765293
 31
0.0
  0
LINE
  5
246
330
1F
100
AcDbEntity
  8
0
  6
Continuous
 62
     7
370
    25
100
AcDbLine
 10
55.5835425404
 20
139.3558939887
 30
0.0
 11
55.253943756
 21
139.3143872699
 31
0.0
  0
ARC
  5
247
330
1F
100
AcDbEntity
  8
0
  6
Continuous
 62
     7
370
    25
100
AcDbCircle
 10
55.2288009637
 20
140.112058981
 30
0.0
 40
0.7980678659448162
100
AcDbArc
 50
270.5314891836
 51
271.8053781562
  0
LWPOLYLINE
  5
248
330
1F
100
AcDbEntity
  8
0
  6
Continuous
 62
     7
370
    25
100
AcDbPolyline
 90
        9
 70
   128
 43
0.0
 10
55.253943756
 20
139.3143872699
 10
55.252096012
 20
139.3290472185
 10
55.2502706198
 20
139.3435646748
 10
55.2484750298
 20
139.3577985434
 10
55.2467390446
 20
139.3716100572
 10
55.2450701145
 20
139.3848651057
 10
55.2434831408
 20
139.3974342352
 10
55.2420004753
 20
139.409195908
 10
55.240637019
 20
139.4200351058
  0
ARC
  5
249
330
1F
100
AcDbEntity
  8
0
  6
Continuous
 62
     7
370
    25
100
AcDbCircle
 10
55.2288009637
 20
127.4896048183
 30
0.0
 40
0.7980678659447878
100
AcDbArc
 50
88.1946218438
 51
89.4685108164
  0
ARC
  5
24A
330
1F
100
AcDbEntity
  8
0
  6
Continuous
 62
     7
370
    25
100
AcDbCircle
 10
55.1939131036
 20
128.729481891
 30
0.0
 40
0.4438628502645727
100
AcDbArc
 50
251.61797639
 51
275.467379663
  0
LINE
  5
24B
330
1F
100
AcDbEntity
  8
0
  6
Continuous
 62
     7
370
    25
100
AcDbLine
 10
55.0539403704
 20
128.3082671432
 30
0.0
 11
55.0539403704
 21
139.293396656
 31
0.0
  0
ARC
  5
24C
330
1F
100
AcDbEntity
  8
0
  6
Continuous
 62
     7
370
    25
100
AcDbCircle
 10
55.1939131036
 20
138.8721819082
 30
0.0
 40
0.4438628502645727
100
AcDbArc
 50
84.532620337
 51
108.38202361
  0
LINE
  5
24D
330
1F
100
AcDbEntity
  8
0
  6
Continuous
 62
     7
370
    25
100
AcDbLine
 10
55.5835425404
 20
128.2457698105
 30
0.0
 11
55.5992558149
 21
128.2457698105
 31
0.0
  0
LINE
  5
24E
330
1F
100
AcDbEntity
  8
0
  6
Continuous
 62
     7
370
    25
100
AcDbLine
 10
55.5992558149
 20
139.3558939887
 30
0.0
 11
55.5835425404
 21
139.3558939887
 31
0.0
  0
ARC
  5
24F
330
1F
100
AcDbEntity
  8
0
  6
Continuous
 62
     7
370
    25
100
AcDbCircle
 10
55.2176473188
 20
139.2517829646
 30
0.0
 40
0.1689131855875809
100
AcDbArc
 50
83.6928222618
 51
165.7376966038
  0
ARC
  5
250
330
1F
100
AcDbEntity
  8
0
  6
Continuous
 62
     7
370
    25
100
AcDbCircle
 10
55.2176473188
 20
128.3498808346
 30
0.0
 40
0.1689131855875809
100
AcDbArc
 50
194.2623033962
 51
276.3071777382
  0
LINE
  5
251
330
1F
100
AcDbEntity
  8
0
  6
Continuous
 62
     7
370
    25
100
AcDbLine
 10
78.0539422778
 20
139.9508316969
 30
0.0
 11
78.0539422778
 21
139.2858347824
 31
0.0
  0
LINE
  5
252
330
1F
100
AcDbEntity
  8
0
  6
Continuous
 62
     7
370
    25
100
AcDbLine
 10
78.0539422778
 20
128.3158290168
 30
0.0
 11
78.0539422778
 21
127.6508321023
 31
0.0
  0
LINE
  5
253
330
1F
100
AcDbEntity
  8
0
  6
Continuous
 62
     7
370
    25
100
AcDbLine
 10
55.0539403704
 20
139.293396656
 30
0.0
 11
55.0539403704
 21
139.9508316969
 31
0.0
  0
LINE
  5
254
330
1F
100
AcDbEntity
  8
0
  6
Continuous
 62
     7
370
    25
100
AcDbLine
 10
55.0539403704
 20
127.6508321023
 30
0.0
 11
55.0539403704
 21
128.3082671432
 31
0.0
  0
ARC
  5
255
330
1F
100
AcDbEntity
  8
0
  6
Continuous
 62
     7
370
    25
100
AcDbCircle
 10
77.8539457431
 20
139.9508352881
 30
0.0
 40
0.1999965347621253
100
AcDbArc
 50
359.9989711925
 51
89.9998281765
  0
ARC
  5
256
330
1F
100
AcDbEntity
  8
0
  6
Continuous
 62
     7
370
    25
100
AcDbCircle
 10
77.8539457431
 20
127.6508285111
 30
0.0
 40
0.1999965347621184
100
AcDbArc
 50
270.0001718235
 51
0.0010288075
  0
ARC
  5
257
330
1F
100
AcDbEntity
  8
0
  6
Continuous
 62
     7
370
    25
100
AcDbCircle
 10
55.2539496243
 20
127.6508412303
 30
0.0
 40
0.2000092540819479
100
AcDbArc
 50
180.0026148816
 51
269.9983189251
  0
ARC
  5
258
330
1F
100
AcDbEntity
  8
0
  6
Continuous
 62
     7
370
    25
100
AcDbCircle
 10
55.2539496243
 20
139.9508225689
 30
0.0
 40
0.2000092540819479
100
AcDbArc
 50
90.0016810749
 51
179.9973851184
  0
ARC
  5
259
330
1F
100
AcDbEntity
  8
0
  6
Continuous
 62
     7
370
    25
100
AcDbCircle
 10
54.6539412522
 20
137.6758280805
 30
0.0
 40
0.1999961373022529
100
AcDbArc
 50
179.9989240269
 51
269.9999420431
  0
ARC
  5
25A
330
1F
100
AcDbEntity
  8
0
  6
Continuous
 62
     7
370
    25
100
AcDbCircle
 10
55.453959395
 20
137.9758248526
 30
0.0
 40
1.000014280093346
100
AcDbArc
 50
113.5790107014
 51
179.9996023891
  0
LINE
  5
25B
330
1F
100
AcDbEntity
  8
0
  6
Continuous
 62
     7
370
    25
100
AcDbLine
 10
54.453945115
 20
137.6758318363
 30
0.0
 11
54.453945115
 21
137.9758317923
 31
0.0
  0
ARC
  5
25C
330
1F
100
AcDbEntity
  8
0
  6
Continuous
 62
     7
370
    25
100
AcDbCircle
 10
88.9539483206
 20
138.4758387381
 30
0.0
 40
0.4999932181914384
100
AcDbArc
 50
359.9992134528
 51
90.0008932687
  0
LINE
  5
25D
330
1F
100
AcDbEntity
  8
0
  6
Continuous
 62
     7
370
    25
100
AcDbLine
 10
89.4539415387
 20
138.4758318743
 30
0.0
 11
89.4539415387
 21
129.1258319249
 31
0.0
  0
ARC
  5
25E
330
1F
100
AcDbEntity
  8
0
  6
Continuous
 62
     7
370
    25
100
AcDbCircle
 10
88.9539456415
 20
129.1258277402
 30
0.0
 40
0.4999958971978676
100
AcDbArc
 50
269.9994137335
 51
0.0004795449
  0
LINE
  5
25F
330
1F
100
AcDbEntity
  8
0
  6
Continuous
 62
     7
370
    25
100
AcDbLine
 10
55.0539403704
 20
137.4758319432
 30
0.0
 11
54.6539410499
 21
137.4758319432
 31
0.0
  0
LINE
  5
260
330
1F
100
AcDbEntity
  8
0
  6
Continuous
 62
     7
370
    25
100
AcDbLine
 10
54.453945115
 20
129.6258320069
 30
0.0
 11
54.453945115
 21
129.9258319629
 31
0.0
  0
ARC
  5
261
330
1F
100
AcDbEntity
  8
0
  6
Continuous
 62
     7
370
    25
100
AcDbCircle
 10
54.6539412522
 20
129.9258357187
 30
0.0
 40
0.1999961373022529
100
AcDbArc
 50
90.0000579569
 51
180.0010759731
  0
LINE
  5
262
330
1F
100
AcDbEntity
  8
0
  6
Continuous
 62
     7
370
    25
100
AcDbLine
 10
87.4539449362
 20
128.625831843
 30
0.0
 11
87.4539449362
 21
138.9758319562
 31
0.0
  0
LINE
  5
263
330
1F
100
AcDbEntity
  8
0
  6
Continuous
 62
     7
370
    25
100
AcDbLine
 10
88.9539405254
 20
138.9758319562
 30
0.0
 11
87.4539449362
 21
138.9758319562
 31
0.0
  0
LINE
  5
264
330
1F
100
AcDbEntity
  8
0
  6
Continuous
 62
     7
370
    25
100
AcDbLine
 10
87.4539449362
 20
128.625831843
 30
0.0
 11
88.9539405254
 21
128.625831843
 31
0.0
  0
LINE
  5
265
330
1F
100
AcDbEntity
  8
0
  6
Continuous
 62
     7
370
    25
100
AcDbLine
 10
54.6539410499
 20
130.125831856
 30
0.0
 11
55.0539403704
 21
130.125831856
 31
0.0
  0
ARC
  5
266
330
1F
100
AcDbEntity
  8
0
  6
Continuous
 62
     7
370
    25
100
AcDbCircle
 10
55.453959395
 20
129.6258389466
 30
0.0
 40
1.000014280093346
100
AcDbArc
 50
180.0003976109
 51
246.4209892986
  0
LINE
  5
267
330
1F
100
AcDbEntity
  8
0
  6
Continuous
 62
     7
370
    25
100
AcDbLine
 10
84.2539429215
 20
138.9758319562
 30
0.0
 11
78.0539422778
 21
138.9758319562
 31
0.0
  0
LINE
  5
268
330
1F
100
AcDbEntity
  8
0
  6
Continuous
 62
     7
370
    25
100
AcDbLine
 10
78.0539422778
 20
128.625831843
 30
0.0
 11
84.2539429215
 21
128.625831843
 31
0.0
  0
LINE
  5
269
330
1F
100
AcDbEntity
  8
0
  6
Continuous
 62
     7
370
    25
100
AcDbLine
 10
54.453945115
 20
129.9258319629
 30
0.0
 11
54.453945115
 21
137.6758318363
 31
0.0
  0
LINE
  5
26A
330
1F
100
AcDbEntity
  8
0
  6
Continuous
 62
     7
370
    25
100
AcDbLine
 10
84.2539429215
 20
138.9758319562
 30
0.0
 11
87.4539449362
 21
138.9758319562
 31
0.0
  0
LINE
  5
26B
330
1F
100
AcDbEntity
  8
0
  6
Continuous
 62
     7
370
    25
100
AcDbLine
 10
87.4539449362
 20
128.625831843
 30
0.0
 11
84.2539429215
 21
128.625831843
 31
0.0
  0
DIMENSION
  5
26C
330
1F
100
AcDbEntity
  8
0
  6
Continuous
 62
     7
370
    18
100
AcDbDimension
  2
_D
 10
48.4539435414
 20
127.4508318996
 30
0.0
 11
48.4539435414
 21
133.8008318996
 31
0.0
 70
   160
  1
<>
 71
     2
 42
-1.0
  3
SLDDIMSTYLE0
100
AcDbAlignedDimension
 13
55.2539435414
 23
140.1508318996
 33
0.0
 14
55.2539435414
 24
127.4508318996
 34
0.0
 50
90.0
100
AcDbRotatedDimension
  0
DIMENSION
  5
27D
330
1F
100
AcDbEntity
  8
0
  6
Continuous
 62
     7
370
    18
100
AcDbDimension
  2
_D_1
 10
89.4539435414
 20
161.3670569407
 30
0.0
 11
71.9539435414
 21
161.3670569407
 31
0.0
 70
   160
  1
<>
 71
     2
 42
-1.0
  3
SLDDIMSTYLE0
100
AcDbAlignedDimension
 13
54.4539435414
 23
137.9758318996
 33
0.0
 14
89.4539435414
 24
138.4758318996
 34
0.0
100
AcDbRotatedDimension
  0
DIMENSION
  5
287
330
1F
100
AcDbEntity
  8
0
  6
Continuous
 62
     7
370
    18
100
AcDbDimension
  2
_D_2
 10
98.7457830424
 20
128.6258318996
 30
0.0
 11
98.7457830424
 21
144.9958756034
 31
0.0
 70
   160
  1
<>
 71
     2
 42
-1.0
  3
SLDDIMSTYLE1
100
AcDbAlignedDimension
 13
88.9539435414
 23
138.9758318996
 33
0.0
 14
88.9539435414
 24
128.6258318996
 34
0.0
 50
90.0
100
AcDbRotatedDimension
  0
DIMENSION
  5
293
330
1F
100
AcDbEntity
  8
0
  6
Continuous
 62
     7
370
    18
100
AcDbDimension
  2
_D_3
 10
110.4419258326
 20
135.4508318996
 30
0.0
 11
110.4419258326
 21
144.9958756034
 31
0.0
 70
   160
  1
%%c<>
 71
     2
 42
-1.0
  3
SLDDIMSTYLE2
100
AcDbAlignedDimension
 13
85.5039435414
 23
132.1508318996
 33
0.0
 14
85.5039435414
 24
135.4508318996
 34
0.0
 50
90.0
100
AcDbRotatedDimension
  0
DIMENSION
  5
29F
330
1F
100
AcDbEntity
  8
0
  6
Continuous
 62
     7
370
    18
100
AcDbDimension
  2
_D_4
 10
243.8176534733
 20
161.3670569407
 30
0.0
 11
166.6357985073
 21
161.3670569407
 31
0.0
 70
   160
  1
L=500～20000
 71
     2
 42
-1.0
  3
SLDDIMSTYLE0
100
AcDbAlignedDimension
 13
89.4539435414
 23
138.4758318996
 33
0.0
 14
243.8176534733
 24
142.8670569407
 34
0.0
100
AcDbRotatedDimension
  0
DIMENSION
  5
2A9
330
1F
100
AcDbEntity
  8
0
  6
Continuous
 62
     7
370
    18
100
AcDbDimension
  2
_D_5
 10
243.8176534733
 20
149.6242782562
 30
0.0
 11
215.9978334506
 21
149.6242782562
 31
0.0
 70
   160
  1
(80)
 71
     2
 42
-1.0
  3
SLDDIMSTYLE0
100
AcDbAlignedDimension
 13
188.178013428
 23
135.5508318996
 33
0.0
 14
243.8176534733
 24
142.8670569407
 34
0.0
100
AcDbRotatedDimension
  0
INSERT
  5
2BA
330
1F
100
AcDbEntity
  8
0
  6
Continuous
 62
     7
370
    18
100
AcDbBlockReference
  2
SW_NOTE_0
 10
182.5273148772
 20
114.6341478666
 30
0.0
  0
LEADER
  5
2BC
330
1F
100
AcDbEntity
  8
0
  6
Continuous
 62
     7
370
    18
100
AcDbLeader
  3
SLDDIMSTYLE3
 76
     2
 10
184.6036310904
 20
132.1508318996
 30
0.0
 10
182.5273148772
 20
114.6341478666
 30
0.0
  0
INSERT
  5
2C2
330
1F
100
AcDbEntity
  8
0
  6
Continuous
 62
     7
370
    18
100
AcDbBlockReference
  2
SW_NOTE_0_1
 10
239.572618404
 20
114.6341478666
 30
0.0
  0
LEADER
  5
2C3
330
1F
100
AcDbEntity
  8
0
  6
Continuous
 62
     7
370
    18
100
AcDbLeader
  3
SLDDIMSTYLE3
 76
     2
 10
241.3343255552
 20
126.2346068585
 30
0.0
 10
239.572618404
 20
114.6341478666
 30
0.0
  0
INSERT
  5
2C9
330
1F
100
AcDbEntity
  8
0
  6
Continuous
 62
     7
370
    18
100
AcDbBlockReference
  2
SW_NOTE_0_2
 10
131.6921719731
 20
114.6341478666
 30
0.0
  0
LEADER
  5
2CA
330
1F
100
AcDbEntity
  8
0
  6
Continuous
 62
     7
370
    18
100
AcDbLeader
  3
SLDDIMSTYLE3
 76
     2
 10
134.3959256302
 20
132.1508318996
 30
0.0
 10
131.6921719731
 20
114.6341478666
 30
0.0
  0
MTEXT
  5
2CB
330
1F
100
AcDbEntity
  8
0
  6
Continuous
 62
     7
370
    18
100
AcDbMText
 10
110.8455193994
 20
113.8199384967
 30
0.0
 40
2.6458333333
 41
0.0
 71
     1
 72
     1
  1
(0.1/19x2)
  7
SLDTEXTSTYLE0
 73
     1
 44
1.0
  0
INSERT
  5
2D1
330
1F
100
AcDbEntity
  8
0
  6
Continuous
 62
     7
370
    18
100
AcDbBlockReference
  2
SW_NOTE_0_3
 10
69.8862677379
 20
114.6341478666
 30
0.0
  0
LEADER
  5
2D2
330
1F
100
AcDbEntity
  8
0
  6
Continuous
 62
     7
370
    18
100
AcDbLeader
  3
SLDDIMSTYLE3
 76
     2
 10
73.6125209983
 20
127.4508318996
 30
0.0
 10
69.8862677379
 20
114.6341478666
 30
0.0
  0
MTEXT
  5
2D3
330
1F
100
AcDbEntity
  8
0
  6
Continuous
 62
     7
370
    18
100
AcDbMText
 10
61.0419411925
 20
113.8199384967
 30
0.0
 40
2.6458333333
 41
0.0
 71
     1
 72
     1
  1
(PPS)
  7
SLDTEXTSTYLE0
 73
     1
 44
1.0
  0
INSERT
  5
2DF
330
1F
100
AcDbEntity
  8
0
  6
Continuous
 62
     7
370
    18
100
AcDbBlockReference
  2
SW_CENTERMARKSYMBOL_0
 10
243.8176525911
 20
138.767056909
 30
0.0
  0
INSERT
  5
2EB
330
1F
100
AcDbEntity
  8
0
  6
Continuous
 62
     7
370
    18
100
AcDbBlockReference
  2
SW_CENTERMARKSYMBOL_1
 10
243.8176525911
 20
128.8346068902
 30
0.0
  0
ARC
  5
2EC
330
1F
100
AcDbEntity
  8
0
  6
HIDDEN
 62
     7
370
    18
100
AcDbCircle
 10
146.431224672
 20
136.2133318996
 30
0.0
 40
6.272500000000001
100
AcDbArc
 50
157.380135052
 51
202.619864948
  0
ARC
  5
2ED
330
1F
100
AcDbEntity
  8
0
  6
HIDDEN
 62
     7
370
    18
100
AcDbCircle
 10
134.851224672
 20
131.3883318996
 30
0.0
 40
6.27249999999999
100
AcDbArc
 50
337.380135052
 51
22.619864948
  0
ARC
  5
2EE
330
1F
100
AcDbEntity
  8
0
  6
HIDDEN
 62
     7
370
    18
100
AcDbCircle
 10
149.431224672
 20
136.2133318996
 30
0.0
 40
6.272500000000001
100
AcDbArc
 50
157.380135052
 51
202.619864948
  0
ARC
  5
2EF
330
1F
100
AcDbEntity
  8
0
  6
HIDDEN
 62
     7
370
    18
100
AcDbCircle
 10
137.851224672
 20
131.3883318996
 30
0.0
 40
6.272499999999964
100
AcDbArc
 50
337.380135052
 51
22.619864948
  0
ARC
  5
2F0
330
1F
100
AcDbEntity
  8
0
  6
HIDDEN
 62
     7
370
    18
100
AcDbCircle
 10
217.8313373883
 20
137.2447939983
 30
0.0
 40
8.95430145661095
100
AcDbArc
 50
157.380135052
 51
202.619864948
  0
ARC
  5
2F1
330
1F
100
AcDbEntity
  8
0
  6
HIDDEN
 62
     7
370
    18
100
AcDbCircle
 10
201.3003193146
 20
130.3568698009
 30
0.0
 40
8.95430145661099
100
AcDbArc
 50
337.380135052
 51
22.619864948
  0
ARC
  5
2F2
330
1F
100
AcDbEntity
  8
0
  6
HIDDEN
 62
     7
370
    18
100
AcDbCircle
 10
220.9595713356
 20
137.2982248097
 30
0.0
 40
9.093221566132184
100
AcDbArc
 50
157.380135052
 51
202.619864948
  0
ARC
  5
2F3
330
1F
100
AcDbEntity
  8
0
  6
HIDDEN
 62
     7
370
    18
100
AcDbCircle
 10
204.1720853673
 20
130.3034389896
 30
0.0
 40
9.093221566132216
100
AcDbArc
 50
337.380135052
 51
22.619864948
  0
LINE
  5
2F4
330
1F
100
AcDbEntity
  8
0
  6
CENTERX2
 62
     7
370
    18
100
AcDbLine
 10
140.6326427606
 20
133.8215296743
 30
0.0
 11
51.4227285532
 21
133.8215296743
 31
0.0
  0
LINE
  5
2F5
330
1F
100
AcDbEntity
  8
0
  6
CENTERX2
 62
     7
370
    18
100
AcDbLine
 10
209.5572350819
 20
133.8215296743
 30
0.0
 11
143.6326446284
 21
133.8215296743
 31
0.0
  0
LINE
  5
2F6
330
1F
100
AcDbEntity
  8
0
  6
CENTERX2
 62
     7
370
    18
100
AcDbLine
 10
249.9334765753
 20
133.8215296743
 30
0.0
 11
212.5572366794
 21
133.8215296743
 31
0.0
  0
INSERT
  5
2FA
330
1F
100
AcDbEntity
  8
0
  6
Continuous
 62
     7
100
AcDbBlockReference
  2
SW_BROKEN_VIEW_1
 10
0.0
 20
0.0
 30
0.0
  0
LINE
  5
2FB
330
1F
100
AcDbEntity
  8
0
  6
Continuous
 62
     7
370
    25
100
AcDbLine
 10
228.4176526746
 20
77.5426203338
 30
0.0
 11
237.9176570257
 21
77.5426203338
 31
0.0
  0
LINE
  5
2FC
330
1F
100
AcDbEntity
  8
0
  6
Continuous
 62
     7
370
    25
100
AcDbLine
 10
237.9176570257
 20
80.652620237
 30
0.0
 11
228.4176526746
 21
80.652620237
 31
0.0
  0
LINE
  5
2FD
330
1F
100
AcDbEntity
  8
0
  6
Continuous
 62
     7
370
    25
100
AcDbLine
 10
223.4176499924
 20
79.472620245
 30
0.0
 11
212.4283043822
 21
79.472620245
 31
0.0
  0
LINE
  5
2FE
330
1F
100
AcDbEntity
  8
0
  6
Continuous
 62
     7
370
    25
100
AcDbLine
 10
212.7033500155
 20
78.7226202385
 30
0.0
 11
223.4176499924
 21
78.7226202385
 31
0.0
  0
LINE
  5
2FF
330
1F
100
AcDbEntity
  8
0
  6
Continuous
 62
     7
370
    25
100
AcDbLine
 10
228.4176526746
 20
79.472620245
 30
0.0
 11
223.4176499924
 21
79.472620245
 31
0.0
  0
LINE
  5
300
330
1F
100
AcDbEntity
  8
0
  6
Continuous
 62
     7
370
    25
100
AcDbLine
 10
223.4176499924
 20
78.7226202385
 30
0.0
 11
228.4176526746
 21
78.7226202385
 31
0.0
  0
LINE
  5
301
330
1F
100
AcDbEntity
  8
0
  6
Continuous
 62
     7
370
    25
100
AcDbLine
 10
228.4176526746
 20
79.0976201835
 30
0.0
 11
228.4176526746
 21
80.652620237
 31
0.0
  0
LINE
  5
302
330
1F
100
AcDbEntity
  8
0
  6
Continuous
 62
     7
370
    25
100
AcDbLine
 10
228.4176526746
 20
77.5426203338
 30
0.0
 11
228.4176526746
 21
79.0976201835
 31
0.0
  0
LINE
  5
303
330
1F
100
AcDbEntity
  8
0
  6
Continuous
 62
     7
370
    25
100
AcDbLine
 10
237.9176570257
 20
79.0976201835
 30
0.0
 11
237.9176570257
 21
80.652620237
 31
0.0
  0
LINE
  5
304
330
1F
100
AcDbEntity
  8
0
  6
Continuous
 62
     7
370
    25
100
AcDbLine
 10
237.9176570257
 20
77.5426203338
 30
0.0
 11
237.9176570257
 21
79.0976201835
 31
0.0
  0
LINE
  5
305
330
1F
100
AcDbEntity
  8
0
  6
Continuous
 62
     7
370
    25
100
AcDbLine
 10
240.1176570138
 20
79.0976201835
 30
0.0
 11
240.1176570138
 21
78.44762024
 31
0.0
  0
LINE
  5
306
330
1F
100
AcDbEntity
  8
0
  6
Continuous
 62
     7
370
    25
100
AcDbLine
 10
246.4176518997
 20
79.0976201835
 30
0.0
 11
246.4176518997
 21
78.44762024
 31
0.0
  0
LINE
  5
307
330
1F
100
AcDbEntity
  8
0
  6
Continuous
 62
     7
370
    25
100
AcDbLine
 10
240.1176570138
 20
78.44762024
 30
0.0
 11
246.4176518997
 21
78.44762024
 31
0.0
  0
LINE
  5
308
330
1F
100
AcDbEntity
  8
0
  6
Continuous
 62
     7
370
    25
100
AcDbLine
 10
240.1176570138
 20
79.0976201835
 30
0.0
 11
246.4176518997
 21
79.0976201835
 31
0.0
  0
LINE
  5
309
330
1F
100
AcDbEntity
  8
0
  6
Continuous
 62
     7
370
    25
100
AcDbLine
 10
239.0176532945
 20
79.0976201835
 30
0.0
 11
239.0176532945
 21
78.44762024
 31
0.0
  0
LINE
  5
30A
330
1F
100
AcDbEntity
  8
0
  6
Continuous
 62
     7
370
    25
100
AcDbLine
 10
239.0176532945
 20
78.44762024
 30
0.0
 11
240.1176570138
 21
78.44762024
 31
0.0
  0
LINE
  5
30B
330
1F
100
AcDbEntity
  8
0
  6
Continuous
 62
     7
370
    25
100
AcDbLine
 10
239.0176532945
 20
79.0976201835
 30
0.0
 11
240.1176570138
 21
79.0976201835
 31
0.0
  0
LINE
  5
30C
330
1F
100
AcDbEntity
  8
0
  6
Continuous
 62
     7
370
    25
100
AcDbLine
 10
237.9176570257
 20
78.44762024
 30
0.0
 11
239.0176532945
 21
78.44762024
 31
0.0
  0
LINE
  5
30D
330
1F
100
AcDbEntity
  8
0
  6
Continuous
 62
     7
370
    25
100
AcDbLine
 10
237.9176570257
 20
79.0976201835
 30
0.0
 11
239.0176532945
 21
79.0976201835
 31
0.0
  0
LINE
  5
30E
330
1F
100
AcDbEntity
  8
0
  6
Continuous
 62
     7
370
    25
100
AcDbLine
 10
173.1780132551
 20
77.3476202459
 30
0.0
 11
188.1780101259
 21
77.3476202459
 31
0.0
  0
LINE
  5
30F
330
1F
100
AcDbEntity
  8
0
  6
Continuous
 62
     7
370
    25
100
AcDbLine
 10
188.1780101259
 20
80.8476202303
 30
0.0
 11
173.1780132551
 21
80.8476202303
 31
0.0
  0
LINE
  5
310
330
1F
100
AcDbEntity
  8
0
  6
Continuous
 62
     7
370
    25
100
AcDbLine
 10
188.1780101259
 20
77.3476202459
 30
0.0
 11
189.1780121524
 21
77.497620224
 31
0.0
  0
LINE
  5
311
330
1F
100
AcDbEntity
  8
0
  6
Continuous
 62
     7
370
    25
100
AcDbLine
 10
189.1780121524
 20
80.6976202304
 30
0.0
 11
188.1780101259
 21
80.8476202303
 31
0.0
  0
LINE
  5
312
330
1F
100
AcDbEntity
  8
0
  6
Continuous
 62
     7
370
    25
100
AcDbLine
 10
189.1780121524
 20
77.497620224
 30
0.0
 11
193.1780128081
 21
77.497620224
 31
0.0
  0
LINE
  5
313
330
1F
100
AcDbEntity
  8
0
  6
Continuous
 62
     7
370
    25
100
AcDbLine
 10
193.1780128081
 20
80.6976202304
 30
0.0
 11
189.1780121524
 21
80.6976202304
 31
0.0
  0
LINE
  5
314
330
1F
100
AcDbEntity
  8
0
  6
Continuous
 62
     7
370
    25
100
AcDbLine
 10
209.4283027847
 20
79.472620245
 30
0.0
 11
193.1780128081
 21
79.472620245
 31
0.0
  0
LINE
  5
315
330
1F
100
AcDbEntity
  8
0
  6
Continuous
 62
     7
370
    25
100
AcDbLine
 10
193.1780128081
 20
78.7226202385
 30
0.0
 11
209.7033558686
 21
78.7226202385
 31
0.0
  0
LINE
  5
316
330
1F
100
AcDbEntity
  8
0
  6
Continuous
 62
     7
370
    25
100
AcDbLine
 10
173.1780132551
 20
80.7476202328
 30
0.0
 11
143.2052420725
 21
80.7476202328
 31
0.0
  0
LINE
  5
317
330
1F
100
AcDbEntity
  8
0
  6
Continuous
 62
     7
370
    25
100
AcDbLine
 10
144.0772058715
 20
77.4476203089
 30
0.0
 11
173.1780132551
 21
77.4476203089
 31
0.0
  0
LINE
  5
318
330
1F
100
AcDbEntity
  8
0
  6
Continuous
 62
     7
370
    25
100
AcDbLine
 10
173.1780132551
 20
77.3476202459
 30
0.0
 11
173.1780132551
 21
80.8476202303
 31
0.0
  0
LINE
  5
319
330
1F
100
AcDbEntity
  8
0
  6
Continuous
 62
     7
370
    25
100
AcDbLine
 10
193.1780128081
 20
77.497620224
 30
0.0
 11
193.1780128081
 21
80.6976202304
 31
0.0
  0
LINE
  5
31A
330
1F
100
AcDbEntity
  8
0
  6
Continuous
 62
     7
370
    25
100
AcDbLine
 10
140.20524393
 20
80.7476202328
 30
0.0
 11
89.4539415387
 21
80.7476202328
 31
0.0
  0
LINE
  5
31B
330
1F
100
AcDbEntity
  8
0
  6
Continuous
 62
     7
370
    25
100
AcDbLine
 10
87.4539449362
 20
80.7476202328
 30
0.0
 11
86.4539429096
 21
80.7476202328
 31
0.0
  0
LINE
  5
31C
330
1F
100
AcDbEntity
  8
0
  6
Continuous
 62
     7
370
    25
100
AcDbLine
 10
89.4539415387
 20
77.4476203089
 30
0.0
 11
141.077207729
 21
77.4476203089
 31
0.0
  0
LINE
  5
31D
330
1F
100
AcDbEntity
  8
0
  6
Continuous
 62
     7
370
    25
100
AcDbLine
 10
87.4039440898
 20
83.1976203201
 30
0.0
 11
87.4039440898
 21
81.4976202393
 31
0.0
  0
LINE
  5
31E
330
1F
100
AcDbEntity
  8
0
  6
Continuous
 62
     7
370
    25
100
AcDbLine
 10
78.3039465097
 20
83.8976202951
 30
0.0
 11
87.2039407042
 21
83.8976202951
 31
0.0
  0
LINE
  5
31F
330
1F
100
AcDbEntity
  8
0
  6
Continuous
 62
     7
370
    25
100
AcDbLine
 10
86.503943756
 20
81.4976202393
 30
0.0
 11
86.503943756
 21
83.0976202571
 31
0.0
  0
ARC
  5
320
330
1F
100
AcDbEntity
  8
0
  6
Continuous
 62
     7
370
    25
100
AcDbCircle
 10
87.2039475549
 20
83.6976237603
 30
0.0
 40
0.1999965349608842
100
AcDbArc
 50
359.998971216
 51
90.0019625907
  0
LINE
  5
321
330
1F
100
AcDbEntity
  8
0
  6
Continuous
 62
     7
370
    25
100
AcDbLine
 10
87.4039440898
 20
83.6976201692
 30
0.0
 11
87.4039440898
 21
83.1976203201
 31
0.0
  0
ARC
  5
322
330
1F
100
AcDbEntity
  8
0
  6
Continuous
 62
     7
370
    25
100
AcDbCircle
 10
86.7039400425
 20
81.4976165163
 30
0.0
 40
0.1999962865650236
100
AcDbArc
 50
179.9989334019
 51
270.0020337553
  0
LINE
  5
323
330
1F
100
AcDbEntity
  8
0
  6
Continuous
 62
     7
370
    25
100
AcDbLine
 10
86.7039471415
 20
83.0976202571
 30
0.0
 11
78.3039465097
 21
83.0976202571
 31
0.0
  0
LINE
  5
324
330
1F
100
AcDbEntity
  8
0
  6
Continuous
 62
     7
370
    25
100
AcDbLine
 10
87.2039407042
 20
81.2976202298
 30
0.0
 11
86.7039471415
 21
81.2976202298
 31
0.0
  0
ARC
  5
325
330
1F
100
AcDbEntity
  8
0
  6
Continuous
 62
     7
370
    25
100
AcDbCircle
 10
87.2039478032
 20
81.4976165163
 30
0.0
 40
0.199996286565052
100
AcDbArc
 50
269.9979662447
 51
0.0010665981
  0
LINE
  5
326
330
1F
100
AcDbEntity
  8
0
  6
Continuous
 62
     7
370
    25
100
AcDbLine
 10
78.1039431242
 20
83.1976203201
 30
0.0
 11
78.1039431242
 21
83.6976201692
 31
0.0
  0
ARC
  5
327
330
1F
100
AcDbEntity
  8
0
  6
Continuous
 62
     7
370
    25
100
AcDbCircle
 10
78.3039396591
 20
83.6976237603
 30
0.0
 40
0.1999965349608557
100
AcDbArc
 50
89.9980374093
 51
180.001028784
  0
LINE
  5
328
330
1F
100
AcDbEntity
  8
0
  6
Continuous
 62
     7
370
    25
100
AcDbLine
 10
78.1039431242
 20
83.0976202571
 30
0.0
 11
78.1039431242
 21
83.1976203201
 31
0.0
  0
LINE
  5
329
330
1F
100
AcDbEntity
  8
0
  6
Continuous
 62
     7
370
    25
100
AcDbLine
 10
78.3039465097
 20
83.0976202571
 30
0.0
 11
78.1039431242
 21
83.0976202571
 31
0.0
  0
LINE
  5
32A
330
1F
100
AcDbEntity
  8
0
  6
Continuous
 62
     7
370
    25
100
AcDbLine
 10
85.5039417294
 20
82.5976201752
 30
0.0
 11
78.1039431242
 21
82.5976201752
 31
0.0
  0
LINE
  5
32B
330
1F
100
AcDbEntity
  8
0
  6
Continuous
 62
     7
370
    25
100
AcDbLine
 10
85.5039417294
 20
83.0976202571
 30
0.0
 11
85.5039417294
 21
82.5976201752
 31
0.0
  0
LINE
  5
32C
330
1F
100
AcDbEntity
  8
0
  6
Continuous
 62
     7
370
    25
100
AcDbLine
 10
78.1039431242
 20
82.5976201752
 30
0.0
 11
78.1039431242
 21
83.0976202571
 31
0.0
  0
LINE
  5
32D
330
1F
100
AcDbEntity
  8
0
  6
Continuous
 62
     7
370
    25
100
AcDbLine
 10
85.5039417294
 20
82.1976202726
 30
0.0
 11
85.5039417294
 21
82.5976201752
 31
0.0
  0
LINE
  5
32E
330
1F
100
AcDbEntity
  8
0
  6
Continuous
 62
     7
370
    25
100
AcDbLine
 10
78.1039431242
 20
82.1976202726
 30
0.0
 11
78.1039431242
 21
82.5976201752
 31
0.0
  0
ARC
  5
32F
330
1F
100
AcDbEntity
  8
0
  6
Continuous
 62
     7
370
    25
100
AcDbCircle
 10
55.2236055777
 20
83.4434490031
 30
0.0
 40
0.1725068599900019
100
AcDbArc
 50
85.8119042594
 51
169.5859916016
  0
LWPOLYLINE
  5
330
330
1F
100
AcDbEntity
  8
0
  6
Continuous
 62
     7
370
    25
100
AcDbPolyline
 90
        9
 70
   128
 43
0.0
 10
55.253943756
 20
83.4746312768
 10
55.2514850644
 20
83.4941781079
 10
55.249041274
 20
83.5135349491
 10
55.2466570882
 20
83.5325132077
 10
55.244332507
 20
83.5509287146
 10
55.242112234
 20
83.5686017246
 10
55.2399962691
 20
83.5853608744
 10
55.2380218653
 20
83.6010429495
 10
55.2362039236
 20
83.6154952132
  0
LINE
  5
331
330
1F
100
AcDbEntity
  8
0
  6
Continuous
 62
     7
370
    25
100
AcDbLine
 10
55.253943756
 20
83.4746312768
 30
0.0
 11
55.253943756
 21
80.5976202257
 31
0.0
  0
LINE
  5
332
330
1F
100
AcDbEntity
  8
0
  6
Continuous
 62
     7
370
    25
100
AcDbLine
 10
55.253943756
 20
80.5976202257
 30
0.0
 11
55.0539403704
 21
80.5976202257
 31
0.0
  0
LINE
  5
333
330
1F
100
AcDbEntity
  8
0
  6
Continuous
 62
     7
370
    25
100
AcDbLine
 10
55.0539403704
 20
80.5976202257
 30
0.0
 11
55.0539403704
 21
83.4746312768
 31
0.0
  0
LINE
  5
334
330
1F
100
AcDbEntity
  8
0
  6
Continuous
 62
     7
370
    25
100
AcDbLine
 10
77.8539463428
 20
80.5976202257
 30
0.0
 11
77.8539463428
 21
83.4767088247
 31
0.0
  0
LINE
  5
335
330
1F
100
AcDbEntity
  8
0
  6
Continuous
 62
     7
370
    25
100
AcDbLine
 10
55.253943756
 20
80.5976202257
 30
0.0
 11
77.8539463428
 21
80.5976202257
 31
0.0
  0
LWPOLYLINE
  5
336
330
1F
100
AcDbEntity
  8
0
  6
Continuous
 62
     7
370
    25
100
AcDbPolyline
 90
        9
 70
   128
 43
0.0
 10
77.8732805995
 20
83.6174675216
 10
77.871298745
 20
83.6030320217
 10
77.8691455273
 20
83.587365779
 10
77.8668432978
 20
83.570620832
 10
77.8644218592
 20
83.5529608605
 10
77.8618886618
 20
83.5345576936
 10
77.8592884091
 20
83.5155908437
 10
77.8566285518
 20
83.4962449455
 10
77.8539463428
 20
83.4767088247
  0
ARC
  5
337
330
1F
100
AcDbEntity
  8
0
  6
Continuous
 62
     7
370
    25
100
AcDbCircle
 10
77.8847793157
 20
83.4459083246
 30
0.0
 40
0.1719441145993033
100
AcDbArc
 50
10.3191399501
 51
93.8345015392
  0
LINE
  5
338
330
1F
100
AcDbEntity
  8
0
  6
Continuous
 62
     7
370
    25
100
AcDbLine
 10
77.8539463428
 20
80.3976202453
 30
0.0
 11
77.8539463428
 21
80.5976202257
 31
0.0
  0
LINE
  5
339
330
1F
100
AcDbEntity
  8
0
  6
Continuous
 62
     7
370
    25
100
AcDbLine
 10
78.0539422778
 20
80.5976202257
 30
0.0
 11
77.8539463428
 21
80.5976202257
 31
0.0
  0
ARC
  5
33A
330
1F
100
AcDbEntity
  8
0
  6
Continuous
 62
     7
370
    25
100
AcDbCircle
 10
77.8539460412
 20
80.597616482
 30
0.0
 40
0.1999962366680375
100
AcDbArc
 50
270.0000864237
 51
0.0010725192
  0
LINE
  5
33B
330
1F
100
AcDbEntity
  8
0
  6
Continuous
 62
     7
370
    25
100
AcDbLine
 10
78.0539422778
 20
83.4767088247
 30
0.0
 11
78.0539422778
 21
80.5976202257
 31
0.0
  0
LINE
  5
33C
330
1F
100
AcDbEntity
  8
0
  6
Continuous
 62
     7
370
    25
100
AcDbLine
 10
77.8539463428
 20
80.3976202453
 30
0.0
 11
55.253943756
 21
80.3976202453
 31
0.0
  0
LINE
  5
33D
330
1F
100
AcDbEntity
  8
0
  6
Continuous
 62
     7
370
    25
100
AcDbLine
 10
55.253943756
 20
80.3976202453
 30
0.0
 11
55.253943756
 21
80.5976202257
 31
0.0
  0
ARC
  5
33E
330
1F
100
AcDbEntity
  8
0
  6
Continuous
 62
     7
370
    25
100
AcDbCircle
 10
55.2539493262
 20
80.5976292012
 30
0.0
 40
0.2000089559500251
100
AcDbArc
 50
180.0025711696
 51
269.9984043253
  0
LINE
  5
33F
330
1F
100
AcDbEntity
  8
0
  6
Continuous
 62
     7
370
    25
100
AcDbLine
 10
55.2362039236
 20
83.6154952132
 30
0.0
 11
67.0539423374
 21
85.1037330878
 31
0.0
  0
LINE
  5
340
330
1F
100
AcDbEntity
  8
0
  6
Continuous
 62
     7
370
    25
100
AcDbLine
 10
67.0539423374
 20
85.1037330878
 30
0.0
 11
67.0539423374
 21
85.1038383273
 31
0.0
  0
LINE
  5
341
330
1F
100
AcDbEntity
  8
0
  6
Continuous
 62
     7
370
    25
100
AcDbLine
 10
67.0539423374
 20
85.1038383273
 30
0.0
 11
77.8732805995
 21
83.6174675216
 31
0.0
  0
LINE
  5
342
330
1F
100
AcDbEntity
  8
0
  6
Continuous
 62
     7
370
    25
100
AcDbLine
 10
55.0539403704
 20
83.4746312768
 30
0.0
 11
55.0539403704
 21
84.1320665506
 31
0.0
  0
ARC
  5
343
330
1F
100
AcDbEntity
  8
0
  6
Continuous
 62
     7
370
    25
100
AcDbCircle
 10
55.2302154258
 20
84.1099630697
 30
0.0
 40
0.1776554502154088
100
AcDbArc
 50
88.0682795694
 51
172.8528705934
  0
LINE
  5
344
330
1F
100
AcDbEntity
  8
0
  6
Continuous
 62
     7
370
    25
100
AcDbLine
 10
55.2362039236
 20
84.2875175597
 30
0.0
 11
55.2362039236
 21
83.6154952132
 31
0.0
  0
ARC
  5
345
330
1F
100
AcDbEntity
  8
0
  6
Continuous
 62
     7
370
    25
100
AcDbCircle
 10
55.623039344
 20
84.7888890772
 30
0.0
 40
0.5039485452161325
100
AcDbArc
 50
263.9855299326
 51
0.0000987154
  0
ARC
  5
346
330
1F
100
AcDbEntity
  8
0
  6
Continuous
 62
     7
370
    25
100
AcDbCircle
 10
56.6152026251
 20
84.9138349265
 30
0.0
 40
0.5039492798552083
100
AcDbArc
 50
194.3551521188
 51
0.0000633295
  0
ARC
  5
347
330
1F
100
AcDbEntity
  8
0
  6
Continuous
 62
     7
370
    25
100
AcDbCircle
 10
57.6073666299
 20
85.0387805519
 30
0.0
 40
0.5039492908500789
100
AcDbArc
 50
194.3551620451
 51
0.0000798745
  0
ARC
  5
348
330
1F
100
AcDbEntity
  8
0
  6
Continuous
 62
     7
370
    25
100
AcDbCircle
 10
58.5995306566
 20
85.1637262356
 30
0.0
 40
0.503949279855366
100
AcDbArc
 50
194.3551521188
 51
0.0000898008
  0
ARC
  5
349
330
1F
100
AcDbEntity
  8
0
  6
Continuous
 62
     7
370
    25
100
AcDbCircle
 10
59.5916946852
 20
85.2886719047
 30
0.0
 40
0.5039492670290651
100
AcDbArc
 50
194.3551405389
 51
0.0001013807
  0
ARC
  5
34A
330
1F
100
AcDbEntity
  8
0
  6
Continuous
 62
     7
370
    25
100
AcDbCircle
 10
60.5838587215
 20
85.4136175127
 30
0.0
 40
0.5039492465050893
100
AcDbArc
 50
194.3551220093
 51
0.0001199103
  0
ARC
  5
34B
330
1F
100
AcDbEntity
  8
0
  6
Continuous
 62
     7
370
    25
100
AcDbCircle
 10
61.5760227373
 20
85.5385632836
 30
0.0
 40
0.5039492465047053
100
AcDbArc
 50
194.3551220093
 51
0.0000669676
  0
ARC
  5
34C
330
1F
100
AcDbEntity
  8
0
  6
Continuous
 62
     7
370
    25
100
AcDbCircle
 10
62.5681836554
 20
85.6635031362
 30
0.0
 40
0.5039448936629606
100
AcDbArc
 50
194.3546087477
 51
0.000739848
  0
ARC
  5
34D
330
1F
100
AcDbEntity
  8
0
  6
Continuous
 62
     7
370
    25
100
AcDbCircle
 10
63.5603430627
 20
85.7884563888
 30
0.0
 40
0.5039495020141198
100
AcDbArc
 50
194.3553526862
 51
359.9998892334
  0
ARC
  5
34E
330
1F
100
AcDbEntity
  8
0
  6
Continuous
 62
     7
370
    25
100
AcDbCircle
 10
64.5525070785
 20
85.9134021597
 30
0.0
 40
0.5039495020140985
100
AcDbArc
 50
194.3553526862
 51
359.9998892334
  0
ARC
  5
34F
330
1F
100
AcDbEntity
  8
0
  6
Continuous
 62
     7
370
    25
100
AcDbCircle
 10
65.5446711148
 20
86.0383477677
 30
0.0
 40
0.5039494814895271
100
AcDbArc
 50
194.3553341566
 51
359.999907763
  0
ARC
  5
350
330
1F
100
AcDbEntity
  8
0
  6
Continuous
 62
     7
370
    25
100
AcDbCircle
 10
66.5366132217
 20
86.1644594767
 30
0.0
 40
0.504024969836145
100
AcDbArc
 50
194.4899900373
 51
4.9602188089
  0
ARC
  5
351
330
1F
100
AcDbEntity
  8
0
  6
Continuous
 62
     7
370
    25
100
AcDbCircle
 10
67.053941794
 20
86.0587935429
 30
0.0
 40
0.1500171096128648
100
AcDbArc
 50
89.9997924507
 51
95.8119072759
  0
LINE
  5
352
330
1F
100
AcDbEntity
  8
0
  6
Continuous
 62
     7
370
    25
100
AcDbLine
 10
67.0539423374
 20
85.1038383273
 30
0.0
 11
67.0539423374
 21
86.2088106525
 31
0.0
  0
LINE
  5
353
330
1F
100
AcDbEntity
  8
0
  6
Continuous
 62
     7
370
    25
100
AcDbLine
 10
55.240637019
 20
84.2877145344
 30
0.0
 11
55.2362039236
 21
84.2875175597
 31
0.0
  0
LINE
  5
354
330
1F
100
AcDbEntity
  8
0
  6
Continuous
 62
     7
370
    25
100
AcDbLine
 10
55.5702358035
 20
84.2877145344
 30
0.0
 11
55.240637019
 21
84.2877145344
 31
0.0
  0
ARC
  5
355
330
1F
100
AcDbEntity
  8
0
  6
Continuous
 62
     7
370
    25
100
AcDbCircle
 10
67.0539469212
 20
86.0588741804
 30
0.0
 40
0.1499364721977033
100
AcDbArc
 50
83.7284229781
 51
90.0017516077
  0
ARC
  5
356
330
1F
100
AcDbEntity
  8
0
  6
Continuous
 62
     7
370
    25
100
AcDbCircle
 10
67.5732398763
 20
86.1643790035
 30
0.0
 40
0.5047944520962316
100
AcDbArc
 50
175.0525700987
 51
344.1954039153
  0
ARC
  5
357
330
1F
100
AcDbEntity
  8
0
  6
Continuous
 62
     7
370
    25
100
AcDbCircle
 10
68.5636485766
 20
86.0268971369
 30
0.0
 40
0.5046974224688815
100
AcDbArc
 50
180.0003013129
 51
344.3549623952
  0
ARC
  5
358
330
1F
100
AcDbEntity
  8
0
  6
Continuous
 62
     7
370
    25
100
AcDbCircle
 10
69.5543443622
 20
85.8907911969
 30
0.0
 40
0.5046969567022238
100
AcDbArc
 50
179.9999164303
 51
344.3553472778
  0
ARC
  5
359
330
1F
100
AcDbEntity
  8
0
  6
Continuous
 62
     7
370
    25
100
AcDbCircle
 10
70.5450363109
 20
85.7546839324
 30
0.0
 40
0.5046926540356752
100
AcDbArc
 50
179.9993811879
 51
344.355766319
  0
ARC
  5
35A
330
1F
100
AcDbEntity
  8
0
  6
Continuous
 62
     7
370
    25
100
AcDbCircle
 10
71.53572958
 20
85.6185873024
 30
0.0
 40
0.5046971222435078
100
AcDbArc
 50
180.0000532263
 51
344.3552104819
  0
ARC
  5
35B
330
1F
100
AcDbEntity
  8
0
  6
Continuous
 62
     7
370
    25
100
AcDbCircle
 10
72.526426103
 20
85.4824867298
 30
0.0
 40
0.5046973938661552
100
AcDbArc
 50
180.0002776779
 51
344.3549860303
  0
ARC
  5
35C
330
1F
100
AcDbEntity
  8
0
  6
Continuous
 62
     7
370
    25
100
AcDbCircle
 10
73.5171223544
 20
85.34638418
 30
0.0
 40
0.5046973938661552
100
AcDbArc
 50
180.0002776779
 51
344.3549860303
  0
ARC
  5
35D
330
1F
100
AcDbEntity
  8
0
  6
Continuous
 62
     7
370
    25
100
AcDbCircle
 10
74.5078182175
 20
85.2102783384
 30
0.0
 40
0.5046970055978555
100
AcDbArc
 50
179.9999039713
 51
344.3553068726
  0
ARC
  5
35E
330
1F
100
AcDbEntity
  8
0
  6
Continuous
 62
     7
370
    25
100
AcDbCircle
 10
75.4985101662
 20
85.074171074
 30
0.0
 40
0.5046927029273336
100
AcDbArc
 50
179.9994215929
 51
344.355725914
  0
ARC
  5
35F
330
1F
100
AcDbEntity
  8
0
  6
Continuous
 62
     7
370
    25
100
AcDbCircle
 10
76.4892033833
 20
84.9380742986
 30
0.0
 40
0.5046971191840264
100
AcDbArc
 50
180.0000771301
 51
344.3552130102
  0
ARC
  5
360
330
1F
100
AcDbEntity
  8
0
  6
Continuous
 62
     7
370
    25
100
AcDbCircle
 10
77.4798964351
 20
84.801968713
 30
0.0
 40
0.5046939196158374
100
AcDbArc
 50
179.9997060528
 51
270.0001089219
  0
LINE
  5
361
330
1F
100
AcDbEntity
  8
0
  6
Continuous
 62
     7
370
    25
100
AcDbLine
 10
77.8684451727
 20
84.2972747934
 30
0.0
 11
77.4798973945
 21
84.2972747934
 31
0.0
  0
LINE
  5
362
330
1F
100
AcDbEntity
  8
0
  6
Continuous
 62
     7
370
    25
100
AcDbLine
 10
77.8732805995
 20
84.2970405658
 30
0.0
 11
77.8684451727
 21
84.2972747934
 31
0.0
  0
LINE
  5
363
330
1F
100
AcDbEntity
  8
0
  6
Continuous
 62
     7
370
    25
100
AcDbLine
 10
77.8732805995
 20
83.6174675216
 30
0.0
 11
77.8732805995
 21
84.2970405658
 31
0.0
  0
ARC
  5
364
330
1F
100
AcDbEntity
  8
0
  6
Continuous
 62
     7
370
    25
100
AcDbCircle
 10
77.8780624562
 20
84.1198756793
 30
0.0
 40
0.1772294083167998
100
AcDbArc
 50
7.0753203597
 51
91.5460947612
  0
LINE
  5
365
330
1F
100
AcDbEntity
  8
0
  6
Continuous
 62
     7
370
    25
100
AcDbLine
 10
78.0539422778
 20
84.1417057392
 30
0.0
 11
78.0539422778
 21
83.4767088247
 31
0.0
  0
ARC
  5
366
330
1F
100
AcDbEntity
  8
0
  6
Continuous
 62
     7
370
    25
100
AcDbCircle
 10
63.1132788694
 20
85.5408580275
 30
0.0
 40
0.1293706604641516
100
AcDbArc
 50
24.7653784592
 51
108.5468981242
  0
ARC
  5
367
330
1F
100
AcDbEntity
  8
0
  6
Continuous
 62
     7
370
    25
100
AcDbCircle
 10
63.5736485591
 20
85.6828064804
 30
0.0
 40
0.3539482034489849
100
AcDbArc
 50
194.3550967579
 51
0.0001777739
  0
ARC
  5
368
330
1F
100
AcDbEntity
  8
0
  6
Continuous
 62
     7
370
    25
100
AcDbCircle
 10
64.0548505543
 20
85.6594142422
 30
0.0
 40
0.1293861496187076
100
AcDbArc
 50
85.8150956102
 51
169.5834946574
  0
ARC
  5
369
330
1F
100
AcDbEntity
  8
0
  6
Continuous
 62
     7
370
    25
100
AcDbCircle
 10
56.1681326456
 20
84.6662256216
 30
0.0
 40
0.1293809387980916
100
AcDbArc
 50
24.7693626888
 51
108.5427721039
  0
ARC
  5
36A
330
1F
100
AcDbEntity
  8
0
  6
Continuous
 62
     7
370
    25
100
AcDbCircle
 10
56.6285077279
 20
84.8081879108
 30
0.0
 40
0.3539483748814104
100
AcDbArc
 50
194.355317122
 51
359.9999574098
  0
ARC
  5
36B
330
1F
100
AcDbEntity
  8
0
  6
Continuous
 62
     7
370
    25
100
AcDbCircle
 10
57.1096995027
 20
84.784807757
 30
0.0
 40
0.1293734985579918
100
AcDbArc
 50
85.8100711061
 51
169.5885191615
  0
ARC
  5
36C
330
1F
100
AcDbEntity
  8
0
  6
Continuous
 62
     7
370
    25
100
AcDbCircle
 10
58.1524598551
 20
84.9161148415
 30
0.0
 40
0.1293826581066914
100
AcDbArc
 50
24.7701438466
 51
108.5421327368
  0
ARC
  5
36D
330
1F
100
AcDbEntity
  8
0
  6
Continuous
 62
     7
370
    25
100
AcDbCircle
 10
58.6128357935
 20
85.058079182
 30
0.0
 40
0.3539483407976327
100
AcDbArc
 50
194.3552733103
 51
0.0000012215
  0
ARC
  5
36E
330
1F
100
AcDbEntity
  8
0
  6
Continuous
 62
     7
370
    25
100
AcDbCircle
 10
59.0940278104
 20
85.0346989416
 30
0.0
 40
0.1293738347366372
100
AcDbArc
 50
85.8102046408
 51
169.5883856268
  0
ARC
  5
36F
330
1F
100
AcDbEntity
  8
0
  6
Continuous
 62
     7
370
    25
100
AcDbCircle
 10
60.1367900559
 20
85.1660245635
 30
0.0
 40
0.1293661117566784
100
AcDbArc
 50
24.76443057
 51
108.5456041544
  0
ARC
  5
370
330
1F
100
AcDbEntity
  8
0
  6
Continuous
 62
     7
370
    25
100
AcDbCircle
 10
60.5971594951
 20
85.3079755283
 30
0.0
 40
0.3539526707121522
100
AcDbArc
 50
194.3559745111
 51
359.9991481383
  0
ARC
  5
371
330
1F
100
AcDbEntity
  8
0
  6
Continuous
 62
     7
370
    25
100
AcDbCircle
 10
61.0783516891
 20
85.2845959598
 30
0.0
 40
0.1293686765053564
100
AcDbArc
 50
85.808193097
 51
169.590641555
  0
ARC
  5
372
330
1F
100
AcDbEntity
  8
0
  6
Continuous
 62
     7
370
    25
100
AcDbCircle
 10
64.1054428851
 20
85.6658037985
 30
0.0
 40
0.1293706604641648
100
AcDbArc
 50
24.7653784592
 51
108.5468981242
  0
ARC
  5
373
330
1F
100
AcDbEntity
  8
0
  6
Continuous
 62
     7
370
    25
100
AcDbCircle
 10
64.5658125749
 20
85.8077522514
 30
0.0
 40
0.3539482034481308
100
AcDbArc
 50
194.3550967576
 51
0.0001023948
  0
ARC
  5
374
330
1F
100
AcDbEntity
  8
0
  6
Continuous
 62
     7
370
    25
100
AcDbCircle
 10
65.0470077723
 20
85.7843689118
 30
0.0
 40
0.1293777709636988
100
AcDbArc
 50
85.811805586
 51
169.587029066
  0
ARC
  5
375
330
1F
100
AcDbEntity
  8
0
  6
Continuous
 62
     7
370
    25
100
AcDbCircle
 10
57.1602966339
 20
84.7911709116
 30
0.0
 40
0.1293811652341652
100
AcDbArc
 50
24.7695509546
 51
108.5427256288
  0
ARC
  5
376
330
1F
100
AcDbEntity
  8
0
  6
Continuous
 62
     7
370
    25
100
AcDbCircle
 10
57.6206717436
 20
84.9331336817
 30
0.0
 40
0.3539483748814104
100
AcDbArc
 50
194.355317122
 51
359.9999574098
  0
ARC
  5
377
330
1F
100
AcDbEntity
  8
0
  6
Continuous
 62
     7
370
    25
100
AcDbCircle
 10
58.1018635185
 20
84.9097535279
 30
0.0
 40
0.1293734985579918
100
AcDbArc
 50
85.8100711061
 51
169.5885191615
  0
ARC
  5
378
330
1F
100
AcDbEntity
  8
0
  6
Continuous
 62
     7
370
    25
100
AcDbCircle
 10
56.117535625
 20
84.6598620402
 30
0.0
 40
0.1293736666464692
100
AcDbArc
 50
85.8101378733
 51
169.5884523944
  0
LWPOLYLINE
  5
379
330
1F
100
AcDbEntity
  8
0
  6
Continuous
 62
     7
370
    25
100
AcDbPolyline
 90
        9
 70
   128
 43
0.0
 10
55.5992558149
 20
84.3312410591
 10
55.5958061961
 20
84.3308363994
 10
55.5922299174
 20
84.3289164779
 10
55.5885716823
 20
84.3255010852
 10
55.5848538426
 20
84.3206244474
 10
55.5811211017
 20
84.3143368558
 10
55.5774181632
 20
84.3067018734
 10
55.5737822799
 20
84.2977977311
 10
55.5702358035
 20
84.2877145344
  0
ARC
  5
37A
330
1F
100
AcDbEntity
  8
0
  6
Continuous
 62
     7
370
    25
100
AcDbCircle
 10
55.6363427133
 20
84.6832420834
 30
0.0
 40
0.3539493737059028
100
AcDbArc
 50
263.9854949243
 51
0.0000042368
  0
ARC
  5
37B
330
1F
100
AcDbEntity
  8
0
  6
Continuous
 62
     7
370
    25
100
AcDbCircle
 10
59.1446263433
 20
85.0410791263
 30
0.0
 40
0.1293658917285627
100
AcDbArc
 50
24.7645398495
 51
108.5457784653
  0
ARC
  5
37C
330
1F
100
AcDbEntity
  8
0
  6
Continuous
 62
     7
370
    25
100
AcDbCircle
 10
59.6049955475
 20
85.1830296817
 30
0.0
 40
0.3539526025368315
100
AcDbArc
 50
194.3558868876
 51
359.9992357619
  0
ARC
  5
37D
330
1F
100
AcDbEntity
  8
0
  6
Continuous
 62
     7
370
    25
100
AcDbCircle
 10
60.0861918262
 20
85.1596447125
 30
0.0
 40
0.1293738347366372
100
AcDbArc
 50
85.8102046408
 51
169.5883856268
  0
ARC
  5
37E
330
1F
100
AcDbEntity
  8
0
  6
Continuous
 62
     7
370
    25
100
AcDbCircle
 10
62.1211183906
 20
85.4159159735
 30
0.0
 40
0.1293658917285627
100
AcDbArc
 50
24.7645398495
 51
108.5457784653
  0
ARC
  5
37F
330
1F
100
AcDbEntity
  8
0
  6
Continuous
 62
     7
370
    25
100
AcDbCircle
 10
62.5814875949
 20
85.5578665289
 30
0.0
 40
0.3539526025368315
100
AcDbArc
 50
194.3558868876
 51
359.9992357619
  0
ARC
  5
380
330
1F
100
AcDbEntity
  8
0
  6
Continuous
 62
     7
370
    25
100
AcDbCircle
 10
63.0626787952
 20
85.5344874637
 30
0.0
 40
0.129367773183657
100
AcDbArc
 50
85.8110614553
 51
169.5905509516
  0
ARC
  5
381
330
1F
100
AcDbEntity
  8
0
  6
Continuous
 62
     7
370
    25
100
AcDbCircle
 10
61.1289538834
 20
85.2909698982
 30
0.0
 40
0.1293664654876065
100
AcDbArc
 50
24.7645710915
 51
108.5454636329
  0
ARC
  5
382
330
1F
100
AcDbEntity
  8
0
  6
Continuous
 62
     7
370
    25
100
AcDbCircle
 10
61.5893235109
 20
85.4329212992
 30
0.0
 40
0.3539526707121522
100
AcDbArc
 50
194.3559745111
 51
359.9991481383
  0
ARC
  5
383
330
1F
100
AcDbEntity
  8
0
  6
Continuous
 62
     7
370
    25
100
AcDbCircle
 10
62.0705154912
 20
85.4095414385
 30
0.0
 40
0.129368519207005
100
AcDbArc
 50
85.8080931256
 51
169.590497142
  0
ARC
  5
384
330
1F
100
AcDbEntity
  8
0
  6
Continuous
 62
     7
370
    25
100
AcDbCircle
 10
65.5579765225
 20
85.932698098
 30
0.0
 40
0.3539482716146101
100
AcDbArc
 50
194.3551843808
 51
0.000090151
  0
ARC
  5
385
330
1F
100
AcDbEntity
  8
0
  6
Continuous
 62
     7
370
    25
100
AcDbCircle
 10
66.0391724967
 20
85.9093137658
 30
0.0
 40
0.1293786337470496
100
AcDbArc
 50
85.8121482627
 51
169.5866863893
  0
ARC
  5
386
330
1F
100
AcDbEntity
  8
0
  6
Continuous
 62
     7
370
    25
100
AcDbCircle
 10
65.0976065978
 20
85.7907492357
 30
0.0
 40
0.129370880438965
100
AcDbArc
 50
24.7652691644
 51
108.5467238378
  0
ARC
  5
387
330
1F
100
AcDbEntity
  8
0
  6
Continuous
 62
     7
370
    25
100
AcDbCircle
 10
66.0898751718
 20
85.9158196947
 30
0.0
 40
0.1292860002983342
100
AcDbArc
 50
24.8886447735
 51
108.6082308424
  0
ARC
  5
388
330
1F
100
AcDbEntity
  8
0
  6
Continuous
 62
     7
370
    25
100
AcDbCircle
 10
66.5499198088
 20
86.0588141392
 30
0.0
 40
0.3540274400618234
100
AcDbArc
 50
194.4903478542
 51
359.9994015955
  0
SPLINE
  5
389
330
1F
100
AcDbEntity
  8
0
  6
Continuous
 62
     7
370
    25
100
AcDbSpline
210
0.0
220
0.0
230
1.0
 70
     8
 71
     3
 72
    13
 73
     9
 74
     0
 42
0.00000001
 43
0.00000001
 40
0.0
 40
0.0
 40
0.0
 40
0.0
 40
0.0123761791411397
 40
0.1315378313160999
 40
0.3571392073822434
 40
0.5711554555626944
 40
0.7834400801664554
 40
0.9999999999999999
 40
0.9999999999999999
 40
0.9999999999999999
 40
0.9999999999999999
 10
66.90394724882538
 20
86.0588104416915
 30
0.0
 10
66.90395179852266
 20
86.05971617870723
 30
0.0
 10
66.90400015410229
 20
86.06934262976563
 30
0.0
 10
66.90680055509726
 20
86.09545571900945
 30
0.0
 10
66.92139708967498
 20
86.13457397517116
 30
0.0
 10
66.95198980300249
 20
86.17198173662715
 30
0.0
 10
66.99200707264373
 20
86.19886579745686
 30
0.0
 10
67.02306621359062
 20
86.204961354568
 30
0.0
 10
67.03875060356552
 20
86.20803951745116
 30
0.0
  0
ARC
  5
38A
330
1F
100
AcDbEntity
  8
0
  6
Continuous
 62
     7
370
    25
100
AcDbCircle
 10
68.0675790977
 20
85.8982301242
 30
0.0
 40
0.1289533192720029
100
AcDbArc
 50
10.3171971713
 51
93.8363830537
  0
ARC
  5
38B
330
1F
100
AcDbEntity
  8
0
  6
Continuous
 62
     7
370
    25
100
AcDbCircle
 10
68.5491423769
 20
85.9213245766
 30
0.0
 40
0.3546949640933172
100
AcDbArc
 50
179.9998761012
 51
344.3552696939
  0
ARC
  5
38C
330
1F
100
AcDbEntity
  8
0
  6
Continuous
 62
     7
370
    25
100
AcDbCircle
 10
69.0066449858
 20
85.7692043122
 30
0.0
 40
0.1289680488635801
100
AcDbArc
 50
70.5226204448
 51
154.033009269
  0
ARC
  5
38D
330
1F
100
AcDbEntity
  8
0
  6
Continuous
 62
     7
370
    25
100
AcDbCircle
 10
71.0396638551
 20
85.489926908
 30
0.0
 40
0.1289491274236583
100
AcDbArc
 50
10.3155341929
 51
93.8380460321
  0
ARC
  5
38E
330
1F
100
AcDbEntity
  8
0
  6
Continuous
 62
     7
370
    25
100
AcDbCircle
 10
71.5212277363
 20
85.5130198445
 30
0.0
 40
0.3546990198293704
100
AcDbArc
 50
180.0003473077
 51
344.3549638289
  0
ARC
  5
38F
330
1F
100
AcDbEntity
  8
0
  6
Continuous
 62
     7
370
    25
100
AcDbCircle
 10
71.9787258778
 20
85.3609109334
 30
0.0
 40
0.1289547324345087
100
AcDbArc
 50
70.5203339171
 51
154.0371801323
  0
ARC
  5
390
330
1F
100
AcDbEntity
  8
0
  6
Continuous
 62
     7
370
    25
100
AcDbCircle
 10
70.048960637
 20
85.6260109534
 30
0.0
 40
0.1289666261321749
100
AcDbArc
 50
10.3224752301
 51
93.8311049949
  0
ARC
  5
391
330
1F
100
AcDbEntity
  8
0
  6
Continuous
 62
     7
370
    25
100
AcDbCircle
 10
70.5305344672
 20
85.6491164745
 30
0.0
 40
0.3546945516043906
100
AcDbArc
 50
179.9993910677
 51
344.3557547273
  0
ARC
  5
392
330
1F
100
AcDbEntity
  8
0
  6
Continuous
 62
     7
370
    25
100
AcDbCircle
 10
70.9880296264
 20
85.4970134832
 30
0.0
 40
0.1289547324345087
100
AcDbArc
 50
70.5203339171
 51
154.0371801323
  0
ARC
  5
393
330
1F
100
AcDbEntity
  8
0
  6
Continuous
 62
     7
370
    25
100
AcDbCircle
 10
75.0024348523
 20
84.9454981619
 30
0.0
 40
0.1289662315473303
100
AcDbArc
 50
10.3225264917
 51
93.8312987912
  0
ARC
  5
394
330
1F
100
AcDbEntity
  8
0
  6
Continuous
 62
     7
370
    25
100
AcDbCircle
 10
75.4840082593
 20
84.9686036217
 30
0.0
 40
0.3546945373047289
100
AcDbArc
 50
179.9993742526
 51
344.3557715424
  0
ARC
  5
395
330
1F
100
AcDbEntity
  8
0
  6
Continuous
 62
     7
370
    25
100
AcDbCircle
 10
75.9415029284
 20
84.8165010964
 30
0.0
 40
0.1289541205060689
100
AcDbArc
 50
70.5200000165
 51
154.0372265622
  0
ARC
  5
396
330
1F
100
AcDbEntity
  8
0
  6
Continuous
 62
     7
370
    25
100
AcDbCircle
 10
76.9838301986
 20
84.6733066096
 30
0.0
 40
0.1289536353404849
100
AcDbArc
 50
10.317322555
 51
93.83625767
  0
ARC
  5
397
330
1F
100
AcDbEntity
  8
0
  6
Continuous
 62
     7
370
    25
100
AcDbCircle
 10
77.4653968443
 20
84.6964039353
 30
0.0
 40
0.3546980700997379
100
AcDbArc
 50
180.0002862507
 51
270.0002779002
  0
ARC
  5
398
330
1F
100
AcDbEntity
  8
0
  6
Continuous
 62
     7
370
    25
100
AcDbCircle
 10
77.4178579604
 20
84.3016111485
 30
0.0
 40
0.0621907981091735
100
AcDbArc
 50
356.0017138597
 51
40.1435588292
  0
ARC
  5
399
330
1F
100
AcDbEntity
  8
0
  6
Continuous
 62
     7
370
    25
100
AcDbCircle
 10
73.0210523832
 20
85.2177167071
 30
0.0
 40
0.1289539514138637
100
AcDbArc
 50
10.3174479397
 51
93.8361322852
  0
ARC
  5
39A
330
1F
100
AcDbEntity
  8
0
  6
Continuous
 62
     7
370
    25
100
AcDbCircle
 10
73.5026161833
 20
85.2408118279
 30
0.0
 40
0.3546949640933172
100
AcDbArc
 50
179.9998761012
 51
344.3552696939
  0
ARC
  5
39B
330
1F
100
AcDbEntity
  8
0
  6
Continuous
 62
     7
370
    25
100
AcDbCircle
 10
73.9601189781
 20
85.0886911098
 30
0.0
 40
0.1289684146790938
100
AcDbArc
 50
70.5227655239
 51
154.0328641899
  0
ARC
  5
39C
330
1F
100
AcDbEntity
  8
0
  6
Continuous
 62
     7
370
    25
100
AcDbCircle
 10
75.9931380702
 20
84.8094141164
 30
0.0
 40
0.1289487329677243
100
AcDbArc
 50
10.315585467
 51
93.8382398158
  0
ARC
  5
39D
330
1F
100
AcDbEntity
  8
0
  6
Continuous
 62
     7
370
    25
100
AcDbCircle
 10
76.4747015284
 20
84.8325069917
 30
0.0
 40
0.35469900552799
100
AcDbArc
 50
180.0003304927
 51
344.3549806439
  0
ARC
  5
39E
330
1F
100
AcDbEntity
  8
0
  6
Continuous
 62
     7
370
    25
100
AcDbCircle
 10
76.9321996975
 20
84.6803977176
 30
0.0
 40
0.1289549489355941
100
AcDbArc
 50
70.520374218
 51
154.0369960962
  0
ARC
  5
39F
330
1F
100
AcDbEntity
  8
0
  6
Continuous
 62
     7
370
    25
100
AcDbCircle
 10
74.0117376712
 20
85.081600086
 30
0.0
 40
0.1289672583260246
100
AcDbArc
 50
10.3227259467
 51
93.8308542782
  0
ARC
  5
3A0
330
1F
100
AcDbEntity
  8
0
  6
Continuous
 62
     7
370
    25
100
AcDbCircle
 10
74.4933124204
 20
85.1047091741
 30
0.0
 40
0.3546949497927728
100
AcDbArc
 50
179.9998592861
 51
344.3552865089
  0
ARC
  5
3A1
330
1F
100
AcDbEntity
  8
0
  6
Continuous
 62
     7
370
    25
100
AcDbCircle
 10
74.9508110072
 20
84.9525979969
 30
0.0
 40
0.1289604869274539
100
AcDbArc
 50
70.5195300307
 51
154.035812222
  0
ARC
  5
3A2
330
1F
100
AcDbEntity
  8
0
  6
Continuous
 62
     7
370
    25
100
AcDbCircle
 10
72.0303561318
 20
85.3538192568
 30
0.0
 40
0.1289539514138637
100
AcDbArc
 50
10.3174479397
 51
93.8361322852
  0
ARC
  5
3A3
330
1F
100
AcDbEntity
  8
0
  6
Continuous
 62
     7
370
    25
100
AcDbCircle
 10
72.5119242346
 20
85.3769190924
 30
0.0
 40
0.3546992668076715
100
AcDbArc
 50
180.0006376894
 51
344.3546734473
  0
ARC
  5
3A4
330
1F
100
AcDbEntity
  8
0
  6
Continuous
 62
     7
370
    25
100
AcDbCircle
 10
72.9694205908
 20
85.2248121386
 30
0.0
 40
0.128951705472119
100
AcDbArc
 50
70.5191331467
 51
154.0383809027
  0
ARC
  5
3A5
330
1F
100
AcDbEntity
  8
0
  6
Continuous
 62
     7
370
    25
100
AcDbCircle
 10
69.0582643857
 20
85.7621135031
 30
0.0
 40
0.1289666261321749
100
AcDbArc
 50
10.3224752301
 51
93.8311049949
  0
ARC
  5
3A6
330
1F
100
AcDbEntity
  8
0
  6
Continuous
 62
     7
370
    25
100
AcDbCircle
 10
69.5398386283
 20
85.7852220269
 30
0.0
 40
0.3546949640933172
100
AcDbArc
 50
179.9998761012
 51
344.3552696939
  0
ARC
  5
3A7
330
1F
100
AcDbEntity
  8
0
  6
Continuous
 62
     7
370
    25
100
AcDbCircle
 10
69.9973377053
 20
85.6331103836
 30
0.0
 40
0.1289610989040373
100
AcDbArc
 50
70.5198639347
 51
154.0357657791
  0
SPLINE
  5
3A8
330
1F
100
AcDbEntity
  8
0
  6
Continuous
 62
     7
370
    25
100
AcDbSpline
210
0.0
220
0.0
230
1.0
 70
     8
 71
     3
 72
    13
 73
     9
 74
     0
 42
0.00000001
 43
0.00000001
 40
0.0
 40
0.0
 40
0.0
 40
0.0
 40
0.2179375459723718
 40
0.4314847003651011
 40
0.6469294079678838
 40
0.874121249533292
 40
0.9875562762042597
 40
1.0
 40
1.0
 40
1.0
 40
1.0
 10
67.07032616413528
 20
86.2079133232423
 30
0.0
 10
67.08599985493325
 20
86.20470633944366
 30
0.0
 10
67.11703148717177
 20
86.19835697711946
 30
0.0
 10
67.15685537751625
 20
86.17111394904383
 30
0.0
 10
67.18717330585707
 20
86.1334103850239
 30
0.0
 10
67.20124570257282
 20
86.09454837636584
 30
0.0
 10
67.20389459602424
 20
86.06887856234184
 30
0.0
 10
67.2039403532384
 20
86.05971618685824
 30
0.0
 10
67.20394487656051
 20
86.0588104416915
 30
0.0
  0
ARC
  5
3A9
330
1F
100
AcDbEntity
  8
0
  6
Continuous
 62
     7
370
    25
100
AcDbCircle
 10
67.5587385667
 20
86.0588099466
 30
0.0
 40
0.3547936901692921
100
AcDbArc
 50
179.9999200501
 51
344.1953967192
  0
ARC
  5
3AA
330
1F
100
AcDbEntity
  8
0
  6
Continuous
 62
     7
370
    25
100
AcDbCircle
 10
68.0158190992
 20
85.9054853665
 30
0.0
 40
0.1288431125998715
100
AcDbArc
 50
70.4418033951
 51
153.8946979717
  0
LINE
  5
3AB
330
1F
100
AcDbEntity
  8
0
  6
Continuous
 62
     7
370
    25
100
AcDbLine
 10
77.4653985647
 20
84.3417058652
 30
0.0
 11
77.8539463428
 21
84.3417058652
 31
0.0
  0
ARC
  5
3AC
330
1F
100
AcDbEntity
  8
0
  6
Continuous
 62
     7
370
    25
100
AcDbCircle
 10
77.8064057385
 20
84.3016111485
 30
0.0
 40
0.0621907981091735
100
AcDbArc
 50
356.0017138597
 51
40.1435588292
  0
ARC
  5
3AD
330
1F
100
AcDbEntity
  8
0
  6
Continuous
 62
     7
370
    25
100
AcDbCircle
 10
55.3057316332
 20
84.2923567898
 30
0.0
 40
0.0652599366178525
100
AcDbArc
 50
142.5197461488
 51
184.0791715229
  0
LINE
  5
3AE
330
1F
100
AcDbEntity
  8
0
  6
Continuous
 62
     7
370
    25
100
AcDbLine
 10
55.253943756
 20
84.3320666765
 30
0.0
 11
55.5835425404
 21
84.3320666765
 31
0.0
  0
ARC
  5
3AF
330
1F
100
AcDbEntity
  8
0
  6
Continuous
 62
     7
370
    25
100
AcDbCircle
 10
55.6353304176
 20
84.2923567898
 30
0.0
 40
0.0652599366178525
100
AcDbArc
 50
142.5197461488
 51
184.0791715229
  0
ARC
  5
3B0
330
1F
100
AcDbEntity
  8
0
  6
Continuous
 62
     7
370
    25
100
AcDbCircle
 10
55.5835441994
 20
84.1821567507
 30
0.0
 40
0.1499099257852791
100
AcDbArc
 50
83.9839505834
 51
90.0006340403
  0
ARC
  5
3B1
330
1F
100
AcDbEntity
  8
0
  6
Continuous
 62
     7
370
    25
100
AcDbCircle
 10
55.4130584854
 20
84.3093979358
 30
0.0
 40
0.1782029373553111
100
AcDbArc
 50
172.9472277118
 51
187.0527722882
  0
ARC
  5
3B2
330
1F
100
AcDbEntity
  8
0
  6
Continuous
 62
     7
370
    25
100
AcDbCircle
 10
55.2539536139
 20
84.1318592191
 30
0.0
 40
0.2002074576680302
100
AcDbArc
 50
90.0028211591
 51
95.0863206167
  0
ARC
  5
3B3
330
1F
100
AcDbEntity
  8
0
  6
Continuous
 62
     7
370
    25
100
AcDbCircle
 10
55.2539481133
 20
84.1320592341
 30
0.0
 40
0.2000077429649624
100
AcDbArc
 50
95.0898308955
 51
179.9979040607
  0
ARC
  5
3B4
330
1F
100
AcDbEntity
  8
0
  6
Continuous
 62
     7
370
    25
100
AcDbCircle
 10
77.8539352383
 20
84.1415651304
 30
0.0
 40
0.2001407350436296
100
AcDbArc
 50
84.4531991129
 51
89.9968210231
  0
ARC
  5
3B5
330
1F
100
AcDbEntity
  8
0
  6
Continuous
 62
     7
370
    25
100
AcDbCircle
 10
77.7113497585
 20
84.3189046438
 30
0.0
 40
0.1634002300581656
100
AcDbArc
 50
352.3103657205
 51
7.6896342795
  0
ARC
  5
3B6
330
1F
100
AcDbEntity
  8
0
  6
Continuous
 62
     7
370
    25
100
AcDbCircle
 10
77.8539425883
 20
84.1417061258
 30
0.0
 40
0.1999996895255732
100
AcDbArc
 50
359.9998892592
 51
84.4513906006
  0
ARC
  5
3B7
330
1F
100
AcDbEntity
  8
0
  6
Continuous
 62
     7
370
    25
100
AcDbCircle
 10
57.1324572645
 20
84.8081866614
 30
0.0
 40
0.1500011617734577
100
AcDbArc
 50
14.3555416686
 51
179.9996232979
  0
ARC
  5
3B8
330
1F
100
AcDbEntity
  8
0
  6
Continuous
 62
     7
370
    25
100
AcDbCircle
 10
65.069762007
 20
85.8077513661
 30
0.0
 40
0.1500012287213283
100
AcDbArc
 50
14.3557447171
 51
179.9994202495
  0
ARC
  5
3B9
330
1F
100
AcDbEntity
  8
0
  6
Continuous
 62
     7
370
    25
100
AcDbCircle
 10
60.1089451216
 20
85.1830276699
 30
0.0
 40
0.1499969715401401
100
AcDbArc
 50
14.3543105495
 51
180.001034942
  0
ARC
  5
3BA
330
1F
100
AcDbEntity
  8
0
  6
Continuous
 62
     7
370
    25
100
AcDbCircle
 10
62.0932732191
 20
85.432918688
 30
0.0
 40
0.1499970375042535
100
AcDbArc
 50
14.3545106456
 51
180.0010127185
  0
ARC
  5
3BB
330
1F
100
AcDbEntity
  8
0
  6
Continuous
 62
     7
370
    25
100
AcDbCircle
 10
63.0854372348
 20
85.5578644589
 30
0.0
 40
0.1499970375042677
100
AcDbArc
 50
14.3545106456
 51
180.0010127185
  0
ARC
  5
3BC
330
1F
100
AcDbEntity
  8
0
  6
Continuous
 62
     7
370
    25
100
AcDbCircle
 10
64.0775980572
 20
85.682805537
 30
0.0
 40
0.1500012946973091
100
AcDbArc
 50
14.3559448121
 51
179.9992201545
  0
ARC
  5
3BD
330
1F
100
AcDbEntity
  8
0
  6
Continuous
 62
     7
370
    25
100
AcDbCircle
 10
61.1011091373
 20
85.3079734409
 30
0.0
 40
0.1499969715453563
100
AcDbArc
 50
14.3543105512
 51
180.0012128129
  0
ARC
  5
3BE
330
1F
100
AcDbEntity
  8
0
  6
Continuous
 62
     7
370
    25
100
AcDbCircle
 10
59.1167811718
 20
85.0580818408
 30
0.0
 40
0.1499970375042535
100
AcDbArc
 50
14.3545106456
 51
180.0010127185
  0
ARC
  5
3BF
330
1F
100
AcDbEntity
  8
0
  6
Continuous
 62
     7
370
    25
100
AcDbCircle
 10
58.1246212803
 20
84.9331324324
 30
0.0
 40
0.150001161773462
100
AcDbArc
 50
14.3555416686
 51
179.9996232979
  0
ARC
  5
3C0
330
1F
100
AcDbEntity
  8
0
  6
Continuous
 62
     7
370
    25
100
AcDbCircle
 10
66.0619251524
 20
85.9326981736
 30
0.0
 40
0.1500003582708209
100
AcDbArc
 50
14.4902255827
 51
179.9998161468
  0
ARC
  5
3C1
330
1F
100
AcDbEntity
  8
0
  6
Continuous
 62
     7
370
    25
100
AcDbCircle
 10
56.1402931828
 20
84.6832414143
 30
0.0
 40
0.1500010958026441
100
AcDbArc
 50
14.3553415763
 51
179.9997344561
  0
ARC
  5
3C2
330
1F
100
AcDbEntity
  8
0
  6
Continuous
 62
     7
370
    25
100
AcDbCircle
 10
68.0444482967
 20
85.9213259999
 30
0.0
 40
0.1499991162011728
100
AcDbArc
 50
359.9997493256
 51
164.1954708722
  0
ARC
  5
3C3
330
1F
100
AcDbEntity
  8
0
  6
Continuous
 62
     7
370
    25
100
AcDbCircle
 10
72.9979230327
 20
85.240813664
 30
0.0
 40
0.1499981865214164
100
AcDbArc
 50
359.9995916458
 51
164.3555599089
  0
ARC
  5
3C4
330
1F
100
AcDbEntity
  8
0
  6
Continuous
 62
     7
370
    25
100
AcDbCircle
 10
70.0258375767
 20
85.6491176921
 30
0.0
 40
0.1500023389815316
100
AcDbArc
 50
0.0009747835
 51
164.3545677422
  0
ARC
  5
3C5
330
1F
100
AcDbEntity
  8
0
  6
Continuous
 62
     7
370
    25
100
AcDbCircle
 10
76.9607007475
 20
84.6964046279
 30
0.0
 40
0.1499980267898043
100
AcDbArc
 50
359.9990585502
 51
164.3560040688
  0
ARC
  5
3C6
330
1F
100
AcDbEntity
  8
0
  6
Continuous
 62
     7
370
    25
100
AcDbCircle
 10
71.0165306897
 20
85.5130199263
 30
0.0
 40
0.1499980267876903
100
AcDbArc
 50
359.9991474853
 51
164.3560040695
  0
ARC
  5
3C7
330
1F
100
AcDbEntity
  8
0
  6
Continuous
 62
     7
370
    25
100
AcDbCircle
 10
75.9700044961
 20
84.8325071776
 30
0.0
 40
0.1499980267876908
100
AcDbArc
 50
359.9991474853
 51
164.3560040695
  0
ARC
  5
3C8
330
1F
100
AcDbEntity
  8
0
  6
Continuous
 62
     7
370
    25
100
AcDbCircle
 10
72.0072269411
 20
85.3769173765
 30
0.0
 40
0.1499980267876941
100
AcDbArc
 50
359.9991474853
 51
164.3560040695
  0
ARC
  5
3C9
330
1F
100
AcDbEntity
  8
0
  6
Continuous
 62
     7
370
    25
100
AcDbCircle
 10
69.0351413253
 20
85.7852202418
 30
0.0
 40
0.1500023389815248
100
AcDbArc
 50
0.0009747835
 51
164.3545677422
  0
ARC
  5
3CA
330
1F
100
AcDbEntity
  8
0
  6
Continuous
 62
     7
370
    25
100
AcDbCircle
 10
73.9886151317
 20
85.1047074932
 30
0.0
 40
0.1500023389815248
100
AcDbArc
 50
0.0009747835
 51
164.3545677422
  0
ARC
  5
3CB
330
1F
100
AcDbEntity
  8
0
  6
Continuous
 62
     7
370
    25
100
AcDbCircle
 10
74.9793113831
 20
84.9686049435
 30
0.0
 40
0.1500023389815248
100
AcDbArc
 50
0.0009747835
 51
164.3545677422
  0
LINE
  5
3CC
330
1F
100
AcDbEntity
  8
0
  6
Continuous
 62
     7
370
    25
100
AcDbLine
 10
88.9539405254
 20
76.5976203558
 30
0.0
 11
88.9539405254
 21
83.0976202571
 31
0.0
  0
ARC
  5
3CD
330
1F
100
AcDbEntity
  8
0
  6
Continuous
 62
     7
370
    25
100
AcDbCircle
 10
88.9539459946
 20
82.597624713
 30
0.0
 40
0.4999955441064695
100
AcDbArc
 50
359.9994799926
 51
90.0006267289
  0
LINE
  5
3CE
330
1F
100
AcDbEntity
  8
0
  6
Continuous
 62
     7
370
    25
100
AcDbLine
 10
89.4539415387
 20
82.5976201752
 30
0.0
 11
89.4539415387
 21
76.5976203558
 31
0.0
  0
LINE
  5
3CF
330
1F
100
AcDbEntity
  8
0
  6
Continuous
 62
     7
370
    25
100
AcDbLine
 10
88.9539405254
 20
76.5976203558
 30
0.0
 11
89.4539415387
 21
76.5976203558
 31
0.0
  0
LINE
  5
3D0
330
1F
100
AcDbEntity
  8
0
  6
Continuous
 62
     7
370
    25
100
AcDbLine
 10
88.9539405254
 20
75.5976201919
 30
0.0
 11
88.9539405254
 21
76.5976203558
 31
0.0
  0
LINE
  5
3D1
330
1F
100
AcDbEntity
  8
0
  6
Continuous
 62
     7
370
    25
100
AcDbLine
 10
89.4539415387
 20
76.5976203558
 30
0.0
 11
89.4539415387
 21
76.0976202739
 31
0.0
  0
ARC
  5
3D2
330
1F
100
AcDbEntity
  8
0
  6
Continuous
 62
     7
370
    25
100
AcDbCircle
 10
88.9539505992
 20
76.0976111314
 30
0.0
 40
0.4999909396162227
100
AcDbArc
 50
269.9988456128
 51
0.0010476656
  0
LINE
  5
3D3
330
1F
100
AcDbEntity
  8
0
  6
Continuous
 62
     7
370
    25
100
AcDbLine
 10
65.4539450554
 20
76.5976203558
 30
0.0
 11
77.953940585
 21
76.5976203558
 31
0.0
  0
LINE
  5
3D4
330
1F
100
AcDbEntity
  8
0
  6
Continuous
 62
     7
370
    25
100
AcDbLine
 10
77.953940585
 20
76.5976203558
 30
0.0
 11
86.0539435891
 21
76.5976203558
 31
0.0
  0
LINE
  5
3D5
330
1F
100
AcDbEntity
  8
0
  6
Continuous
 62
     7
370
    25
100
AcDbLine
 10
86.0539435891
 20
76.5976203558
 30
0.0
 11
88.9539405254
 21
76.5976203558
 31
0.0
  0
LINE
  5
3D6
330
1F
100
AcDbEntity
  8
0
  6
Continuous
 62
     7
370
    25
100
AcDbLine
 10
88.9539405254
 20
75.5976201919
 30
0.0
 11
65.4539450554
 21
75.5976201919
 31
0.0
  0
LINE
  5
3D7
330
1F
100
AcDbEntity
  8
0
  6
Continuous
 62
     7
370
    25
100
AcDbLine
 10
84.2539429215
 20
81.0976202349
 30
0.0
 11
78.0539422778
 21
81.0976202349
 31
0.0
  0
LINE
  5
3D8
330
1F
100
AcDbEntity
  8
0
  6
Continuous
 62
     7
370
    25
100
AcDbLine
 10
84.2539429215
 20
81.2976202298
 30
0.0
 11
84.2539429215
 21
81.0976202349
 31
0.0
  0
LINE
  5
3D9
330
1F
100
AcDbEntity
  8
0
  6
Continuous
 62
     7
370
    25
100
AcDbLine
 10
87.4539449362
 20
80.097620231
 30
0.0
 11
57.2539403585
 21
80.097620231
 31
0.0
  0
LINE
  5
3DA
330
1F
100
AcDbEntity
  8
0
  6
Continuous
 62
     7
370
    25
100
AcDbLine
 10
87.4539449362
 20
80.097620231
 30
0.0
 11
87.4539449362
 21
83.0976202571
 31
0.0
  0
LINE
  5
3DB
330
1F
100
AcDbEntity
  8
0
  6
Continuous
 62
     7
370
    25
100
AcDbLine
 10
86.0539435891
 20
76.5976203558
 30
0.0
 11
86.0539435891
 21
77.4476203089
 31
0.0
  0
LINE
  5
3DC
330
1F
100
AcDbEntity
  8
0
  6
Continuous
 62
     7
370
    25
100
AcDbLine
 10
86.0539435891
 20
77.4476203089
 30
0.0
 11
77.953940585
 21
77.4476203089
 31
0.0
  0
LINE
  5
3DD
330
1F
100
AcDbEntity
  8
0
  6
Continuous
 62
     7
370
    25
100
AcDbLine
 10
77.953940585
 20
77.4476203089
 30
0.0
 11
77.953940585
 21
76.5976203558
 31
0.0
  0
ARC
  5
3DE
330
1F
100
AcDbEntity
  8
0
  6
Continuous
 62
     7
370
    25
100
AcDbCircle
 10
65.4539391483
 20
78.0976150776
 30
0.0
 40
1.499994721764673
100
AcDbArc
 50
206.3876790284
 51
270.0002256356
  0
ARC
  5
3DF
330
1F
100
AcDbEntity
  8
0
  6
Continuous
 62
     7
370
    25
100
AcDbCircle
 10
61.4228199395
 20
76.0976303525
 30
0.0
 40
2.999989831088513
100
AcDbArc
 50
26.3876811373
 51
90.0000776462
  0
LINE
  5
3E0
330
1F
100
AcDbEntity
  8
0
  6
Continuous
 62
     7
370
    25
100
AcDbLine
 10
55.4539471415
 20
79.0976201835
 30
0.0
 11
61.422815874
 21
79.0976201835
 31
0.0
  0
LINE
  5
3E1
330
1F
100
AcDbEntity
  8
0
  6
Continuous
 62
     7
370
    25
100
AcDbLine
 10
78.0539422778
 20
82.1976202726
 30
0.0
 11
84.2539429215
 21
82.1976202726
 31
0.0
  0
LINE
  5
3E2
330
1F
100
AcDbEntity
  8
0
  6
Continuous
 62
     7
370
    25
100
AcDbLine
 10
84.2539429215
 20
81.2976202298
 30
0.0
 11
84.2539429215
 21
82.1976202726
 31
0.0
  0
LINE
  5
3E3
330
1F
100
AcDbEntity
  8
0
  6
Continuous
 62
     7
370
    25
100
AcDbLine
 10
87.4539449362
 20
83.0976202571
 30
0.0
 11
88.9539405254
 21
83.0976202571
 31
0.0
  0
LINE
  5
3E4
330
1F
100
AcDbEntity
  8
0
  6
Continuous
 62
     7
370
    25
100
AcDbLine
 10
57.2539403585
 20
80.097620231
 30
0.0
 11
57.2539403585
 21
80.2976202405
 31
0.0
  0
LINE
  5
3E5
330
1F
100
AcDbEntity
  8
0
  6
Continuous
 62
     7
370
    25
100
AcDbLine
 10
57.2539403585
 20
80.2976202405
 30
0.0
 11
87.4539449362
 21
80.2976202405
 31
0.0
  0
ARC
  5
3E6
330
1F
100
AcDbEntity
  8
0
  6
Continuous
 62
     7
370
    25
100
AcDbCircle
 10
54.6539412522
 20
82.8976241198
 30
0.0
 40
0.199996137309941
100
AcDbArc
 50
90.0000579578
 51
180.0011426732
  0
LINE
  5
3E7
330
1F
100
AcDbEntity
  8
0
  6
Continuous
 62
     7
370
    25
100
AcDbLine
 10
54.6539410499
 20
83.0976202571
 30
0.0
 11
55.0602212099
 21
83.0976202571
 31
0.0
  0
ARC
  5
3E8
330
1F
100
AcDbEntity
  8
0
  6
Continuous
 62
     7
370
    25
100
AcDbCircle
 10
65.4539385869
 20
78.097612773
 30
0.0
 40
2.499992581134036
100
AcDbArc
 50
206.3876966319
 51
270.0001482459
  0
LINE
  5
3E9
330
1F
100
AcDbEntity
  8
0
  6
Continuous
 62
     7
370
    25
100
AcDbLine
 10
61.422815874
 20
78.097620136
 30
0.0
 11
54.9539461283
 21
78.097620136
 31
0.0
  0
LWPOLYLINE
  5
3EA
330
1F
100
AcDbEntity
  8
0
  6
Continuous
 62
     7
370
    25
100
AcDbPolyline
 90
        9
 70
   128
 43
0.0
 10
55.4539471415
 20
79.0976201835
 10
55.3563966898
 20
78.9025298738
 10
55.2626013306
 20
78.7149368272
 10
55.1761596946
 20
78.5420500626
 10
55.1003872899
 20
78.3905134023
 10
55.0382121948
 20
78.2661506393
 10
54.9920036939
 20
78.1737406225
 10
54.9635499266
 20
78.1168349506
 10
54.9539461283
 20
78.097620136
  0
ARC
  5
3EB
330
1F
100
AcDbEntity
  8
0
  6
Continuous
 62
     7
370
    25
100
AcDbCircle
 10
61.4228183856
 20
76.0976266569
 30
0.0
 40
1.9999934791431
100
AcDbArc
 50
26.3876832466
 51
90.0000719518
  0
ARC
  5
3EC
330
1F
100
AcDbEntity
  8
0
  6
Continuous
 62
     7
370
    25
100
AcDbCircle
 10
57.2539373427
 20
80.6975989814
 30
0.0
 40
0.399978740865256
100
AcDbArc
 50
228.5892258543
 51
270.0004320062
  0
LWPOLYLINE
  5
3ED
330
1F
100
AcDbEntity
  8
0
  6
Continuous
 62
     7
370
    25
100
AcDbPolyline
 90
        9
 70
   128
 43
0.0
 10
55.4539471415
 20
79.0976201835
 10
55.2588536886
 20
79.0000750869
 10
55.0712629703
 20
78.9062784472
 10
54.8983722476
 20
78.8198351813
 10
54.7468348888
 20
78.7440667347
 10
54.6224772481
 20
78.6818853532
 10
54.5300676969
 20
78.6356805777
 10
54.4731601623
 20
78.6072275088
 10
54.453945115
 20
78.597620218
  0
LINE
  5
3EE
330
1F
100
AcDbEntity
  8
0
  6
Continuous
 62
     7
370
    25
100
AcDbLine
 10
54.453945115
 20
78.597620218
 30
0.0
 11
54.453945115
 21
82.8976201312
 31
0.0
  0
ARC
  5
3EF
330
1F
100
AcDbEntity
  8
0
  6
Continuous
 62
     7
370
    25
100
AcDbCircle
 10
54.9539487733
 20
78.5976237943
 30
0.0
 40
0.5000036583042377
100
AcDbArc
 50
180.0004098155
 51
269.9996969061
  0
LINE
  5
3F0
330
1F
100
AcDbEntity
  8
0
  6
Continuous
 62
     7
370
    25
100
AcDbLine
 10
67.9539426712
 20
80.2976202405
 30
0.0
 11
67.9539426712
 21
80.3976202453
 31
0.0
  0
LINE
  5
3F1
330
1F
100
AcDbEntity
  8
0
  6
Continuous
 62
     7
370
    25
100
AcDbLine
 10
66.9539406446
 20
80.3976202453
 30
0.0
 11
66.9539406446
 21
80.2976202405
 31
0.0
  0
LINE
  5
3F2
330
1F
100
AcDbEntity
  8
0
  6
Continuous
 62
     7
370
    25
100
AcDbLine
 10
86.4539429096
 20
80.2976202405
 30
0.0
 11
86.4539429096
 21
82.1976202726
 31
0.0
  0
LINE
  5
3F3
330
1F
100
AcDbEntity
  8
0
  6
Continuous
 62
     7
370
    25
100
AcDbLine
 10
86.4539429096
 20
82.1976202726
 30
0.0
 11
84.2539429215
 21
82.1976202726
 31
0.0
  0
LINE
  5
3F4
330
1F
100
AcDbEntity
  8
0
  6
Continuous
 62
     7
370
    25
100
AcDbLine
 10
77.953940585
 20
77.097620205
 30
0.0
 11
86.0539435891
 21
77.097620205
 31
0.0
  0
LINE
  5
3F5
330
1F
100
AcDbEntity
  8
0
  6
Continuous
 62
     8
370
    25
100
AcDbLine
 10
78.0539422778
 20
81.2976202298
 30
0.0
 11
84.2539429215
 21
81.2976202298
 31
0.0
  0
ARC
  5
3F6
330
1F
100
AcDbEntity
  8
0
  6
Continuous
 62
     8
370
    25
100
AcDbCircle
 10
57.2539422531
 20
80.6976160489
 30
0.0
 40
0.5999958178771362
100
AcDbArc
 50
209.9997678546
 51
269.9998190841
  0
LINE
  5
3F7
330
1F
100
AcDbEntity
  8
0
  6
Continuous
 62
     8
370
    25
100
AcDbLine
 10
55.4539471415
 20
80.3976202453
 30
0.0
 11
55.4539471415
 21
79.0976201835
 31
0.0
  0
LINE
  5
3F8
330
1F
100
AcDbEntity
  8
0
  6
Continuous
 62
     8
370
    25
100
AcDbLine
 10
55.0539403704
 20
82.8976201312
 30
0.0
 11
54.453945115
 21
82.8976201312
 31
0.0
  0
DIMENSION
  5
3F9
330
1F
100
AcDbEntity
  8
0
  6
Continuous
 62
     7
370
    18
100
AcDbDimension
  2
_D_6
 10
48.4539435414
 20
78.0976202309
 30
0.0
 11
48.4539435414
 21
67.9974582058
 31
0.0
 70
   160
  1
<>
 71
     2
 42
-1.0
  3
SLDDIMSTYLE2
100
AcDbAlignedDimension
 13
65.4539435414
 23
75.5976202309
 33
0.0
 14
54.9539435414
 24
78.0976202309
 34
0.0
 50
90.0
100
AcDbRotatedDimension
  0
DIMENSION
  5
405
330
1F
100
AcDbEntity
  8
0
  6
Continuous
 62
     7
370
    18
100
AcDbDimension
  2
_D_7
 10
98.1222309685
 20
83.8976202309
 30
0.0
 11
98.1222309685
 21
67.9974582058
 31
0.0
 70
   160
  1
(<>)
 71
     2
 42
-1.0
  3
SLDDIMSTYLE0
100
AcDbAlignedDimension
 13
88.9539435414
 23
75.5976202309
 33
0.0
 14
87.2039435414
 24
83.8976202309
 34
0.0
 50
90.0
100
AcDbRotatedDimension
  0
DIMENSION
  5
412
330
1F
100
AcDbEntity
  8
0
  6
Continuous
 62
     7
370
    18
100
AcDbDimension
  2
_D_8
 10
107.0841244499
 20
86.2088106136
 30
0.0
 11
107.0841244499
 21
67.9974582058
 31
0.0
 70
   160
  1
(<>)
 71
     2
 42
-1.0
  3
SLDDIMSTYLE1
100
AcDbAlignedDimension
 13
88.9539435414
 23
75.5976202309
 33
0.0
 14
67.0539435414
 24
86.2088106136
 34
0.0
 50
90.0
100
AcDbRotatedDimension
  0
DIMENSION
  5
41F
330
1F
100
AcDbEntity
  8
0
  6
Continuous
 62
     7
370
    18
100
AcDbDimension
  2
_D_9
 10
256.3496314549
 20
78.4476202309
 30
0.0
 11
256.3496314549
 21
67.9974582058
 31
0.0
 70
   160
  1
<>
 71
     2
 42
-1.0
  3
SLDDIMSTYLE4
100
AcDbAlignedDimension
 13
246.4176534733
 23
79.0976202309
 33
0.0
 14
246.4176534733
 24
78.4476202309
 34
0.0
 50
90.0
100
AcDbRotatedDimension
  0
ARC
  5
42F
330
1F
100
AcDbEntity
  8
0
  6
HIDDEN
 62
     7
370
    18
100
AcDbCircle
 10
146.431224672
 20
81.5101202309
 30
0.0
 40
6.272499999999996
100
AcDbArc
 50
157.380135052
 51
202.619864948
  0
ARC
  5
430
330
1F
100
AcDbEntity
  8
0
  6
HIDDEN
 62
     7
370
    18
100
AcDbCircle
 10
134.851224672
 20
76.6851202309
 30
0.0
 40
6.27249999999999
100
AcDbArc
 50
337.380135052
 51
22.619864948
  0
ARC
  5
431
330
1F
100
AcDbEntity
  8
0
  6
HIDDEN
 62
     7
370
    18
100
AcDbCircle
 10
149.431224672
 20
81.5101202309
 30
0.0
 40
6.272499999999996
100
AcDbArc
 50
157.380135052
 51
202.619864948
  0
ARC
  5
432
330
1F
100
AcDbEntity
  8
0
  6
HIDDEN
 62
     7
370
    18
100
AcDbCircle
 10
137.851224672
 20
76.6851202309
 30
0.0
 40
6.272499999999964
100
AcDbArc
 50
337.380135052
 51
22.619864948
  0
ARC
  5
433
330
1F
100
AcDbEntity
  8
0
  6
HIDDEN
 62
     7
370
    18
100
AcDbCircle
 10
213.8258283514
 20
80.8726202309
 30
0.0
 40
4.614999999999994
100
AcDbArc
 50
157.380135052
 51
202.619864948
  0
ARC
  5
434
330
1F
100
AcDbEntity
  8
0
  6
HIDDEN
 62
     7
370
    18
100
AcDbCircle
 10
205.3058283514
 20
77.3226202309
 30
0.0
 40
4.61500000000002
100
AcDbArc
 50
337.380135052
 51
22.619864948
  0
ARC
  5
435
330
1F
100
AcDbEntity
  8
0
  6
HIDDEN
 62
     7
370
    18
100
AcDbCircle
 10
216.8258283514
 20
80.8726202309
 30
0.0
 40
4.614999999999994
100
AcDbArc
 50
157.380135052
 51
202.619864948
  0
ARC
  5
436
330
1F
100
AcDbEntity
  8
0
  6
HIDDEN
 62
     7
370
    18
100
AcDbCircle
 10
208.3058283514
 20
77.3226202309
 30
0.0
 40
4.61500000000002
100
AcDbArc
 50
337.380135052
 51
22.619864948
  0
LINE
  5
437
330
1F
100
AcDbEntity
  8
0
  6
CENTERX2
 62
     7
370
    18
100
AcDbLine
 10
140.6412258295
 20
79.0976201835
 30
0.0
 11
50.6648927478
 21
79.0976201835
 31
0.0
  0
LINE
  5
438
330
1F
100
AcDbEntity
  8
0
  6
CENTERX2
 62
     7
370
    18
100
AcDbLine
 10
209.5658256013
 20
79.0976201835
 30
0.0
 11
143.641223972
 21
79.0976201835
 31
0.0
  0
LINE
  5
439
330
1F
100
AcDbEntity
  8
0
  6
CENTERX2
 62
     7
370
    18
100
AcDbLine
 10
237.9176570257
 20
79.0976201835
 30
0.0
 11
212.5658271989
 21
79.0976201835
 31
0.0
  0
ENDSEC
  0
SECTION
  2
OBJECTS
  0
DICTIONARY
  5
C
330
0
100
AcDbDictionary
281
     1
  3
ACAD_GROUP
350
D
  3
ACAD_LAYOUT
350
1A
  3
ACAD_MLINESTYLE
350
17
  3
ACAD_PLOTSETTINGS
350
19
  3
ACAD_PLOTSTYLENAME
350
E
  3
ACAD_SCALELIST
350
47
  3
DWGPROPS
350
43A
  0
DICTIONARY
  5
D
102
{ACAD_REACTORS
330
C
102
}
330
C
100
AcDbDictionary
281
     1
  0
DICTIONARY
  5
1A
102
{ACAD_REACTORS
330
C
102
}
330
C
100
AcDbDictionary
281
     1
  3
Layout1
350
1E
  3
Layout2
350
26
  3
Model
350
22
  0
DICTIONARY
  5
17
102
{ACAD_REACTORS
330
C
102
}
330
C
100
AcDbDictionary
281
     1
  3
Standard
350
18
  0
DICTIONARY
  5
19
102
{ACAD_REACTORS
330
C
102
}
330
C
100
AcDbDictionary
281
     1
  0
ACDBDICTIONARYWDFLT
  5
E
102
{ACAD_REACTORS
330
C
102
}
330
C
100
AcDbDictionary
281
     1
  3
Normal
350
F
100
AcDbDictionaryWithDefault
340
F
  0
DICTIONARY
  5
47
102
{ACAD_REACTORS
330
C
102
}
330
C
100
AcDbDictionary
281
     1
  3
A0
350
48
  3
A1
350
49
  3
A2
350
4A
  3
A3
350
4B
  3
A4
350
4C
  3
A5
350
4D
  3
A6
350
4E
  3
A7
350
4F
  3
A8
350
50
  3
A9
350
51
  3
B0
350
52
  3
B1
350
53
  3
B2
350
54
  3
B3
350
55
  3
B4
350
56
  3
B5
350
57
  3
B6
350
58
  3
B7
350
59
  3
B8
350
5A
  3
B9
350
5B
  3
C0
350
5C
  3
C1
350
5D
  3
C2
350
5E
  3
C3
350
5F
  3
C4
350
60
  3
C5
350
61
  3
C6
350
62
  3
C7
350
63
  3
C8
350
64
  3
C9
350
65
  3
D0
350
66
  3
D1
350
67
  3
D2
350
68
  0
XRECORD
  5
43A
102
{ACAD_REACTORS
330
C
102
}
330
C
100
AcDbXrecord
280
     1
  1
DWGPROPS COOKIE
  2

  3

  4

  6

  7

  8
p870382
  9

300
=
301
=
302
=
303
=
304
=
305
=
306
=
307
=
308
=
309
=
 40
0.0
 41
2460104.34406765
 42
2460104.344070544
  1

 90
        0
  0
LAYOUT
  5
1E
102
{ACAD_REACTORS
330
1A
102
}
330
1A
100
AcDbPlotSettings
  1

  2
none_device
  4

  6

 40
0.0
 41
0.0
 42
0.0
 43
0.0
 44
0.0
 45
0.0
 46
0.0
 47
0.0
 48
0.0
 49
0.0
140
0.0
141
0.0
142
1.0
143
1.0
 70
   688
 72
     1
 73
     0
 74
     5
  7

 75
    16
147
1.0
148
0.0
149
0.0
100
AcDbLayout
  1
Layout1
 70
     1
 71
     1
 10
0.0
 20
0.0
 11
420.0
 21
297.0
 12
0.0
 22
0.0
 32
0.0
 14
1.0000000000E+20
 24
1.0000000000E+20
 34
1.0000000000E+20
 15
-1.0000000000E+20
 25
-1.0000000000E+20
 35
-1.0000000000E+20
146
0.0
 13
0.0
 23
0.0
 33
0.0
 16
1.0
 26
0.0
 36
0.0
 17
0.0
 27
1.0
 37
0.0
 76
     0
330
1B
  0
LAYOUT
  5
26
102
{ACAD_REACTORS
330
1A
102
}
330
1A
100
AcDbPlotSettings
  1

  2
none_device
  4

  6

 40
0.0
 41
0.0
 42
0.0
 43
0.0
 44
0.0
 45
0.0
 46
0.0
 47
0.0
 48
0.0
 49
0.0
140
0.0
141
0.0
142
1.0
143
1.0
 70
   688
 72
     1
 73
     0
 74
     5
  7

 75
    16
147
1.0
148
0.0
149
0.0
100
AcDbLayout
  1
Layout2
 70
     1
 71
     2
 10
0.0
 20
0.0
 11
0.0
 21
0.0
 12
0.0
 22
0.0
 32
0.0
 14
0.0
 24
0.0
 34
0.0
 15
0.0
 25
0.0
 35
0.0
146
0.0
 13
0.0
 23
0.0
 33
0.0
 16
1.0
 26
0.0
 36
0.0
 17
0.0
 27
1.0
 37
0.0
 76
     0
330
23
  0
LAYOUT
  5
22
102
{ACAD_REACTORS
330
1A
102
}
330
1A
100
AcDbPlotSettings
  1

  2
none_device
  4
Letter_(8.50_x_11.00_Inches)
  6

 40
6.35
 41
6.35
 42
6.35000508
 43
6.35000508
 44
215.9
 45
279.4
 46
0.0
 47
0.0
 48
0.0
 49
0.0
140
0.0
141
0.0
142
1.0
143
1.0
 70
  1712
 72
     1
 73
     0
 74
     0
  7

 75
     0
147
1.0
148
0.0
149
0.0
100
AcDbLayout
  1
Model
 70
     1
 71
     0
 10
0.0
 20
0.0
 11
297.0
 21
210.0
 12
0.0
 22
0.0
 32
0.0
 14
0.0
 24
0.0
 34
0.0
 15
297.0
 25
210.0
 35
0.0
146
0.0
 13
0.0
 23
0.0
 33
0.0
 16
1.0
 26
0.0
 36
0.0
 17
0.0
 27
1.0
 37
0.0
 76
     0
330
1F
331
29
  0
MLINESTYLE
  5
18
102
{ACAD_REACTORS
330
17
102
}
330
17
100
AcDbMlineStyle
  2
Standard
 70
     0
  3

 62
   256
 51
90.0
 52
90.0
 71
     2
 49
0.5
 62
   256
  6
BYLAYER
 49
-0.5
 62
   256
  6
BYLAYER
  0
ACDBPLACEHOLDER
  5
F
102
{ACAD_REACTORS
330
E
102
}
330
E
  0
SCALE
  5
48
102
{ACAD_REACTORS
330
47
102
}
330
47
100
AcDbScale
 70
     0
300
1:1
140
1.0
141
1.0
290
     1
  0
SCALE
  5
49
102
{ACAD_REACTORS
330
47
102
}
330
47
100
AcDbScale
 70
     0
300
1:2
140
1.0
141
2.0
290
     0
  0
SCALE
  5
4A
102
{ACAD_REACTORS
330
47
102
}
330
47
100
AcDbScale
 70
     0
300
1:4
140
1.0
141
4.0
290
     0
  0
SCALE
  5
4B
102
{ACAD_REACTORS
330
47
102
}
330
47
100
AcDbScale
 70
     0
300
1:5
140
1.0
141
5.0
290
     0
  0
SCALE
  5
4C
102
{ACAD_REACTORS
330
47
102
}
330
47
100
AcDbScale
 70
     0
300
1:8
140
1.0
141
8.0
290
     0
  0
SCALE
  5
4D
102
{ACAD_REACTORS
330
47
102
}
330
47
100
AcDbScale
 70
     0
300
1:10
140
1.0
141
10.0
290
     0
  0
SCALE
  5
4E
102
{ACAD_REACTORS
330
47
102
}
330
47
100
AcDbScale
 70
     0
300
1:16
140
1.0
141
16.0
290
     0
  0
SCALE
  5
4F
102
{ACAD_REACTORS
330
47
102
}
330
47
100
AcDbScale
 70
     0
300
1:20
140
1.0
141
20.0
290
     0
  0
SCALE
  5
50
102
{ACAD_REACTORS
330
47
102
}
330
47
100
AcDbScale
 70
     0
300
1:30
140
1.0
141
30.0
290
     0
  0
SCALE
  5
51
102
{ACAD_REACTORS
330
47
102
}
330
47
100
AcDbScale
 70
     0
300
1:40
140
1.0
141
40.0
290
     0
  0
SCALE
  5
52
102
{ACAD_REACTORS
330
47
102
}
330
47
100
AcDbScale
 70
     0
300
1:50
140
1.0
141
50.0
290
     0
  0
SCALE
  5
53
102
{ACAD_REACTORS
330
47
102
}
330
47
100
AcDbScale
 70
     0
300
1:100
140
1.0
141
100.0
290
     0
  0
SCALE
  5
54
102
{ACAD_REACTORS
330
47
102
}
330
47
100
AcDbScale
 70
     0
300
2:1
140
2.0
141
1.0
290
     0
  0
SCALE
  5
55
102
{ACAD_REACTORS
330
47
102
}
330
47
100
AcDbScale
 70
     0
300
4:1
140
4.0
141
1.0
290
     0
  0
SCALE
  5
56
102
{ACAD_REACTORS
330
47
102
}
330
47
100
AcDbScale
 70
     0
300
8:1
140
8.0
141
1.0
290
     0
  0
SCALE
  5
57
102
{ACAD_REACTORS
330
47
102
}
330
47
100
AcDbScale
 70
     0
300
10:1
140
10.0
141
1.0
290
     0
  0
SCALE
  5
58
102
{ACAD_REACTORS
330
47
102
}
330
47
100
AcDbScale
 70
     0
300
100:1
140
100.0
141
1.0
290
     0
  0
SCALE
  5
59
102
{ACAD_REACTORS
330
47
102
}
330
47
100
AcDbScale
 70
     0
300
1/128" = 1'-0"
140
0.0078125
141
12.0
290
     0
  0
SCALE
  5
5A
102
{ACAD_REACTORS
330
47
102
}
330
47
100
AcDbScale
 70
     0
300
1/64" = 1'-0"
140
0.015625
141
12.0
290
     0
  0
SCALE
  5
5B
102
{ACAD_REACTORS
330
47
102
}
330
47
100
AcDbScale
 70
     0
300
1/32" = 1'-0"
140
0.03125
141
12.0
290
     0
  0
SCALE
  5
5C
102
{ACAD_REACTORS
330
47
102
}
330
47
100
AcDbScale
 70
     0
300
1/16" = 1'-0"
140
0.0625
141
12.0
290
     0
  0
SCALE
  5
5D
102
{ACAD_REACTORS
330
47
102
}
330
47
100
AcDbScale
 70
     0
300
3/32" = 1'-0"
140
0.09375
141
12.0
290
     0
  0
SCALE
  5
5E
102
{ACAD_REACTORS
330
47
102
}
330
47
100
AcDbScale
 70
     0
300
1/8" = 1'-0"
140
0.125
141
12.0
290
     0
  0
SCALE
  5
5F
102
{ACAD_REACTORS
330
47
102
}
330
47
100
AcDbScale
 70
     0
300
3/16" = 1'-0"
140
0.1875
141
12.0
290
     0
  0
SCALE
  5
60
102
{ACAD_REACTORS
330
47
102
}
330
47
100
AcDbScale
 70
     0
300
1/4" = 1'-0"
140
0.25
141
12.0
290
     0
  0
SCALE
  5
61
102
{ACAD_REACTORS
330
47
102
}
330
47
100
AcDbScale
 70
     0
300
3/8" = 1'-0"
140
0.375
141
12.0
290
     0
  0
SCALE
  5
62
102
{ACAD_REACTORS
330
47
102
}
330
47
100
AcDbScale
 70
     0
300
1/2" = 1'-0"
140
0.5
141
12.0
290
     0
  0
SCALE
  5
63
102
{ACAD_REACTORS
330
47
102
}
330
47
100
AcDbScale
 70
     0
300
3/4" = 1'-0"
140
0.75
141
12.0
290
     0
  0
SCALE
  5
64
102
{ACAD_REACTORS
330
47
102
}
330
47
100
AcDbScale
 70
     0
300
1" = 1'-0"
140
1.0
141
12.0
290
     0
  0
SCALE
  5
65
102
{ACAD_REACTORS
330
47
102
}
330
47
100
AcDbScale
 70
     0
300
1-1/2" = 1'-0"
140
1.5
141
12.0
290
     0
  0
SCALE
  5
66
102
{ACAD_REACTORS
330
47
102
}
330
47
100
AcDbScale
 70
     0
300
3" = 1'-0"
140
3.0
141
12.0
290
     0
  0
SCALE
  5
67
102
{ACAD_REACTORS
330
47
102
}
330
47
100
AcDbScale
 70
     0
300
6" = 1'-0"
140
6.0
141
12.0
290
     0
  0
SCALE
  5
68
102
{ACAD_REACTORS
330
47
102
}
330
47
100
AcDbScale
 70
     0
300
1'-0" = 1'-0"
140
12.0
141
12.0
290
     0
  0
ENDSEC
  0
EOF
