  0
SECTION
  2
HEADER
  9
$ACADVER
  1
AC1015
  9
$ACADMAINTVER
 70
     6
  9
$DWGCODEPAGE
  3
DOS932
  9
$INSBASE
 10
0.0
 20
0.0
 30
0.0
  9
$EXTMIN
 10
0.0
 20
0.0
 30
0.0
  9
$EXTMAX
 10
297.0
 20
210.0
 30
0.0
  9
$LIMMIN
 10
0.0
 20
0.0
  9
$LIMMAX
 10
297.0
 20
210.0
  9
$ORTHOMODE
 70
     0
  9
$REGENMODE
 70
     1
  9
$FILLMODE
 70
     1
  9
$QTEXTMODE
 70
     0
  9
$MIRRTEXT
 70
     1
  9
$LTSCALE
 40
1.0
  9
$ATTMODE
 70
     1
  9
$TEXTSIZE
 40
3.5277777778
  9
$TRACEWID
 40
1.0
  9
$TEXTSTYLE
  7
STANDARD
  9
$CLAYER
  8
0
  9
$CELTYPE
  6
ByLayer
  9
$CECOLOR
 62
   256
  9
$CELTSCALE
 40
1.0
  9
$DISPSILH
 70
     0
  9
$DIMSCALE
 40
1.0
  9
$DIMASZ
 40
3.0
  9
$DIMEXO
 40
1.0
  9
$DIMDLI
 40
3.75
  9
$DIMRND
 40
0.0
  9
$DIMDLE
 40
0.0
  9
$DIMEXE
 40
1.0
  9
$DIMTP
 40
0.0
  9
$DIMTM
 40
0.0
  9
$DIMTXT
 40
3.5277777778
  9
$DIMCEN
 40
2.5
  9
$DIMTSZ
 40
0.0
  9
$DIMTOL
 70
     0
  9
$DIMLIM
 70
     0
  9
$DIMTIH
 70
     1
  9
$DIMTOH
 70
     1
  9
$DIMSE1
 70
     0
  9
$DIMSE2
 70
     0
  9
$DIMTAD
 70
     1
  9
$DIMZIN
 70
     0
  9
$DIMBLK
  1

  9
$DIMASO
 70
     1
  9
$DIMSHO
 70
     1
  9
$DIMPOST
  1

  9
$DIMAPOST
  1

  9
$DIMALT
 70
     0
  9
$DIMALTD
 70
     3
  9
$DIMALTF
 40
0.0393700787
  9
$DIMLFAC
 40
5.0
  9
$DIMTOFL
 70
     1
  9
$DIMTVP
 40
0.0
  9
$DIMTIX
 70
     0
  9
$DIMSOXD
 70
     0
  9
$DIMSAH
 70
     0
  9
$DIMBLK1
  1

  9
$DIMBLK2
  1

  9
$DIMSTYLE
  2
ISO-25
  9
$DIMCLRD
 70
     0
  9
$DIMCLRE
 70
     0
  9
$DIMCLRT
 70
     0
  9
$DIMTFAC
 40
1.0
  9
$DIMGAP
 40
1.524
  9
$DIMJUST
 70
     0
  9
$DIMSD1
 70
     0
  9
$DIMSD2
 70
     0
  9
$DIMTOLJ
 70
     0
  9
$DIMTZIN
 70
     0
  9
$DIMALTZ
 70
     0
  9
$DIMALTTZ
 70
     0
  9
$DIMUPT
 70
     0
  9
$DIMDEC
 70
     2
  9
$DIMTDEC
 70
     2
  9
$DIMALTU
 70
     2
  9
$DIMALTTD
 70
     3
  9
$DIMTXSTY
  7
STANDARD
  9
$DIMAUNIT
 70
     0
  9
$DIMADEC
 70
     2
  9
$DIMALTRND
 40
0.0
  9
$DIMAZIN
 70
     0
  9
$DIMDSEP
 70
    44
  9
$DIMATFIT
 70
     3
  9
$DIMFRAC
 70
     0
  9
$DIMLDRBLK
  1

  9
$DIMLUNIT
 70
     2
  9
$DIMLWD
 70
    -2
  9
$DIMLWE
 70
    -2
  9
$DIMTMOVE
 70
     0
  9
$LUNITS
 70
     2
  9
$LUPREC
 70
     2
  9
$SKETCHINC
 40
1.0
  9
$FILLETRAD
 40
10.0
  9
$AUNITS
 70
     0
  9
$AUPREC
 70
     2
  9
$MENU
  1
.
  9
$ELEVATION
 40
0.0
  9
$PELEVATION
 40
0.0
  9
$THICKNESS
 40
0.0
  9
$LIMCHECK
 70
     0
  9
$CHAMFERA
 40
0.0
  9
$CHAMFERB
 40
0.0
  9
$CHAMFERC
 40
0.0
  9
$CHAMFERD
 40
0.0
  9
$SKPOLY
 70
     0
  9
$TDCREATE
 40
2460340.671846655
  9
$TDUCREATE
 40
2460340.296846655
  9
$TDUPDATE
 40
2460340.671849549
  9
$TDUUPDATE
 40
2460340.296849549
  9
$TDINDWG
 40
0.0000000116
  9
$TDUSRTIMER
 40
0.0000000116
  9
$USRTIMER
 70
     1
  9
$ANGBASE
 50
0.0
  9
$ANGDIR
 70
     0
  9
$PDMODE
 70
     0
  9
$PDSIZE
 40
-1.0
  9
$PLINEWID
 40
0.0
  9
$SPLFRAME
 70
     0
  9
$SPLINETYPE
 70
     6
  9
$SPLINESEGS
 70
     8
  9
$HANDSEED
  5
25A
  9
$SURFTAB1
 70
     6
  9
$SURFTAB2
 70
     6
  9
$SURFTYPE
 70
     6
  9
$SURFU
 70
     6
  9
$SURFV
 70
     6
  9
$UCSBASE
  2

  9
$UCSNAME
  2

  9
$UCSORG
 10
0.0
 20
0.0
 30
0.0
  9
$UCSXDIR
 10
1.0
 20
0.0
 30
0.0
  9
$UCSYDIR
 10
0.0
 20
1.0
 30
0.0
  9
$UCSORTHOREF
  2

  9
$UCSORTHOVIEW
 70
     0
  9
$UCSORGTOP
 10
0.0
 20
0.0
 30
0.0
  9
$UCSORGBOTTOM
 10
0.0
 20
0.0
 30
0.0
  9
$UCSORGLEFT
 10
0.0
 20
0.0
 30
0.0
  9
$UCSORGRIGHT
 10
0.0
 20
0.0
 30
0.0
  9
$UCSORGFRONT
 10
0.0
 20
0.0
 30
0.0
  9
$UCSORGBACK
 10
0.0
 20
0.0
 30
0.0
  9
$PUCSBASE
  2

  9
$PUCSNAME
  2

  9
$PUCSORG
 10
0.0
 20
0.0
 30
0.0
  9
$PUCSXDIR
 10
1.0
 20
0.0
 30
0.0
  9
$PUCSYDIR
 10
0.0
 20
1.0
 30
0.0
  9
$PUCSORTHOREF
  2

  9
$PUCSORTHOVIEW
 70
     0
  9
$PUCSORGTOP
 10
0.0
 20
0.0
 30
0.0
  9
$PUCSORGBOTTOM
 10
0.0
 20
0.0
 30
0.0
  9
$PUCSORGLEFT
 10
0.0
 20
0.0
 30
0.0
  9
$PUCSORGRIGHT
 10
0.0
 20
0.0
 30
0.0
  9
$PUCSORGFRONT
 10
0.0
 20
0.0
 30
0.0
  9
$PUCSORGBACK
 10
0.0
 20
0.0
 30
0.0
  9
$USERI1
 70
     0
  9
$USERI2
 70
     0
  9
$USERI3
 70
     0
  9
$USERI4
 70
     0
  9
$USERI5
 70
     0
  9
$USERR1
 40
0.0
  9
$USERR2
 40
0.0
  9
$USERR3
 40
0.0
  9
$USERR4
 40
0.0
  9
$USERR5
 40
0.0
  9
$WORLDVIEW
 70
     1
  9
$SHADEDGE
 70
     3
  9
$SHADEDIF
 70
    70
  9
$TILEMODE
 70
     1
  9
$MAXACTVP
 70
    64
  9
$PINSBASE
 10
0.0
 20
0.0
 30
0.0
  9
$PLIMCHECK
 70
     0
  9
$PEXTMIN
 10
1.0000000000E+20
 20
1.0000000000E+20
 30
1.0000000000E+20
  9
$PEXTMAX
 10
-1.0000000000E+20
 20
-1.0000000000E+20
 30
-1.0000000000E+20
  9
$PLIMMIN
 10
0.0
 20
0.0
  9
$PLIMMAX
 10
420.0
 20
297.0
  9
$UNITMODE
 70
     0
  9
$VISRETAIN
 70
     1
  9
$PLINEGEN
 70
     0
  9
$PSLTSCALE
 70
     1
  9
$TREEDEPTH
 70
  3020
  9
$CMLSTYLE
  2
Standard
  9
$CMLJUST
 70
     0
  9
$CMLSCALE
 40
20.0
  9
$PROXYGRAPHICS
 70
     1
  9
$MEASUREMENT
 70
     1
  9
$CELWEIGHT
370
    -1
  9
$ENDCAPS
280
     0
  9
$JOINSTYLE
280
     0
  9
$LWDISPLAY
290
     1
  9
$INSUNITS
 70
     4
  9
$HYPERLINKBASE
  1

  9
$STYLESHEET
  1

  9
$XEDIT
290
     1
  9
$CEPSNTYPE
380
     0
  9
$PSTYLEMODE
290
     1
  9
$FINGERPRINTGUID
  2
{b4c9ce9e-aaf1-4b8c-92eb-37e4acb41038}
  9
$VERSIONGUID
  2
{FAEB1C32-E019-11D5-929B-00C0DF256EC4}
  9
$EXTNAMES
290
     1
  9
$PSVPSCALE
 40
0.0
  9
$OLESTARTUP
290
     0
  0
ENDSEC
  0
SECTION
  2
CLASSES
  0
CLASS
  1
ACDBDICTIONARYWDFLT
  2
AcDbDictionaryWithDefault
  3
ObjectDBX Classes
 90
        0
280
     0
281
     0
  0
CLASS
  1
VISUALSTYLE
  2
AcDbVisualStyle
  3
ObjectDBX Classes
 90
     4095
280
     0
281
     0
  0
CLASS
  1
MATERIAL
  2
AcDbMaterial
  3
ObjectDBX Classes
 90
     1153
280
     0
281
     0
  0
CLASS
  1
SCALE
  2
AcDbScale
  3
ObjectDBX Classes
 90
     1153
280
     0
281
     0
  0
CLASS
  1
TABLESTYLE
  2
AcDbTableStyle
  3
ObjectDBX Classes
 90
     4095
280
     0
281
     0
  0
CLASS
  1
MLEADERSTYLE
  2
AcDbMLeaderStyle
  3
ACDB_MLEADERSTYLE_CLASS
 90
     4095
280
     0
281
     0
  0
CLASS
  1
SUN
  2
AcDbSun
  3
SCENEOE
 90
     1153
280
     0
281
     0
  0
CLASS
  1
ACDBPLACEHOLDER
  2
AcDbPlaceHolder
  3
ObjectDBX Classes
 90
        0
280
     0
281
     0
  0
CLASS
  1
LAYOUT
  2
AcDbLayout
  3
ObjectDBX Classes
 90
        0
280
     0
281
     0
  0
ENDSEC
  0
SECTION
  2
TABLES
  0
TABLE
  2
VPORT
  5
8
330
0
100
AcDbSymbolTable
 70
     1
  0
VPORT
  5
29
330
8
100
AcDbSymbolTableRecord
100
AcDbViewportTableRecord
  2
*Active
 70
     0
 10
0.0
 20
0.0
 11
1.0
 21
1.0
 12
148.5
 22
105.0
 13
0.0
 23
0.0
 14
10.0
 24
10.0
 15
10.0
 25
10.0
 16
0.0
 26
0.0
 36
1.0
 17
0.0
 27
0.0
 37
0.0
 40
210.0
 41
1.4142857143
 42
50.0
 43
0.0
 44
0.0
 50
0.0
 51
0.0
 71
     0
 72
  2000
 73
     1
 74
     3
 75
     0
 76
     0
 77
     0
 78
     0
281
     0
 65
     1
110
0.0
120
0.0
130
0.0
111
1.0
121
0.0
131
0.0
112
0.0
122
1.0
132
0.0
 79
     0
146
0.0
  0
ENDTAB
  0
TABLE
  2
LTYPE
  5
5
330
0
100
AcDbSymbolTable
 70
     6
  0
LTYPE
  5
14
330
5
100
AcDbSymbolTableRecord
100
AcDbLinetypeTableRecord
  2
ByBlock
 70
     0
  3

 72
    65
 73
     0
 40
0.0
  0
LTYPE
  5
15
330
5
100
AcDbSymbolTableRecord
100
AcDbLinetypeTableRecord
  2
ByLayer
 70
     0
  3

 72
    65
 73
     0
 40
0.0
  0
LTYPE
  5
16
330
5
100
AcDbSymbolTableRecord
100
AcDbLinetypeTableRecord
  2
Continuous
 70
     0
  3
Solid line
 72
    65
 73
     0
 40
0.0
  0
LTYPE
  5
6E
330
5
100
AcDbSymbolTableRecord
100
AcDbLinetypeTableRecord
  2
HIDDEN
 70
     0
  3
Hidden __ __ __ __ __ __ __ __ __ __ __ __ __ __
 72
    65
 73
     2
 40
1.905
 49
1.27
 74
     0
 49
-0.635
 74
     0
  0
LTYPE
  5
6F
330
5
100
AcDbSymbolTableRecord
100
AcDbLinetypeTableRecord
  2
PHANTOM
 70
     0
  3
Phantom ______  __  __  ______  __  __  ______
 72
    65
 73
     6
 40
12.7
 49
6.35
 74
     0
 49
-1.27
 74
     0
 49
1.27
 74
     0
 49
-1.27
 74
     0
 49
1.27
 74
     0
 49
-1.27
 74
     0
  0
LTYPE
  5
70
330
5
100
AcDbSymbolTableRecord
100
AcDbLinetypeTableRecord
  2
CENTER
 70
     0
  3
Center ____ _ ____ _ ____ _ ____ _ ____ _ ____
 72
    65
 73
     4
 40
10.16
 49
6.35
 74
     0
 49
-1.27
 74
     0
 49
1.27
 74
     0
 49
-1.27
 74
     0
  0
LTYPE
  5
71
330
5
100
AcDbSymbolTableRecord
100
AcDbLinetypeTableRecord
  2
CENTERX2
 70
     0
  3
Center (2x) ________  __  ________  __  _____
 72
    65
 73
     4
 40
20.32
 49
12.7
 74
     0
 49
-2.54
 74
     0
 49
2.54
 74
     0
 49
-2.54
 74
     0
  0
LTYPE
  5
72
330
5
100
AcDbSymbolTableRecord
100
AcDbLinetypeTableRecord
  2
DOT2
 70
     0
  3
Dot (.5x) ........................................
 72
    65
 73
     2
 40
0.635
 49
0.0
 74
     0
 49
-0.635
 74
     0
  0
ENDTAB
  0
TABLE
  2
LAYER
  5
2
330
0
100
AcDbSymbolTable
 70
     1
  0
LAYER
  5
10
330
2
100
AcDbSymbolTableRecord
100
AcDbLayerTableRecord
  2
0
 70
     0
 62
     7
  6
Continuous
370
    -3
390
F
  0
ENDTAB
  0
TABLE
  2
STYLE
  5
3
330
0
100
AcDbSymbolTable
 70
     3
  0
STYLE
  5
11
330
3
100
AcDbSymbolTableRecord
100
AcDbTextStyleTableRecord
  2
STANDARD
 70
     0
 40
0.0
 41
1.0
 50
0.0
 71
     0
 42
3.5277777778
  3
MSGOTHIC.TTC
  4

1001
ACAD
1000
MS UI GOTHIC
1071
    32818
  0
STYLE
  5
77
330
3
100
AcDbSymbolTableRecord
100
AcDbTextStyleTableRecord
  2
SLDTEXTSTYLE0
 70
     0
 40
0.0
 41
1.0
 50
0.0
 71
     0
 42
3.5277777778
  3
MSGOTHIC.TTC
  4

1001
ACAD
1000
MS UI Gothic
1071
      306
  0
STYLE
  5
7C
330
3
100
AcDbSymbolTableRecord
100
AcDbTextStyleTableRecord
  2
SLDTEXTSTYLE1
 70
     0
 40
0.0
 41
1.0
 50
0.0
 71
     0
 42
3.5277777778
  3
MSGOTHIC.TTC
  4
bigfont
1001
ACAD
1000
MS UI Gothic
1071
      306
  0
ENDTAB
  0
TABLE
  2
VIEW
  5
6
330
0
100
AcDbSymbolTable
 70
     0
  0
ENDTAB
  0
TABLE
  2
UCS
  5
7
330
0
100
AcDbSymbolTable
 70
     0
  0
ENDTAB
  0
TABLE
  2
APPID
  5
9
330
0
100
AcDbSymbolTable
 70
     1
  0
APPID
  5
12
330
9
100
AcDbSymbolTableRecord
100
AcDbRegAppTableRecord
  2
ACAD
 70
     0
  0
ENDTAB
  0
TABLE
  2
DIMSTYLE
  5
A
330
0
100
AcDbSymbolTable
 70
     5
100
AcDbDimStyleTable
  0
DIMSTYLE
105
27
330
A
100
AcDbSymbolTableRecord
100
AcDbDimStyleTableRecord
  2
ISO-25
 70
     0
 41
2.5
 42
0.625
 43
3.75
 44
1.25
 73
     0
 74
     0
 77
     1
 78
     8
140
2.5
141
2.5
143
0.0393700787
147
0.625
171
     3
172
     1
178
     0
271
     2
272
     2
274
     3
278
    44
283
     0
284
     8
340
11
  0
DIMSTYLE
105
14E
102
{ACAD_REACTORS
330
14D
102
}
330
A
100
AcDbSymbolTableRecord
100
AcDbDimStyleTableRecord
  2
SLDDIMSTYLE0
 70
     0
 41
3.0
 44
0.0
 45
0.000000001
 73
     0
 74
     0
 77
     1
 78
    12
 79
     3
140
3.0316840278
147
0.7579210069
173
     1
178
     0
271
     1
272
     1
276
     2
284
    12
340
77
341
14F
343
14F
344
14F
  0
DIMSTYLE
105
161
102
{ACAD_REACTORS
330
160
330
178
330
183
330
18D
330
197
330
1AE
330
1BA
330
1C6
330
1D0
102
}
330
A
100
AcDbSymbolTableRecord
100
AcDbDimStyleTableRecord
  2
SLDDIMSTYLE1
 70
     0
 41
3.0
 44
0.0
 45
0.000000001
 73
     0
 74
     0
 77
     1
 78
    12
 79
     3
140
3.0316840278
147
0.7579210069
173
     1
178
     0
271
     2
272
     2
276
     2
284
    12
340
77
341
14F
343
14F
344
14F
  0
DIMSTYLE
105
16C
102
{ACAD_REACTORS
330
16B
330
1A2
102
}
330
A
100
AcDbSymbolTableRecord
100
AcDbDimStyleTableRecord
  2
SLDDIMSTYLE2
 70
     0
 41
3.0
 44
0.0
 45
0.000000001
 73
     0
 74
     0
 77
     1
 78
    12
 79
     3
140
3.0316840278
147
0.7579210069
172
     1
173
     1
178
     0
271
     2
272
     2
276
     2
284
    12
289
     0
340
77
341
14F
343
14F
344
14F
  0
DIMSTYLE
105
1E2
330
A
100
AcDbSymbolTableRecord
100
AcDbDimStyleTableRecord
  2
SLDDIMSTYLE3
 70
     0
 41
3.0
 44
0.0
 45
0.000000001
146
3.0
147
0.0
173
     1
178
     0
271
     0
272
     0
276
     2
340
11
341
14F
343
14F
344
14F
  0
ENDTAB
  0
TABLE
  2
BLOCK_RECORD
  5
1
330
0
100
AcDbSymbolTable
 70
    29
  0
BLOCK_RECORD
  5
1F
330
1
100
AcDbSymbolTableRecord
100
AcDbBlockTableRecord
  2
*Model_Space
340
22
  0
BLOCK_RECORD
  5
1B
330
1
100
AcDbSymbolTableRecord
100
AcDbBlockTableRecord
  2
*Paper_Space
340
1E
  0
BLOCK_RECORD
  5
23
330
1
100
AcDbSymbolTableRecord
100
AcDbBlockTableRecord
  2
*Paper_Space0
340
26
  0
BLOCK_RECORD
  5
79
330
1
100
AcDbSymbolTableRecord
100
AcDbBlockTableRecord
  2
SW_NOTE_0
340
0
102
{BLKREFS
331
7F
102
}
  0
BLOCK_RECORD
  5
80
330
1
100
AcDbSymbolTableRecord
100
AcDbBlockTableRecord
  2
SW_NOTE_0_1
340
0
102
{BLKREFS
331
85
102
}
  0
BLOCK_RECORD
  5
86
330
1
100
AcDbSymbolTableRecord
100
AcDbBlockTableRecord
  2
SW_BROKEN_VIEW_0
340
0
102
{BLKREFS
331
8C
102
}
  0
BLOCK_RECORD
  5
14F
330
1
100
AcDbSymbolTableRecord
100
AcDbBlockTableRecord
  2
_Open30
340
0
102
{BLKREFS
331
158
331
159
331
165
331
166
331
170
331
171
331
17C
331
17D
331
187
331
188
331
191
331
192
331
19B
331
19C
331
1A6
331
1A7
331
1B4
331
1B5
331
1BE
331
1BF
331
1CA
331
1CB
331
1D6
331
1D7
102
}
  0
BLOCK_RECORD
  5
155
330
1
100
AcDbSymbolTableRecord
100
AcDbBlockTableRecord
  2
_D
340
0
  0
BLOCK_RECORD
  5
162
330
1
100
AcDbSymbolTableRecord
100
AcDbBlockTableRecord
  2
_D_1
340
0
  0
BLOCK_RECORD
  5
16D
330
1
100
AcDbSymbolTableRecord
100
AcDbBlockTableRecord
  2
_D_2
340
0
  0
BLOCK_RECORD
  5
179
330
1
100
AcDbSymbolTableRecord
100
AcDbBlockTableRecord
  2
_D_3
340
0
  0
BLOCK_RECORD
  5
184
330
1
100
AcDbSymbolTableRecord
100
AcDbBlockTableRecord
  2
_D_4
340
0
  0
BLOCK_RECORD
  5
18E
330
1
100
AcDbSymbolTableRecord
100
AcDbBlockTableRecord
  2
_D_5
340
0
  0
BLOCK_RECORD
  5
198
330
1
100
AcDbSymbolTableRecord
100
AcDbBlockTableRecord
  2
_D_6
340
0
  0
BLOCK_RECORD
  5
1A3
330
1
100
AcDbSymbolTableRecord
100
AcDbBlockTableRecord
  2
_D_7
340
0
  0
BLOCK_RECORD
  5
1AF
330
1
100
AcDbSymbolTableRecord
100
AcDbBlockTableRecord
  2
_D_8
340
0
  0
BLOCK_RECORD
  5
1BB
330
1
100
AcDbSymbolTableRecord
100
AcDbBlockTableRecord
  2
_D_9
340
0
  0
BLOCK_RECORD
  5
1C7
330
1
100
AcDbSymbolTableRecord
100
AcDbBlockTableRecord
  2
_D_10
340
0
  0
BLOCK_RECORD
  5
1D1
330
1
100
AcDbSymbolTableRecord
100
AcDbBlockTableRecord
  2
_D_11
340
0
  0
BLOCK_RECORD
  5
1DC
330
1
100
AcDbSymbolTableRecord
100
AcDbBlockTableRecord
  2
SW_NOTE_0_2
340
0
102
{BLKREFS
331
1E1
102
}
  0
BLOCK_RECORD
  5
1E4
330
1
100
AcDbSymbolTableRecord
100
AcDbBlockTableRecord
  2
SW_NOTE_0_3
340
0
102
{BLKREFS
331
1E9
102
}
  0
BLOCK_RECORD
  5
1EB
330
1
100
AcDbSymbolTableRecord
100
AcDbBlockTableRecord
  2
SW_NOTE_0_4
340
0
102
{BLKREFS
331
1F0
102
}
  0
BLOCK_RECORD
  5
1F2
330
1
100
AcDbSymbolTableRecord
100
AcDbBlockTableRecord
  2
SW_NOTE_0_5
340
0
102
{BLKREFS
331
1F7
102
}
  0
BLOCK_RECORD
  5
1F9
330
1
100
AcDbSymbolTableRecord
100
AcDbBlockTableRecord
  2
SW_NOTE_0_6
340
0
102
{BLKREFS
331
1FE
102
}
  0
BLOCK_RECORD
  5
200
330
1
100
AcDbSymbolTableRecord
100
AcDbBlockTableRecord
  2
SW_NOTE_0_7
340
0
102
{BLKREFS
331
206
102
}
  0
BLOCK_RECORD
  5
208
330
1
100
AcDbSymbolTableRecord
100
AcDbBlockTableRecord
  2
SW_NOTE_0_8
340
0
102
{BLKREFS
331
20D
102
}
  0
BLOCK_RECORD
  5
20F
330
1
100
AcDbSymbolTableRecord
100
AcDbBlockTableRecord
  2
SW_NOTE_0_9
340
0
102
{BLKREFS
331
214
102
}
  0
BLOCK_RECORD
  5
216
330
1
100
AcDbSymbolTableRecord
100
AcDbBlockTableRecord
  2
SW_NOTE_0_10
340
0
102
{BLKREFS
331
21B
102
}
  0
BLOCK_RECORD
  5
225
330
1
100
AcDbSymbolTableRecord
100
AcDbBlockTableRecord
  2
SW_NOTE_0_11
340
0
102
{BLKREFS
331
22A
102
}
  0
BLOCK_RECORD
  5
22C
330
1
100
AcDbSymbolTableRecord
100
AcDbBlockTableRecord
  2
SW_CENTERMARKSYMBOL_0
340
0
102
{BLKREFS
331
237
102
}
  0
BLOCK_RECORD
  5
238
330
1
100
AcDbSymbolTableRecord
100
AcDbBlockTableRecord
  2
SW_CENTERMARKSYMBOL_1
340
0
102
{BLKREFS
331
243
102
}
  0
ENDTAB
  0
ENDSEC
  0
SECTION
  2
BLOCKS
  0
BLOCK
  5
20
330
1F
100
AcDbEntity
  8
0
100
AcDbBlockBegin
  2
*Model_Space
 70
     0
 10
0.0
 20
0.0
 30
0.0
  3
*Model_Space
  1

  0
ENDBLK
  5
21
330
1F
100
AcDbEntity
  8
0
100
AcDbBlockEnd
  0
BLOCK
  5
1C
330
1B
100
AcDbEntity
 67
     1
  8
0
100
AcDbBlockBegin
  2
*Paper_Space
 70
     0
 10
0.0
 20
0.0
 30
0.0
  3
*Paper_Space
  1

  0
ENDBLK
  5
1D
330
1B
100
AcDbEntity
 67
     1
  8
0
100
AcDbBlockEnd
  0
BLOCK
  5
24
330
23
100
AcDbEntity
  8
0
100
AcDbBlockBegin
  2
*Paper_Space0
 70
     0
 10
0.0
 20
0.0
 30
0.0
  3
*Paper_Space0
  1

  0
ENDBLK
  5
25
330
23
100
AcDbEntity
  8
0
100
AcDbBlockEnd
  0
BLOCK
  5
7A
330
79
100
AcDbEntity
  8
0
100
AcDbBlockBegin
  2
SW_NOTE_0
 70
     0
 10
0.0
 20
0.0
 30
0.0
  3
SW_NOTE_0
  1

  0
MTEXT
  5
7D
330
79
100
AcDbEntity
  8
0
  6
Continuous
 62
     0
370
    18
100
AcDbMText
 10
0.0
 20
5.5418181818
 30
0.0
 40
4.7625
 41
0.0
 71
     1
 72
     1
  1
MODEL：T-201S-ﾛ-ﾛ-ﾛ-ﾛ-Y-ﾛ-ﾛ-ﾛ
  7
SLDTEXTSTYLE1
 73
     1
 44
1.0
  0
MTEXT
  5
7E
330
79
100
AcDbEntity
  8
0
  6
Continuous
 62
     0
370
    18
100
AcDbMText
 10
23.1775008142
 20
-2.8417495077
 30
0.0
 40
3.7041666667
 41
0.0
 71
     1
 72
     1
  1
（保護管径φ3.2、φ4.8の時）
  7
SLDTEXTSTYLE1
 73
     1
 44
1.0
  0
ENDBLK
  5
7B
330
79
100
AcDbEntity
  8
0
100
AcDbBlockEnd
  0
BLOCK
  5
81
330
80
100
AcDbEntity
  8
0
100
AcDbBlockBegin
  2
SW_NOTE_0_1
 70
     0
 10
0.0
 20
0.0
 30
0.0
  3
SW_NOTE_0_1
  1

  0
MTEXT
  5
83
330
80
100
AcDbEntity
  8
0
  6
Continuous
 62
     0
370
    18
100
AcDbMText
 10
0.0
 20
3.0787878788
 30
0.0
 40
2.6458333333
 41
0.0
 71
     1
 72
     1
  1
※1 φ5（φd=3.2）
  7
SLDTEXTSTYLE1
 73
     1
 44
1.0
  0
MTEXT
  5
84
330
80
100
AcDbEntity
  8
0
  6
Continuous
 62
     0
370
    18
100
AcDbMText
 10
0.0
 20
-0.4489898564
 30
0.0
 40
2.6458333333
 41
0.0
 71
     1
 72
     1
  1
      φ7（φd=4.8）
  7
SLDTEXTSTYLE1
 73
     1
 44
1.0
  0
ENDBLK
  5
82
330
80
100
AcDbEntity
  8
0
100
AcDbBlockEnd
  0
BLOCK
  5
87
330
86
100
AcDbEntity
  8
0
100
AcDbBlockBegin
  2
SW_BROKEN_VIEW_0
 70
     0
 10
0.0
 20
0.0
 30
0.0
  3
SW_BROKEN_VIEW_0
  1

  0
LINE
  5
89
330
86
100
AcDbEntity
  8
0
  6
HIDDEN
 62
     0
100
AcDbLine
 10
0.0
 20
0.0
 30
0.0
 11
-11.9999945164
 21
0.0
 31
0.0
  0
LINE
  5
8A
330
86
100
AcDbEntity
  8
0
  6
HIDDEN
 62
     0
100
AcDbLine
 10
0.0
 20
-12.7999996766
 30
0.0
 11
-11.9999945164
 21
-12.7999996766
 31
0.0
  0
LINE
  5
8B
330
86
100
AcDbEntity
  8
0
  6
HIDDEN
 62
     0
100
AcDbLine
 10
0.0
 20
-12.7999996766
 30
0.0
 11
0.0
 21
0.0
 31
0.0
  0
ENDBLK
  5
88
330
86
100
AcDbEntity
  8
0
100
AcDbBlockEnd
  0
BLOCK
  5
150
330
14F
100
AcDbEntity
  8
0
100
AcDbBlockBegin
  2
_Open30
 70
     0
 10
0.0
 20
0.0
 30
0.0
  3
_Open30
  1

  0
LINE
  5
152
330
14F
100
AcDbEntity
  8
0
  6
ByBlock
 62
     0
370
    -2
100
AcDbLine
 10
-1.0
 20
0.267949
 30
0.0
 11
0.0
 21
0.0
 31
0.0
  0
LINE
  5
153
330
14F
100
AcDbEntity
  8
0
  6
ByBlock
 62
     0
370
    -2
100
AcDbLine
 10
0.0
 20
0.0
 30
0.0
 11
-1.0
 21
-0.267949
 31
0.0
  0
LINE
  5
154
330
14F
100
AcDbEntity
  8
0
  6
ByBlock
 62
     0
370
    -2
100
AcDbLine
 10
0.0
 20
0.0
 30
0.0
 11
-1.0
 21
0.0
 31
0.0
  0
ENDBLK
  5
151
330
14F
100
AcDbEntity
  8
0
100
AcDbBlockEnd
  0
BLOCK
  5
156
330
155
100
AcDbEntity
  8
0
100
AcDbBlockBegin
  2
_D
 70
     0
 10
0.0
 20
0.0
 30
0.0
  3
_D
  1

  0
INSERT
  5
158
330
155
100
AcDbEntity
  8
0
  6
Continuous
 62
     7
370
    18
100
AcDbBlockReference
  2
_Open30
 10
85.8387350312
 20
107.4745518115
 30
0.0
 41
3.0
 42
3.0
 50
270.0
  0
INSERT
  5
159
330
155
100
AcDbEntity
  8
0
  6
Continuous
 62
     7
370
    18
100
AcDbBlockReference
  2
_Open30
 10
85.8387350312
 20
120.2745518115
 30
0.0
 41
3.0
 42
3.0
 50
90.0
  0
LINE
  5
15A
330
155
100
AcDbEntity
  8
0
  6
Continuous
 62
     7
370
    18
100
AcDbLine
 10
88.9279733154
 20
107.4745518115
 30
0.0
 11
84.8387350312
 21
107.4745518115
 31
0.0
  0
LINE
  5
15B
330
155
100
AcDbEntity
  8
0
  6
Continuous
 62
     7
370
    18
100
AcDbLine
 10
88.9279733154
 20
120.2745518115
 30
0.0
 11
84.8387350312
 21
120.2745518115
 31
0.0
  0
LINE
  5
15C
330
155
100
AcDbEntity
  8
0
  6
Continuous
 62
     7
370
    18
100
AcDbLine
 10
85.8387350312
 20
107.4745518115
 30
0.0
 11
85.8387350312
 21
120.2745518115
 31
0.0
  0
LINE
  5
15D
330
155
100
AcDbEntity
  8
0
  6
Continuous
 62
     7
370
    18
100
AcDbLine
 10
85.8387350312
 20
120.2745518115
 30
0.0
 11
85.8387350312
 21
132.2209911224
 31
0.0
  0
MTEXT
  5
15E
330
155
100
AcDbEntity
  8
0
  6
Continuous
 62
     7
370
    18
100
AcDbMText
 10
82.759947036
 20
122.8625803989
 30
0.0
 40
2.6458333333
 41
0.0
 71
     1
 72
     1
  1
%%c
  7
SLDTEXTSTYLE0
 11
6.123233995736766E-17
 21
1.0
 31
0.0
 73
     1
 44
1.0
  0
MTEXT
  5
15F
330
155
100
AcDbEntity
  8
0
  6
Continuous
 62
     7
370
    18
100
AcDbMText
 10
82.759947036
 20
126.2139693637
 30
0.0
 40
2.6458333333
 41
0.0
 71
     1
 72
     1
  1
12.8
  7
SLDTEXTSTYLE0
 11
6.123233995736766E-17
 21
1.0
 31
0.0
 73
     1
 44
1.0
  0
ENDBLK
  5
157
330
155
100
AcDbEntity
  8
0
100
AcDbBlockEnd
  0
BLOCK
  5
163
330
162
100
AcDbEntity
  8
0
100
AcDbBlockBegin
  2
_D_1
 70
     0
 10
0.0
 20
0.0
 30
0.0
  3
_D_1
  1

  0
INSERT
  5
165
330
162
100
AcDbEntity
  8
0
  6
Continuous
 62
     7
370
    18
100
AcDbBlockReference
  2
_Open30
 10
28.9066356252
 20
152.3015935466
 30
0.0
 41
3.0
 42
3.0
 50
180.0
  0
INSERT
  5
166
330
162
100
AcDbEntity
  8
0
  6
Continuous
 62
     7
370
    18
100
AcDbBlockReference
  2
_Open30
 10
61.7111378473
 20
152.3015935466
 30
0.0
 41
3.0
 42
3.0
 50
0.0
  0
LINE
  5
167
330
162
100
AcDbEntity
  8
0
  6
Continuous
 62
     7
370
    18
100
AcDbLine
 10
28.9066356252
 20
114.8745518115
 30
0.0
 11
28.9066356252
 21
153.3015935466
 31
0.0
  0
LINE
  5
168
330
162
100
AcDbEntity
  8
0
  6
Continuous
 62
     7
370
    18
100
AcDbLine
 10
61.7111378473
 20
118.3745518115
 30
0.0
 11
61.7111378473
 21
153.3015935466
 31
0.0
  0
LINE
  5
169
330
162
100
AcDbEntity
  8
0
  6
Continuous
 62
     7
370
    18
100
AcDbLine
 10
28.9066356252
 20
152.3015935466
 30
0.0
 11
61.7111378473
 21
152.3015935466
 31
0.0
  0
MTEXT
  5
16A
330
162
100
AcDbEntity
  8
0
  6
Continuous
 62
     7
370
    18
100
AcDbMText
 10
35.5389022153
 20
155.380381309
 30
0.0
 40
2.6458333333
 41
0.0
 71
     1
 72
     1
  1
L1=50～1000
  7
SLDTEXTSTYLE1
 73
     1
 44
1.0
  0
ENDBLK
  5
164
330
162
100
AcDbEntity
  8
0
100
AcDbBlockEnd
  0
BLOCK
  5
16E
330
16D
100
AcDbEntity
  8
0
100
AcDbBlockBegin
  2
_D_2
 70
     0
 10
0.0
 20
0.0
 30
0.0
  3
_D_2
  1

  0
INSERT
  5
170
330
16D
100
AcDbEntity
  8
0
  6
Continuous
 62
     7
370
    18
100
AcDbBlockReference
  2
_Open30
 10
63.7111378473
 20
126.1470268344
 30
0.0
 41
3.0
 42
3.0
 50
180.0
  0
INSERT
  5
171
330
16D
100
AcDbEntity
  8
0
  6
Continuous
 62
     7
370
    18
100
AcDbBlockReference
  2
_Open30
 10
61.7111378473
 20
126.1470268344
 30
0.0
 41
3.0
 42
3.0
 50
0.0
  0
LINE
  5
172
330
16D
100
AcDbEntity
  8
0
  6
Continuous
 62
     7
370
    18
100
AcDbLine
 10
63.7111378473
 20
118.3745518115
 30
0.0
 11
63.7111378473
 21
127.1470268344
 31
0.0
  0
LINE
  5
173
330
16D
100
AcDbEntity
  8
0
  6
Continuous
 62
     7
370
    18
100
AcDbLine
 10
61.7111378473
 20
118.3745518115
 30
0.0
 11
61.7111378473
 21
127.1470268344
 31
0.0
  0
LINE
  5
174
330
16D
100
AcDbEntity
  8
0
  6
Continuous
 62
     7
370
    18
100
AcDbLine
 10
63.7111378473
 20
126.1470268344
 30
0.0
 11
67.2111378473
 21
126.1470268344
 31
0.0
  0
LINE
  5
175
330
16D
100
AcDbEntity
  8
0
  6
Continuous
 62
     7
370
    18
100
AcDbLine
 10
63.7111378473
 20
126.1470268344
 30
0.0
 11
61.7111378473
 21
126.1470268344
 31
0.0
  0
LINE
  5
176
330
16D
100
AcDbEntity
  8
0
  6
Continuous
 62
     7
370
    18
100
AcDbLine
 10
61.7111378473
 20
126.1470268344
 30
0.0
 11
54.9797396172
 21
126.1470268344
 31
0.0
  0
MTEXT
  5
177
330
16D
100
AcDbEntity
  8
0
  6
Continuous
 62
     7
370
    18
100
AcDbMText
 10
54.9797396172
 20
129.2258145968
 30
0.0
 40
2.6458333333
 41
0.0
 71
     1
 72
     1
  1
2
  7
SLDTEXTSTYLE0
 73
     1
 44
1.0
  0
ENDBLK
  5
16F
330
16D
100
AcDbEntity
  8
0
100
AcDbBlockEnd
  0
BLOCK
  5
17A
330
179
100
AcDbEntity
  8
0
100
AcDbBlockBegin
  2
_D_3
 70
     0
 10
0.0
 20
0.0
 30
0.0
  3
_D_3
  1

  0
INSERT
  5
17C
330
179
100
AcDbEntity
  8
0
  6
Continuous
 62
     7
370
    18
100
AcDbBlockReference
  2
_Open30
 10
58.175378215
 20
117.3745518115
 30
0.0
 41
3.0
 42
3.0
 50
90.0
  0
INSERT
  5
17D
330
179
100
AcDbEntity
  8
0
  6
Continuous
 62
     7
370
    18
100
AcDbBlockReference
  2
_Open30
 10
58.175378215
 20
110.3745518115
 30
0.0
 41
3.0
 42
3.0
 50
270.0
  0
LINE
  5
17E
330
179
100
AcDbEntity
  8
0
  6
Continuous
 62
     7
370
    18
100
AcDbLine
 10
60.7111378473
 20
117.3745518115
 30
0.0
 11
57.175378215
 21
117.3745518115
 31
0.0
  0
LINE
  5
17F
330
179
100
AcDbEntity
  8
0
  6
Continuous
 62
     7
370
    18
100
AcDbLine
 10
60.7111378473
 20
110.3745518115
 30
0.0
 11
57.175378215
 21
110.3745518115
 31
0.0
  0
LINE
  5
180
330
179
100
AcDbEntity
  8
0
  6
Continuous
 62
     7
370
    18
100
AcDbLine
 10
58.175378215
 20
117.3745518115
 30
0.0
 11
58.175378215
 21
110.3745518115
 31
0.0
  0
LINE
  5
181
330
179
100
AcDbEntity
  8
0
  6
Continuous
 62
     7
370
    18
100
AcDbLine
 10
58.175378215
 20
110.3745518115
 30
0.0
 11
58.175378215
 21
101.579277607
 31
0.0
  0
MTEXT
  5
182
330
179
100
AcDbEntity
  8
0
  6
Continuous
 62
     7
370
    18
100
AcDbMText
 10
55.0965904527
 20
101.579277607
 30
0.0
 40
2.6458333333
 41
0.0
 71
     1
 72
     1
  1
※1
  7
SLDTEXTSTYLE1
 11
-7.044195017643634E-15
 21
1.0
 31
0.0
 73
     1
 44
1.0
  0
ENDBLK
  5
17B
330
179
100
AcDbEntity
  8
0
100
AcDbBlockEnd
  0
BLOCK
  5
185
330
184
100
AcDbEntity
  8
0
100
AcDbBlockBegin
  2
_D_4
 70
     0
 10
0.0
 20
0.0
 30
0.0
  3
_D_4
  1

  0
INSERT
  5
187
330
184
100
AcDbEntity
  8
0
  6
Continuous
 62
     7
370
    18
100
AcDbBlockReference
  2
_Open30
 10
61.7111378473
 20
152.3015935466
 30
0.0
 41
3.0
 42
3.0
 50
180.0
  0
INSERT
  5
188
330
184
100
AcDbEntity
  8
0
  6
Continuous
 62
     7
370
    18
100
AcDbBlockReference
  2
_Open30
 10
105.9279733154
 20
152.3015935466
 30
0.0
 41
3.0
 42
3.0
 50
0.0
  0
LINE
  5
189
330
184
100
AcDbEntity
  8
0
  6
Continuous
 62
     7
370
    18
100
AcDbLine
 10
61.7111378473
 20
118.3745518115
 30
0.0
 11
61.7111378473
 21
153.3015935466
 31
0.0
  0
LINE
  5
18A
330
184
100
AcDbEntity
  8
0
  6
Continuous
 62
     7
370
    18
100
AcDbLine
 10
105.9279733154
 20
119.8745518115
 30
0.0
 11
105.9279733154
 21
153.3015935466
 31
0.0
  0
LINE
  5
18B
330
184
100
AcDbEntity
  8
0
  6
Continuous
 62
     7
370
    18
100
AcDbLine
 10
61.7111378473
 20
152.3015935466
 30
0.0
 11
105.9279733154
 21
152.3015935466
 31
0.0
  0
MTEXT
  5
18C
330
184
100
AcDbEntity
  8
0
  6
Continuous
 62
     7
370
    18
100
AcDbMText
 10
82.0556667138
 20
155.380381309
 30
0.0
 40
2.6458333333
 41
0.0
 71
     1
 72
     1
  1
50
  7
SLDTEXTSTYLE0
 73
     1
 44
1.0
  0
ENDBLK
  5
186
330
184
100
AcDbEntity
  8
0
100
AcDbBlockEnd
  0
BLOCK
  5
18F
330
18E
100
AcDbEntity
  8
0
100
AcDbBlockBegin
  2
_D_5
 70
     0
 10
0.0
 20
0.0
 30
0.0
  3
_D_5
  1

  0
INSERT
  5
191
330
18E
100
AcDbEntity
  8
0
  6
Continuous
 62
     7
370
    18
100
AcDbBlockReference
  2
_Open30
 10
105.9279733154
 20
152.3015935466
 30
0.0
 41
3.0
 42
3.0
 50
180.0
  0
INSERT
  5
192
330
18E
100
AcDbEntity
  8
0
  6
Continuous
 62
     7
370
    18
100
AcDbBlockReference
  2
_Open30
 10
145.9279733154
 20
152.3015935466
 30
0.0
 41
3.0
 42
3.0
 50
0.0
  0
LINE
  5
193
330
18E
100
AcDbEntity
  8
0
  6
Continuous
 62
     7
370
    18
100
AcDbLine
 10
105.9279733154
 20
119.8745518115
 30
0.0
 11
105.9279733154
 21
153.3015935466
 31
0.0
  0
LINE
  5
194
330
18E
100
AcDbEntity
  8
0
  6
Continuous
 62
     7
370
    18
100
AcDbLine
 10
145.9279733154
 20
118.8745518115
 30
0.0
 11
145.9279733154
 21
153.3015935466
 31
0.0
  0
LINE
  5
195
330
18E
100
AcDbEntity
  8
0
  6
Continuous
 62
     7
370
    18
100
AcDbLine
 10
105.9279733154
 20
152.3015935466
 30
0.0
 11
145.9279733154
 21
152.3015935466
 31
0.0
  0
MTEXT
  5
196
330
18E
100
AcDbEntity
  8
0
  6
Continuous
 62
     7
370
    18
100
AcDbMText
 10
124.1640844478
 20
155.380381309
 30
0.0
 40
2.6458333333
 41
0.0
 71
     1
 72
     1
  1
40
  7
SLDTEXTSTYLE0
 73
     1
 44
1.0
  0
ENDBLK
  5
190
330
18E
100
AcDbEntity
  8
0
100
AcDbBlockEnd
  0
BLOCK
  5
199
330
198
100
AcDbEntity
  8
0
100
AcDbBlockBegin
  2
_D_6
 70
     0
 10
0.0
 20
0.0
 30
0.0
  3
_D_6
  1

  0
INSERT
  5
19B
330
198
100
AcDbEntity
  8
0
  6
Continuous
 62
     7
370
    18
100
AcDbBlockReference
  2
_Open30
 10
137.8261305508
 20
109.8745518115
 30
0.0
 41
3.0
 42
3.0
 50
270.0
  0
INSERT
  5
19C
330
198
100
AcDbEntity
  8
0
  6
Continuous
 62
     7
370
    18
100
AcDbBlockReference
  2
_Open30
 10
137.8261305508
 20
117.8745518115
 30
0.0
 41
3.0
 42
3.0
 50
90.0
  0
LINE
  5
19D
330
198
100
AcDbEntity
  8
0
  6
Continuous
 62
     7
370
    18
100
AcDbLine
 10
137.8261305508
 20
109.8745518115
 30
0.0
 11
137.8261305508
 21
117.8745518115
 31
0.0
  0
LINE
  5
19E
330
198
100
AcDbEntity
  8
0
  6
Continuous
 62
     7
370
    18
100
AcDbLine
 10
137.8261305508
 20
117.8745518115
 30
0.0
 11
137.8261305508
 21
143.4101201788
 31
0.0
  0
MTEXT
  5
19F
330
198
100
AcDbEntity
  8
0
  6
Continuous
 62
     7
370
    18
100
AcDbMText
 10
134.7466632127
 20
130.5998768852
 30
0.0
 40
2.6458333333
 41
0.0
 71
     1
 72
     1
  1
%%c
  7
SLDTEXTSTYLE0
 11
6.123233995736766E-17
 21
1.0
 31
0.0
 73
     1
 44
1.0
  0
MTEXT
  5
1A0
330
198
100
AcDbEntity
  8
0
  6
Continuous
 62
     7
370
    18
100
AcDbMText
 10
134.7466632127
 20
133.95126585
 30
0.0
 40
2.6458333333
 41
0.0
 71
     1
 72
     1
  1
D1
  7
SLDTEXTSTYLE0
 11
6.123233995736766E-17
 21
1.0
 31
0.0
 73
     1
 44
1.0
  0
MTEXT
  5
1A1
330
198
100
AcDbEntity
  8
0
  6
Continuous
 62
     7
370
    18
100
AcDbMText
 10
138.2744411807
 20
125.1930669144
 30
0.0
 40
2.6458333333
 41
0.0
 71
     1
 72
     1
  1
（φ8、φ10）
  7
SLDTEXTSTYLE1
 11
6.123233995736766E-17
 21
1.0
 31
0.0
 73
     1
 44
1.0
  0
ENDBLK
  5
19A
330
198
100
AcDbEntity
  8
0
100
AcDbBlockEnd
  0
BLOCK
  5
1A4
330
1A3
100
AcDbEntity
  8
0
100
AcDbBlockBegin
  2
_D_7
 70
     0
 10
0.0
 20
0.0
 30
0.0
  3
_D_7
  1

  0
INSERT
  5
1A6
330
1A3
100
AcDbEntity
  8
0
  6
Continuous
 62
     7
370
    18
100
AcDbBlockReference
  2
_Open30
 10
35.9415545812
 20
116.2745518115
 30
0.0
 41
3.0
 42
3.0
 50
270.0
  0
INSERT
  5
1A7
330
1A3
100
AcDbEntity
  8
0
  6
Continuous
 62
     7
370
    18
100
AcDbBlockReference
  2
_Open30
 10
35.9415545812
 20
111.4745518115
 30
0.0
 41
3.0
 42
3.0
 50
90.0
  0
LINE
  5
1A8
330
1A3
100
AcDbEntity
  8
0
  6
Continuous
 62
     7
370
    18
100
AcDbLine
 10
35.9415545812
 20
116.2745518115
 30
0.0
 11
35.9415545812
 21
145.0074203507
 31
0.0
  0
LINE
  5
1A9
330
1A3
100
AcDbEntity
  8
0
  6
Continuous
 62
     7
370
    18
100
AcDbLine
 10
35.9415545812
 20
116.2745518115
 30
0.0
 11
35.9415545812
 21
111.4745518115
 31
0.0
  0
LINE
  5
1AA
330
1A3
100
AcDbEntity
  8
0
  6
Continuous
 62
     7
370
    18
100
AcDbLine
 10
35.9415545812
 20
111.4745518115
 30
0.0
 11
35.9415545812
 21
107.9745518115
 31
0.0
  0
MTEXT
  5
1AB
330
1A3
100
AcDbEntity
  8
0
  6
Continuous
 62
     7
370
    18
100
AcDbMText
 10
32.8620872431
 20
131.7513040461
 30
0.0
 40
2.6458333333
 41
0.0
 71
     1
 72
     1
  1
%%c
  7
SLDTEXTSTYLE0
 11
-7.044195017643634E-15
 21
1.0
 31
0.0
 73
     1
 44
1.0
  0
MTEXT
  5
1AC
330
1A3
100
AcDbEntity
  8
0
  6
Continuous
 62
     7
370
    18
100
AcDbMText
 10
32.8620872431
 20
135.1026930109
 30
0.0
 40
2.6458333333
 41
0.0
 71
     1
 72
     1
  1
d
  7
SLDTEXTSTYLE0
 11
-7.044195017643634E-15
 21
1.0
 31
0.0
 73
     1
 44
1.0
  0
MTEXT
  5
1AD
330
1A3
100
AcDbEntity
  8
0
  6
Continuous
 62
     7
370
    18
100
AcDbMText
 10
36.3898652111
 20
123.5957667426
 30
0.0
 40
2.6458333333
 41
0.0
 71
     1
 72
     1
  1
（φ3.2、φ4.8）
  7
SLDTEXTSTYLE1
 11
-7.044195017643634E-15
 21
1.0
 31
0.0
 73
     1
 44
1.0
  0
ENDBLK
  5
1A5
330
1A3
100
AcDbEntity
  8
0
100
AcDbBlockEnd
  0
BLOCK
  5
1B0
330
1AF
100
AcDbEntity
  8
0
100
AcDbBlockBegin
  2
_D_8
 70
     0
 10
0.0
 20
0.0
 30
0.0
  3
_D_8
  1

  0
ARC
  5
1B2
330
1AF
100
AcDbEntity
  8
0
  6
Continuous
 62
     7
370
    18
100
AcDbCircle
 10
99.6918622702
 20
132.9085526064
 30
0.0
 40
3.944175412646004
100
AcDbArc
 50
153.4349488229
 51
206.5650511771
  0
ARC
  5
1B3
330
1AF
100
AcDbEntity
  8
0
  6
Continuous
 62
     7
370
    18
100
AcDbCircle
 10
96.1640845351
 20
132.9085526064
 30
0.0
 40
3.944175412646004
100
AcDbArc
 50
333.4349488229
 51
26.5650511771
  0
INSERT
  5
1B4
330
1AF
100
AcDbEntity
  8
0
  6
Continuous
 62
     7
370
    18
100
AcDbBlockReference
  2
_Open30
 10
89.9279733154
 20
131.1446639717
 30
0.0
 41
3.0
 42
3.0
 50
180.0
  0
INSERT
  5
1B5
330
1AF
100
AcDbEntity
  8
0
  6
Continuous
 62
     7
370
    18
100
AcDbBlockReference
  2
_Open30
 10
105.9279733154
 20
131.1446639717
 30
0.0
 41
3.0
 42
3.0
 50
0.0
  0
LINE
  5
1B6
330
1AF
100
AcDbEntity
  8
0
  6
Continuous
 62
     7
370
    18
100
AcDbLine
 10
89.9279733154
 20
121.8745518115
 30
0.0
 11
89.9279733154
 21
132.1446639717
 31
0.0
  0
LINE
  5
1B7
330
1AF
100
AcDbEntity
  8
0
  6
Continuous
 62
     7
370
    18
100
AcDbLine
 10
105.9279733154
 20
119.8745518115
 30
0.0
 11
105.9279733154
 21
132.1446639717
 31
0.0
  0
LINE
  5
1B8
330
1AF
100
AcDbEntity
  8
0
  6
Continuous
 62
     7
370
    18
100
AcDbLine
 10
89.9279733154
 20
131.1446639717
 30
0.0
 11
105.9279733154
 21
131.1446639717
 31
0.0
  0
MTEXT
  5
1B9
330
1AF
100
AcDbEntity
  8
0
  6
Continuous
 62
     7
370
    18
100
AcDbMText
 10
96.1640845351
 20
134.2234515012
 30
0.0
 40
2.6458333333
 41
0.0
 71
     1
 72
     1
  1
16
  7
SLDTEXTSTYLE0
 73
     1
 44
1.0
  0
ENDBLK
  5
1B1
330
1AF
100
AcDbEntity
  8
0
100
AcDbBlockEnd
  0
BLOCK
  5
1BC
330
1BB
100
AcDbEntity
  8
0
100
AcDbBlockBegin
  2
_D_9
 70
     0
 10
0.0
 20
0.0
 30
0.0
  3
_D_9
  1

  0
INSERT
  5
1BE
330
1BB
100
AcDbEntity
  8
0
  6
Continuous
 62
     7
370
    18
100
AcDbBlockReference
  2
_Open30
 10
81.2003235633
 20
106.8745518115
 30
0.0
 41
3.0
 42
3.0
 50
270.0
  0
INSERT
  5
1BF
330
1BB
100
AcDbEntity
  8
0
  6
Continuous
 62
     7
370
    18
100
AcDbBlockReference
  2
_Open30
 10
81.2003235633
 20
120.8745518115
 30
0.0
 41
3.0
 42
3.0
 50
90.0
  0
LINE
  5
1C0
330
1BB
100
AcDbEntity
  8
0
  6
Continuous
 62
     7
370
    18
100
AcDbLine
 10
88.9279733154
 20
106.8745518115
 30
0.0
 11
80.2003235633
 21
106.8745518115
 31
0.0
  0
LINE
  5
1C1
330
1BB
100
AcDbEntity
  8
0
  6
Continuous
 62
     7
370
    18
100
AcDbLine
 10
88.9279733154
 20
120.8745518115
 30
0.0
 11
80.2003235633
 21
120.8745518115
 31
0.0
  0
LINE
  5
1C2
330
1BB
100
AcDbEntity
  8
0
  6
Continuous
 62
     7
370
    18
100
AcDbLine
 10
81.2003235633
 20
106.8745518115
 30
0.0
 11
81.2003235633
 21
120.8745518115
 31
0.0
  0
LINE
  5
1C3
330
1BB
100
AcDbEntity
  8
0
  6
Continuous
 62
     7
370
    18
100
AcDbLine
 10
81.2003235633
 20
120.8745518115
 30
0.0
 11
81.2003235633
 21
129.5866101844
 31
0.0
  0
MTEXT
  5
1C4
330
1BB
100
AcDbEntity
  8
0
  6
Continuous
 62
     7
370
    18
100
AcDbMText
 10
78.1215355681
 20
122.7074434845
 30
0.0
 40
2.6458333333
 41
0.0
 71
     1
 72
     1
  1
%%c
  7
SLDTEXTSTYLE0
 11
6.123233995736766E-17
 21
1.0
 31
0.0
 73
     1
 44
1.0
  0
MTEXT
  5
1C5
330
1BB
100
AcDbEntity
  8
0
  6
Continuous
 62
     7
370
    18
100
AcDbMText
 10
78.1215355681
 20
126.0588324493
 30
0.0
 40
2.6458333333
 41
0.0
 71
     1
 72
     1
  1
14
  7
SLDTEXTSTYLE0
 11
6.123233995736766E-17
 21
1.0
 31
0.0
 73
     1
 44
1.0
  0
ENDBLK
  5
1BD
330
1BB
100
AcDbEntity
  8
0
100
AcDbBlockEnd
  0
BLOCK
  5
1C8
330
1C7
100
AcDbEntity
  8
0
100
AcDbBlockBegin
  2
_D_10
 70
     0
 10
0.0
 20
0.0
 30
0.0
  3
_D_10
  1

  0
INSERT
  5
1CA
330
1C7
100
AcDbEntity
  8
0
  6
Continuous
 62
     7
370
    18
100
AcDbBlockReference
  2
_Open30
 10
145.9279733154
 20
152.3015935466
 30
0.0
 41
3.0
 42
3.0
 50
180.0
  0
INSERT
  5
1CB
330
1C7
100
AcDbEntity
  8
0
  6
Continuous
 62
     7
370
    18
100
AcDbBlockReference
  2
_Open30
 10
262.0077002605
 20
152.3015935466
 30
0.0
 41
3.0
 42
3.0
 50
0.0
  0
LINE
  5
1CC
330
1C7
100
AcDbEntity
  8
0
  6
Continuous
 62
     7
370
    18
100
AcDbLine
 10
145.9279733154
 20
118.8745518115
 30
0.0
 11
145.9279733154
 21
153.3015935466
 31
0.0
  0
LINE
  5
1CD
330
1C7
100
AcDbEntity
  8
0
  6
Continuous
 62
     7
370
    18
100
AcDbLine
 10
262.0077002605
 20
126.501706743
 30
0.0
 11
262.0077002605
 21
153.3015935466
 31
0.0
  0
LINE
  5
1CE
330
1C7
100
AcDbEntity
  8
0
  6
Continuous
 62
     7
370
    18
100
AcDbLine
 10
145.9279733154
 20
152.3015935466
 30
0.0
 11
262.0077002605
 21
152.3015935466
 31
0.0
  0
MTEXT
  5
1CF
330
1C7
100
AcDbEntity
  8
0
  6
Continuous
 62
     7
370
    18
100
AcDbMText
 10
193.3159074839
 20
155.380381309
 30
0.0
 40
2.6458333333
 41
0.0
 71
     1
 72
     1
  1
L=100～10000
  7
SLDTEXTSTYLE1
 73
     1
 44
1.0
  0
ENDBLK
  5
1C9
330
1C7
100
AcDbEntity
  8
0
100
AcDbBlockEnd
  0
BLOCK
  5
1D2
330
1D1
100
AcDbEntity
  8
0
100
AcDbBlockBegin
  2
_D_11
 70
     0
 10
0.0
 20
0.0
 30
0.0
  3
_D_11
  1

  0
ARC
  5
1D4
330
1D1
100
AcDbEntity
  8
0
  6
Continuous
 62
     7
370
    18
100
AcDbCircle
 10
231.4512538321
 20
136.0654821814
 30
0.0
 40
3.944175412646004
100
AcDbArc
 50
153.4349488229
 51
206.5650511771
  0
ARC
  5
1D5
330
1D1
100
AcDbEntity
  8
0
  6
Continuous
 62
     7
370
    18
100
AcDbCircle
 10
227.923476097
 20
136.0654821814
 30
0.0
 40
3.944175412646004
100
AcDbArc
 50
333.4349488229
 51
26.5650511771
  0
INSERT
  5
1D6
330
1D1
100
AcDbEntity
  8
0
  6
Continuous
 62
     7
370
    18
100
AcDbBlockReference
  2
_Open30
 10
197.3670294939
 20
134.3015935466
 30
0.0
 41
3.0
 42
3.0
 50
180.0
  0
INSERT
  5
1D7
330
1D1
100
AcDbEntity
  8
0
  6
Continuous
 62
     7
370
    18
100
AcDbBlockReference
  2
_Open30
 10
262.0077002605
 20
134.3015935466
 30
0.0
 41
3.0
 42
3.0
 50
0.0
  0
LINE
  5
1D8
330
1D1
100
AcDbEntity
  8
0
  6
Continuous
 62
     7
370
    18
100
AcDbLine
 10
197.3670294939
 20
117.3745518115
 30
0.0
 11
197.3670294939
 21
135.3015935466
 31
0.0
  0
LINE
  5
1D9
330
1D1
100
AcDbEntity
  8
0
  6
Continuous
 62
     7
370
    18
100
AcDbLine
 10
262.0077002605
 20
126.501706743
 30
0.0
 11
262.0077002605
 21
135.3015935466
 31
0.0
  0
LINE
  5
1DA
330
1D1
100
AcDbEntity
  8
0
  6
Continuous
 62
     7
370
    18
100
AcDbLine
 10
197.3670294939
 20
134.3015935466
 30
0.0
 11
262.0077002605
 21
134.3015935466
 31
0.0
  0
MTEXT
  5
1DB
330
1D1
100
AcDbEntity
  8
0
  6
Continuous
 62
     7
370
    18
100
AcDbMText
 10
227.923476097
 20
137.3803810762
 30
0.0
 40
2.6458333333
 41
0.0
 71
     1
 72
     1
  1
80
  7
SLDTEXTSTYLE0
 73
     1
 44
1.0
  0
ENDBLK
  5
1D3
330
1D1
100
AcDbEntity
  8
0
100
AcDbBlockEnd
  0
BLOCK
  5
1DD
330
1DC
100
AcDbEntity
  8
0
100
AcDbBlockBegin
  2
SW_NOTE_0_2
 70
     0
 10
0.0
 20
0.0
 30
0.0
  3
SW_NOTE_0_2
  1

  0
LINE
  5
1DF
330
1DC
100
AcDbEntity
  8
0
  6
Continuous
 62
     0
370
    18
100
AcDbLine
 10
20.3663993407
 20
0.0
 30
0.0
 11
0.0
 21
0.0
 31
0.0
  0
MTEXT
  5
1E0
330
1DC
100
AcDbEntity
  8
0
  6
Continuous
 62
     0
370
    18
100
AcDbMText
 10
0.4355168068
 20
3.0057512404
 30
0.0
 40
2.6458333333
 41
0.0
 71
     1
 72
     1
  1
 先端120°形
  7
SLDTEXTSTYLE1
 73
     1
 44
1.0
  0
ENDBLK
  5
1DE
330
1DC
100
AcDbEntity
  8
0
100
AcDbBlockEnd
  0
BLOCK
  5
1E5
330
1E4
100
AcDbEntity
  8
0
100
AcDbBlockBegin
  2
SW_NOTE_0_3
 70
     0
 10
0.0
 20
0.0
 30
0.0
  3
SW_NOTE_0_3
  1

  0
LINE
  5
1E7
330
1E4
100
AcDbEntity
  8
0
  6
Continuous
 62
     0
370
    18
100
AcDbLine
 10
12.6199878532
 20
0.0
 30
0.0
 11
0.0
 21
0.0
 31
0.0
  0
MTEXT
  5
1E8
330
1E4
100
AcDbEntity
  8
0
  6
Continuous
 62
     0
370
    18
100
AcDbMText
 10
0.449184661
 20
3.0057512404
 30
0.0
 40
2.6458333333
 41
0.0
 71
     1
 72
     1
  1
 保護管 
  7
SLDTEXTSTYLE1
 73
     1
 44
1.0
  0
ENDBLK
  5
1E6
330
1E4
100
AcDbEntity
  8
0
100
AcDbBlockEnd
  0
BLOCK
  5
1EC
330
1EB
100
AcDbEntity
  8
0
100
AcDbBlockBegin
  2
SW_NOTE_0_4
 70
     0
 10
0.0
 20
0.0
 30
0.0
  3
SW_NOTE_0_4
  1

  0
LINE
  5
1EE
330
1EB
100
AcDbEntity
  8
0
  6
Continuous
 62
     0
370
    18
100
AcDbLine
 10
21.1846500415
 20
0.0
 30
0.0
 11
0.0
 21
0.0
 31
0.0
  0
MTEXT
  5
1EF
330
1EB
100
AcDbEntity
  8
0
  6
Continuous
 62
     0
370
    18
100
AcDbMText
 10
0.4640126858
 20
3.0057512404
 30
0.0
 40
2.6458333333
 41
0.0
 71
     1
 72
     1
  1
ﾊﾞｲﾖﾈｯﾄｷｬｯﾌﾟ
  7
SLDTEXTSTYLE1
 73
     1
 44
1.0
  0
ENDBLK
  5
1ED
330
1EB
100
AcDbEntity
  8
0
100
AcDbBlockEnd
  0
BLOCK
  5
1F3
330
1F2
100
AcDbEntity
  8
0
100
AcDbBlockBegin
  2
SW_NOTE_0_5
 70
     0
 10
0.0
 20
0.0
 30
0.0
  3
SW_NOTE_0_5
  1

  0
LINE
  5
1F5
330
1F2
100
AcDbEntity
  8
0
  6
Continuous
 62
     0
370
    18
100
AcDbLine
 10
12.806176931
 20
0.0
 30
0.0
 11
0.0
 21
0.0
 31
0.0
  0
MTEXT
  5
1F6
330
1F2
100
AcDbEntity
  8
0
  6
Continuous
 62
     0
370
    18
100
AcDbMText
 10
0.4004329257
 20
3.0889257654
 30
0.0
 40
2.6458333333
 41
0.0
 71
     1
 72
     1
  1
六角ｶｼﾒ
  7
SLDTEXTSTYLE1
 73
     1
 44
1.0
  0
ENDBLK
  5
1F4
330
1F2
100
AcDbEntity
  8
0
100
AcDbBlockEnd
  0
BLOCK
  5
1FA
330
1F9
100
AcDbEntity
  8
0
100
AcDbBlockBegin
  2
SW_NOTE_0_6
 70
     0
 10
0.0
 20
0.0
 30
0.0
  3
SW_NOTE_0_6
  1

  0
LINE
  5
1FC
330
1F9
100
AcDbEntity
  8
0
  6
Continuous
 62
     0
370
    18
100
AcDbLine
 10
9.0089168179
 20
0.0
 30
0.0
 11
0.0
 21
0.0
 31
0.0
  0
MTEXT
  5
1FD
330
1F9
100
AcDbEntity
  8
0
  6
Continuous
 62
     0
370
    18
100
AcDbMText
 10
0.4984402547
 20
3.0889257654
 30
0.0
 40
2.6458333333
 41
0.0
 71
     1
 72
     1
  1
ｽﾘｰﾌﾞ
  7
SLDTEXTSTYLE1
 73
     1
 44
1.0
  0
ENDBLK
  5
1FB
330
1F9
100
AcDbEntity
  8
0
100
AcDbBlockEnd
  0
BLOCK
  5
201
330
200
100
AcDbEntity
  8
0
100
AcDbBlockBegin
  2
SW_NOTE_0_7
 70
     0
 10
0.0
 20
0.0
 30
0.0
  3
SW_NOTE_0_7
  1

  0
LINE
  5
203
330
200
100
AcDbEntity
  8
0
  6
Continuous
 62
     0
370
    18
100
AcDbLine
 10
24.638929196
 20
0.0
 30
0.0
 11
0.0
 21
0.0
 31
0.0
  0
MTEXT
  5
204
330
200
100
AcDbEntity
  8
0
  6
Continuous
 62
     0
370
    18
100
AcDbMText
 10
0.4743165633
 20
6.5602128516
 30
0.0
 40
2.6458333333
 41
0.0
 71
     1
 72
     1
  1
ｽﾘｰﾌﾞ内
  7
SLDTEXTSTYLE1
 73
     1
 44
1.0
  0
MTEXT
  5
205
330
200
100
AcDbEntity
  8
0
  6
Continuous
 62
     0
370
    18
100
AcDbMText
 10
0.4743165633
 20
3.0324351165
 30
0.0
 40
2.6458333333
 41
0.0
 71
     1
 72
     1
  1
 ｴﾎﾟｷｼ樹脂充填
  7
SLDTEXTSTYLE1
 73
     1
 44
1.0
  0
ENDBLK
  5
202
330
200
100
AcDbEntity
  8
0
100
AcDbBlockEnd
  0
BLOCK
  5
209
330
208
100
AcDbEntity
  8
0
100
AcDbBlockBegin
  2
SW_NOTE_0_8
 70
     0
 10
0.0
 20
0.0
 30
0.0
  3
SW_NOTE_0_8
  1

  0
LINE
  5
20B
330
208
100
AcDbEntity
  8
0
  6
Continuous
 62
     0
370
    18
100
AcDbLine
 10
14.2809849012
 20
0.0
 30
0.0
 11
0.0
 21
0.0
 31
0.0
  0
MTEXT
  5
20C
330
208
100
AcDbEntity
  8
0
  6
Continuous
 62
     0
370
    18
100
AcDbMText
 10
0.438088053
 20
3.0057514733
 30
0.0
 40
2.6458333333
 41
0.0
 71
     1
 72
     1
  1
  ﾘｰﾄﾞ線  
  7
SLDTEXTSTYLE1
 73
     1
 44
1.0
  0
ENDBLK
  5
20A
330
208
100
AcDbEntity
  8
0
100
AcDbBlockEnd
  0
BLOCK
  5
210
330
20F
100
AcDbEntity
  8
0
100
AcDbBlockBegin
  2
SW_NOTE_0_9
 70
     0
 10
0.0
 20
0.0
 30
0.0
  3
SW_NOTE_0_9
  1

  0
LINE
  5
212
330
20F
100
AcDbEntity
  8
0
  6
Continuous
 62
     0
370
    18
100
AcDbLine
 10
19.4452579844
 20
0.0
 30
0.0
 11
0.0
 21
0.0
 31
0.0
  0
MTEXT
  5
213
330
20F
100
AcDbEntity
  8
0
  6
Continuous
 62
     0
370
    18
100
AcDbMText
 10
0.4074337682
 20
3.0889257654
 30
0.0
 40
2.6458333333
 41
0.0
 71
     1
 72
     1
  1
熱収縮ﾁｭｰﾌﾞ
  7
SLDTEXTSTYLE1
 73
     1
 44
1.0
  0
ENDBLK
  5
211
330
20F
100
AcDbEntity
  8
0
100
AcDbBlockEnd
  0
BLOCK
  5
217
330
216
100
AcDbEntity
  8
0
100
AcDbBlockBegin
  2
SW_NOTE_0_10
 70
     0
 10
0.0
 20
0.0
 30
0.0
  3
SW_NOTE_0_10
  1

  0
LINE
  5
219
330
216
100
AcDbEntity
  8
0
  6
Continuous
 62
     0
370
    18
100
AcDbLine
 10
-13.470867857
 20
0.0
 30
0.0
 11
0.0
 21
0.0
 31
0.0
  0
MTEXT
  5
21A
330
216
100
AcDbEntity
  8
0
  6
Continuous
 62
     0
370
    18
100
AcDbMText
 10
-13.9167470766
 20
3.0057514733
 30
0.0
 40
2.6458333333
 41
0.0
 71
     1
 72
     1
  1
Yﾗｸﾞ(M3)
  7
SLDTEXTSTYLE1
 73
     1
 44
1.0
  0
ENDBLK
  5
218
330
216
100
AcDbEntity
  8
0
100
AcDbBlockEnd
  0
BLOCK
  5
226
330
225
100
AcDbEntity
  8
0
100
AcDbBlockBegin
  2
SW_NOTE_0_11
 70
     0
 10
0.0
 20
0.0
 30
0.0
  3
SW_NOTE_0_11
  1

  0
LINE
  5
228
330
225
100
AcDbEntity
  8
0
  6
Continuous
 62
     0
370
    18
100
AcDbLine
 10
13.5950267095
 20
0.0
 30
0.0
 11
0.0
 21
0.0
 31
0.0
  0
MTEXT
  5
229
330
225
100
AcDbEntity
  8
0
  6
Continuous
 62
     0
370
    18
100
AcDbMText
 10
0.4804703579
 20
3.0889257654
 30
0.0
 40
2.6458333333
 41
0.0
 71
     1
 72
     1
  1
 ｽﾌﾟﾘﾝｸﾞ 
  7
SLDTEXTSTYLE1
 73
     1
 44
1.0
  0
ENDBLK
  5
227
330
225
100
AcDbEntity
  8
0
100
AcDbBlockEnd
  0
BLOCK
  5
22D
330
22C
100
AcDbEntity
  8
0
100
AcDbBlockBegin
  2
SW_CENTERMARKSYMBOL_0
 70
     0
 10
0.0
 20
0.0
 30
0.0
  3
SW_CENTERMARKSYMBOL_0
  1

  0
LINE
  5
22F
330
22C
100
AcDbEntity
  8
0
  6
Continuous
 62
     0
370
    18
100
AcDbLine
 10
0.0
 20
0.0
 30
0.0
 11
0.0
 21
2.4999999441
 31
0.0
  0
LINE
  5
230
330
22C
100
AcDbEntity
  8
0
  6
Continuous
 62
     0
370
    18
100
AcDbLine
 10
0.0
 20
0.0
 30
0.0
 11
-2.4999976158
 21
0.0
 31
0.0
  0
LINE
  5
231
330
22C
100
AcDbEntity
  8
0
  6
Continuous
 62
     0
370
    18
100
AcDbLine
 10
0.0
 20
0.0
 30
0.0
 11
0.0
 21
-2.4999999441
 31
0.0
  0
LINE
  5
232
330
22C
100
AcDbEntity
  8
0
  6
Continuous
 62
     0
370
    18
100
AcDbLine
 10
0.0
 20
0.0
 30
0.0
 11
2.4999976158
 21
0.0
 31
0.0
  0
LINE
  5
233
330
22C
100
AcDbEntity
  8
0
  6
Continuous
 62
     0
370
    18
100
AcDbLine
 10
0.0
 20
2.4999999441
 30
0.0
 11
0.0
 21
4.1001136415
 31
0.0
  0
LINE
  5
234
330
22C
100
AcDbEntity
  8
0
  6
Continuous
 62
     0
370
    18
100
AcDbLine
 10
-2.4999976158
 20
0.0
 30
0.0
 11
-15.218436718
 21
0.0
 31
0.0
  0
LINE
  5
235
330
22C
100
AcDbEntity
  8
0
  6
Continuous
 62
     0
370
    18
100
AcDbLine
 10
0.0
 20
-2.4999999441
 30
0.0
 11
0.0
 21
-4.1001131758
 31
0.0
  0
LINE
  5
236
330
22C
100
AcDbEntity
  8
0
  6
Continuous
 62
     0
370
    18
100
AcDbLine
 10
2.4999976158
 20
0.0
 30
0.0
 11
4.9100369215
 21
0.0
 31
0.0
  0
ENDBLK
  5
22E
330
22C
100
AcDbEntity
  8
0
100
AcDbBlockEnd
  0
BLOCK
  5
239
330
238
100
AcDbEntity
  8
0
100
AcDbBlockBegin
  2
SW_CENTERMARKSYMBOL_1
 70
     0
 10
0.0
 20
0.0
 30
0.0
  3
SW_CENTERMARKSYMBOL_1
  1

  0
LINE
  5
23B
330
238
100
AcDbEntity
  8
0
  6
Continuous
 62
     0
370
    18
100
AcDbLine
 10
0.0
 20
0.0
 30
0.0
 11
0.0
 21
2.4999999441
 31
0.0
  0
LINE
  5
23C
330
238
100
AcDbEntity
  8
0
  6
Continuous
 62
     0
370
    18
100
AcDbLine
 10
0.0
 20
0.0
 30
0.0
 11
-2.4999976158
 21
0.0
 31
0.0
  0
LINE
  5
23D
330
238
100
AcDbEntity
  8
0
  6
Continuous
 62
     0
370
    18
100
AcDbLine
 10
0.0
 20
0.0
 30
0.0
 11
0.0
 21
-2.4999999441
 31
0.0
  0
LINE
  5
23E
330
238
100
AcDbEntity
  8
0
  6
Continuous
 62
     0
370
    18
100
AcDbLine
 10
0.0
 20
0.0
 30
0.0
 11
2.4999976158
 21
0.0
 31
0.0
  0
LINE
  5
23F
330
238
100
AcDbEntity
  8
0
  6
Continuous
 62
     0
370
    18
100
AcDbLine
 10
0.0
 20
2.4999999441
 30
0.0
 11
0.0
 21
4.1001131758
 31
0.0
  0
LINE
  5
240
330
238
100
AcDbEntity
  8
0
  6
Continuous
 62
     0
370
    18
100
AcDbLine
 10
-2.4999976158
 20
0.0
 30
0.0
 11
-15.2788758278
 21
0.0
 31
0.0
  0
LINE
  5
241
330
238
100
AcDbEntity
  8
0
  6
Continuous
 62
     0
370
    18
100
AcDbLine
 10
0.0
 20
-2.4999999441
 30
0.0
 11
0.0
 21
-4.1001136415
 31
0.0
  0
LINE
  5
242
330
238
100
AcDbEntity
  8
0
  6
Continuous
 62
     0
370
    18
100
AcDbLine
 10
2.4999976158
 20
0.0
 30
0.0
 11
4.9704909325
 21
0.0
 31
0.0
  0
ENDBLK
  5
23A
330
238
100
AcDbEntity
  8
0
100
AcDbBlockEnd
  0
ENDSEC
  0
SECTION
  2
ENTITIES
  0
LINE
  5
73
330
1F
100
AcDbEntity
  8
0
  6
Continuous
 62
     7
370
    25
100
AcDbLine
 10
12.8700158558
 20
190.0085404097
 30
0.0
 11
12.8700749558
 21
18.0082352097
 31
0.0
  0
LINE
  5
74
330
1F
100
AcDbEntity
  8
0
  6
Continuous
 62
     7
370
    25
100
AcDbLine
 10
12.8700749558
 20
18.0082352097
 30
0.0
 11
282.5707921135
 21
18.0082352097
 31
0.0
  0
LINE
  5
75
330
1F
100
AcDbEntity
  8
0
  6
Continuous
 62
     7
370
    25
100
AcDbLine
 10
12.8700158558
 20
190.0085404097
 30
0.0
 11
282.5707921135
 21
190.0085404097
 31
0.0
  0
LINE
  5
76
330
1F
100
AcDbEntity
  8
0
  6
Continuous
 62
     7
370
    25
100
AcDbLine
 10
282.5707921135
 20
18.0082352097
 30
0.0
 11
282.5707921135
 21
190.0085404097
 31
0.0
  0
MTEXT
  5
78
330
1F
100
AcDbEntity
  8
0
  6
Continuous
 62
     7
370
    18
100
AcDbMText
 10
161.3643284109
 20
31.5478065774
 30
0.0
 40
4.7625
 41
0.0
 71
     1
 72
     1
  1
RKC INSTRUMENT INC.
  7
SLDTEXTSTYLE0
 73
     1
 44
1.0
  0
INSERT
  5
7F
330
1F
100
AcDbEntity
  8
0
  6
Continuous
 62
     7
370
    18
100
AcDbBlockReference
  2
SW_NOTE_0
 10
161.3643284109
 20
41.704906709
 30
0.0
  0
INSERT
  5
85
330
1F
100
AcDbEntity
  8
0
  6
Continuous
 62
     7
370
    18
100
AcDbBlockReference
  2
SW_NOTE_0_1
 10
54.8322532369
 20
65.438559022
 30
0.0
  0
INSERT
  5
8C
330
1F
100
AcDbEntity
  8
0
  6
Continuous
 62
     7
100
AcDbBlockReference
  2
SW_BROKEN_VIEW_0
 10
101.9279733029
 20
120.2745516498
 30
0.0
  0
LINE
  5
8D
330
1F
100
AcDbEntity
  8
0
  6
Continuous
 62
     7
370
    25
100
AcDbLine
 10
255.7267297839
 20
108.59751
 30
0.0
 11
246.726726446
 21
108.59751
 31
0.0
  0
LINE
  5
8E
330
1F
100
AcDbEntity
  8
0
  6
Continuous
 62
     7
370
    25
100
AcDbLine
 10
246.726726446
 20
104.0975097281
 30
0.0
 11
255.7267297839
 21
104.0975097281
 31
0.0
  0
LINE
  5
8F
330
1F
100
AcDbEntity
  8
0
  6
Continuous
 62
     7
370
    25
100
AcDbLine
 10
255.7267297839
 20
123.6515938949
 30
0.0
 11
246.726726446
 21
123.6515938949
 31
0.0
  0
LINE
  5
90
330
1F
100
AcDbEntity
  8
0
  6
Continuous
 62
     7
370
    25
100
AcDbLine
 10
246.726726446
 20
119.151593623
 30
0.0
 11
255.7267297839
 21
119.151593623
 31
0.0
  0
LINE
  5
91
330
1F
100
AcDbEntity
  8
0
  6
Continuous
 62
     7
370
    25
100
AcDbLine
 10
230.8100809191
 20
118.7896537308
 30
0.0
 11
246.726726446
 21
121.0265936975
 31
0.0
  0
LINE
  5
92
330
1F
100
AcDbEntity
  8
0
  6
Continuous
 62
     7
370
    25
100
AcDbLine
 10
246.7264284228
 20
121.7765519109
 30
0.0
 11
230.8629651402
 21
119.5470867392
 31
0.0
  0
LINE
  5
93
330
1F
100
AcDbEntity
  8
0
  6
Continuous
 62
     7
370
    25
100
AcDbLine
 10
246.726726446
 20
106.7225099255
 30
0.0
 11
232.5751383637
 21
108.7113856052
 31
0.0
  0
LINE
  5
94
330
1F
100
AcDbEntity
  8
0
  6
Continuous
 62
     7
370
    25
100
AcDbLine
 10
232.508053336
 20
107.9708146576
 30
0.0
 11
246.7264284228
 21
105.9725517121
 31
0.0
  0
LINE
  5
95
330
1F
100
AcDbEntity
  8
0
  6
Continuous
 62
     7
370
    25
100
AcDbLine
 10
246.726726446
 20
106.3475100969
 30
0.0
 11
246.726726446
 21
108.59751
 31
0.0
  0
LINE
  5
96
330
1F
100
AcDbEntity
  8
0
  6
Continuous
 62
     7
370
    25
100
AcDbLine
 10
246.726726446
 20
104.0975097281
 30
0.0
 11
246.726726446
 21
106.3475100969
 31
0.0
  0
LINE
  5
97
330
1F
100
AcDbEntity
  8
0
  6
Continuous
 62
     7
370
    25
100
AcDbLine
 10
255.7267297839
 20
106.3475100969
 30
0.0
 11
255.7267297839
 21
108.59751
 31
0.0
  0
LINE
  5
98
330
1F
100
AcDbEntity
  8
0
  6
Continuous
 62
     7
370
    25
100
AcDbLine
 10
255.7267297839
 20
104.0975097281
 30
0.0
 11
255.7267297839
 21
106.3475100969
 31
0.0
  0
LINE
  5
99
330
1F
100
AcDbEntity
  8
0
  6
Continuous
 62
     7
370
    25
100
AcDbLine
 10
255.7267297839
 20
121.4015935261
 30
0.0
 11
255.7267297839
 21
123.6515938949
 31
0.0
  0
LINE
  5
9A
330
1F
100
AcDbEntity
  8
0
  6
Continuous
 62
     7
370
    25
100
AcDbLine
 10
255.7267297839
 20
119.151593623
 30
0.0
 11
255.7267297839
 21
121.4015935261
 31
0.0
  0
LINE
  5
9B
330
1F
100
AcDbEntity
  8
0
  6
Continuous
 62
     7
370
    25
100
AcDbLine
 10
246.726726446
 20
121.4015935261
 30
0.0
 11
246.726726446
 21
123.6515938949
 31
0.0
  0
LINE
  5
9C
330
1F
100
AcDbEntity
  8
0
  6
Continuous
 62
     7
370
    25
100
AcDbLine
 10
246.726726446
 20
119.151593623
 30
0.0
 11
246.726726446
 21
121.4015935261
 31
0.0
  0
ARC
  5
9D
330
1F
100
AcDbEntity
  8
0
  6
Continuous
 62
     7
370
    25
100
AcDbCircle
 10
258.3196247095
 20
105.4475654526
 30
0.0
 40
2.000055551813086
100
AcDbArc
 50
236.9765891297
 51
269.9994736921
  0
LINE
  5
9E
330
1F
100
AcDbEntity
  8
0
  6
Continuous
 62
     7
370
    25
100
AcDbLine
 10
257.2296310996
 20
103.770622955
 30
0.0
 11
255.7267297839
 21
104.7475104865
 31
0.0
  0
LINE
  5
9F
330
1F
100
AcDbEntity
  8
0
  6
Continuous
 62
     7
370
    25
100
AcDbLine
 10
255.7267297839
 20
107.9475101729
 30
0.0
 11
257.2296310996
 21
108.9243972388
 31
0.0
  0
ARC
  5
A0
330
1F
100
AcDbEntity
  8
0
  6
Continuous
 62
     7
370
    25
100
AcDbCircle
 10
258.3196277867
 20
107.2474443609
 30
0.0
 40
2.000065932052553
100
AcDbArc
 50
90.0006144552
 51
123.0233227231
  0
LINE
  5
A1
330
1F
100
AcDbEntity
  8
0
  6
Continuous
 62
     7
370
    25
100
AcDbLine
 10
258.3196063374
 20
109.2475102928
 30
0.0
 11
266.4267320966
 21
109.2475102928
 31
0.0
  0
ARC
  5
A2
330
1F
100
AcDbEntity
  8
0
  6
Continuous
 62
     7
370
    25
100
AcDbCircle
 10
266.4267300513
 20
108.9475031692
 30
0.0
 40
0.3000071236571059
100
AcDbArc
 50
0.0012799472
 51
89.9996093921
  0
LINE
  5
A3
330
1F
100
AcDbEntity
  8
0
  6
Continuous
 62
     7
370
    25
100
AcDbLine
 10
266.7267371749
 20
108.9475098711
 30
0.0
 11
266.7267371749
 21
108.2475101289
 31
0.0
  0
ARC
  5
A4
330
1F
100
AcDbEntity
  8
0
  6
Continuous
 62
     7
370
    25
100
AcDbCircle
 10
266.4267300513
 20
108.2475172965
 30
0.0
 40
0.3000071236754933
100
AcDbArc
 50
270.0003906093
 51
359.9986311166
  0
LINE
  5
A5
330
1F
100
AcDbEntity
  8
0
  6
Continuous
 62
     7
370
    25
100
AcDbLine
 10
262.0267321204
 20
107.9475101729
 30
0.0
 11
266.4267320966
 21
107.9475101729
 31
0.0
  0
ARC
  5
A6
330
1F
100
AcDbEntity
  8
0
  6
Continuous
 62
     7
370
    25
100
AcDbCircle
 10
262.0076998811
 20
106.3475103297
 30
0.0
 40
1.600113034839278
100
AcDbArc
 50
89.3184902079
 51
270.6815097921
  0
LINE
  5
A7
330
1F
100
AcDbEntity
  8
0
  6
Continuous
 62
     7
370
    25
100
AcDbLine
 10
266.4267320966
 20
104.7475104865
 30
0.0
 11
262.0267321204
 21
104.7475104865
 31
0.0
  0
ARC
  5
A8
330
1F
100
AcDbEntity
  8
0
  6
Continuous
 62
     7
370
    25
100
AcDbCircle
 10
266.4267292563
 20
104.4475025679
 30
0.0
 40
0.3000079186412147
100
AcDbArc
 50
0.0014317694
 51
89.99945757
  0
LINE
  5
A9
330
1F
100
AcDbEntity
  8
0
  6
Continuous
 62
     7
370
    25
100
AcDbLine
 10
266.7267371749
 20
104.4475100648
 30
0.0
 11
266.7267371749
 21
103.7475103226
 31
0.0
  0
ARC
  5
AA
330
1F
100
AcDbEntity
  8
0
  6
Continuous
 62
     7
370
    25
100
AcDbCircle
 10
266.4267292563
 20
103.7475178195
 30
0.0
 40
0.3000079186412147
100
AcDbArc
 50
270.00054243
 51
359.9985682306
  0
LINE
  5
AB
330
1F
100
AcDbEntity
  8
0
  6
Continuous
 62
     7
370
    25
100
AcDbLine
 10
266.4267320966
 20
103.4475099009
 30
0.0
 11
258.3196063374
 21
103.4475099009
 31
0.0
  0
LINE
  5
AC
330
1F
100
AcDbEntity
  8
0
  6
Continuous
 62
     7
370
    25
100
AcDbLine
 10
257.2296310996
 20
118.8247063842
 30
0.0
 11
255.7267297839
 21
119.8015934501
 31
0.0
  0
LINE
  5
AD
330
1F
100
AcDbEntity
  8
0
  6
Continuous
 62
     7
370
    25
100
AcDbLine
 10
266.7267371749
 20
124.0015933004
 30
0.0
 11
266.7267371749
 21
123.3015935582
 31
0.0
  0
LINE
  5
AE
330
1F
100
AcDbEntity
  8
0
  6
Continuous
 62
     7
370
    25
100
AcDbLine
 10
262.0267321204
 20
123.0015931365
 30
0.0
 11
266.4267320966
 21
123.0015931365
 31
0.0
  0
ARC
  5
AF
330
1F
100
AcDbEntity
  8
0
  6
Continuous
 62
     7
370
    25
100
AcDbCircle
 10
262.0076998811
 20
121.4015932933
 30
0.0
 40
1.600113034839278
100
AcDbArc
 50
89.3184902079
 51
270.6815097921
  0
LINE
  5
B0
330
1F
100
AcDbEntity
  8
0
  6
Continuous
 62
     7
370
    25
100
AcDbLine
 10
266.4267320966
 20
119.8015934501
 30
0.0
 11
262.0267321204
 21
119.8015934501
 31
0.0
  0
ARC
  5
B1
330
1F
100
AcDbEntity
  8
0
  6
Continuous
 62
     7
370
    25
100
AcDbCircle
 10
266.4267292563
 20
124.0015858035
 30
0.0
 40
0.3000079186412147
100
AcDbArc
 50
0.0014317694
 51
89.99945757
  0
ARC
  5
B2
330
1F
100
AcDbEntity
  8
0
  6
Continuous
 62
     7
370
    25
100
AcDbCircle
 10
266.4267292563
 20
123.3016010551
 30
0.0
 40
0.3000079186412289
100
AcDbArc
 50
270.00054243
 51
359.9985682306
  0
ARC
  5
B3
330
1F
100
AcDbEntity
  8
0
  6
Continuous
 62
     7
370
    25
100
AcDbCircle
 10
266.4267300513
 20
119.5015863265
 30
0.0
 40
0.3000071236754648
100
AcDbArc
 50
0.0013688834
 51
89.9996093907
  0
ARC
  5
B4
330
1F
100
AcDbEntity
  8
0
  6
Continuous
 62
     7
370
    25
100
AcDbCircle
 10
258.3196247095
 20
122.3015381704
 30
0.0
 40
2.000055551812936
100
AcDbArc
 50
90.0005263079
 51
123.0234108703
  0
ARC
  5
B5
330
1F
100
AcDbEntity
  8
0
  6
Continuous
 62
     7
370
    25
100
AcDbCircle
 10
258.3196277867
 20
120.5016592621
 30
0.0
 40
2.000065932052669
100
AcDbArc
 50
236.9766772769
 51
269.9993855448
  0
ARC
  5
B6
330
1F
100
AcDbEntity
  8
0
  6
Continuous
 62
     7
370
    25
100
AcDbCircle
 10
266.4267300513
 20
118.8016004538
 30
0.0
 40
0.3000071236571059
100
AcDbArc
 50
270.0003906079
 51
359.9987200528
  0
LINE
  5
B7
330
1F
100
AcDbEntity
  8
0
  6
Continuous
 62
     7
370
    25
100
AcDbLine
 10
266.4267320966
 20
118.5015933302
 30
0.0
 11
258.3196063374
 21
118.5015933302
 31
0.0
  0
LINE
  5
B8
330
1F
100
AcDbEntity
  8
0
  6
Continuous
 62
     7
370
    25
100
AcDbLine
 10
266.7267371749
 20
119.5015934941
 30
0.0
 11
266.7267371749
 21
118.8015937519
 31
0.0
  0
LINE
  5
B9
330
1F
100
AcDbEntity
  8
0
  6
Continuous
 62
     7
370
    25
100
AcDbLine
 10
255.7267297839
 20
123.0015931365
 30
0.0
 11
257.2296310996
 21
123.9784806681
 31
0.0
  0
LINE
  5
BA
330
1F
100
AcDbEntity
  8
0
  6
Continuous
 62
     7
370
    25
100
AcDbLine
 10
258.3196063374
 20
124.3015937221
 30
0.0
 11
266.4267320966
 21
124.3015937221
 31
0.0
  0
LINE
  5
BB
330
1F
100
AcDbEntity
  8
0
  6
Continuous
 62
     7
370
    25
100
AcDbLine
 10
187.3670322233
 20
116.2745519255
 30
0.0
 11
165.0986400776
 21
116.2745519255
 31
0.0
  0
LINE
  5
BC
330
1F
100
AcDbEntity
  8
0
  6
Continuous
 62
     7
370
    25
100
AcDbLine
 10
166.1929068499
 20
111.4745516975
 30
0.0
 11
187.3670322233
 21
111.4745516975
 31
0.0
  0
LINE
  5
BD
330
1F
100
AcDbEntity
  8
0
  6
Continuous
 62
     7
370
    25
100
AcDbLine
 10
187.3670322233
 20
111.3745518674
 30
0.0
 11
197.3670226865
 21
111.3745518674
 31
0.0
  0
LINE
  5
BE
330
1F
100
AcDbEntity
  8
0
  6
Continuous
 62
     7
370
    25
100
AcDbLine
 10
197.3670226865
 20
116.3745517556
 30
0.0
 11
187.3670322233
 21
116.3745517556
 31
0.0
  0
LINE
  5
BF
330
1F
100
AcDbEntity
  8
0
  6
Continuous
 62
     7
370
    25
100
AcDbLine
 10
197.3670226865
 20
111.3745518674
 30
0.0
 11
198.3670247131
 21
112.2945517714
 31
0.0
  0
LINE
  5
C0
330
1F
100
AcDbEntity
  8
0
  6
Continuous
 62
     7
370
    25
100
AcDbLine
 10
198.3670247131
 20
115.4545518516
 30
0.0
 11
197.3670226865
 21
116.3745517556
 31
0.0
  0
LINE
  5
C1
330
1F
100
AcDbEntity
  8
0
  6
Continuous
 62
     7
370
    25
100
AcDbLine
 10
198.3670247131
 20
112.2945517714
 30
0.0
 11
206.3670260244
 21
112.2945517714
 31
0.0
  0
LINE
  5
C2
330
1F
100
AcDbEntity
  8
0
  6
Continuous
 62
     7
370
    25
100
AcDbLine
 10
206.3670260244
 20
115.4545518516
 30
0.0
 11
198.3670247131
 21
115.4545518516
 31
0.0
  0
LINE
  5
C3
330
1F
100
AcDbEntity
  8
0
  6
Continuous
 62
     7
370
    25
100
AcDbLine
 10
206.3677710824
 20
113.9996567659
 30
0.0
 11
227.9896092944
 21
117.0384075672
 31
0.0
  0
LINE
  5
C4
330
1F
100
AcDbEntity
  8
0
  6
Continuous
 62
     7
370
    25
100
AcDbLine
 10
227.9851389461
 20
117.7877792802
 30
0.0
 11
206.3670260244
 21
114.7495518385
 31
0.0
  0
LINE
  5
C5
330
1F
100
AcDbEntity
  8
0
  6
Continuous
 62
     7
370
    25
100
AcDbLine
 10
229.4145477348
 20
110.5104325984
 30
0.0
 11
206.3677710824
 21
113.7494468572
 31
0.0
  0
LINE
  5
C6
330
1F
100
AcDbEntity
  8
0
  6
Continuous
 62
     7
370
    25
100
AcDbLine
 10
206.3670260244
 20
112.9995517845
 30
0.0
 11
229.4029993348
 21
109.7620557707
 31
0.0
  0
LINE
  5
C7
330
1F
100
AcDbEntity
  8
0
  6
Continuous
 62
     7
370
    25
100
AcDbLine
 10
187.3670322233
 20
113.8745518115
 30
0.0
 11
187.3670322233
 21
116.3745517556
 31
0.0
  0
LINE
  5
C8
330
1F
100
AcDbEntity
  8
0
  6
Continuous
 62
     7
370
    25
100
AcDbLine
 10
187.3670322233
 20
111.3745518674
 30
0.0
 11
187.3670322233
 21
113.8745518115
 31
0.0
  0
LINE
  5
C9
330
1F
100
AcDbEntity
  8
0
  6
Continuous
 62
     7
370
    25
100
AcDbLine
 10
206.3670260244
 20
113.8745518115
 30
0.0
 11
206.3670260244
 21
115.4545518516
 31
0.0
  0
LINE
  5
CA
330
1F
100
AcDbEntity
  8
0
  6
Continuous
 62
     7
370
    25
100
AcDbLine
 10
206.3670260244
 20
112.2945517714
 30
0.0
 11
206.3670260244
 21
113.8745518115
 31
0.0
  0
LINE
  5
CB
330
1F
100
AcDbEntity
  8
0
  6
Continuous
 62
     7
370
    25
100
AcDbLine
 10
162.0986386863
 20
116.2745519255
 30
0.0
 11
145.9279730645
 21
116.2745519255
 31
0.0
  0
LINE
  5
CC
330
1F
100
AcDbEntity
  8
0
  6
Continuous
 62
     7
370
    25
100
AcDbLine
 10
145.9279730645
 20
111.4745516975
 30
0.0
 11
163.1929054585
 21
111.4745516975
 31
0.0
  0
SPLINE
  5
CD
330
1F
100
AcDbEntity
  8
0
  6
Continuous
 62
     7
370
    25
100
AcDbSpline
210
0.0
220
0.0
230
1.0
 70
     8
 71
     3
 72
     9
 73
     5
 74
     0
 42
0.00000001
 43
0.00000001
 40
0.0
 40
0.0
 40
0.0
 40
0.0
 40
0.024126288390707
 40
1.0
 40
1.0
 40
1.0
 40
1.0
 10
74.4379982081201
 20
115.7429503223546
 30
0.0
 10
74.4387400779787
 20
115.7392681936301
 30
0.0
 10
74.46948951803175
 20
115.5866492468275
 30
0.0
 10
74.49107084014622
 20
115.4323772447765
 30
0.0
 10
74.5121314850595
 20
115.2818272535376
 30
0.0
  0
SPLINE
  5
CE
330
1F
100
AcDbEntity
  8
0
  6
Continuous
 62
     7
370
    25
100
AcDbSpline
210
0.0
220
0.0
230
1.0
 70
     8
 71
     3
 72
    11
 73
     7
 74
     0
 42
0.00000001
 43
0.00000001
 40
0.0
 40
0.0
 40
0.0
 40
0.0
 40
0.128047916635365
 40
0.3562910103571064
 40
0.8499584207726638
 40
1.0
 40
1.0
 40
1.0
 40
1.0
 10
75.48490909011626
 20
110.7145060964547
 30
0.0
 10
75.53248618326126
 20
110.6945508242764
 30
0.0
 10
75.66486858378678
 20
110.6390256406329
 30
0.0
 10
75.99814355264253
 20
110.8232469314448
 30
0.0
 10
76.08882537102129
 20
111.1737051152177
 30
0.0
 10
76.14261146475303
 20
111.4176830814954
 30
0.0
 10
76.15514841945433
 20
111.4745516975097
 30
0.0
  0
SPLINE
  5
CF
330
1F
100
AcDbEntity
  8
0
  6
Continuous
 62
     7
370
    25
100
AcDbSpline
210
0.0
220
0.0
230
1.0
 70
     8
 71
     3
 72
    23
 73
    19
 74
     0
 42
0.00000001
 43
0.00000001
 40
0.0
 40
0.0
 40
0.0
 40
0.0
 40
0.000665724366466
 40
0.0153746861699715
 40
0.0606503651284707
 40
0.1291082951373029
 40
0.2135620128034748
 40
0.3081945678530537
 40
0.4087545615878153
 40
0.5114365903393565
 40
0.6096594621097371
 40
0.6959016654884974
 40
0.8078024786927708
 40
0.8404187951584596
 40
0.8644012881035317
 40
0.8912197365769858
 40
0.9272888339687398
 40
1.0
 40
1.0
 40
1.0
 40
1.0
 10
76.71961930663848
 20
116.4990002003185
 30
0.0
 10
76.71800977619135
 20
116.4993101223768
 30
0.0
 10
76.68083819775443
 20
116.5064676707899
 30
0.0
 10
76.81766889988702
 20
116.2705023913126
 30
0.0
 10
76.79958739527324
 20
116.0630145765068
 30
0.0
 10
76.92790910207091
 20
115.5512291158266
 30
0.0
 10
77.00032252283907
 20
114.9851348704391
 30
0.0
 10
77.0973134805872
 20
114.3190532198624
 30
0.0
 10
77.18924325989069
 20
113.6164329604232
 30
0.0
 10
77.28715828890442
 20
112.904474330552
 30
0.0
 10
77.3843289806701
 20
112.2243848166334
 30
0.0
 10
77.51662226799955
 20
111.538255549284
 30
0.0
 10
77.6146534301944
 20
110.9680493748273
 30
0.0
 10
77.9243478375275
 20
110.6777505055724
 30
0.0
 10
78.13434785785503
 20
110.6598754588222
 30
0.0
 10
78.32746286728113
 20
110.7607635184496
 30
0.0
 10
78.49860714577254
 20
111.0480064001018
 30
0.0
 10
78.5480431385884
 20
111.3036642565273
 30
0.0
 10
78.58108726413512
 20
111.4745516975097
 30
0.0
  0
SPLINE
  5
D0
330
1F
100
AcDbEntity
  8
0
  6
Continuous
 62
     7
370
    25
100
AcDbSpline
210
0.0
220
0.0
230
1.0
 70
     8
 71
     3
 72
    22
 73
    18
 74
     0
 42
0.00000001
 43
0.00000001
 40
0.0
 40
0.0
 40
0.0
 40
0.0
 40
0.0041884602380115
 40
0.0373554197949392
 40
0.0947812911125536
 40
0.1702733349422249
 40
0.259808817894015
 40
0.3588297670919016
 40
0.4628418643565811
 40
0.5653792088732802
 40
0.6588961766284505
 40
0.7907891850941756
 40
0.8299410459483888
 40
0.852060572762203
 40
0.8923698528479656
 40
0.9869985050624741
 40
1.0
 40
1.0
 40
1.0
 40
1.0
 10
79.1956111517694
 20
116.4642371882371
 30
0.0
 10
79.1849908772724
 20
116.4632859369223
 30
0.0
 10
79.09027234357998
 20
116.4548020573633
 30
0.0
 10
79.31651973866875
 20
116.1305076423409
 30
0.0
 10
79.28945728775336
 20
115.8086930450602
 30
0.0
 10
79.41788522737234
 20
115.2597236910639
 30
0.0
 10
79.49257007635659
 20
114.6479493228965
 30
0.0
 10
79.5900334414857
 20
113.955701672867
 30
0.0
 10
79.68526116552952
 20
113.2368854562398
 30
0.0
 10
79.78289699762037
 20
112.5292721274791
 30
0.0
 10
79.91374785914294
 20
111.7635758319089
 30
0.0
 10
80.01526728918397
 20
111.1323596897602
 30
0.0
 10
80.28154701289874
 20
110.7371506121728
 30
0.0
 10
80.51665384161761
 20
110.6387968213126
 30
0.0
 10
80.90213942642568
 20
110.8113710403365
 30
0.0
 10
80.98751506342985
 20
111.1950044540235
 30
0.0
 10
81.03850675332141
 20
111.4444225207197
 30
0.0
 10
81.04466644199157
 20
111.4745516975097
 30
0.0
  0
SPLINE
  5
D1
330
1F
100
AcDbEntity
  8
0
  6
Continuous
 62
     7
370
    25
100
AcDbSpline
210
0.0
220
0.0
230
1.0
 70
     8
 71
     3
 72
    24
 73
    20
 74
     0
 42
0.00000001
 43
0.00000001
 40
0.0
 40
0.0
 40
0.0
 40
0.0
 40
0.0032899531344067
 40
0.0367401607432688
 40
0.0903119343812059
 40
0.1624347670485799
 40
0.2509170625331787
 40
0.3492985122947504
 40
0.4513040972445876
 40
0.5507932288574547
 40
0.640846501148935
 40
0.7122443637518795
 40
0.8018901569502733
 40
0.837235119290207
 40
0.8680769137202543
 40
0.8975684654903053
 40
0.9369290010566727
 40
0.9953193963465352
 40
0.9999999999999999
 40
0.9999999999999999
 40
0.9999999999999999
 40
0.9999999999999999
 10
81.63157847793364
 20
116.4608348340414
 30
0.0
 10
81.62474299463341
 20
116.4565070276771
 30
0.0
 10
81.54840854701393
 20
116.4081767642978
 30
0.0
 10
81.74980128480001
 20
116.1509328714017
 30
0.0
 10
81.73644697316828
 20
115.8090924327096
 30
0.0
 10
81.85628529812497
 20
115.2944284242143
 30
0.0
 10
81.93142713330384
 20
114.6895110830484
 30
0.0
 10
82.02769533807366
 20
114.0075858297021
 30
0.0
 10
82.12033233722445
 20
113.3011046164914
 30
0.0
 10
82.21738899087282
 20
112.6152485521739
 30
0.0
 10
82.30984957687173
 20
111.999976582201
 30
0.0
 10
82.4310313271015
 20
111.420599074043
 30
0.0
 10
82.52531386905
 20
110.9449171465833
 30
0.0
 10
82.80692426503889
 20
110.6726316890553
 30
0.0
 10
83.05496720470182
 20
110.6578606470738
 30
0.0
 10
83.25708201160366
 20
110.8055537266271
 30
0.0
 10
83.39196949283608
 20
111.082242100036
 30
0.0
 10
83.4599104347086
 20
111.3164383753092
 30
0.0
 10
83.4885655111176
 20
111.4636284755461
 30
0.0
 10
83.49069205196166
 20
111.4745516975097
 30
0.0
  0
SPLINE
  5
D2
330
1F
100
AcDbEntity
  8
0
  6
Continuous
 62
     7
370
    25
100
AcDbSpline
210
0.0
220
0.0
230
1.0
 70
     8
 71
     3
 72
    22
 73
    18
 74
     0
 42
0.00000001
 43
0.00000001
 40
0.0
 40
0.0
 40
0.0
 40
0.0
 40
0.0026976272517634
 40
0.0160604136988202
 40
0.0598773269050336
 40
0.1265479533696152
 40
0.2155966537304551
 40
0.3170807994716018
 40
0.4228767653163866
 40
0.5260572247493732
 40
0.6192388753578664
 40
0.6934160414135634
 40
0.7886227964732276
 40
0.8310410023119622
 40
0.8640190205642397
 40
0.9143100160565493
 40
0.9999999999999999
 40
0.9999999999999999
 40
0.9999999999999999
 40
0.9999999999999999
 10
84.04954520137572
 20
116.4881786976628
 30
0.0
 10
84.0489256253294
 20
116.4817480062181
 30
0.0
 10
84.04523695870019
 20
116.4434626705016
 30
0.0
 10
84.11563982824534
 20
116.3113039700351
 30
0.0
 10
84.15575299627687
 20
116.0202740199004
 30
0.0
 10
84.2544734377308
 20
115.5551880175721
 30
0.0
 10
84.34110847480116
 20
114.9495007922967
 30
0.0
 10
84.43918418573006
 20
114.2514888813352
 30
0.0
 10
84.53565600438215
 20
113.5192429495165
 30
0.0
 10
84.63392890343201
 20
112.8074576259959
 30
0.0
 10
84.72678380650358
 20
112.1699367304097
 30
0.0
 10
84.84401684970898
 20
111.5582028068377
 30
0.0
 10
84.93508966570016
 20
111.0560411694882
 30
0.0
 10
85.18232662399362
 20
110.7109080427463
 30
0.0
 10
85.50434051682595
 20
110.6289414297505
 30
0.0
 10
85.83775695933583
 20
110.9486215030395
 30
0.0
 10
85.88788699669317
 20
111.2712460898085
 30
0.0
 10
85.91947701843047
 20
111.4745516975097
 30
0.0
  0
SPLINE
  5
D3
330
1F
100
AcDbEntity
  8
0
  6
Continuous
 62
     7
370
    25
100
AcDbSpline
210
0.0
220
0.0
230
1.0
 70
     8
 71
     3
 72
    24
 73
    20
 74
     0
 42
0.00000001
 43
0.00000001
 40
0.0
 40
0.0
 40
0.0
 40
0.0
 40
0.000062599060188
 40
0.0058491761633218
 40
0.0364029978199561
 40
0.0908233166354757
 40
0.170241199128161
 40
0.2649094031690418
 40
0.3655937155056928
 40
0.4657309302654364
 40
0.559252199915156
 40
0.6399633764185221
 40
0.7554776733579233
 40
0.7991102904974934
 40
0.844272667940831
 40
0.875091880020127
 40
0.9000415369716388
 40
0.981797885560184
 40
1.0
 40
1.0
 40
1.0
 40
1.0
 10
86.48245778949523
 20
116.5135935594015
 30
0.0
 10
86.48231769813988
 20
116.5136499293933
 30
0.0
 10
86.46922774097433
 20
116.5189170693721
 30
0.0
 10
86.55303000029835
 20
116.3705076278712
 30
0.0
 10
86.54070377920308
 20
116.2437499806836
 30
0.0
 10
86.66278915116426
 20
115.805583103711
 30
0.0
 10
86.73231468103371
 20
115.2906352266093
 30
0.0
 10
86.8329559702144
 20
114.6318710554162
 30
0.0
 10
86.924902783714
 20
113.9342985799116
 30
0.0
 10
87.01871656606663
 20
113.2361951429643
 30
0.0
 10
87.1092259612793
 20
112.5865419611228
 30
0.0
 10
87.21820058679077
 20
111.9029975544619
 30
0.0
 10
87.32268384200125
 20
111.3366638464573
 30
0.0
 10
87.48652093346665
 20
110.8759307559476
 30
0.0
 10
87.71352208319294
 20
110.6573631539085
 30
0.0
 10
87.97773251173253
 20
110.6722652335565
 30
0.0
 10
88.23746919677409
 20
110.8920745734945
 30
0.0
 10
88.31963579001622
 20
111.1992104963029
 30
0.0
 10
88.36847118452808
 20
111.4321366030531
 30
0.0
 10
88.37736395271087
 20
111.4745516975097
 30
0.0
  0
SPLINE
  5
D4
330
1F
100
AcDbEntity
  8
0
  6
Continuous
 62
     7
370
    25
100
AcDbSpline
210
0.0
220
0.0
230
1.0
 70
     8
 71
     3
 72
    18
 73
    14
 74
     0
 42
0.00000001
 43
0.00000001
 40
0.0
 40
0.0
 40
0.0
 40
0.0
 40
0.0094101208342886
 40
0.0491425670714398
 40
0.1251466406169641
 40
0.2323911831321358
 40
0.3543886300808556
 40
0.4824122656177229
 40
0.6082805798558388
 40
0.7248488263094482
 40
0.8269745640522355
 40
0.9112598569158114
 40
0.9999999999999999
 40
0.9999999999999999
 40
0.9999999999999999
 40
0.9999999999999999
 10
88.97206929595733
 20
116.4763343699895
 30
0.0
 10
88.96986238266675
 20
116.4587704568339
 30
0.0
 10
88.95833719756942
 20
116.3670462595059
 30
0.0
 10
89.04418439898845
 20
116.1402090492993
 30
0.0
 10
89.10267650922864
 20
115.7296989630018
 30
0.0
 10
89.20252365537738
 20
115.165985403054
 30
0.0
 10
89.2927869173733
 20
114.5038616324027
 30
0.0
 10
89.38673732683249
 20
113.8066235406971
 30
0.0
 10
89.47932627751494
 20
113.1197554657164
 30
0.0
 10
89.56784483083447
 20
112.4805713540182
 30
0.0
 10
89.66509504379655
 20
111.9232205074442
 30
0.0
 10
89.74260663519293
 20
111.4102603735523
 30
0.0
 10
89.88305286420129
 20
111.1163838336813
 30
0.0
 10
89.95508399875426
 20
110.9656623744093
 30
0.0
  0
SPLINE
  5
D5
330
1F
100
AcDbEntity
  8
0
  6
Continuous
 62
     7
370
    25
100
AcDbSpline
210
0.0
220
0.0
230
1.0
 70
     8
 71
     3
 72
    14
 73
    10
 74
     0
 42
0.00000001
 43
0.00000001
 40
0.0
 40
0.0
 40
0.0
 40
0.0
 40
0.0003764348476626
 40
0.0423200357318773
 40
0.1729662929689626
 40
0.3939554594017489
 40
0.656692976597967
 40
0.9378002515374049
 40
1.0
 40
1.0
 40
1.0
 40
1.0
 10
91.40657630832457
 20
116.4819600240014
 30
0.0
 10
91.40625178034355
 20
116.4819408946216
 30
0.0
 10
91.36976728418647
 20
116.4797903072245
 30
0.0
 10
91.4793729509986
 20
116.2482573118535
 30
0.0
 10
91.48185883516253
 20
116.0048339726324
 30
0.0
 10
91.61251292523573
 20
115.4367487548667
 30
0.0
 10
91.69361920408309
 20
114.8042314852113
 30
0.0
 10
91.76739240848579
 20
114.2835932330582
 30
0.0
 10
91.80648838531299
 20
113.9913355737891
 30
0.0
 10
91.81357172401214
 20
113.9383848572186
 30
0.0
  0
SPLINE
  5
D6
330
1F
100
AcDbEntity
  8
0
  6
Continuous
 62
     7
370
    25
100
AcDbSpline
210
0.0
220
0.0
230
1.0
 70
     8
 71
     3
 72
     9
 73
     5
 74
     0
 42
0.00000001
 43
0.00000001
 40
0.0
 40
0.0
 40
0.0
 40
0.0
 40
0.3472761648279889
 40
1.0
 40
1.0
 40
1.0
 40
1.0
 10
92.98581627280974
 20
110.8117005501561
 30
0.0
 10
93.04064403988227
 20
110.8771753394036
 30
0.0
 10
93.19852348173704
 20
111.0657134421553
 30
0.0
 10
93.23293316169709
 20
111.3130858383499
 30
0.0
 10
93.25539317996764
 20
111.4745516975097
 30
0.0
  0
SPLINE
  5
D7
330
1F
100
AcDbEntity
  8
0
  6
Continuous
 62
     7
370
    25
100
AcDbSpline
210
0.0
220
0.0
230
1.0
 70
     8
 71
     3
 72
    14
 73
    10
 74
     0
 42
0.00000001
 43
0.00000001
 40
0.0
 40
0.0
 40
0.0
 40
0.0
 40
0.0081329898125913
 40
0.0670915020630716
 40
0.2257731300970227
 40
0.4508274232120373
 40
0.7117125807079098
 40
0.9865688082572257
 40
1.0
 40
1.0
 40
1.0
 40
1.0
 10
93.85531392963195
 20
116.4860794965796
 30
0.0
 10
93.84768727697792
 20
116.4866248984699
 30
0.0
 10
93.78477270385515
 20
116.4911240842419
 30
0.0
 10
93.96018503493819
 20
116.1960857389545
 30
0.0
 10
93.9385044333278
 20
115.9077172625954
 30
0.0
 10
94.07792089682937
 20
115.3138656297101
 30
0.0
 10
94.15557511828027
 20
114.6743380809673
 30
0.0
 10
94.22312780251357
 20
114.1980691649556
 30
0.0
 10
94.256464660459
 20
113.9499448657903
 30
0.0
 10
94.25801781089568
 20
113.9383848572186
 30
0.0
  0
SPLINE
  5
D8
330
1F
100
AcDbEntity
  8
0
  6
Continuous
 62
     7
370
    25
100
AcDbSpline
210
0.0
220
0.0
230
1.0
 70
     8
 71
     3
 72
    15
 73
    11
 74
     0
 42
0.00000001
 43
0.00000001
 40
0.0
 40
0.0
 40
0.0
 40
0.0
 40
0.0180847880216022
 40
0.2329150945344847
 40
0.3849577708304628
 40
0.5475575161007011
 40
0.6322915707910921
 40
0.7548038151452238
 40
0.982572777921906
 40
1.0
 40
1.0
 40
1.0
 40
1.0
 10
94.540618332937
 20
111.9905702949188
 30
0.0
 10
94.54307671903743
 20
111.9751832015377
 30
0.0
 10
94.57473842446065
 20
111.777011881797
 30
0.0
 10
94.64366000907536
 20
111.4489474625088
 30
0.0
 10
94.75486195041164
 20
111.0174078410322
 30
0.0
 10
94.95134374994704
 20
110.6813552640865
 30
0.0
 10
95.3016246912794
 20
110.6532654878174
 30
0.0
 10
95.59955853514191
 20
110.9346255337898
 30
0.0
 10
95.6727547585011
 20
111.2520334911653
 30
0.0
 10
95.71065352929502
 20
111.4597857851957
 30
0.0
 10
95.71334716947341
 20
111.4745516975097
 30
0.0
  0
SPLINE
  5
D9
330
1F
100
AcDbEntity
  8
0
  6
Continuous
 62
     7
370
    25
100
AcDbSpline
210
0.0
220
0.0
230
1.0
 70
     8
 71
     3
 72
    22
 73
    18
 74
     0
 42
0.00000001
 43
0.00000001
 40
0.0
 40
0.0
 40
0.0
 40
0.0
 40
0.0013063025443648
 40
0.0242190830504324
 40
0.0843780560481622
 40
0.1674628173395121
 40
0.2628359422418288
 40
0.362080254220335
 40
0.4632109431239271
 40
0.563335966277086
 40
0.6558361750336187
 40
0.7330473901713135
 40
0.8192689402489599
 40
0.847093013522082
 40
0.8811413987125479
 40
0.9576355550791128
 40
1.0
 40
1.0
 40
1.0
 40
1.0
 10
96.28015753896499
 20
116.4968013477199
 30
0.0
 10
96.27704345753503
 20
116.4960290141497
 30
0.0
 10
96.21930783028432
 20
116.4817098114822
 30
0.0
 10
96.41873669179202
 20
116.2058144664794
 30
0.0
 10
96.3806305588936
 20
115.8855349023442
 30
0.0
 10
96.52743990966168
 20
115.2925643720157
 30
0.0
 10
96.60335757927729
 20
114.647248326576
 30
0.0
 10
96.70282488674891
 20
113.9449689695075
 30
0.0
 10
96.79590590994263
 20
113.2347963871964
 30
0.0
 10
96.894332196793
 20
112.5418605323688
 30
0.0
 10
96.99451631140421
 20
111.9018373882471
 30
0.0
 10
97.1193611545524
 20
111.3166811540127
 30
0.0
 10
97.24242104090864
 20
110.8373321977409
 30
0.0
 10
97.5617350045258
 20
110.6426084409555
 30
0.0
 10
97.92111554046149
 20
110.7173767769767
 30
0.0
 10
98.07201019642356
 20
111.1064964955959
 30
0.0
 10
98.13454903537763
 20
111.3778381401367
 30
0.0
 10
98.15683958204055
 20
111.4745516975097
 30
0.0
  0
LINE
  5
DA
330
1F
100
AcDbEntity
  8
0
  6
Continuous
 62
     7
370
    25
100
AcDbLine
 10
98.8219231096
 20
116.0483788413
 30
0.0
 11
98.8435223428
 21
115.9426185482
 31
0.0
  0
LINE
  5
DB
330
1F
100
AcDbEntity
  8
0
  6
Continuous
 62
     7
370
    25
100
AcDbLine
 10
98.4452739087
 20
116.6332463913
 30
0.0
 11
98.3171611753
 21
116.2745519255
 31
0.0
  0
SPLINE
  5
DC
330
1F
100
AcDbEntity
  8
0
  6
Continuous
 62
     7
370
    25
100
AcDbSpline
210
0.0
220
0.0
230
1.0
 70
     8
 71
     3
 72
    24
 73
    20
 74
     0
 42
0.00000001
 43
0.00000001
 40
0.0
 40
0.0
 40
0.0
 40
0.0
 40
0.0001981419424839
 40
0.0051204412217412
 40
0.0556102782917622
 40
0.1124990372005729
 40
0.189333609591728
 40
0.2820574440897727
 40
0.3824166545489372
 40
0.4845628042660809
 40
0.5820621576368108
 40
0.6649126759303535
 40
0.7278366860804574
 40
0.8115223881031334
 40
0.8500040109276811
 40
0.8764596541050214
 40
0.9329623960035209
 40
0.9890489330938069
 40
1.0
 40
1.0
 40
1.0
 40
1.0
 10
97.74917361409926
 20
111.2607447144262
 30
0.0
 10
97.74965615467862
 20
111.2607493748732
 30
0.0
 10
97.76212610749495
 20
111.2608698114892
 30
0.0
 10
97.66538080773896
 20
111.457982343811
 30
0.0
 10
97.67000424977756
 20
111.6302641617254
 30
0.0
 10
97.55851173246927
 20
112.1017315417235
 30
0.0
 10
97.48607686354683
 20
112.619284932955
 30
0.0
 10
97.39205913518276
 20
113.2615330757388
 30
0.0
 10
97.30019791643274
 20
113.9569677321742
 30
0.0
 10
97.20509232745106
 20
114.66614327346
 30
0.0
 10
97.1090157654907
 20
115.3312875271658
 30
0.0
 10
97.0176202865456
 20
115.9062956415165
 30
0.0
 10
96.90110562871645
 20
116.4331798960485
 30
0.0
 10
96.79725475480168
 20
116.8896141868749
 30
0.0
 10
96.47462207067034
 20
117.1029080063999
 30
0.0
 10
96.16780296593646
 20
117.0512787727342
 30
0.0
 10
95.97944219352331
 20
116.7344347540742
 30
0.0
 10
95.90239073705254
 20
116.4570850553255
 30
0.0
 10
95.87135512430656
 20
116.300182988243
 30
0.0
 10
95.86628523738646
 20
116.2745519254975
 30
0.0
  0
SPLINE
  5
DD
330
1F
100
AcDbEntity
  8
0
  6
Continuous
 62
     7
370
    25
100
AcDbSpline
210
0.0
220
0.0
230
1.0
 70
     8
 71
     3
 72
    11
 73
     7
 74
     0
 42
0.00000001
 43
0.00000001
 40
0.0
 40
0.0
 40
0.0
 40
0.0
 40
0.0071335742551434
 40
0.2343126137012844
 40
0.689419273813377
 40
1.0
 40
1.0
 40
1.0
 40
1.0
 10
95.31415996225142
 20
111.2380285926781
 30
0.0
 10
95.31592904168814
 20
111.2381388706097
 30
0.0
 10
95.37403702680672
 20
111.2417611095419
 30
0.0
 10
95.18254137949964
 20
111.4934252446966
 30
0.0
 10
95.21267923068108
 20
111.6763389694827
 30
0.0
 10
95.17055846072492
 20
111.8663274605259
 30
0.0
 10
95.15347329051757
 20
111.9433912395186
 30
0.0
  0
SPLINE
  5
DE
330
1F
100
AcDbEntity
  8
0
  6
Continuous
 62
     7
370
    25
100
AcDbSpline
210
0.0
220
0.0
230
1.0
 70
     8
 71
     3
 72
    16
 73
    12
 74
     0
 42
0.00000001
 43
0.00000001
 40
0.0
 40
0.0
 40
0.0
 40
0.0
 40
0.081325881869605
 40
0.2380886568661961
 40
0.3768730953879018
 40
0.4907236404538354
 40
0.6471644325713
 40
0.7214260903563845
 40
0.7810317204967464
 40
0.8674219985597145
 40
1.0
 40
1.0
 40
1.0
 40
1.0
 10
94.85796836288237
 20
113.9383848572186
 30
0.0
 10
94.84210080832297
 20
114.0570962468701
 30
0.0
 10
94.79564714970961
 20
114.4046342589652
 30
0.0
 10
94.71970149510933
 20
114.9543438481637
 30
0.0
 10
94.63221712814112
 20
115.5511533230258
 30
0.0
 10
94.52237260741924
 20
116.1429103898984
 30
0.0
 10
94.43038620710715
 20
116.6444140871256
 30
0.0
 10
94.19808224659305
 20
117.0244316675954
 30
0.0
 10
93.84570094118634
 20
117.1315922487037
 30
0.0
 10
93.51574075306287
 20
116.7847962131621
 30
0.0
 10
93.46450095113867
 20
116.4669794139161
 30
0.0
 10
93.43347695739531
 20
116.2745519254975
 30
0.0
  0
SPLINE
  5
DF
330
1F
100
AcDbEntity
  8
0
  6
Continuous
 62
     7
370
    25
100
AcDbSpline
210
0.0
220
0.0
230
1.0
 70
     8
 71
     3
 72
    18
 73
    14
 74
     0
 42
0.00000001
 43
0.00000001
 40
0.0
 40
0.0
 40
0.0
 40
0.0
 40
0.1079502116852589
 40
0.260697446406799
 40
0.3961820503520551
 40
0.5098114281791417
 40
0.5987577369484652
 40
0.6747743764581576
 40
0.7436651200278267
 40
0.7946775273913851
 40
0.8448910592585843
 40
0.9978557182957036
 40
1.0
 40
1.0
 40
1.0
 40
1.0
 10
92.41344777019286
 20
113.9383848572186
 30
0.0
 10
92.3923270800164
 20
114.0963346880224
 30
0.0
 10
92.3413210661384
 20
114.4777801424418
 30
0.0
 10
92.26105440473128
 20
115.057086055217
 30
0.0
 10
92.17132617089865
 20
115.6435517735488
 30
0.0
 10
92.08210137431536
 20
116.1345802475424
 30
0.0
 10
91.9888676574468
 20
116.5356186310808
 30
0.0
 10
91.87292997366386
 20
116.8616966551566
 30
0.0
 10
91.65285088768493
 20
117.0854162674707
 30
0.0
 10
91.37578054989449
 20
117.0833384602431
 30
0.0
 10
91.08436295490019
 20
116.8172742947474
 30
0.0
 10
91.01957589788263
 20
116.5021881889985
 30
0.0
 10
90.97504336625295
 20
116.2776559399493
 30
0.0
 10
90.9744277325418
 20
116.2745519254975
 30
0.0
  0
SPLINE
  5
E0
330
1F
100
AcDbEntity
  8
0
  6
Continuous
 62
     7
370
    25
100
AcDbSpline
210
0.0
220
0.0
230
1.0
 70
     8
 71
     3
 72
    18
 73
    14
 74
     0
 42
0.00000001
 43
0.00000001
 40
0.0
 40
0.0
 40
0.0
 40
0.0
 40
0.0790866620969275
 40
0.2298790554322833
 40
0.3686447977524243
 40
0.4899425124452689
 40
0.5887661476753834
 40
0.7085065686908449
 40
0.7472510905003727
 40
0.7954476997502841
 40
0.8667912551836656
 40
0.9399858727481654
 40
1.0
 40
1.0
 40
1.0
 40
1.0
 10
89.99257532031798
 20
113.7641568571132
 30
0.0
 10
89.97641999051955
 20
113.8844333876677
 30
0.0
 10
89.92946173161982
 20
114.2340379164394
 30
0.0
 10
89.85385392686754
 20
114.794855310018
 30
0.0
 10
89.76241368684943
 20
115.4179893420758
 30
0.0
 10
89.67205130394647
 20
115.9634175858794
 30
0.0
 10
89.56092662525687
 20
116.466760825084
 30
0.0
 10
89.4502352855371
 20
116.8675361423221
 30
0.0
 10
89.19768285755173
 20
117.077995867842
 30
0.0
 10
88.93135342010082
 20
117.0909288358657
 30
0.0
 10
88.70056962445811
 20
116.8610909129824
 30
0.0
 10
88.59813158472956
 20
116.5639115871627
 30
0.0
 10
88.55291564433334
 20
116.3644256933949
 30
0.0
 10
88.5325446453836
 20
116.2745519254975
 30
0.0
  0
SPLINE
  5
E1
330
1F
100
AcDbEntity
  8
0
  6
Continuous
 62
     7
370
    25
100
AcDbSpline
210
0.0
220
0.0
230
1.0
 70
     8
 71
     3
 72
    22
 73
    18
 74
     0
 42
0.00000001
 43
0.00000001
 40
0.0
 40
0.0
 40
0.0
 40
0.0
 40
0.0107985985169745
 40
0.0555090492447971
 40
0.1317405916637927
 40
0.2237407712476528
 40
0.3234623740570448
 40
0.4233995513681488
 40
0.5210331972624078
 40
0.6136272689700479
 40
0.6954060978633722
 40
0.7993283230168342
 40
0.8266230391198327
 40
0.8539765196838679
 40
0.8937187506348233
 40
0.937765235648151
 40
1.0
 40
1.0
 40
1.0
 40
1.0
 10
87.95677867801452
 20
111.2627375119053
 30
0.0
 10
87.95469646812757
 20
111.2883819629319
 30
0.0
 10
87.94399308926113
 20
111.4202045408949
 30
0.0
 10
87.84402323532855
 20
111.7203256670097
 30
0.0
 10
87.77087357832991
 20
112.2222845555852
 30
0.0
 10
87.6704305021457
 20
112.8517897684217
 30
0.0
 10
87.57805937815468
 20
113.5397198689401
 30
0.0
 10
87.48451247051531
 20
114.2410577048272
 30
0.0
 10
87.39054753913913
 20
114.9246442199288
 30
0.0
 10
87.29701509758722
 20
115.5667754335865
 30
0.0
 10
87.17252274630918
 20
116.2119060438322
 30
0.0
 10
87.0764279517597
 20
116.7278967389319
 30
0.0
 10
86.83433902838588
 20
117.0281874319406
 30
0.0
 10
86.6086884181951
 20
117.1132118959978
 30
0.0
 10
86.34303032039237
 20
116.983122518004
 30
0.0
 10
86.1735373757285
 20
116.668814934908
 30
0.0
 10
86.12439801815536
 20
116.4201574673216
 30
0.0
 10
86.09562364490294
 20
116.2745519254975
 30
0.0
  0
SPLINE
  5
E2
330
1F
100
AcDbEntity
  8
0
  6
Continuous
 62
     7
370
    25
100
AcDbSpline
210
0.0
220
0.0
230
1.0
 70
     8
 71
     3
 72
    22
 73
    18
 74
     0
 42
0.00000001
 43
0.00000001
 40
0.0
 40
0.0
 40
0.0
 40
0.0
 40
0.0119272472028191
 40
0.0595704023497518
 40
0.1377087705449304
 40
0.2312285420224071
 40
0.3308512467007708
 40
0.4311783684526616
 40
0.5321604429949868
 40
0.6278157118850375
 40
0.7109632607591556
 40
0.771642423950248
 40
0.8359827620687746
 40
0.8671868509106723
 40
0.9078064320294996
 40
0.9950000657124275
 40
1.0
 40
1.0
 40
1.0
 40
1.0
 10
85.52598205478454
 20
111.247098277571
 30
0.0
 10
85.52026440728066
 20
111.274957753435
 30
0.0
 10
85.49170772890325
 20
111.4141013595204
 30
0.0
 10
85.402591286969
 20
111.7305417507896
 30
0.0
 10
85.3201135312314
 20
112.2476417846656
 30
0.0
 10
85.22188126319273
 20
112.8866767486489
 30
0.0
 10
85.12802916916867
 20
113.5802063119005
 30
0.0
 10
85.03333079748316
 20
114.2912687611758
 30
0.0
 10
84.93673334122123
 20
114.993202246589
 30
0.0
 10
84.83729021319118
 20
115.6511792686639
 30
0.0
 10
84.73018201877875
 20
116.2173337049279
 30
0.0
 10
84.61653328483314
 20
116.6866234350044
 30
0.0
 10
84.41891736831887
 20
117.0625633700492
 30
0.0
 10
84.06215676849655
 20
117.0963641176722
 30
0.0
 10
83.75181024154746
 20
116.8263391901262
 30
0.0
 10
83.68726128803208
 20
116.5015293621733
 30
0.0
 10
83.64387459626325
 20
116.2862283466756
 30
0.0
 10
83.64152160556579
 20
116.2745519254975
 30
0.0
  0
SPLINE
  5
E3
330
1F
100
AcDbEntity
  8
0
  6
Continuous
 62
     7
370
    25
100
AcDbSpline
210
0.0
220
0.0
230
1.0
 70
     8
 71
     3
 72
    23
 73
    19
 74
     0
 42
0.00000001
 43
0.00000001
 40
0.0
 40
0.0
 40
0.0
 40
0.0
 40
0.0014297302212478
 40
0.0243817817794782
 40
0.0792104493422315
 40
0.154548610460638
 40
0.2438724890116651
 40
0.3409272182220879
 40
0.4427109841425516
 40
0.5445532303778704
 40
0.6395788062007128
 40
0.7198119442354481
 40
0.8181480393967888
 40
0.8476926517608397
 40
0.8738929710549509
 40
0.9042712046353686
 40
0.9437988692998986
 40
1.0
 40
1.0
 40
1.0
 40
1.0
 10
83.07503906162046
 20
111.2562222120039
 30
0.0
 10
83.07818914953224
 20
111.2577368069461
 30
0.0
 10
83.13190890372746
 20
111.2835658219705
 30
0.0
 10
82.9517000211923
 20
111.5213732134601
 30
0.0
 10
82.9757060578923
 20
111.8345236889458
 30
0.0
 10
82.843420091773
 20
112.3704016274003
 30
0.0
 10
82.7686180388869
 20
112.9805823062765
 30
0.0
 10
82.67124042339199
 20
113.6632052294611
 30
0.0
 10
82.57835489519508
 20
114.3733477381561
 30
0.0
 10
82.47968443560023
 20
115.0771725886152
 30
0.0
 10
82.3808224916922
 20
115.7345561287499
 30
0.0
 10
82.2518971604103
 20
116.3596109700451
 30
0.0
 10
82.13676437919584
 20
116.8897840723393
 30
0.0
 10
81.8053231303947
 20
117.0945112653141
 30
0.0
 10
81.58719713658432
 20
117.0690472432942
 30
0.0
 10
81.40779354034242
 20
116.9100169170754
 30
0.0
 10
81.28352711682885
 20
116.6308777504833
 30
0.0
 10
81.24126094688825
 20
116.4063621276121
 30
0.0
 10
81.21644702823424
 20
116.2745519254975
 30
0.0
  0
SPLINE
  5
E4
330
1F
100
AcDbEntity
  8
0
  6
Continuous
 62
     7
370
    25
100
AcDbSpline
210
0.0
220
0.0
230
1.0
 70
     8
 71
     3
 72
    22
 73
    18
 74
     0
 42
0.00000001
 43
0.00000001
 40
0.0
 40
0.0
 40
0.0
 40
0.0
 40
0.0095053218807619
 40
0.0523292402320983
 40
0.1168691019688508
 40
0.1981837751940946
 40
0.2914240542902939
 40
0.3925282758297202
 40
0.4966158640852119
 40
0.5968739373761657
 40
0.6853793372779774
 40
0.8035558742851924
 40
0.8365239736913226
 40
0.8555241320436536
 40
0.873356472622597
 40
0.9028587933829485
 40
0.9999999999999999
 40
0.9999999999999999
 40
0.9999999999999999
 40
0.9999999999999999
 10
80.63132313163543
 20
111.2624613747619
 30
0.0
 10
80.62870895714231
 20
111.284927707713
 30
0.0
 10
80.61431725460173
 20
111.408610645427
 30
0.0
 10
80.5229721183669
 20
111.6733087468904
 30
0.0
 10
80.45553849705982
 20
112.1175137363209
 30
0.0
 10
80.36252207073264
 20
112.6780087302137
 30
0.0
 10
80.2733449698293
 20
113.3273596724167
 30
0.0
 10
80.17916481217982
 20
114.0306337834141
 30
0.0
 10
80.0816414245552
 20
114.7497198740062
 30
0.0
 10
79.9838250271214
 20
115.4407596073978
 30
0.0
 10
79.85264072741526
 20
116.1527221643767
 30
0.0
 10
79.75101348475714
 20
116.7345628061362
 30
0.0
 10
79.46408152790193
 20
117.0480631361482
 30
0.0
 10
79.29664070733108
 20
117.0872532550422
 30
0.0
 10
79.13680991654411
 20
117.0581791501556
 30
0.0
 10
78.86948957538443
 20
116.8151490800492
 30
0.0
 10
78.80895585396848
 20
116.5092161000796
 30
0.0
 10
78.76252380283141
 20
116.2745519254975
 30
0.0
  0
SPLINE
  5
E5
330
1F
100
AcDbEntity
  8
0
  6
Continuous
 62
     7
370
    25
100
AcDbSpline
210
0.0
220
0.0
230
1.0
 70
     8
 71
     3
 72
    23
 73
    19
 74
     0
 42
0.00000001
 43
0.00000001
 40
0.0
 40
0.0
 40
0.0
 40
0.0
 40
0.0014883240260669
 40
0.0115740697162912
 40
0.0530127777530136
 40
0.1136407773675219
 40
0.1920897058306471
 40
0.2848310633610105
 40
0.3851244357925746
 40
0.4870364401244479
 40
0.5842694457550208
 40
0.6692026780918995
 40
0.7345905467226721
 40
0.816415318961791
 40
0.849415670611528
 40
0.8781027894068889
 40
0.9544358745563305
 40
0.9999999999999999
 40
0.9999999999999999
 40
0.9999999999999999
 40
0.9999999999999999
 10
78.18236199291015
 20
111.2761771951489
 30
0.0
 10
78.18547121835226
 20
111.2781681514915
 30
0.0
 10
78.20965035636281
 20
111.2936509812437
 30
0.0
 10
78.11001823086293
 20
111.4394899344836
 30
0.0
 10
78.11131890867686
 20
111.6723365092532
 30
0.0
 10
78.00014305609241
 20
112.1075511273684
 30
0.0
 10
77.92741971867073
 20
112.6459130034923
 30
0.0
 10
77.83313734114886
 20
113.286120645264
 30
0.0
 10
77.74166179002049
 20
113.9796017055528
 30
0.0
 10
77.64683788116271
 20
114.6847722345606
 30
0.0
 10
77.55004800086945
 20
115.3511404016743
 30
0.0
 10
77.45682551179245
 20
115.934927930802
 30
0.0
 10
77.33659718894862
 20
116.4633658493206
 30
0.0
 10
77.2250538078398
 20
116.9104050504991
 30
0.0
 10
76.91118162299935
 20
117.0991852999199
 30
0.0
 10
76.56196703277276
 20
117.0366863562775
 30
0.0
 10
76.39823326821642
 20
116.6545577297143
 30
0.0
 10
76.33644861723414
 20
116.3779467301875
 30
0.0
 10
76.31335404784942
 20
116.2745519254975
 30
0.0
  0
SPLINE
  5
E6
330
1F
100
AcDbEntity
  8
0
  6
Continuous
 62
     7
370
    25
100
AcDbSpline
210
0.0
220
0.0
230
1.0
 70
     8
 71
     3
 72
    21
 73
    17
 74
     0
 42
0.00000001
 43
0.00000001
 40
0.0
 40
0.0
 40
0.0
 40
0.0
 40
0.0021223932251536
 40
0.0268735053759445
 40
0.0744446783289106
 40
0.1442814335402412
 40
0.2374096197593005
 40
0.3473888443547299
 40
0.4652621288081766
 40
0.584083191236726
 40
0.6961370588325674
 40
0.7890100689404617
 40
0.9082718778400201
 40
0.9549779947626328
 40
0.9974394647208255
 40
1.0
 40
1.0
 40
1.0
 40
1.0
 10
75.73933151634002
 20
111.2709280282877
 30
0.0
 10
75.74389763632541
 20
111.2704736582627
 30
0.0
 10
75.80171333631924
 20
111.2647204758814
 30
0.0
 10
75.64234786306127
 20
111.5029050801888
 30
0.0
 10
75.65890061022615
 20
111.7220106287343
 30
0.0
 10
75.5432125406506
 20
112.1757393415472
 30
0.0
 10
75.47347133423479
 20
112.7142377241922
 30
0.0
 10
75.37741267278712
 20
113.367707984483
 30
0.0
 10
75.28567571398446
 20
114.0683056099495
 30
0.0
 10
75.18936117476653
 20
114.7740095783636
 30
0.0
 10
75.09579397902728
 20
115.4296849013652
 30
0.0
 10
74.98003057717013
 20
116.0776208730387
 30
0.0
 10
74.88204798176247
 20
116.6114889242366
 30
0.0
 10
74.67563439997932
 20
116.9752812992972
 30
0.0
 10
74.48509840707632
 20
117.0990000427945
 30
0.0
 10
74.39619051243871
 20
117.0742840488785
 30
0.0
 10
74.39113405616546
 20
117.0728783768289
 30
0.0
  0
LINE
  5
E7
330
1F
100
AcDbEntity
  8
0
  6
Continuous
 62
     7
370
    25
100
AcDbLine
 10
103.9279699055
 20
120.8745520276
 30
0.0
 11
89.9279787865
 21
120.8745520276
 31
0.0
  0
LINE
  5
E8
330
1F
100
AcDbEntity
  8
0
  6
Continuous
 62
     7
370
    25
100
AcDbLine
 10
89.9279787865
 20
106.8745515954
 30
0.0
 11
103.9279699055
 21
106.8745515954
 31
0.0
  0
LINE
  5
E9
330
1F
100
AcDbEntity
  8
0
  6
Continuous
 62
     7
370
    25
100
AcDbLine
 10
103.9279699055
 20
106.8745515954
 30
0.0
 11
104.4279709187
 21
107.3745516774
 31
0.0
  0
LINE
  5
EA
330
1F
100
AcDbEntity
  8
0
  6
Continuous
 62
     7
370
    25
100
AcDbLine
 10
104.4279709187
 20
120.3745519456
 30
0.0
 11
103.9279699055
 21
120.8745520276
 31
0.0
  0
LINE
  5
EB
330
1F
100
AcDbEntity
  8
0
  6
Continuous
 62
     7
370
    25
100
AcDbLine
 10
104.4279709187
 20
108.8745519233
 30
0.0
 11
105.9279739586
 21
108.8745519233
 31
0.0
  0
LINE
  5
EC
330
1F
100
AcDbEntity
  8
0
  6
Continuous
 62
     7
370
    25
100
AcDbLine
 10
105.9279739586
 20
118.8745516997
 30
0.0
 11
104.4279709187
 21
118.8745516997
 31
0.0
  0
LINE
  5
ED
330
1F
100
AcDbEntity
  8
0
  6
Continuous
 62
     7
370
    25
100
AcDbLine
 10
112.1279746023
 20
109.8745516215
 30
0.0
 11
145.9279730645
 21
109.8745516215
 31
0.0
  0
LINE
  5
EE
330
1F
100
AcDbEntity
  8
0
  6
Continuous
 62
     7
370
    25
100
AcDbLine
 10
145.9279730645
 20
117.8745520015
 30
0.0
 11
112.1279746023
 21
117.8745520015
 31
0.0
  0
LINE
  5
EF
330
1F
100
AcDbEntity
  8
0
  6
Continuous
 62
     7
370
    25
100
AcDbLine
 10
112.1279746023
 20
117.8745520015
 30
0.0
 11
111.9279712168
 21
117.6745518756
 31
0.0
  0
LINE
  5
F0
330
1F
100
AcDbEntity
  8
0
  6
Continuous
 62
     7
370
    25
100
AcDbLine
 10
111.9279712168
 20
110.0745517474
 30
0.0
 11
112.1279746023
 21
109.8745516215
 31
0.0
  0
ARC
  5
F1
330
1F
100
AcDbEntity
  8
0
  6
Continuous
 62
     7
370
    25
100
AcDbCircle
 10
110.4645626729
 20
109.8452910126
 30
0.0
 40
1.499992413040928
100
AcDbArc
 50
12.6801552537
 51
90.000179324
  0
ARC
  5
F2
330
1F
100
AcDbEntity
  8
0
  6
Continuous
 62
     7
370
    25
100
AcDbCircle
 10
110.4645626729
 20
117.9038126104
 30
0.0
 40
1.499992413040914
100
AcDbArc
 50
269.9998206761
 51
347.3198447463
  0
LINE
  5
F3
330
1F
100
AcDbEntity
  8
0
  6
Continuous
 62
     7
370
    25
100
AcDbLine
 10
75.6964757767
 20
111.4745516975
 30
0.0
 11
77.5457396832
 21
111.4745516975
 31
0.0
  0
LINE
  5
F4
330
1F
100
AcDbEntity
  8
0
  6
Continuous
 62
     7
370
    25
100
AcDbLine
 10
78.1417563287
 20
111.4745516975
 30
0.0
 11
80.0035670129
 21
111.4745516975
 31
0.0
  0
LINE
  5
F5
330
1F
100
AcDbEntity
  8
0
  6
Continuous
 62
     7
370
    25
100
AcDbLine
 10
80.5856957761
 20
111.4745516975
 30
0.0
 11
82.4190601435
 21
111.4745516975
 31
0.0
  0
LINE
  5
F6
330
1F
100
AcDbEntity
  8
0
  6
Continuous
 62
     7
370
    25
100
AcDbLine
 10
83.028294119
 20
111.4745516975
 30
0.0
 11
84.872521433
 21
111.4745516975
 31
0.0
  0
LINE
  5
F7
330
1F
100
AcDbEntity
  8
0
  6
Continuous
 62
     7
370
    25
100
AcDbLine
 10
85.4730978337
 20
111.4745516975
 30
0.0
 11
87.3191430894
 21
111.4745516975
 31
0.0
  0
LINE
  5
F8
330
1F
100
AcDbEntity
  8
0
  6
Continuous
 62
     7
370
    25
100
AcDbLine
 10
87.9169031707
 20
111.4745516975
 30
0.0
 11
89.7530838576
 21
111.4745516975
 31
0.0
  0
LINE
  5
F9
330
1F
100
AcDbEntity
  8
0
  6
Continuous
 62
     7
370
    25
100
AcDbLine
 10
93.4443101016
 20
111.4745516975
 30
0.0
 11
94.6436449614
 21
111.4745516975
 31
0.0
  0
LINE
  5
FA
330
1F
100
AcDbEntity
  8
0
  6
Continuous
 62
     7
370
    25
100
AcDbLine
 10
95.2510386434
 20
111.4745516975
 30
0.0
 11
97.0898493853
 21
111.4745516975
 31
0.0
  0
LINE
  5
FB
330
1F
100
AcDbEntity
  8
0
  6
Continuous
 62
     7
370
    25
100
AcDbLine
 10
97.6987778869
 20
111.4745516975
 30
0.0
 11
98.9279746738
 21
111.4745516975
 31
0.0
  0
LINE
  5
FC
330
1F
100
AcDbEntity
  8
0
  6
Continuous
 62
     7
370
    25
100
AcDbLine
 10
98.7178086963
 20
116.2745519255
 30
0.0
 11
96.9348251549
 21
116.2745519255
 31
0.0
  0
LINE
  5
FD
330
1F
100
AcDbEntity
  8
0
  6
Continuous
 62
     7
370
    25
100
AcDbLine
 10
96.3279157606
 20
116.2745519255
 30
0.0
 11
94.4812521067
 21
116.2745519255
 31
0.0
  0
LINE
  5
FE
330
1F
100
AcDbEntity
  8
0
  6
Continuous
 62
     7
370
    25
100
AcDbLine
 10
93.883357915
 20
116.2745519255
 30
0.0
 11
92.0452102748
 21
116.2745519255
 31
0.0
  0
LINE
  5
FF
330
1F
100
AcDbEntity
  8
0
  6
Continuous
 62
     7
370
    25
100
AcDbLine
 10
91.4394184676
 20
116.2745519255
 30
0.0
 11
89.5995571938
 21
116.2745519255
 31
0.0
  0
LINE
  5
100
330
1F
100
AcDbEntity
  8
0
  6
Continuous
 62
     7
370
    25
100
AcDbLine
 10
88.9988466826
 20
116.2745519255
 30
0.0
 11
87.1465280381
 21
116.2745519255
 31
0.0
  0
LINE
  5
101
330
1F
100
AcDbEntity
  8
0
  6
Continuous
 62
     7
370
    25
100
AcDbLine
 10
86.5503474799
 20
116.2745519255
 30
0.0
 11
84.7127362815
 21
116.2745519255
 31
0.0
  0
LINE
  5
102
330
1F
100
AcDbEntity
  8
0
  6
Continuous
 62
     7
370
    25
100
AcDbLine
 10
84.1024443236
 20
116.2745519255
 30
0.0
 11
82.2680666772
 21
116.2745519255
 31
0.0
  0
LINE
  5
103
330
1F
100
AcDbEntity
  8
0
  6
Continuous
 62
     7
370
    25
100
AcDbLine
 10
81.6595330563
 20
116.2745519255
 30
0.0
 11
79.8030867902
 21
116.2745519255
 31
0.0
  0
LINE
  5
104
330
1F
100
AcDbEntity
  8
0
  6
Continuous
 62
     7
370
    25
100
AcDbLine
 10
79.2160406438
 20
116.2745519255
 30
0.0
 11
77.3769393292
 21
116.2745519255
 31
0.0
  0
LINE
  5
105
330
1F
100
AcDbEntity
  8
0
  6
Continuous
 62
     7
370
    25
100
AcDbLine
 10
76.7701938477
 20
116.2745519255
 30
0.0
 11
74.9233886328
 21
116.2745519255
 31
0.0
  0
LINE
  5
106
330
1F
100
AcDbEntity
  8
0
  6
Continuous
 62
     7
370
    25
100
AcDbLine
 10
89.9279787865
 20
117.3191251878
 30
0.0
 11
97.1779748526
 21
117.3191251878
 31
0.0
  0
LINE
  5
107
330
1F
100
AcDbEntity
  8
0
  6
Continuous
 62
     7
370
    25
100
AcDbLine
 10
95.4279750315
 20
113.9383848572
 30
0.0
 11
89.9279787865
 21
113.9383848572
 31
0.0
  0
LINE
  5
108
330
1F
100
AcDbEntity
  8
0
  6
Continuous
 62
     7
370
    25
100
AcDbLine
 10
95.4279750315
 20
113.9383848572
 30
0.0
 11
95.4279750315
 21
112.001235801
 31
0.0
  0
LINE
  5
109
330
1F
100
AcDbEntity
  8
0
  6
Continuous
 62
     7
370
    25
100
AcDbLine
 10
95.4279750315
 20
112.001235801
 30
0.0
 11
94.6779772368
 21
112.001235801
 31
0.0
  0
SPLINE
  5
10A
330
1F
100
AcDbEntity
  8
0
  6
Continuous
 62
     7
370
    25
100
AcDbSpline
210
0.0
220
0.0
230
1.0
 70
     8
 71
     3
 72
    17
 73
    13
 74
     0
 42
0.00000001
 43
0.00000001
 40
0.0
 40
0.0
 40
0.0
 40
0.0
 40
0.1127176494814222
 40
0.2242733968571256
 40
0.3353612461494498
 40
0.4431614434390768
 40
0.543039627812671
 40
0.6373404946443766
 40
0.7342051273562935
 40
0.8401845884640825
 40
0.9537942698920208
 40
1.0
 40
1.0
 40
1.0
 40
1.0
 10
94.67797723682189
 20
112.0012358010433
 30
0.0
 10
94.48492480060341
 20
111.9826490577217
 30
0.0
 10
94.1008099273652
 20
111.9456671646426
 30
0.0
 10
93.58708748897814
 20
111.6625827441981
 30
0.0
 10
93.18788496022081
 20
111.2545373556787
 30
0.0
 10
92.94811982819998
 20
110.7540956061245
 30
0.0
 10
92.90221330732565
 20
110.2285525475077
 30
0.0
 10
93.05942621719556
 20
109.743439972981
 30
0.0
 10
93.39945842294904
 20
109.3511513405146
 30
0.0
 10
93.87901742061172
 20
109.0859440290612
 30
0.0
 10
94.32666198729132
 20
108.9808672186848
 30
0.0
 10
94.59918543189788
 20
108.9725513437445
 30
0.0
 10
94.67797723682189
 20
108.9701470632724
 30
0.0
  0
LINE
  5
10B
330
1F
100
AcDbEntity
  8
0
  6
Continuous
 62
     7
370
    25
100
AcDbLine
 10
94.6779772368
 20
108.9701470633
 30
0.0
 11
97.1779748526
 21
108.9701470633
 31
0.0
  0
SPLINE
  5
10C
330
1F
100
AcDbEntity
  8
0
  6
Continuous
 62
     7
370
    25
100
AcDbSpline
210
0.0
220
0.0
230
1.0
 70
     8
 71
     3
 72
    12
 73
     8
 74
     0
 42
0.00000001
 43
0.00000001
 40
0.0
 40
0.0
 40
0.0
 40
0.0
 40
0.2302585961890857
 40
0.4491772366126839
 40
0.6574357043485195
 40
0.8597898398242408
 40
1.0
 40
1.0
 40
1.0
 40
1.0
 10
97.1779748526361
 20
108.9701470632724
 30
0.0
 10
97.36953197729719
 20
108.9833008362768
 30
0.0
 10
97.74321227124844
 20
109.0089605749659
 30
0.0
 10
98.25806560809345
 20
109.2188606005493
 30
0.0
 10
98.66725113118763
 20
109.556108217035
 30
0.0
 10
98.89619205833422
 20
109.9726621309292
 30
0.0
 10
98.91874418212034
 20
110.2578326006701
 30
0.0
 10
98.92797467382216
 20
110.3745517034702
 30
0.0
  0
LINE
  5
10D
330
1F
100
AcDbEntity
  8
0
  6
Continuous
 62
     7
370
    25
100
AcDbLine
 10
98.9279746738
 20
110.3745517035
 30
0.0
 11
98.9279746738
 21
115.6862851645
 31
0.0
  0
SPLINE
  5
10E
330
1F
100
AcDbEntity
  8
0
  6
Continuous
 62
     7
370
    25
100
AcDbSpline
210
0.0
220
0.0
230
1.0
 70
     8
 71
     3
 72
    12
 73
     8
 74
     0
 42
0.00000001
 43
0.00000001
 40
0.0
 40
0.0
 40
0.0
 40
0.0
 40
0.2168121031452708
 40
0.4286756398292104
 40
0.6395588917115439
 40
0.8522304194632383
 40
1.0
 40
1.0
 40
1.0
 40
1.0
 10
97.1779748526361
 20
117.3191251878313
 30
0.0
 10
97.3704461005289
 20
117.3026767188334
 30
0.0
 10
97.75099559081212
 20
117.2701552042611
 30
0.0
 10
98.26916478773508
 20
117.0099039791538
 30
0.0
 10
98.67337290618728
 20
116.608225922002
 30
0.0
 10
98.89587724286636
 20
116.1366893775361
 30
0.0
 10
98.91864188328286
 20
115.8172466792412
 30
0.0
 10
98.92797467382216
 20
115.6862851644553
 30
0.0
  0
LINE
  5
10F
330
1F
100
AcDbEntity
  8
0
  6
Continuous
 62
     7
370
    25
100
AcDbLine
 10
103.9279699055
 20
110.3745517035
 30
0.0
 11
103.9279699055
 21
120.8745520276
 31
0.0
  0
LINE
  5
110
330
1F
100
AcDbEntity
  8
0
  6
Continuous
 62
     7
370
    25
100
AcDbLine
 10
103.9279699055
 20
106.8745515954
 30
0.0
 11
103.9279699055
 21
110.3745517035
 31
0.0
  0
LINE
  5
111
330
1F
100
AcDbEntity
  8
0
  6
Continuous
 62
     7
370
    25
100
AcDbLine
 10
89.9279787865
 20
117.3191251878
 30
0.0
 11
89.9279787865
 21
120.8745520276
 31
0.0
  0
LINE
  5
112
330
1F
100
AcDbEntity
  8
0
  6
Continuous
 62
     7
370
    25
100
AcDbLine
 10
89.9279787865
 20
106.8745515954
 30
0.0
 11
89.9279787865
 21
113.9383848572
 31
0.0
  0
LINE
  5
113
330
1F
100
AcDbEntity
  8
0
  6
Continuous
 62
     7
370
    25
100
AcDbLine
 10
104.4279709187
 20
110.6245517444
 30
0.0
 11
104.4279709187
 21
107.3745516774
 31
0.0
  0
LINE
  5
114
330
1F
100
AcDbEntity
  8
0
  6
Continuous
 62
     7
370
    25
100
AcDbLine
 10
104.4279709187
 20
120.3745519456
 30
0.0
 11
104.4279709187
 21
110.6245517444
 31
0.0
  0
SPLINE
  5
115
330
1F
100
AcDbEntity
  8
0
  6
Continuous
 62
     7
370
    25
100
AcDbSpline
210
0.0
220
0.0
230
1.0
 70
     8
 71
     3
 72
    12
 73
     8
 74
     0
 42
0.00000001
 43
0.00000001
 40
0.0
 40
0.0
 40
0.0
 40
0.0
 40
0.2299402286790316
 40
0.4479967880908583
 40
0.6557043742666947
 40
0.8581450205788728
 40
0.9999999999999999
 40
0.9999999999999999
 40
0.9999999999999999
 40
0.9999999999999999
 10
97.1779748526361
 20
109.2809601400666
 30
0.0
 10
97.36876188254851
 20
109.2937595222078
 30
0.0
 10
97.74047577141943
 20
109.3186967944797
 30
0.0
 10
98.2539389401695
 20
109.5234896021324
 30
0.0
 10
98.6643457638546
 20
109.8554644377656
 30
0.0
 10
98.89578016657055
 20
110.2708102569894
 30
0.0
 10
98.91858056608018
 20
110.5567432117253
 30
0.0
 10
98.92797467382216
 20
110.6745518923424
 30
0.0
  0
LINE
  5
116
330
1F
100
AcDbEntity
  8
0
  6
Continuous
 62
     7
370
    25
100
AcDbLine
 10
94.6779772368
 20
109.2809601401
 30
0.0
 11
97.1779748526
 21
109.2809601401
 31
0.0
  0
SPLINE
  5
117
330
1F
100
AcDbEntity
  8
0
  6
Continuous
 62
     7
370
    25
100
AcDbSpline
210
0.0
220
0.0
230
1.0
 70
     8
 71
     3
 72
    12
 73
     8
 74
     0
 42
0.00000001
 43
0.00000001
 40
0.0
 40
0.0
 40
0.0
 40
0.0
 40
0.1828381981833221
 40
0.3984546987372617
 40
0.6357494389393108
 40
0.8915654231422636
 40
0.9999999999999999
 40
0.9999999999999999
 40
0.9999999999999999
 40
0.9999999999999999
 10
92.95556691558623
 20
110.4673985105626
 30
0.0
 10
92.98812657526129
 20
110.3309453392489
 30
0.0
 10
93.05908302482008
 20
110.033576365983
 30
0.0
 10
93.39585402153524
 20
109.662535488163
 30
0.0
 10
93.8687630815026
 20
109.3978859735437
 30
0.0
 10
94.31990621169692
 20
109.2921480540468
 30
0.0
 10
94.59583528443171
 20
109.2835266618821
 30
0.0
 10
94.67797723682189
 20
109.2809601400666
 30
0.0
  0
LINE
  5
118
330
1F
100
AcDbEntity
  8
0
  6
Continuous
 62
     7
370
    25
100
AcDbLine
 10
89.9279787865
 20
117.1582364191
 30
0.0
 11
97.1779748526
 21
117.1582364191
 31
0.0
  0
SPLINE
  5
119
330
1F
100
AcDbEntity
  8
0
  6
Continuous
 62
     7
370
    25
100
AcDbSpline
210
0.0
220
0.0
230
1.0
 70
     8
 71
     3
 72
    12
 73
     8
 74
     0
 42
0.00000001
 43
0.00000001
 40
0.0
 40
0.0
 40
0.0
 40
0.0
 40
0.2190174361203691
 40
0.4326039892261108
 40
0.6457005972709282
 40
0.8613752016540008
 40
1.0
 40
1.0
 40
1.0
 40
1.0
 10
97.1779748526361
 20
117.1582364190988
 30
0.0
 10
97.36969221882524
 20
117.1420523504903
 30
0.0
 10
97.74837301651185
 20
117.1100855227987
 30
0.0
 10
98.26527284033166
 20
116.8536440238228
 30
0.0
 10
98.67066261738233
 20
116.4554938669563
 30
0.0
 10
98.89016358851008
 20
115.994478192187
 30
0.0
 10
98.91708938624866
 20
115.6854590599932
 30
0.0
 10
98.92762449653411
 20
115.5645508265741
 30
0.0
  0
LINE
  5
11A
330
1F
100
AcDbEntity
  8
0
  6
Continuous
 62
     7
370
    25
100
AcDbLine
 10
89.9279787865
 20
117.1582364191
 30
0.0
 11
89.9279787865
 21
116.2745519255
 31
0.0
  0
LINE
  5
11B
330
1F
100
AcDbEntity
  8
0
  6
Continuous
 62
     7
370
    25
100
AcDbLine
 10
98.9276244965
 20
115.5645508266
 30
0.0
 11
98.9279746738
 21
115.5399674031
 31
0.0
  0
LINE
  5
11C
330
1F
100
AcDbEntity
  8
0
  6
Continuous
 62
     7
370
    25
100
AcDbLine
 10
105.9279739586
 20
118.8745516997
 30
0.0
 11
105.9279739586
 21
108.8745519233
 31
0.0
  0
LINE
  5
11D
330
1F
100
AcDbEntity
  8
0
  6
Continuous
 62
     7
370
    25
100
AcDbLine
 10
89.9279787865
 20
117.3191251878
 30
0.0
 11
89.9279787865
 21
117.1582364191
 31
0.0
  0
LINE
  5
11E
330
1F
100
AcDbEntity
  8
0
  6
Continuous
 62
     7
370
    25
100
AcDbLine
 10
112.1279746023
 20
117.8745520015
 30
0.0
 11
112.1279746023
 21
109.8745516215
 31
0.0
  0
LINE
  5
11F
330
1F
100
AcDbEntity
  8
0
  6
Continuous
 62
     7
370
    25
100
AcDbLine
 10
145.9279730645
 20
113.8745518115
 30
0.0
 11
145.9279730645
 21
117.8745520015
 31
0.0
  0
LINE
  5
120
330
1F
100
AcDbEntity
  8
0
  6
Continuous
 62
     7
370
    25
100
AcDbLine
 10
145.9279730645
 20
109.8745516215
 30
0.0
 11
145.9279730645
 21
113.8745518115
 31
0.0
  0
LINE
  5
121
330
1F
100
AcDbEntity
  8
0
  6
Continuous
 62
     7
370
    25
100
AcDbLine
 10
110.4645579782
 20
113.8745518115
 30
0.0
 11
110.4645579782
 21
116.4038201973
 31
0.0
  0
LINE
  5
122
330
1F
100
AcDbEntity
  8
0
  6
Continuous
 62
     7
370
    25
100
AcDbLine
 10
110.4645579782
 20
111.3452834257
 30
0.0
 11
110.4645579782
 21
113.8745518115
 31
0.0
  0
LINE
  5
123
330
1F
100
AcDbEntity
  8
0
  6
Continuous
 62
     7
370
    25
100
AcDbLine
 10
110.4645579782
 20
112.6245518394
 30
0.0
 11
109.9279746142
 21
112.6245518394
 31
0.0
  0
LINE
  5
124
330
1F
100
AcDbEntity
  8
0
  6
Continuous
 62
     7
370
    25
100
AcDbLine
 10
110.4645579782
 20
115.1245517836
 30
0.0
 11
109.9279746142
 21
115.1245517836
 31
0.0
  0
LINE
  5
125
330
1F
100
AcDbEntity
  8
0
  6
Continuous
 62
     7
370
    25
100
AcDbLine
 10
105.9279739586
 20
111.3745518674
 30
0.0
 11
109.9279746142
 21
111.3745518674
 31
0.0
  0
LINE
  5
126
330
1F
100
AcDbEntity
  8
0
  6
Continuous
 62
     7
370
    25
100
AcDbLine
 10
105.9279739586
 20
112.6245518394
 30
0.0
 11
109.9279746142
 21
112.6245518394
 31
0.0
  0
LINE
  5
127
330
1F
100
AcDbEntity
  8
0
  6
Continuous
 62
     7
370
    25
100
AcDbLine
 10
105.9279739586
 20
115.1245517836
 30
0.0
 11
109.9279746142
 21
115.1245517836
 31
0.0
  0
LINE
  5
128
330
1F
100
AcDbEntity
  8
0
  6
Continuous
 62
     7
370
    25
100
AcDbLine
 10
110.4645579782
 20
111.3745518674
 30
0.0
 11
109.9279746142
 21
111.3745518674
 31
0.0
  0
LINE
  5
129
330
1F
100
AcDbEntity
  8
0
  6
Continuous
 62
     7
370
    25
100
AcDbLine
 10
109.9279746142
 20
116.3745517556
 30
0.0
 11
110.4645579782
 21
116.3745517556
 31
0.0
  0
LINE
  5
12A
330
1F
100
AcDbEntity
  8
0
  6
Continuous
 62
     7
370
    25
100
AcDbLine
 10
105.9279739586
 20
116.3745517556
 30
0.0
 11
109.9279746142
 21
116.3745517556
 31
0.0
  0
SPLINE
  5
12B
330
1F
100
AcDbEntity
  8
0
  6
Continuous
 62
     7
370
    25
100
AcDbSpline
210
0.0
220
0.0
230
1.0
 70
     8
 71
     3
 72
    25
 73
    21
 74
     0
 42
0.00000001
 43
0.00000001
 40
0.0
 40
0.0
 40
0.0
 40
0.0
 40
0.000357962153016
 40
0.0061258834665182
 40
0.0335150561405239
 40
0.0752810599945768
 40
0.1283054593256759
 40
0.2569536913198026
 40
0.4083410451048855
 40
0.5547775223620834
 40
0.686345964388683
 40
0.7868761512220568
 40
0.8296832230524348
 40
0.8452117437937415
 40
0.8650328550627826
 40
0.8786055483833248
 40
0.8930428182240656
 40
0.9190681613530272
 40
0.9917271490373328
 40
1.0
 40
1.0
 40
1.0
 40
1.0
 10
64.77309912808948
 20
111.1803843819223
 30
0.0
 10
64.7738477464915
 20
111.1799161525976
 30
0.0
 10
64.78665901453462
 20
111.1719032432588
 30
0.0
 10
64.74413388802844
 20
111.3149986305891
 30
0.0
 10
64.76008277811708
 20
111.4175471426461
 30
0.0
 10
64.715078379192
 20
111.7431226445949
 30
0.0
 10
64.68622185417497
 20
112.2480641589938
 30
0.0
 10
64.63769482213196
 20
113.0432198474312
 30
0.0
 10
64.58012646610447
 20
114.0413857634169
 30
0.0
 10
64.52565826741582
 20
115.0500152163829
 30
0.0
 10
64.46499334684395
 20
115.9454434069836
 30
0.0
 10
64.41788500023638
 20
116.5756020425283
 30
0.0
 10
64.30853108790431
 20
116.9625001530143
 30
0.0
 10
64.14824141298051
 20
117.0646503081822
 30
0.0
 10
64.02992109908796
 20
117.0820376895607
 30
0.0
 10
63.91926726350709
 20
117.0533133857741
 30
0.0
 10
63.8101097528855
 20
116.9825033202122
 30
0.0
 10
63.67555634788033
 20
116.7410185173467
 30
0.0
 10
63.66616056994054
 20
116.4835828682039
 30
0.0
 10
63.64930735599542
 20
116.2939374739833
 30
0.0
 10
63.64758462079578
 20
116.2745519254975
 30
0.0
  0
SPLINE
  5
12C
330
1F
100
AcDbEntity
  8
0
  6
Continuous
 62
     7
370
    25
100
AcDbSpline
210
0.0
220
0.0
230
1.0
 70
     8
 71
     3
 72
    23
 73
    19
 74
     0
 42
0.00000001
 43
0.00000001
 40
0.0
 40
0.0
 40
0.0
 40
0.0
 40
0.0004540677577797
 40
0.0118191035968476
 40
0.037703126046259
 40
0.0796547991332397
 40
0.1996193964634351
 40
0.3408838141938037
 40
0.4858363431205808
 40
0.6223772133827922
 40
0.7390393236723692
 40
0.8153336612016766
 40
0.8416785664216686
 40
0.8615820302498882
 40
0.8802372695962145
 40
0.9124291429927834
 40
0.9903728538260365
 40
1.0
 40
1.0
 40
1.0
 40
1.0
 10
63.80319744714313
 20
116.5858294994257
 30
0.0
 10
63.80236871735934
 20
116.5865612112682
 30
0.0
 10
63.78079739237408
 20
116.6056072190961
 30
0.0
 10
63.83582875588023
 20
116.4288251395532
 30
0.0
 10
63.8215232299493
 20
116.3157417406505
 30
0.0
 10
63.88858924307805
 20
115.823798855061
 30
0.0
 10
63.91334560640674
 20
115.1502960262214
 30
0.0
 10
63.97340738241236
 20
114.1821339392766
 30
0.0
 10
64.03077044105079
 20
113.1954035016304
 30
0.0
 10
64.07837596340113
 20
112.2574130450248
 30
0.0
 10
64.14488419255031
 20
111.4927011663155
 30
0.0
 10
64.1883610311969
 20
110.9660783992012
 30
0.0
 10
64.36091551244357
 20
110.7184053915128
 30
0.0
 10
64.51098343407898
 20
110.6642041173406
 30
0.0
 10
64.68622804801964
 20
110.6908467549241
 30
0.0
 10
64.86333737259636
 20
110.9704378568484
 30
0.0
 10
64.90010048606946
 20
111.2474006508169
 30
0.0
 10
64.92229353987484
 20
111.4520531249207
 30
0.0
 10
64.92473334439808
 20
111.4745516975097
 30
0.0
  0
SPLINE
  5
12D
330
1F
100
AcDbEntity
  8
0
  6
Continuous
 62
     7
370
    25
100
AcDbSpline
210
0.0
220
0.0
230
1.0
 70
     8
 71
     3
 72
     9
 73
     5
 74
     0
 42
0.00000001
 43
0.00000001
 40
0.0
 40
0.0
 40
0.0
 40
0.0
 40
0.3076104085448697
 40
1.0
 40
1.0
 40
1.0
 40
1.0
 10
63.71113807328754
 20
110.7772760738305
 30
0.0
 10
63.74014261138306
 20
110.8077027292099
 30
0.0
 10
63.834432457532
 20
110.9066156870754
 30
0.0
 10
63.8464585357867
 20
111.0466684441495
 30
0.0
 10
63.85478526719623
 20
111.1436395154021
 30
0.0
  0
SPLINE
  5
12E
330
1F
100
AcDbEntity
  8
0
  6
Continuous
 62
     7
370
    25
100
AcDbSpline
210
0.0
220
0.0
230
1.0
 70
     8
 71
     3
 72
    13
 73
     9
 74
     0
 42
0.00000001
 43
0.00000001
 40
0.0
 40
0.0
 40
0.0
 40
0.0
 40
0.0018611921657656
 40
0.0318509826254411
 40
0.1742585337538664
 40
0.3914171314255997
 40
0.6671119315550913
 40
0.9999999999999999
 40
0.9999999999999999
 40
0.9999999999999999
 40
0.9999999999999999
 10
63.77309710153156
 20
111.1803843819223
 30
0.0
 10
63.77384571996708
 20
111.1799161523245
 30
0.0
 10
63.78665698858391
 20
111.1719032383114
 30
0.0
 10
63.74413170408062
 20
111.314999913006
 30
0.0
 10
63.76008438243842
 20
111.4175175581527
 30
0.0
 10
63.71505351095156
 20
111.7433088120578
 30
0.0
 10
63.69468501054983
 20
112.101051035
 30
0.0
 10
63.67796463511529
 20
112.3786762296638
 30
0.0
 10
63.66881877549702
 20
112.5305341270439
 30
0.0
  0
SPLINE
  5
12F
330
1F
100
AcDbEntity
  8
0
  6
Continuous
 62
     7
370
    25
100
AcDbSpline
210
0.0
220
0.0
230
1.0
 70
     8
 71
     3
 72
    23
 73
    19
 74
     0
 42
0.00000001
 43
0.00000001
 40
0.0
 40
0.0
 40
0.0
 40
0.0
 40
0.0039768613721007
 40
0.0398030521567162
 40
0.0952864914735688
 40
0.1692946866852886
 40
0.2593293396223897
 40
0.3586116413669004
 40
0.4609590240066543
 40
0.5601370602974778
 40
0.6489244004182612
 40
0.7184923923486874
 40
0.8056944893424012
 40
0.8411063600537176
 40
0.8714751928541604
 40
0.9015297922497707
 40
0.9427191170661863
 40
1.0
 40
1.0
 40
1.0
 40
1.0
 10
65.41468352445179
 20
116.4543099880837
 30
0.0
 10
65.40908146454385
 20
116.4464981820385
 30
0.0
 10
65.35301235329297
 20
116.3683124736722
 30
0.0
 10
65.52554309969166
 20
116.1334765012589
 30
0.0
 10
65.53359674191005
 20
115.7579096775214
 30
0.0
 10
65.64521215441603
 20
115.2406078404064
 30
0.0
 10
65.72425240799353
 20
114.6241407155414
 30
0.0
 10
65.8197632797418
 20
113.9386635593818
 30
0.0
 10
65.91303432557112
 20
113.2318281872717
 30
0.0
 10
66.01023325758149
 20
112.5512827097247
 30
0.0
 10
66.10275451573965
 20
111.9456237033363
 30
0.0
 10
66.22397376775704
 20
111.3826913665803
 30
0.0
 10
66.3211297680993
 20
110.9150284741387
 30
0.0
 10
66.61641919976184
 20
110.6662111534595
 30
0.0
 10
66.86407520555454
 20
110.6711766226684
 30
0.0
 10
67.05756509135975
 20
110.8343587246232
 30
0.0
 10
67.18643716519749
 20
111.1156028762481
 30
0.0
 10
67.24092431149899
 20
111.3425403881852
 30
0.0
 10
67.27261990674549
 20
111.4745516975097
 30
0.0
  0
SPLINE
  5
130
330
1F
100
AcDbEntity
  8
0
  6
Continuous
 62
     7
370
    25
100
AcDbSpline
210
0.0
220
0.0
230
1.0
 70
     8
 71
     3
 72
    23
 73
    19
 74
     0
 42
0.00000001
 43
0.00000001
 40
0.0
 40
0.0
 40
0.0
 40
0.0
 40
0.0001057132684131
 40
0.0061944146696877
 40
0.0214176605068723
 40
0.0681979738400353
 40
0.1380609011215679
 40
0.2295970847092035
 40
0.3321679633737203
 40
0.4381144741384098
 40
0.540486514628462
 40
0.6314967922224396
 40
0.7029056840468155
 40
0.7950744251025061
 40
0.8375418650063666
 40
0.8684343610833277
 40
0.9200010461062845
 40
0.9999999999999999
 40
0.9999999999999999
 40
0.9999999999999999
 40
0.9999999999999999
 10
67.82908887036854
 20
116.4892746315025
 30
0.0
 10
67.82883777981492
 20
116.4893151260998
 30
0.0
 10
67.81412478274213
 20
116.4916879628478
 30
0.0
 10
67.8607629711768
 20
116.406551637089
 30
0.0
 10
67.87269107222389
 20
116.2952135182425
 30
0.0
 10
67.96985750504015
 20
115.9516283201801
 30
0.0
 10
68.04117819816743
 20
115.4837482876884
 30
0.0
 10
68.14009502543415
 20
114.8557010991737
 30
0.0
 10
68.2348446120328
 20
114.1517197112159
 30
0.0
 10
68.33253177547729
 20
113.4185131129577
 30
0.0
 10
68.4306545293899
 20
112.7144913160968
 30
0.0
 10
68.52296458047122
 20
112.0909600760071
 30
0.0
 10
68.64104306569793
 20
111.5001600835027
 30
0.0
 10
68.73087816217743
 20
111.0089671778367
 30
0.0
 10
69.00232828465467
 20
110.6912267948172
 30
0.0
 10
69.326411368216
 20
110.6489995749428
 30
0.0
 10
69.61955880842173
 20
110.9774977604397
 30
0.0
 10
69.66806562908731
 20
111.2866006114318
 30
0.0
 10
69.69756037362629
 20
111.4745516975097
 30
0.0
  0
SPLINE
  5
131
330
1F
100
AcDbEntity
  8
0
  6
Continuous
 62
     7
370
    25
100
AcDbSpline
210
0.0
220
0.0
230
1.0
 70
     8
 71
     3
 72
    24
 73
    20
 74
     0
 42
0.00000001
 43
0.00000001
 40
0.0
 40
0.0
 40
0.0
 40
0.0
 40
0.0007858971617909
 40
0.0094175619815911
 40
0.0438740017291642
 40
0.1027302336637799
 40
0.1859615557587953
 40
0.2823250952237148
 40
0.3835435802817043
 40
0.4831031421905468
 40
0.5748883636631769
 40
0.6530452255159628
 40
0.7631144847545674
 40
0.8079231399054442
 40
0.8512886439292024
 40
0.8802504186213148
 40
0.9056643154705725
 40
0.9942859644747573
 40
1.0
 40
1.0
 40
1.0
 40
1.0
 10
70.27085274823719
 20
116.503720608788
 30
0.0
 10
70.26887051330974
 20
116.5036862463954
 30
0.0
 10
70.24511699796584
 20
116.5032744750118
 30
0.0
 10
70.35452841252857
 20
116.3549042489109
 30
0.0
 10
70.33157392783217
 20
116.1723526184946
 30
0.0
 10
70.46247867065752
 20
115.7267204945173
 30
0.0
 10
70.5313066516353
 20
115.1787664234708
 30
0.0
 10
70.63282366932883
 20
114.5103958679049
 30
0.0
 10
70.72463510753813
 20
113.8088742273455
 30
0.0
 10
70.81843078137717
 20
113.1165613508806
 30
0.0
 10
70.90827453193492
 20
112.479594338295
 30
0.0
 10
71.01756797188756
 20
111.8207267212794
 30
0.0
 10
71.11876518331302
 20
111.2718377131481
 30
0.0
 10
71.29910116628577
 20
110.8298271862811
 30
0.0
 10
71.55139732315212
 20
110.6452240219649
 30
0.0
 10
71.79923367148007
 20
110.6975476641793
 30
0.0
 10
72.04556535454549
 20
110.9466985482006
 30
0.0
 10
72.11483437491302
 20
111.2407244641285
 30
0.0
 10
72.15915532808397
 20
111.4611973661075
 30
0.0
 10
72.16183990605884
 20
111.4745516975097
 30
0.0
  0
SPLINE
  5
132
330
1F
100
AcDbEntity
  8
0
  6
Continuous
 62
     7
370
    25
100
AcDbSpline
210
0.0
220
0.0
230
1.0
 70
     8
 71
     3
 72
    23
 73
    19
 74
     0
 42
0.00000001
 43
0.00000001
 40
0.0
 40
0.0
 40
0.0
 40
0.0
 40
0.0024319135476455
 40
0.0227191735561796
 40
0.0792215454927147
 40
0.1611830019937111
 40
0.2564633935564649
 40
0.3570267013689171
 40
0.4561615794514052
 40
0.5527938139259673
 40
0.6426146537576827
 40
0.7196585974511698
 40
0.7753442315058717
 40
0.8351455089533318
 40
0.8651156619315443
 40
0.9092948105415549
 40
0.9940865194362193
 40
1.0
 40
1.0
 40
1.0
 40
1.0
 10
71.7291250861507
 20
111.2669468571119
 30
0.0
 10
71.73529228705277
 20
111.2671238254443
 30
0.0
 10
71.79290687939114
 20
111.2687770808666
 30
0.0
 10
71.62820455967862
 20
111.5449856786396
 30
0.0
 10
71.64636211831262
 20
111.8335665446653
 30
0.0
 10
71.50761244019235
 20
112.4211216614736
 30
0.0
 10
71.42920013042618
 20
113.0617594555884
 30
0.0
 10
71.3304421407314
 20
113.7612911336092
 30
0.0
 10
71.23857802235156
 20
114.4589735399865
 30
0.0
 10
71.1439509264782
 20
115.1325692130757
 30
0.0
 10
71.04777090312166
 20
115.7507149744109
 30
0.0
 10
70.94506038906883
 20
116.2743342754614
 30
0.0
 10
70.83350711060106
 20
116.7081374138492
 30
0.0
 10
70.64718373517131
 20
117.0487216680229
 30
0.0
 10
70.30064426737277
 20
117.097063263066
 30
0.0
 10
69.9858088217585
 20
116.8245917117062
 30
0.0
 10
69.91190613645423
 20
116.5005110928444
 30
0.0
 10
69.87313521018861
 20
116.2883816040058
 30
0.0
 10
69.87060755857044
 20
116.2745519254975
 30
0.0
  0
SPLINE
  5
133
330
1F
100
AcDbEntity
  8
0
  6
Continuous
 62
     7
370
    25
100
AcDbSpline
210
0.0
220
0.0
230
1.0
 70
     8
 71
     3
 72
    22
 73
    18
 74
     0
 42
0.00000001
 43
0.00000001
 40
0.0
 40
0.0
 40
0.0
 40
0.0
 40
0.0012806838361874
 40
0.0238462334205955
 40
0.0848376115161381
 40
0.169607011596661
 40
0.2664642075757363
 40
0.3664879519538785
 40
0.4677622619943857
 40
0.5678144420489213
 40
0.6600334455884106
 40
0.7367545506188459
 40
0.8205697282558302
 40
0.8478015154073248
 40
0.8831129988053357
 40
0.9622023946735266
 40
1.0
 40
1.0
 40
1.0
 40
1.0
 10
69.3024709857326
 20
111.2583817162238
 30
0.0
 10
69.30557608210201
 20
111.258873959759
 30
0.0
 10
69.36339273499179
 20
111.2680394960983
 30
0.0
 10
69.16218260388683
 20
111.5543744568049
 30
0.0
 10
69.2027990924178
 20
111.8690282211118
 30
0.0
 10
69.0528054348771
 20
112.4745744206719
 30
0.0
 10
68.97651420602605
 20
113.1258960599042
 30
0.0
 10
68.87636093240896
 20
113.8323570959571
 30
0.0
 10
68.7829560391165
 20
114.5424644347082
 30
0.0
 10
68.68436973105194
 20
115.2329647457365
 30
0.0
 10
68.58345293573089
 20
115.8691124053504
 30
0.0
 10
68.45919948225443
 20
116.4449747151043
 30
0.0
 10
68.33316079966546
 20
116.913094728619
 30
0.0
 10
68.01628697199554
 20
117.1010719599965
 30
0.0
 10
67.64973363033891
 20
117.0168146489726
 30
0.0
 10
67.508424637925
 20
116.6274605679757
 30
0.0
 10
67.44752382307966
 20
116.3607861144365
 30
0.0
 10
67.42783040174061
 20
116.2745519254975
 30
0.0
  0
SPLINE
  5
134
330
1F
100
AcDbEntity
  8
0
  6
Continuous
 62
     7
370
    25
100
AcDbSpline
210
0.0
220
0.0
230
1.0
 70
     8
 71
     3
 72
    23
 73
    19
 74
     0
 42
0.00000001
 43
0.00000001
 40
0.0
 40
0.0
 40
0.0
 40
0.0
 40
0.005881716352076
 40
0.041676614606435
 40
0.1056920073121873
 40
0.1873833420479819
 40
0.280649176921747
 40
0.3799635047908601
 40
0.4827368663189735
 40
0.5829796930380736
 40
0.6733954283955055
 40
0.795502244051685
 40
0.8311302639103593
 40
0.8580415364929983
 40
0.8845024268982655
 40
0.9109117667010564
 40
0.9622079844889064
 40
1.0
 40
1.0
 40
1.0
 40
1.0
 10
66.8603494799953
 20
111.2603044316791
 30
0.0
 10
66.85965631015614
 20
111.2742998831819
 30
0.0
 10
66.85474465333446
 20
111.373468731799
 30
0.0
 10
66.75985567530762
 20
111.6112048635035
 30
0.0
 10
66.6984041474695
 20
112.0389914999367
 30
0.0
 10
66.60133208710505
 20
112.5988975777223
 30
0.0
 10
66.51240535398624
 20
113.245249497509
 30
0.0
 10
66.41854600083143
 20
113.9414547347385
 30
0.0
 10
66.3222997307617
 20
114.6537485616035
 30
0.0
 10
66.2256901611119
 20
115.3460144675291
 30
0.0
 10
66.0939227157821
 20
116.0745427667762
 30
0.0
 10
65.99870498843745
 20
116.6704647294996
 30
0.0
 10
65.72048648346602
 20
117.0360729158381
 30
0.0
 10
65.50244309270802
 20
117.0936202441522
 30
0.0
 10
65.3123819648223
 20
117.0289889340826
 30
0.0
 10
65.14880322830106
 20
116.8336275640744
 30
0.0
 10
65.05778596221225
 20
116.5699805891964
 30
0.0
 10
65.01590341214137
 20
116.3625470606398
 30
0.0
 10
64.99813646443897
 20
116.2745519254975
 30
0.0
  0
LINE
  5
135
330
1F
100
AcDbEntity
  8
0
  6
Continuous
 62
     7
370
    25
100
AcDbLine
 10
63.7111380733
 20
117.3745519195
 30
0.0
 11
61.7111340202
 21
117.3745519195
 31
0.0
  0
LINE
  5
136
330
1F
100
AcDbEntity
  8
0
  6
Continuous
 62
     7
370
    25
100
AcDbLine
 10
61.7111340202
 20
110.3745517035
 30
0.0
 11
63.7111380733
 21
110.3745517035
 31
0.0
  0
LINE
  5
137
330
1F
100
AcDbEntity
  8
0
  6
Continuous
 62
     7
370
    25
100
AcDbLine
 10
46.1930200494
 20
111.4745516975
 30
0.0
 11
61.7111340202
 21
111.4745516975
 31
0.0
  0
LINE
  5
138
330
1F
100
AcDbEntity
  8
0
  6
Continuous
 62
     7
370
    25
100
AcDbLine
 10
63.744948808
 20
111.4745516975
 30
0.0
 11
64.146237079
 21
111.4745516975
 31
0.0
  0
LINE
  5
139
330
1F
100
AcDbEntity
  8
0
  6
Continuous
 62
     7
370
    25
100
AcDbLine
 10
64.7449508346
 20
111.4745516975
 30
0.0
 11
66.2042066491
 21
111.4745516975
 31
0.0
  0
LINE
  5
13A
330
1F
100
AcDbEntity
  8
0
  6
Continuous
 62
     7
370
    25
100
AcDbLine
 10
66.8120697177
 20
111.4745516975
 30
0.0
 11
68.6532273925
 21
111.4745516975
 31
0.0
  0
LINE
  5
13B
330
1F
100
AcDbEntity
  8
0
  6
Continuous
 62
     7
370
    25
100
AcDbLine
 10
69.2561730779
 20
111.4745516975
 30
0.0
 11
71.1040511764
 21
111.4745516975
 31
0.0
  0
LINE
  5
13C
330
1F
100
AcDbEntity
  8
0
  6
Continuous
 62
     7
370
    25
100
AcDbLine
 10
71.7007532752
 20
111.4745516975
 30
0.0
 11
72.4779680408
 21
111.4745516975
 31
0.0
  0
LINE
  5
13D
330
1F
100
AcDbEntity
  8
0
  6
Continuous
 62
     7
370
    25
100
AcDbLine
 10
71.3522598184
 20
116.2745519255
 30
0.0
 11
70.9391102231
 21
116.2745519255
 31
0.0
  0
LINE
  5
13E
330
1F
100
AcDbEntity
  8
0
  6
Continuous
 62
     7
370
    25
100
AcDbLine
 10
70.3311726487
 20
116.2745519255
 30
0.0
 11
68.4911474622
 21
116.2745519255
 31
0.0
  0
LINE
  5
13F
330
1F
100
AcDbEntity
  8
0
  6
Continuous
 62
     7
370
    25
100
AcDbLine
 10
67.8853705562
 20
116.2745519255
 30
0.0
 11
66.0277619995
 21
116.2745519255
 31
0.0
  0
LINE
  5
140
330
1F
100
AcDbEntity
  8
0
  6
Continuous
 62
     7
370
    25
100
AcDbLine
 10
65.4410585798
 20
116.2745519255
 30
0.0
 11
64.426706735
 21
116.2745519255
 31
0.0
  0
LINE
  5
141
330
1F
100
AcDbEntity
  8
0
  6
Continuous
 62
     7
370
    25
100
AcDbLine
 10
63.8347134031
 20
116.2745519255
 30
0.0
 11
63.7111380733
 21
116.2745519255
 31
0.0
  0
LINE
  5
142
330
1F
100
AcDbEntity
  8
0
  6
Continuous
 62
     7
370
    25
100
AcDbLine
 10
61.7111340202
 20
116.2745519255
 30
0.0
 11
45.0987532771
 21
116.2745519255
 31
0.0
  0
LINE
  5
143
330
1F
100
AcDbEntity
  8
0
  6
Continuous
 62
     7
370
    25
100
AcDbLine
 10
63.7111380733
 20
116.3531611387
 30
0.0
 11
63.7111380733
 21
117.3745519195
 31
0.0
  0
LINE
  5
144
330
1F
100
AcDbEntity
  8
0
  6
Continuous
 62
     7
370
    25
100
AcDbLine
 10
63.7111380733
 20
110.3745517035
 30
0.0
 11
63.7111380733
 21
116.3531611387
 31
0.0
  0
LINE
  5
145
330
1F
100
AcDbEntity
  8
0
  6
Continuous
 62
     7
370
    25
100
AcDbLine
 10
61.7111340202
 20
116.3531611387
 30
0.0
 11
61.7111340202
 21
117.3745519195
 31
0.0
  0
LINE
  5
146
330
1F
100
AcDbEntity
  8
0
  6
Continuous
 62
     7
370
    25
100
AcDbLine
 10
61.7111340202
 20
110.3745517035
 30
0.0
 11
61.7111340202
 21
116.3531611387
 31
0.0
  0
LINE
  5
147
330
1F
100
AcDbEntity
  8
0
  6
Continuous
 62
     7
370
    25
100
AcDbLine
 10
30.2922754243
 20
111.4745516975
 30
0.0
 11
43.1930302337
 21
111.4745516975
 31
0.0
  0
LINE
  5
148
330
1F
100
AcDbEntity
  8
0
  6
Continuous
 62
     7
370
    25
100
AcDbLine
 10
42.0987634615
 20
116.2745519255
 30
0.0
 11
30.2922754243
 21
116.2745519255
 31
0.0
  0
LINE
  5
149
330
1F
100
AcDbEntity
  8
0
  6
Continuous
 62
     7
370
    25
100
AcDbLine
 10
30.2922754243
 20
116.2745519255
 30
0.0
 11
28.9066313461
 21
113.8745518115
 31
0.0
  0
LINE
  5
14A
330
1F
100
AcDbEntity
  8
0
  6
Continuous
 62
     7
370
    25
100
AcDbLine
 10
28.9066313461
 20
113.8745518115
 30
0.0
 11
30.2922754243
 21
111.4745516975
 31
0.0
  0
LINE
  5
14B
330
1F
100
AcDbEntity
  8
0
  6
Continuous
 62
     7
370
    25
100
AcDbLine
 10
30.2922754243
 20
113.8745518115
 30
0.0
 11
30.2922754243
 21
116.2745519255
 31
0.0
  0
LINE
  5
14C
330
1F
100
AcDbEntity
  8
0
  6
Continuous
 62
     7
370
    25
100
AcDbLine
 10
30.2922754243
 20
111.4745516975
 30
0.0
 11
30.2922754243
 21
113.8745518115
 31
0.0
  0
DIMENSION
  5
14D
330
1F
100
AcDbEntity
  8
0
  6
Continuous
 62
     7
370
    18
100
AcDbDimension
  2
_D
 10
85.8387350312
 20
120.2745518115
 30
0.0
 11
85.8387350312
 21
127.5417857607
 31
0.0
 70
   160
  1
%%c<>
 71
     2
 42
-1.0
  3
SLDDIMSTYLE0
100
AcDbAlignedDimension
 13
89.9279733154
 23
107.4745518115
 33
0.0
 14
89.9279733154
 24
120.2745518115
 34
0.0
 50
90.0
100
AcDbRotatedDimension
  0
DIMENSION
  5
160
330
1F
100
AcDbEntity
  8
0
  6
Continuous
 62
     7
370
    18
100
AcDbDimension
  2
_D_1
 10
61.7111378473
 20
152.3015935466
 30
0.0
 11
45.3088867362
 21
152.3015935466
 31
0.0
 70
   160
  1
L1=50～1000
 71
     2
 42
-1.0
  3
SLDDIMSTYLE1
100
AcDbAlignedDimension
 13
28.9066356252
 23
113.8745518115
 33
0.0
 14
61.7111378473
 24
117.3745518115
 34
0.0
100
AcDbRotatedDimension
  0
DIMENSION
  5
16B
330
1F
100
AcDbEntity
  8
0
  6
Continuous
 62
     7
370
    18
100
AcDbDimension
  2
_D_2
 10
61.7111378473
 20
126.1470268344
 30
0.0
 11
55.861684051
 21
126.1470268344
 31
0.0
 70
   160
  1
<>
 71
     2
 42
-1.0
  3
SLDDIMSTYLE2
100
AcDbAlignedDimension
 13
63.7111378473
 23
117.3745518115
 33
0.0
 14
61.7111378473
 24
117.3745518115
 34
0.0
100
AcDbRotatedDimension
  0
DIMENSION
  5
178
330
1F
100
AcDbEntity
  8
0
  6
Continuous
 62
     7
370
    18
100
AcDbDimension
  2
_D_3
 10
58.175378215
 20
110.3745518115
 30
0.0
 11
58.175378215
 21
104.2251110247
 31
0.0
 70
   160
  1
<>
 71
     2
 42
-1.0
  3
SLDDIMSTYLE1
100
AcDbAlignedDimension
 13
61.7111378473
 23
117.3745518115
 33
0.0
 14
61.7111378473
 24
110.3745518115
 34
0.0
 50
90.0
100
AcDbRotatedDimension
  0
DIMENSION
  5
183
330
1F
100
AcDbEntity
  8
0
  6
Continuous
 62
     7
370
    18
100
AcDbDimension
  2
_D_4
 10
105.9279733154
 20
152.3015935466
 30
0.0
 11
83.8195555813
 21
152.3015935466
 31
0.0
 70
   160
  1
50
 71
     2
 42
-1.0
  3
SLDDIMSTYLE1
100
AcDbAlignedDimension
 13
61.7111378473
 23
117.3745518115
 33
0.0
 14
105.9279733154
 24
118.8745518115
 34
0.0
100
AcDbRotatedDimension
  0
DIMENSION
  5
18D
330
1F
100
AcDbEntity
  8
0
  6
Continuous
 62
     7
370
    18
100
AcDbDimension
  2
_D_5
 10
145.9279733154
 20
152.3015935466
 30
0.0
 11
125.9279733154
 21
152.3015935466
 31
0.0
 70
   160
  1
<>
 71
     2
 42
-1.0
  3
SLDDIMSTYLE1
100
AcDbAlignedDimension
 13
105.9279733154
 23
118.8745518115
 33
0.0
 14
145.9279733154
 24
117.8745518115
 34
0.0
100
AcDbRotatedDimension
  0
DIMENSION
  5
197
330
1F
100
AcDbEntity
  8
0
  6
Continuous
 62
     7
370
    18
100
AcDbDimension
  2
_D_6
 10
141.3532289431
 20
117.8745518115
 30
0.0
 11
141.3532289431
 21
134.3015935466
 31
0.0
 70
   160
  1
%%c<>
 71
     2
 42
-1.0
  3
SLDDIMSTYLE1
100
AcDbAlignedDimension
 13
145.9279733154
 23
109.8745518115
 33
0.0
 14
145.9279733154
 24
117.8745518115
 34
0.0
 50
90.0
100
AcDbRotatedDimension
  0
DIMENSION
  5
1A2
330
1F
100
AcDbEntity
  8
0
  6
Continuous
 62
     7
370
    18
100
AcDbDimension
  2
_D_7
 10
39.4686529735
 20
111.4745518115
 30
0.0
 11
39.4686529735
 21
134.3015935466
 31
0.0
 70
   160
  1
%%c<>
 71
     2
 42
-1.0
  3
SLDDIMSTYLE2
100
AcDbAlignedDimension
 13
30.2922762712
 23
116.2745518115
 33
0.0
 14
30.2922762712
 24
111.4745518115
 34
0.0
 50
90.0
100
AcDbRotatedDimension
  0
DIMENSION
  5
1AE
330
1F
100
AcDbEntity
  8
0
  6
Continuous
 62
     7
370
    18
100
AcDbDimension
  2
_D_8
 10
105.9279733154
 20
131.1446639717
 30
0.0
 11
97.9279733154
 21
131.1446639717
 31
0.0
 70
   160
  1
(<>)
 71
     2
 42
-1.0
  3
SLDDIMSTYLE1
100
AcDbAlignedDimension
 13
89.9279733154
 23
120.8745518115
 33
0.0
 14
105.9279733154
 24
118.8745518115
 34
0.0
100
AcDbRotatedDimension
  0
DIMENSION
  5
1BA
330
1F
100
AcDbEntity
  8
0
  6
Continuous
 62
     7
370
    18
100
AcDbDimension
  2
_D_9
 10
81.2003235633
 20
120.8745518115
 30
0.0
 11
81.2003235633
 21
126.1470268344
 31
0.0
 70
   160
  1
%%c<>
 71
     2
 42
-1.0
  3
SLDDIMSTYLE1
100
AcDbAlignedDimension
 13
89.9279733154
 23
106.8745518115
 33
0.0
 14
89.9279733154
 24
120.8745518115
 34
0.0
 50
90.0
100
AcDbRotatedDimension
  0
DIMENSION
  5
1C6
330
1F
100
AcDbEntity
  8
0
  6
Continuous
 62
     7
370
    18
100
AcDbDimension
  2
_D_10
 10
262.0077002605
 20
152.3015935466
 30
0.0
 11
203.9678367879
 21
152.3015935466
 31
0.0
 70
   160
  1
L=100～10000
 71
     2
 42
-1.0
  3
SLDDIMSTYLE1
100
AcDbAlignedDimension
 13
145.9279733154
 23
117.8745518115
 33
0.0
 14
262.0077002605
 24
125.501706743
 34
0.0
100
AcDbRotatedDimension
  0
DIMENSION
  5
1D0
330
1F
100
AcDbEntity
  8
0
  6
Continuous
 62
     7
370
    18
100
AcDbDimension
  2
_D_11
 10
262.0077002605
 20
134.3015935466
 30
0.0
 11
229.6873648772
 21
134.3015935466
 31
0.0
 70
   160
  1
(80)
 71
     2
 42
-1.0
  3
SLDDIMSTYLE1
100
AcDbAlignedDimension
 13
197.3670294939
 23
116.3745518115
 33
0.0
 14
262.0077002605
 24
125.501706743
 34
0.0
100
AcDbRotatedDimension
  0
INSERT
  5
1E1
330
1F
100
AcDbEntity
  8
0
  6
Continuous
 62
     7
370
    18
100
AcDbBlockReference
  2
SW_NOTE_0_2
 10
22.3665207877
 20
87.391259464
 30
0.0
  0
LEADER
  5
1E3
330
1F
100
AcDbEntity
  8
0
  6
Continuous
 62
     7
370
    18
100
AcDbLeader
  3
SLDDIMSTYLE3
 76
     2
 10
29.5174426167
 20
112.8166030687
 30
0.0
 10
22.3665207877
 20
87.391259464
 30
0.0
  0
INSERT
  5
1E9
330
1F
100
AcDbEntity
  8
0
  6
Continuous
 62
     7
370
    18
100
AcDbBlockReference
  2
SW_NOTE_0_3
 10
51.6881838074
 20
87.391259464
 30
0.0
  0
LEADER
  5
1EA
330
1F
100
AcDbEntity
  8
0
  6
Continuous
 62
     7
370
    18
100
AcDbLeader
  3
SLDDIMSTYLE3
 76
     2
 10
39.8542720762
 20
111.4745518115
 30
0.0
 10
51.6881838074
 20
87.391259464
 30
0.0
  0
INSERT
  5
1F0
330
1F
100
AcDbEntity
  8
0
  6
Continuous
 62
     7
370
    18
100
AcDbBlockReference
  2
SW_NOTE_0_4
 10
102.7822757112
 20
87.391259464
 30
0.0
  0
LEADER
  5
1F1
330
1F
100
AcDbEntity
  8
0
  6
Continuous
 62
     7
370
    18
100
AcDbLeader
  3
SLDDIMSTYLE3
 76
     2
 10
94.2033091897
 20
106.8745518115
 30
0.0
 10
102.7822757112
 20
87.391259464
 30
0.0
  0
INSERT
  5
1F7
330
1F
100
AcDbEntity
  8
0
  6
Continuous
 62
     7
370
    18
100
AcDbBlockReference
  2
SW_NOTE_0_5
 10
113.5043763676
 20
98.2227693108
 30
0.0
  0
LEADER
  5
1F8
330
1F
100
AcDbEntity
  8
0
  6
Continuous
 62
     7
370
    18
100
AcDbLeader
  3
SLDDIMSTYLE3
 76
     2
 10
107.8299280976
 20
111.3745518115
 30
0.0
 10
113.5043763676
 20
98.2227693108
 30
0.0
  0
INSERT
  5
1FE
330
1F
100
AcDbEntity
  8
0
  6
Continuous
 62
     7
370
    18
100
AcDbBlockReference
  2
SW_NOTE_0_6
 10
134.2921225383
 20
98.2227693108
 30
0.0
  0
LEADER
  5
1FF
330
1F
100
AcDbEntity
  8
0
  6
Continuous
 62
     7
370
    18
100
AcDbLeader
  3
SLDDIMSTYLE3
 76
     2
 10
129.7572316733
 20
109.8868562584
 30
0.0
 10
134.2921225383
 20
98.2227693108
 30
0.0
  0
INSERT
  5
206
330
1F
100
AcDbEntity
  8
0
  6
Continuous
 62
     7
370
    18
100
AcDbBlockReference
  2
SW_NOTE_0_7
 10
156.3927789934
 20
87.3645758207
 30
0.0
  0
LEADER
  5
207
330
1F
100
AcDbEntity
  8
0
  6
Continuous
 62
     7
370
    18
100
AcDbLeader
  3
SLDDIMSTYLE3
 76
     2
 10
145.9279733154
 20
109.8745518115
 30
0.0
 10
156.3927789934
 20
87.3645758207
 30
0.0
  0
INSERT
  5
20D
330
1F
100
AcDbEntity
  8
0
  6
Continuous
 62
     7
370
    18
100
AcDbBlockReference
  2
SW_NOTE_0_8
 10
192.3884026258
 20
87.391259464
 30
0.0
  0
LEADER
  5
20E
330
1F
100
AcDbEntity
  8
0
  6
Continuous
 62
     7
370
    18
100
AcDbLeader
  3
SLDDIMSTYLE3
 76
     2
 10
179.6267501612
 20
111.4745518115
 30
0.0
 10
192.3884026258
 20
87.391259464
 30
0.0
  0
INSERT
  5
214
330
1F
100
AcDbEntity
  8
0
  6
Continuous
 62
     7
370
    18
100
AcDbBlockReference
  2
SW_NOTE_0_9
 10
203.329321663
 20
98.2227693108
 30
0.0
  0
LEADER
  5
215
330
1F
100
AcDbEntity
  8
0
  6
Continuous
 62
     7
370
    18
100
AcDbLeader
  3
SLDDIMSTYLE3
 76
     2
 10
195.5958902355
 20
111.3745518115
 30
0.0
 10
203.329321663
 20
98.2227693108
 30
0.0
  0
INSERT
  5
21B
330
1F
100
AcDbEntity
  8
0
  6
Continuous
 62
     7
370
    18
100
AcDbBlockReference
  2
SW_NOTE_0_10
 10
253.4675855813
 20
87.391259464
 30
0.0
  0
LEADER
  5
21C
330
1F
100
AcDbEntity
  8
0
  6
Continuous
 62
     7
370
    18
100
AcDbLeader
  3
SLDDIMSTYLE3
 76
     2
 10
258.3196130317
 20
103.4475100764
 30
0.0
 10
253.4675855813
 20
87.391259464
 30
0.0
  0
MTEXT
  5
21D
330
1F
100
AcDbEntity
  8
0
  6
Continuous
 62
     7
370
    18
100
AcDbMText
 10
23.8358717763
 20
86.070927483
 30
0.0
 40
2.6458333333
 41
0.0
 71
     1
 72
     1
  1
(ｱﾙｺﾞﾝ溶接)
  7
SLDTEXTSTYLE1
 73
     1
 44
1.0
  0
MTEXT
  5
21E
330
1F
100
AcDbEntity
  8
0
  6
Continuous
 62
     7
370
    18
100
AcDbMText
 10
51.5322560611
 20
86.070927483
 30
0.0
 40
2.6458333333
 41
0.0
 71
     1
 72
     1
  1
(SUS316)
  7
SLDTEXTSTYLE0
 73
     1
 44
1.0
  0
MTEXT
  5
21F
330
1F
100
AcDbEntity
  8
0
  6
Continuous
 62
     7
370
    18
100
AcDbMText
 10
72.4011705953
 20
97.21181812
 30
0.0
 40
2.6458333333
 41
0.0
 71
     1
 72
     1
  1
(SUS304)
  7
SLDTEXTSTYLE0
 73
     1
 44
1.0
  0
MTEXT
  5
220
330
1F
100
AcDbEntity
  8
0
  6
Continuous
 62
     7
370
    18
100
AcDbMText
 10
106.9235070837
 20
86.070927483
 30
0.0
 40
2.6458333333
 41
0.0
 71
     1
 72
     1
  1
(SUS304)
  7
SLDTEXTSTYLE0
 73
     1
 44
1.0
  0
MTEXT
  5
221
330
1F
100
AcDbEntity
  8
0
  6
Continuous
 62
     7
370
    18
100
AcDbMText
 10
156.7029546096
 20
86.070927483
 30
0.0
 40
2.6458333333
 41
0.0
 71
     1
 72
     1
  1
(耐熱温度120℃)
  7
SLDTEXTSTYLE1
 73
     1
 44
1.0
  0
MTEXT
  5
222
330
1F
100
AcDbEntity
  8
0
  6
Continuous
 62
     7
370
    18
100
AcDbMText
 10
191.8931005681
 20
86.070927483
 30
0.0
 40
2.6458333333
 41
0.0
 71
     1
 72
     1
  1
(補償導線)
  7
SLDTEXTSTYLE1
 73
     1
 44
1.0
  0
MTEXT
  5
223
330
1F
100
AcDbEntity
  8
0
  6
Continuous
 62
     7
370
    18
100
AcDbMText
 10
269.2647092431
 20
123.2139839424
 30
0.0
 40
2.6458333333
 41
0.0
 71
     1
 72
     1
  1
赤（+）
  7
SLDTEXTSTYLE1
 73
     1
 44
1.0
  0
MTEXT
  5
224
330
1F
100
AcDbEntity
  8
0
  6
Continuous
 62
     7
370
    18
100
AcDbMText
 10
269.2647092431
 20
107.8715523409
 30
0.0
 40
2.6458333333
 41
0.0
 71
     1
 72
     1
  1
黒（-）
  7
SLDTEXTSTYLE1
 73
     1
 44
1.0
  0
INSERT
  5
22A
330
1F
100
AcDbEntity
  8
0
  6
Continuous
 62
     7
370
    18
100
AcDbBlockReference
  2
SW_NOTE_0_11
 10
72.0382932166
 20
98.2227693108
 30
0.0
  0
LEADER
  5
22B
330
1F
100
AcDbEntity
  8
0
  6
Continuous
 62
     7
370
    18
100
AcDbLeader
  3
SLDDIMSTYLE3
 76
     2
 10
66.9443185182
 20
110.8759745278
 30
0.0
 10
72.0382932166
 20
98.2227693108
 30
0.0
  0
INSERT
  5
237
330
1F
100
AcDbEntity
  8
0
  6
Continuous
 62
     7
370
    18
100
AcDbBlockReference
  2
SW_CENTERMARKSYMBOL_0
 10
262.0077033375
 20
121.4015935261
 30
0.0
  0
INSERT
  5
243
330
1F
100
AcDbEntity
  8
0
  6
Continuous
 62
     7
370
    18
100
AcDbBlockReference
  2
SW_CENTERMARKSYMBOL_1
 10
262.0077033375
 20
106.3475100969
 30
0.0
  0
ARC
  5
244
330
1F
100
AcDbEntity
  8
0
  6
HIDDEN
 62
     7
370
    18
100
AcDbCircle
 10
49.3358919622
 20
116.6620518115
 30
0.0
 40
7.247499999999996
100
AcDbArc
 50
157.380135052
 51
202.619864948
  0
ARC
  5
245
330
1F
100
AcDbEntity
  8
0
  6
HIDDEN
 62
     7
370
    18
100
AcDbCircle
 10
35.9558919622
 20
111.0870518115
 30
0.0
 40
7.247500000000008
100
AcDbArc
 50
337.380135052
 51
22.619864948
  0
ARC
  5
246
330
1F
100
AcDbEntity
  8
0
  6
HIDDEN
 62
     7
370
    18
100
AcDbCircle
 10
52.3358919622
 20
116.6620518115
 30
0.0
 40
7.247500000000002
100
AcDbArc
 50
157.380135052
 51
202.619864948
  0
ARC
  5
247
330
1F
100
AcDbEntity
  8
0
  6
HIDDEN
 62
     7
370
    18
100
AcDbCircle
 10
38.9558919622
 20
111.0870518115
 30
0.0
 40
7.247500000000001
100
AcDbArc
 50
337.380135052
 51
22.619864948
  0
ARC
  5
248
330
1F
100
AcDbEntity
  8
0
  6
HIDDEN
 62
     7
370
    18
100
AcDbCircle
 10
78.9965475453
 20
116.5080684847
 30
0.0
 40
7.647856649763646
100
AcDbArc
 50
157.380135052
 51
202.619864948
  0
ARC
  5
249
330
1F
100
AcDbEntity
  8
0
  6
HIDDEN
 62
     7
370
    18
100
AcDbCircle
 10
64.8774275765
 20
110.625101831
 30
0.0
 40
7.647856649763663
100
AcDbArc
 50
337.380135052
 51
22.619864948
  0
ARC
  5
24A
330
1F
100
AcDbEntity
  8
0
  6
HIDDEN
 62
     7
370
    18
100
AcDbCircle
 10
81.6269875609
 20
116.6620518115
 30
0.0
 40
7.247499999999996
100
AcDbArc
 50
157.380135052
 51
202.619864948
  0
ARC
  5
24B
330
1F
100
AcDbEntity
  8
0
  6
HIDDEN
 62
     7
370
    18
100
AcDbCircle
 10
68.2469875609
 20
111.0870518115
 30
0.0
 40
7.247500000000015
100
AcDbArc
 50
337.380135052
 51
22.619864948
  0
ARC
  5
24C
330
1F
100
AcDbEntity
  8
0
  6
HIDDEN
 62
     7
370
    18
100
AcDbCircle
 10
169.3357728269
 20
116.6620518115
 30
0.0
 40
7.247499999999996
100
AcDbArc
 50
157.380135052
 51
202.619864948
  0
ARC
  5
24D
330
1F
100
AcDbEntity
  8
0
  6
HIDDEN
 62
     7
370
    18
100
AcDbCircle
 10
155.9557728269
 20
111.0870518115
 30
0.0
 40
7.247500000000001
100
AcDbArc
 50
337.380135052
 51
22.619864948
  0
ARC
  5
24E
330
1F
100
AcDbEntity
  8
0
  6
HIDDEN
 62
     7
370
    18
100
AcDbCircle
 10
172.3357728269
 20
116.6620518115
 30
0.0
 40
7.247499999999996
100
AcDbArc
 50
157.380135052
 51
202.619864948
  0
ARC
  5
24F
330
1F
100
AcDbEntity
  8
0
  6
HIDDEN
 62
     7
370
    18
100
AcDbCircle
 10
158.9557728269
 20
111.0870518115
 30
0.0
 40
7.247500000000001
100
AcDbArc
 50
337.380135052
 51
22.619864948
  0
ARC
  5
250
330
1F
100
AcDbEntity
  8
0
  6
HIDDEN
 62
     7
370
    18
100
AcDbCircle
 10
237.3247249786
 20
117.4687962562
 30
0.0
 40
9.34503555618111
100
AcDbArc
 50
157.380135052
 51
202.619864948
  0
ARC
  5
251
330
1F
100
AcDbEntity
  8
0
  6
HIDDEN
 62
     7
370
    18
100
AcDbCircle
 10
220.0723516441
 20
110.2803073668
 30
0.0
 40
9.34503555618111
100
AcDbArc
 50
337.380135052
 51
22.619864948
  0
ARC
  5
252
330
1F
100
AcDbEntity
  8
0
  6
HIDDEN
 62
     7
370
    18
100
AcDbCircle
 10
242.4564983803
 20
118.3570351736
 30
0.0
 40
11.65445674140051
100
AcDbArc
 50
157.380135052
 51
202.619864948
  0
ARC
  5
253
330
1F
100
AcDbEntity
  8
0
  6
HIDDEN
 62
     7
370
    18
100
AcDbCircle
 10
220.9405782424
 20
109.3920684494
 30
0.0
 40
11.65445674140051
100
AcDbArc
 50
337.380135052
 51
22.619864948
  0
LINE
  5
254
330
1F
100
AcDbEntity
  8
0
  6
CENTERX2
 62
     7
370
    18
100
AcDbLine
 10
25.6312220052
 20
113.8745518115
 30
0.0
 11
42.645889397
 21
113.8745518115
 31
0.0
  0
LINE
  5
255
330
1F
100
AcDbEntity
  8
0
  6
CENTERX2
 62
     7
370
    18
100
AcDbLine
 10
45.6458941139
 20
113.8745518115
 30
0.0
 11
71.8164160884
 21
113.8745518115
 31
0.0
  0
LINE
  5
256
330
1F
100
AcDbEntity
  8
0
  6
CENTERX2
 62
     7
370
    18
100
AcDbLine
 10
74.936993393
 20
113.8745518115
 30
0.0
 11
162.6457720724
 21
113.8745518115
 31
0.0
  0
LINE
  5
257
330
1F
100
AcDbEntity
  8
0
  6
CENTERX2
 62
     7
370
    18
100
AcDbLine
 10
165.6457734638
 20
113.8745518115
 30
0.0
 11
228.6985320382
 21
113.8745518115
 31
0.0
  0
LINE
  5
258
330
1F
100
AcDbEntity
  8
0
  6
CENTERX2
 62
     7
370
    18
100
AcDbLine
 10
231.698532853
 20
113.8745518115
 30
0.0
 11
269.1359122132
 21
113.8745518115
 31
0.0
  0
ENDSEC
  0
SECTION
  2
OBJECTS
  0
DICTIONARY
  5
C
330
0
100
AcDbDictionary
281
     1
  3
ACAD_GROUP
350
D
  3
ACAD_LAYOUT
350
1A
  3
ACAD_MLINESTYLE
350
17
  3
ACAD_PLOTSETTINGS
350
19
  3
ACAD_PLOTSTYLENAME
350
E
  3
ACAD_SCALELIST
350
47
  3
DWGPROPS
350
259
  0
DICTIONARY
  5
D
102
{ACAD_REACTORS
330
C
102
}
330
C
100
AcDbDictionary
281
     1
  0
DICTIONARY
  5
1A
102
{ACAD_REACTORS
330
C
102
}
330
C
100
AcDbDictionary
281
     1
  3
Layout1
350
1E
  3
Layout2
350
26
  3
Model
350
22
  0
DICTIONARY
  5
17
102
{ACAD_REACTORS
330
C
102
}
330
C
100
AcDbDictionary
281
     1
  3
Standard
350
18
  0
DICTIONARY
  5
19
102
{ACAD_REACTORS
330
C
102
}
330
C
100
AcDbDictionary
281
     1
  0
ACDBDICTIONARYWDFLT
  5
E
102
{ACAD_REACTORS
330
C
102
}
330
C
100
AcDbDictionary
281
     1
  3
Normal
350
F
100
AcDbDictionaryWithDefault
340
F
  0
DICTIONARY
  5
47
102
{ACAD_REACTORS
330
C
102
}
330
C
100
AcDbDictionary
281
     1
  3
A0
350
48
  3
A1
350
49
  3
A2
350
4A
  3
A3
350
4B
  3
A4
350
4C
  3
A5
350
4D
  3
A6
350
4E
  3
A7
350
4F
  3
A8
350
50
  3
A9
350
51
  3
B0
350
52
  3
B1
350
53
  3
B2
350
54
  3
B3
350
55
  3
B4
350
56
  3
B5
350
57
  3
B6
350
58
  3
B7
350
59
  3
B8
350
5A
  3
B9
350
5B
  3
C0
350
5C
  3
C1
350
5D
  3
C2
350
5E
  3
C3
350
5F
  3
C4
350
60
  3
C5
350
61
  3
C6
350
62
  3
C7
350
63
  3
C8
350
64
  3
C9
350
65
  3
D0
350
66
  3
D1
350
67
  3
D2
350
68
  0
XRECORD
  5
259
102
{ACAD_REACTORS
330
C
102
}
330
C
100
AcDbXrecord
280
     1
  1
DWGPROPS COOKIE
  2

  3

  4

  6

  7

  8
p870382
  9

300
=
301
=
302
=
303
=
304
=
305
=
306
=
307
=
308
=
309
=
 40
0.0
 41
2460340.296846655
 42
2460340.296849549
  1

 90
        0
  0
LAYOUT
  5
1E
102
{ACAD_REACTORS
330
1A
102
}
330
1A
100
AcDbPlotSettings
  1

  2
none_device
  4

  6

 40
0.0
 41
0.0
 42
0.0
 43
0.0
 44
0.0
 45
0.0
 46
0.0
 47
0.0
 48
0.0
 49
0.0
140
0.0
141
0.0
142
1.0
143
1.0
 70
   688
 72
     1
 73
     0
 74
     5
  7

 75
    16
147
1.0
148
0.0
149
0.0
100
AcDbLayout
  1
Layout1
 70
     1
 71
     1
 10
0.0
 20
0.0
 11
420.0
 21
297.0
 12
0.0
 22
0.0
 32
0.0
 14
1.0000000000E+20
 24
1.0000000000E+20
 34
1.0000000000E+20
 15
-1.0000000000E+20
 25
-1.0000000000E+20
 35
-1.0000000000E+20
146
0.0
 13
0.0
 23
0.0
 33
0.0
 16
1.0
 26
0.0
 36
0.0
 17
0.0
 27
1.0
 37
0.0
 76
     0
330
1B
  0
LAYOUT
  5
26
102
{ACAD_REACTORS
330
1A
102
}
330
1A
100
AcDbPlotSettings
  1

  2
none_device
  4

  6

 40
0.0
 41
0.0
 42
0.0
 43
0.0
 44
0.0
 45
0.0
 46
0.0
 47
0.0
 48
0.0
 49
0.0
140
0.0
141
0.0
142
1.0
143
1.0
 70
   688
 72
     1
 73
     0
 74
     5
  7

 75
    16
147
1.0
148
0.0
149
0.0
100
AcDbLayout
  1
Layout2
 70
     1
 71
     2
 10
0.0
 20
0.0
 11
0.0
 21
0.0
 12
0.0
 22
0.0
 32
0.0
 14
0.0
 24
0.0
 34
0.0
 15
0.0
 25
0.0
 35
0.0
146
0.0
 13
0.0
 23
0.0
 33
0.0
 16
1.0
 26
0.0
 36
0.0
 17
0.0
 27
1.0
 37
0.0
 76
     0
330
23
  0
LAYOUT
  5
22
102
{ACAD_REACTORS
330
1A
102
}
330
1A
100
AcDbPlotSettings
  1

  2
none_device
  4
Letter_(8.50_x_11.00_Inches)
  6

 40
6.35
 41
6.35
 42
6.35000508
 43
6.35000508
 44
215.9
 45
279.4
 46
0.0
 47
0.0
 48
0.0
 49
0.0
140
0.0
141
0.0
142
1.0
143
1.0
 70
  1712
 72
     1
 73
     0
 74
     0
  7

 75
     0
147
1.0
148
0.0
149
0.0
100
AcDbLayout
  1
Model
 70
     1
 71
     0
 10
0.0
 20
0.0
 11
297.0
 21
210.0
 12
0.0
 22
0.0
 32
0.0
 14
0.0
 24
0.0
 34
0.0
 15
297.0
 25
210.0
 35
0.0
146
0.0
 13
0.0
 23
0.0
 33
0.0
 16
1.0
 26
0.0
 36
0.0
 17
0.0
 27
1.0
 37
0.0
 76
     0
330
1F
331
29
  0
MLINESTYLE
  5
18
102
{ACAD_REACTORS
330
17
102
}
330
17
100
AcDbMlineStyle
  2
Standard
 70
     0
  3

 62
   256
 51
90.0
 52
90.0
 71
     2
 49
0.5
 62
   256
  6
BYLAYER
 49
-0.5
 62
   256
  6
BYLAYER
  0
ACDBPLACEHOLDER
  5
F
102
{ACAD_REACTORS
330
E
102
}
330
E
  0
SCALE
  5
48
102
{ACAD_REACTORS
330
47
102
}
330
47
100
AcDbScale
 70
     0
300
1:1
140
1.0
141
1.0
290
     1
  0
SCALE
  5
49
102
{ACAD_REACTORS
330
47
102
}
330
47
100
AcDbScale
 70
     0
300
1:2
140
1.0
141
2.0
290
     0
  0
SCALE
  5
4A
102
{ACAD_REACTORS
330
47
102
}
330
47
100
AcDbScale
 70
     0
300
1:4
140
1.0
141
4.0
290
     0
  0
SCALE
  5
4B
102
{ACAD_REACTORS
330
47
102
}
330
47
100
AcDbScale
 70
     0
300
1:5
140
1.0
141
5.0
290
     0
  0
SCALE
  5
4C
102
{ACAD_REACTORS
330
47
102
}
330
47
100
AcDbScale
 70
     0
300
1:8
140
1.0
141
8.0
290
     0
  0
SCALE
  5
4D
102
{ACAD_REACTORS
330
47
102
}
330
47
100
AcDbScale
 70
     0
300
1:10
140
1.0
141
10.0
290
     0
  0
SCALE
  5
4E
102
{ACAD_REACTORS
330
47
102
}
330
47
100
AcDbScale
 70
     0
300
1:16
140
1.0
141
16.0
290
     0
  0
SCALE
  5
4F
102
{ACAD_REACTORS
330
47
102
}
330
47
100
AcDbScale
 70
     0
300
1:20
140
1.0
141
20.0
290
     0
  0
SCALE
  5
50
102
{ACAD_REACTORS
330
47
102
}
330
47
100
AcDbScale
 70
     0
300
1:30
140
1.0
141
30.0
290
     0
  0
SCALE
  5
51
102
{ACAD_REACTORS
330
47
102
}
330
47
100
AcDbScale
 70
     0
300
1:40
140
1.0
141
40.0
290
     0
  0
SCALE
  5
52
102
{ACAD_REACTORS
330
47
102
}
330
47
100
AcDbScale
 70
     0
300
1:50
140
1.0
141
50.0
290
     0
  0
SCALE
  5
53
102
{ACAD_REACTORS
330
47
102
}
330
47
100
AcDbScale
 70
     0
300
1:100
140
1.0
141
100.0
290
     0
  0
SCALE
  5
54
102
{ACAD_REACTORS
330
47
102
}
330
47
100
AcDbScale
 70
     0
300
2:1
140
2.0
141
1.0
290
     0
  0
SCALE
  5
55
102
{ACAD_REACTORS
330
47
102
}
330
47
100
AcDbScale
 70
     0
300
4:1
140
4.0
141
1.0
290
     0
  0
SCALE
  5
56
102
{ACAD_REACTORS
330
47
102
}
330
47
100
AcDbScale
 70
     0
300
8:1
140
8.0
141
1.0
290
     0
  0
SCALE
  5
57
102
{ACAD_REACTORS
330
47
102
}
330
47
100
AcDbScale
 70
     0
300
10:1
140
10.0
141
1.0
290
     0
  0
SCALE
  5
58
102
{ACAD_REACTORS
330
47
102
}
330
47
100
AcDbScale
 70
     0
300
100:1
140
100.0
141
1.0
290
     0
  0
SCALE
  5
59
102
{ACAD_REACTORS
330
47
102
}
330
47
100
AcDbScale
 70
     0
300
1/128" = 1'-0"
140
0.0078125
141
12.0
290
     0
  0
SCALE
  5
5A
102
{ACAD_REACTORS
330
47
102
}
330
47
100
AcDbScale
 70
     0
300
1/64" = 1'-0"
140
0.015625
141
12.0
290
     0
  0
SCALE
  5
5B
102
{ACAD_REACTORS
330
47
102
}
330
47
100
AcDbScale
 70
     0
300
1/32" = 1'-0"
140
0.03125
141
12.0
290
     0
  0
SCALE
  5
5C
102
{ACAD_REACTORS
330
47
102
}
330
47
100
AcDbScale
 70
     0
300
1/16" = 1'-0"
140
0.0625
141
12.0
290
     0
  0
SCALE
  5
5D
102
{ACAD_REACTORS
330
47
102
}
330
47
100
AcDbScale
 70
     0
300
3/32" = 1'-0"
140
0.09375
141
12.0
290
     0
  0
SCALE
  5
5E
102
{ACAD_REACTORS
330
47
102
}
330
47
100
AcDbScale
 70
     0
300
1/8" = 1'-0"
140
0.125
141
12.0
290
     0
  0
SCALE
  5
5F
102
{ACAD_REACTORS
330
47
102
}
330
47
100
AcDbScale
 70
     0
300
3/16" = 1'-0"
140
0.1875
141
12.0
290
     0
  0
SCALE
  5
60
102
{ACAD_REACTORS
330
47
102
}
330
47
100
AcDbScale
 70
     0
300
1/4" = 1'-0"
140
0.25
141
12.0
290
     0
  0
SCALE
  5
61
102
{ACAD_REACTORS
330
47
102
}
330
47
100
AcDbScale
 70
     0
300
3/8" = 1'-0"
140
0.375
141
12.0
290
     0
  0
SCALE
  5
62
102
{ACAD_REACTORS
330
47
102
}
330
47
100
AcDbScale
 70
     0
300
1/2" = 1'-0"
140
0.5
141
12.0
290
     0
  0
SCALE
  5
63
102
{ACAD_REACTORS
330
47
102
}
330
47
100
AcDbScale
 70
     0
300
3/4" = 1'-0"
140
0.75
141
12.0
290
     0
  0
SCALE
  5
64
102
{ACAD_REACTORS
330
47
102
}
330
47
100
AcDbScale
 70
     0
300
1" = 1'-0"
140
1.0
141
12.0
290
     0
  0
SCALE
  5
65
102
{ACAD_REACTORS
330
47
102
}
330
47
100
AcDbScale
 70
     0
300
1-1/2" = 1'-0"
140
1.5
141
12.0
290
     0
  0
SCALE
  5
66
102
{ACAD_REACTORS
330
47
102
}
330
47
100
AcDbScale
 70
     0
300
3" = 1'-0"
140
3.0
141
12.0
290
     0
  0
SCALE
  5
67
102
{ACAD_REACTORS
330
47
102
}
330
47
100
AcDbScale
 70
     0
300
6" = 1'-0"
140
6.0
141
12.0
290
     0
  0
SCALE
  5
68
102
{ACAD_REACTORS
330
47
102
}
330
47
100
AcDbScale
 70
     0
300
1'-0" = 1'-0"
140
12.0
141
12.0
290
     0
  0
ENDSEC
  0
EOF
