  0
SECTION
  2
HEADER
  9
$ACADVER
  1
AC1015
  9
$ACADMAINTVER
 70
     6
  9
$DWGCODEPAGE
  3
DOS932
  9
$INSBASE
 10
0.0
 20
0.0
 30
0.0
  9
$EXTMIN
 10
0.0
 20
0.0
 30
0.0
  9
$EXTMAX
 10
297.0
 20
210.0
 30
0.0
  9
$LIMMIN
 10
0.0
 20
0.0
  9
$LIMMAX
 10
297.0
 20
210.0
  9
$ORTHOMODE
 70
     0
  9
$REGENMODE
 70
     1
  9
$FILLMODE
 70
     1
  9
$QTEXTMODE
 70
     0
  9
$MIRRTEXT
 70
     1
  9
$LTSCALE
 40
1.0
  9
$ATTMODE
 70
     1
  9
$TEXTSIZE
 40
3.5277777778
  9
$TRACEWID
 40
1.0
  9
$TEXTSTYLE
  7
STANDARD
  9
$CLAYER
  8
0
  9
$CELTYPE
  6
ByLayer
  9
$CECOLOR
 62
   256
  9
$CELTSCALE
 40
1.0
  9
$DISPSILH
 70
     0
  9
$DIMSCALE
 40
1.0
  9
$DIMASZ
 40
3.0
  9
$DIMEXO
 40
1.0
  9
$DIMDLI
 40
3.75
  9
$DIMRND
 40
0.0
  9
$DIMDLE
 40
0.0
  9
$DIMEXE
 40
1.0
  9
$DIMTP
 40
0.0
  9
$DIMTM
 40
0.0
  9
$DIMTXT
 40
3.5277777778
  9
$DIMCEN
 40
2.5
  9
$DIMTSZ
 40
0.0
  9
$DIMTOL
 70
     0
  9
$DIMLIM
 70
     0
  9
$DIMTIH
 70
     1
  9
$DIMTOH
 70
     1
  9
$DIMSE1
 70
     0
  9
$DIMSE2
 70
     0
  9
$DIMTAD
 70
     1
  9
$DIMZIN
 70
     0
  9
$DIMBLK
  1

  9
$DIMASO
 70
     1
  9
$DIMSHO
 70
     1
  9
$DIMPOST
  1

  9
$DIMAPOST
  1

  9
$DIMALT
 70
     0
  9
$DIMALTD
 70
     3
  9
$DIMALTF
 40
0.0393700787
  9
$DIMLFAC
 40
5.0
  9
$DIMTOFL
 70
     1
  9
$DIMTVP
 40
0.0
  9
$DIMTIX
 70
     0
  9
$DIMSOXD
 70
     0
  9
$DIMSAH
 70
     0
  9
$DIMBLK1
  1

  9
$DIMBLK2
  1

  9
$DIMSTYLE
  2
ISO-25
  9
$DIMCLRD
 70
     0
  9
$DIMCLRE
 70
     0
  9
$DIMCLRT
 70
     0
  9
$DIMTFAC
 40
1.0
  9
$DIMGAP
 40
1.524
  9
$DIMJUST
 70
     0
  9
$DIMSD1
 70
     0
  9
$DIMSD2
 70
     0
  9
$DIMTOLJ
 70
     0
  9
$DIMTZIN
 70
     0
  9
$DIMALTZ
 70
     0
  9
$DIMALTTZ
 70
     0
  9
$DIMUPT
 70
     0
  9
$DIMDEC
 70
     2
  9
$DIMTDEC
 70
     2
  9
$DIMALTU
 70
     2
  9
$DIMALTTD
 70
     3
  9
$DIMTXSTY
  7
STANDARD
  9
$DIMAUNIT
 70
     0
  9
$DIMADEC
 70
     2
  9
$DIMALTRND
 40
0.0
  9
$DIMAZIN
 70
     0
  9
$DIMDSEP
 70
    44
  9
$DIMATFIT
 70
     3
  9
$DIMFRAC
 70
     0
  9
$DIMLDRBLK
  1

  9
$DIMLUNIT
 70
     2
  9
$DIMLWD
 70
    -2
  9
$DIMLWE
 70
    -2
  9
$DIMTMOVE
 70
     0
  9
$LUNITS
 70
     2
  9
$LUPREC
 70
     2
  9
$SKETCHINC
 40
1.0
  9
$FILLETRAD
 40
10.0
  9
$AUNITS
 70
     0
  9
$AUPREC
 70
     2
  9
$MENU
  1
.
  9
$ELEVATION
 40
0.0
  9
$PELEVATION
 40
0.0
  9
$THICKNESS
 40
0.0
  9
$LIMCHECK
 70
     0
  9
$CHAMFERA
 40
0.0
  9
$CHAMFERB
 40
0.0
  9
$CHAMFERC
 40
0.0
  9
$CHAMFERD
 40
0.0
  9
$SKPOLY
 70
     0
  9
$TDCREATE
 40
2460489.634470579
  9
$TDUCREATE
 40
2460489.259470579
  9
$TDUPDATE
 40
2460489.634472755
  9
$TDUUPDATE
 40
2460489.259472755
  9
$TDINDWG
 40
0.0000000116
  9
$TDUSRTIMER
 40
0.0000000116
  9
$USRTIMER
 70
     1
  9
$ANGBASE
 50
0.0
  9
$ANGDIR
 70
     0
  9
$PDMODE
 70
     0
  9
$PDSIZE
 40
-1.0
  9
$PLINEWID
 40
0.0
  9
$SPLFRAME
 70
     0
  9
$SPLINETYPE
 70
     6
  9
$SPLINESEGS
 70
     8
  9
$HANDSEED
  5
1A7
  9
$SURFTAB1
 70
     6
  9
$SURFTAB2
 70
     6
  9
$SURFTYPE
 70
     6
  9
$SURFU
 70
     6
  9
$SURFV
 70
     6
  9
$UCSBASE
  2

  9
$UCSNAME
  2

  9
$UCSORG
 10
0.0
 20
0.0
 30
0.0
  9
$UCSXDIR
 10
1.0
 20
0.0
 30
0.0
  9
$UCSYDIR
 10
0.0
 20
1.0
 30
0.0
  9
$UCSORTHOREF
  2

  9
$UCSORTHOVIEW
 70
     0
  9
$UCSORGTOP
 10
0.0
 20
0.0
 30
0.0
  9
$UCSORGBOTTOM
 10
0.0
 20
0.0
 30
0.0
  9
$UCSORGLEFT
 10
0.0
 20
0.0
 30
0.0
  9
$UCSORGRIGHT
 10
0.0
 20
0.0
 30
0.0
  9
$UCSORGFRONT
 10
0.0
 20
0.0
 30
0.0
  9
$UCSORGBACK
 10
0.0
 20
0.0
 30
0.0
  9
$PUCSBASE
  2

  9
$PUCSNAME
  2

  9
$PUCSORG
 10
0.0
 20
0.0
 30
0.0
  9
$PUCSXDIR
 10
1.0
 20
0.0
 30
0.0
  9
$PUCSYDIR
 10
0.0
 20
1.0
 30
0.0
  9
$PUCSORTHOREF
  2

  9
$PUCSORTHOVIEW
 70
     0
  9
$PUCSORGTOP
 10
0.0
 20
0.0
 30
0.0
  9
$PUCSORGBOTTOM
 10
0.0
 20
0.0
 30
0.0
  9
$PUCSORGLEFT
 10
0.0
 20
0.0
 30
0.0
  9
$PUCSORGRIGHT
 10
0.0
 20
0.0
 30
0.0
  9
$PUCSORGFRONT
 10
0.0
 20
0.0
 30
0.0
  9
$PUCSORGBACK
 10
0.0
 20
0.0
 30
0.0
  9
$USERI1
 70
     0
  9
$USERI2
 70
     0
  9
$USERI3
 70
     0
  9
$USERI4
 70
     0
  9
$USERI5
 70
     0
  9
$USERR1
 40
0.0
  9
$USERR2
 40
0.0
  9
$USERR3
 40
0.0
  9
$USERR4
 40
0.0
  9
$USERR5
 40
0.0
  9
$WORLDVIEW
 70
     1
  9
$SHADEDGE
 70
     3
  9
$SHADEDIF
 70
    70
  9
$TILEMODE
 70
     1
  9
$MAXACTVP
 70
    64
  9
$PINSBASE
 10
0.0
 20
0.0
 30
0.0
  9
$PLIMCHECK
 70
     0
  9
$PEXTMIN
 10
1.0000000000E+20
 20
1.0000000000E+20
 30
1.0000000000E+20
  9
$PEXTMAX
 10
-1.0000000000E+20
 20
-1.0000000000E+20
 30
-1.0000000000E+20
  9
$PLIMMIN
 10
0.0
 20
0.0
  9
$PLIMMAX
 10
420.0
 20
297.0
  9
$UNITMODE
 70
     0
  9
$VISRETAIN
 70
     1
  9
$PLINEGEN
 70
     0
  9
$PSLTSCALE
 70
     1
  9
$TREEDEPTH
 70
  3020
  9
$CMLSTYLE
  2
Standard
  9
$CMLJUST
 70
     0
  9
$CMLSCALE
 40
20.0
  9
$PROXYGRAPHICS
 70
     1
  9
$MEASUREMENT
 70
     1
  9
$CELWEIGHT
370
    -1
  9
$ENDCAPS
280
     0
  9
$JOINSTYLE
280
     0
  9
$LWDISPLAY
290
     1
  9
$INSUNITS
 70
     4
  9
$HYPERLINKBASE
  1

  9
$STYLESHEET
  1

  9
$XEDIT
290
     1
  9
$CEPSNTYPE
380
     0
  9
$PSTYLEMODE
290
     1
  9
$FINGERPRINTGUID
  2
{83325044-b3f1-4cab-916e-0e05a2880652}
  9
$VERSIONGUID
  2
{FAEB1C32-E019-11D5-929B-00C0DF256EC4}
  9
$EXTNAMES
290
     1
  9
$PSVPSCALE
 40
0.0
  9
$OLESTARTUP
290
     0
  0
ENDSEC
  0
SECTION
  2
CLASSES
  0
CLASS
  1
ACDBDICTIONARYWDFLT
  2
AcDbDictionaryWithDefault
  3
ObjectDBX Classes
 90
        0
280
     0
281
     0
  0
CLASS
  1
VISUALSTYLE
  2
AcDbVisualStyle
  3
ObjectDBX Classes
 90
     4095
280
     0
281
     0
  0
CLASS
  1
MATERIAL
  2
AcDbMaterial
  3
ObjectDBX Classes
 90
     1153
280
     0
281
     0
  0
CLASS
  1
SCALE
  2
AcDbScale
  3
ObjectDBX Classes
 90
     1153
280
     0
281
     0
  0
CLASS
  1
TABLESTYLE
  2
AcDbTableStyle
  3
ObjectDBX Classes
 90
     4095
280
     0
281
     0
  0
CLASS
  1
MLEADERSTYLE
  2
AcDbMLeaderStyle
  3
ACDB_MLEADERSTYLE_CLASS
 90
     4095
280
     0
281
     0
  0
CLASS
  1
SUN
  2
AcDbSun
  3
SCENEOE
 90
     1153
280
     0
281
     0
  0
CLASS
  1
ACDBPLACEHOLDER
  2
AcDbPlaceHolder
  3
ObjectDBX Classes
 90
        0
280
     0
281
     0
  0
CLASS
  1
LAYOUT
  2
AcDbLayout
  3
ObjectDBX Classes
 90
        0
280
     0
281
     0
  0
ENDSEC
  0
SECTION
  2
TABLES
  0
TABLE
  2
VPORT
  5
8
330
0
100
AcDbSymbolTable
 70
     1
  0
VPORT
  5
29
330
8
100
AcDbSymbolTableRecord
100
AcDbViewportTableRecord
  2
*Active
 70
     0
 10
0.0
 20
0.0
 11
1.0
 21
1.0
 12
148.5
 22
105.0
 13
0.0
 23
0.0
 14
10.0
 24
10.0
 15
10.0
 25
10.0
 16
0.0
 26
0.0
 36
1.0
 17
0.0
 27
0.0
 37
0.0
 40
210.0
 41
1.4142857143
 42
50.0
 43
0.0
 44
0.0
 50
0.0
 51
0.0
 71
     0
 72
  2000
 73
     1
 74
     3
 75
     0
 76
     0
 77
     0
 78
     0
281
     0
 65
     1
110
0.0
120
0.0
130
0.0
111
1.0
121
0.0
131
0.0
112
0.0
122
1.0
132
0.0
 79
     0
146
0.0
  0
ENDTAB
  0
TABLE
  2
LTYPE
  5
5
330
0
100
AcDbSymbolTable
 70
     6
  0
LTYPE
  5
14
330
5
100
AcDbSymbolTableRecord
100
AcDbLinetypeTableRecord
  2
ByBlock
 70
     0
  3

 72
    65
 73
     0
 40
0.0
  0
LTYPE
  5
15
330
5
100
AcDbSymbolTableRecord
100
AcDbLinetypeTableRecord
  2
ByLayer
 70
     0
  3

 72
    65
 73
     0
 40
0.0
  0
LTYPE
  5
16
330
5
100
AcDbSymbolTableRecord
100
AcDbLinetypeTableRecord
  2
Continuous
 70
     0
  3
Solid line
 72
    65
 73
     0
 40
0.0
  0
LTYPE
  5
6E
330
5
100
AcDbSymbolTableRecord
100
AcDbLinetypeTableRecord
  2
HIDDEN
 70
     0
  3
Hidden __ __ __ __ __ __ __ __ __ __ __ __ __ __
 72
    65
 73
     2
 40
1.905
 49
1.27
 74
     0
 49
-0.635
 74
     0
  0
LTYPE
  5
6F
330
5
100
AcDbSymbolTableRecord
100
AcDbLinetypeTableRecord
  2
PHANTOM
 70
     0
  3
Phantom ______  __  __  ______  __  __  ______
 72
    65
 73
     6
 40
12.7
 49
6.35
 74
     0
 49
-1.27
 74
     0
 49
1.27
 74
     0
 49
-1.27
 74
     0
 49
1.27
 74
     0
 49
-1.27
 74
     0
  0
LTYPE
  5
70
330
5
100
AcDbSymbolTableRecord
100
AcDbLinetypeTableRecord
  2
CENTER
 70
     0
  3
Center ____ _ ____ _ ____ _ ____ _ ____ _ ____
 72
    65
 73
     4
 40
10.16
 49
6.35
 74
     0
 49
-1.27
 74
     0
 49
1.27
 74
     0
 49
-1.27
 74
     0
  0
LTYPE
  5
71
330
5
100
AcDbSymbolTableRecord
100
AcDbLinetypeTableRecord
  2
CENTERX2
 70
     0
  3
Center (2x) ________  __  ________  __  _____
 72
    65
 73
     4
 40
20.32
 49
12.7
 74
     0
 49
-2.54
 74
     0
 49
2.54
 74
     0
 49
-2.54
 74
     0
  0
LTYPE
  5
72
330
5
100
AcDbSymbolTableRecord
100
AcDbLinetypeTableRecord
  2
DOT2
 70
     0
  3
Dot (.5x) ........................................
 72
    65
 73
     2
 40
0.635
 49
0.0
 74
     0
 49
-0.635
 74
     0
  0
ENDTAB
  0
TABLE
  2
LAYER
  5
2
330
0
100
AcDbSymbolTable
 70
     1
  0
LAYER
  5
10
330
2
100
AcDbSymbolTableRecord
100
AcDbLayerTableRecord
  2
0
 70
     0
 62
     7
  6
Continuous
370
    -3
390
F
  0
ENDTAB
  0
TABLE
  2
STYLE
  5
3
330
0
100
AcDbSymbolTable
 70
     3
  0
STYLE
  5
11
330
3
100
AcDbSymbolTableRecord
100
AcDbTextStyleTableRecord
  2
STANDARD
 70
     0
 40
0.0
 41
1.0
 50
0.0
 71
     0
 42
3.5277777778
  3
MSGOTHIC.TTC
  4

1001
ACAD
1000
MS UI GOTHIC
1071
    32818
  0
STYLE
  5
77
330
3
100
AcDbSymbolTableRecord
100
AcDbTextStyleTableRecord
  2
SLDTEXTSTYLE0
 70
     0
 40
0.0
 41
1.0
 50
0.0
 71
     0
 42
3.5277777778
  3
MSGOTHIC.TTC
  4

1001
ACAD
1000
MS UI Gothic
1071
      306
  0
STYLE
  5
7C
330
3
100
AcDbSymbolTableRecord
100
AcDbTextStyleTableRecord
  2
SLDTEXTSTYLE1
 70
     0
 40
0.0
 41
1.0
 50
0.0
 71
     0
 42
3.5277777778
  3
MSGOTHIC.TTC
  4
bigfont
1001
ACAD
1000
MS UI Gothic
1071
      306
  0
ENDTAB
  0
TABLE
  2
VIEW
  5
6
330
0
100
AcDbSymbolTable
 70
     0
  0
ENDTAB
  0
TABLE
  2
UCS
  5
7
330
0
100
AcDbSymbolTable
 70
     0
  0
ENDTAB
  0
TABLE
  2
APPID
  5
9
330
0
100
AcDbSymbolTable
 70
     1
  0
APPID
  5
12
330
9
100
AcDbSymbolTableRecord
100
AcDbRegAppTableRecord
  2
ACAD
 70
     0
  0
ENDTAB
  0
TABLE
  2
DIMSTYLE
  5
A
330
0
100
AcDbSymbolTable
 70
     6
100
AcDbDimStyleTable
  0
DIMSTYLE
105
27
330
A
100
AcDbSymbolTableRecord
100
AcDbDimStyleTableRecord
  2
ISO-25
 70
     0
 41
2.5
 42
0.625
 43
3.75
 44
1.25
 73
     0
 74
     0
 77
     1
 78
     8
140
2.5
141
2.5
143
0.0393700787
147
0.625
171
     3
172
     1
178
     0
271
     2
272
     2
274
     3
278
    44
283
     0
284
     8
340
11
  0
DIMSTYLE
105
10B
102
{ACAD_REACTORS
330
10A
102
}
330
A
100
AcDbSymbolTableRecord
100
AcDbDimStyleTableRecord
  2
SLDDIMSTYLE0
 70
     0
 41
3.0
 44
0.0
 45
0.000000001
 73
     0
 74
     0
 77
     1
 78
    12
 79
     3
140
3.0316840278
147
0.7579210069
173
     1
178
     0
271
     0
272
     2
276
     2
284
    12
340
77
341
10C
343
10C
344
10C
  0
DIMSTYLE
105
11E
102
{ACAD_REACTORS
330
11D
330
147
102
}
330
A
100
AcDbSymbolTableRecord
100
AcDbDimStyleTableRecord
  2
SLDDIMSTYLE1
 70
     0
 41
3.0
 44
0.0
 45
0.000000001
 73
     0
 74
     0
 77
     1
 78
    12
 79
     3
140
3.0316840278
147
0.7579210069
172
     1
173
     1
178
     0
271
     2
272
     2
276
     2
284
    12
289
     0
340
77
341
10C
343
10C
344
10C
  0
DIMSTYLE
105
12E
102
{ACAD_REACTORS
330
12D
330
13A
102
}
330
A
100
AcDbSymbolTableRecord
100
AcDbDimStyleTableRecord
  2
SLDDIMSTYLE2
 70
     0
 41
3.0
 44
0.0
 45
0.000000001
 73
     0
 74
     0
 77
     1
 78
    12
 79
     3
140
3.0316840278
147
0.7579210069
173
     1
178
     0
271
     0
272
     0
276
     2
284
    12
340
77
341
10C
343
10C
344
10C
  0
DIMSTYLE
105
156
102
{ACAD_REACTORS
330
155
330
162
102
}
330
A
100
AcDbSymbolTableRecord
100
AcDbDimStyleTableRecord
  2
SLDDIMSTYLE3
 70
     0
 41
3.0
 44
0.0
 45
0.000000001
 73
     0
 74
     0
 77
     1
 78
    12
 79
     3
140
3.0316840278
147
0.7579210069
173
     1
178
     0
271
     2
272
     2
276
     2
284
    12
340
77
341
10C
343
10C
344
10C
  0
DIMSTYLE
105
172
330
A
100
AcDbSymbolTableRecord
100
AcDbDimStyleTableRecord
  2
SLDDIMSTYLE4
 70
     0
 41
3.0
 44
0.0
 45
0.000000001
146
3.0
147
0.0
173
     1
178
     0
271
     0
272
     0
276
     2
340
11
341
10C
343
10C
344
10C
  0
ENDTAB
  0
TABLE
  2
BLOCK_RECORD
  5
1
330
0
100
AcDbSymbolTable
 70
    18
  0
BLOCK_RECORD
  5
1F
330
1
100
AcDbSymbolTableRecord
100
AcDbBlockTableRecord
  2
*Model_Space
340
22
  0
BLOCK_RECORD
  5
1B
330
1
100
AcDbSymbolTableRecord
100
AcDbBlockTableRecord
  2
*Paper_Space
340
1E
  0
BLOCK_RECORD
  5
23
330
1
100
AcDbSymbolTableRecord
100
AcDbBlockTableRecord
  2
*Paper_Space0
340
26
  0
BLOCK_RECORD
  5
79
330
1
100
AcDbSymbolTableRecord
100
AcDbBlockTableRecord
  2
SW_NOTE_0
340
0
102
{BLKREFS
331
80
102
}
  0
BLOCK_RECORD
  5
81
330
1
100
AcDbSymbolTableRecord
100
AcDbBlockTableRecord
  2
SW_BROKEN_VIEW_0
340
0
102
{BLKREFS
331
84
102
}
  0
BLOCK_RECORD
  5
10C
330
1
100
AcDbSymbolTableRecord
100
AcDbBlockTableRecord
  2
_Open30
340
0
102
{BLKREFS
331
117
331
118
331
124
331
125
331
134
331
135
331
140
331
141
331
14D
331
14E
331
15C
331
15D
331
166
331
167
102
}
  0
BLOCK_RECORD
  5
112
330
1
100
AcDbSymbolTableRecord
100
AcDbBlockTableRecord
  2
_D
340
0
  0
BLOCK_RECORD
  5
11F
330
1
100
AcDbSymbolTableRecord
100
AcDbBlockTableRecord
  2
_D_1
340
0
  0
BLOCK_RECORD
  5
12F
330
1
100
AcDbSymbolTableRecord
100
AcDbBlockTableRecord
  2
_D_2
340
0
  0
BLOCK_RECORD
  5
13B
330
1
100
AcDbSymbolTableRecord
100
AcDbBlockTableRecord
  2
_D_3
340
0
  0
BLOCK_RECORD
  5
148
330
1
100
AcDbSymbolTableRecord
100
AcDbBlockTableRecord
  2
_D_4
340
0
  0
BLOCK_RECORD
  5
157
330
1
100
AcDbSymbolTableRecord
100
AcDbBlockTableRecord
  2
_D_5
340
0
  0
BLOCK_RECORD
  5
163
330
1
100
AcDbSymbolTableRecord
100
AcDbBlockTableRecord
  2
_D_6
340
0
  0
BLOCK_RECORD
  5
16C
330
1
100
AcDbSymbolTableRecord
100
AcDbBlockTableRecord
  2
SW_NOTE_0_1
340
0
102
{BLKREFS
331
171
102
}
  0
BLOCK_RECORD
  5
174
330
1
100
AcDbSymbolTableRecord
100
AcDbBlockTableRecord
  2
SW_NOTE_0_2
340
0
102
{BLKREFS
331
179
102
}
  0
BLOCK_RECORD
  5
17B
330
1
100
AcDbSymbolTableRecord
100
AcDbBlockTableRecord
  2
SW_NOTE_0_3
340
0
102
{BLKREFS
331
180
102
}
  0
BLOCK_RECORD
  5
182
330
1
100
AcDbSymbolTableRecord
100
AcDbBlockTableRecord
  2
SW_NOTE_0_4
340
0
102
{BLKREFS
331
187
102
}
  0
BLOCK_RECORD
  5
189
330
1
100
AcDbSymbolTableRecord
100
AcDbBlockTableRecord
  2
SW_NOTE_0_5
340
0
102
{BLKREFS
331
18E
102
}
  0
BLOCK_RECORD
  5
190
330
1
100
AcDbSymbolTableRecord
100
AcDbBlockTableRecord
  2
SW_NOTE_0_6
340
0
102
{BLKREFS
331
195
102
}
  0
BLOCK_RECORD
  5
198
330
1
100
AcDbSymbolTableRecord
100
AcDbBlockTableRecord
  2
SW_NOTE_0_7
340
0
102
{BLKREFS
331
19E
102
}
  0
ENDTAB
  0
ENDSEC
  0
SECTION
  2
BLOCKS
  0
BLOCK
  5
20
330
1F
100
AcDbEntity
  8
0
100
AcDbBlockBegin
  2
*Model_Space
 70
     0
 10
0.0
 20
0.0
 30
0.0
  3
*Model_Space
  1

  0
ENDBLK
  5
21
330
1F
100
AcDbEntity
  8
0
100
AcDbBlockEnd
  0
BLOCK
  5
1C
330
1B
100
AcDbEntity
 67
     1
  8
0
100
AcDbBlockBegin
  2
*Paper_Space
 70
     0
 10
0.0
 20
0.0
 30
0.0
  3
*Paper_Space
  1

  0
ENDBLK
  5
1D
330
1B
100
AcDbEntity
 67
     1
  8
0
100
AcDbBlockEnd
  0
BLOCK
  5
24
330
23
100
AcDbEntity
  8
0
100
AcDbBlockBegin
  2
*Paper_Space0
 70
     0
 10
0.0
 20
0.0
 30
0.0
  3
*Paper_Space0
  1

  0
ENDBLK
  5
25
330
23
100
AcDbEntity
  8
0
100
AcDbBlockEnd
  0
BLOCK
  5
7A
330
79
100
AcDbEntity
  8
0
100
AcDbBlockBegin
  2
SW_NOTE_0
 70
     0
 10
0.0
 20
0.0
 30
0.0
  3
SW_NOTE_0
  1

  0
MTEXT
  5
7D
330
79
100
AcDbEntity
  8
0
  6
Continuous
 62
     0
370
    18
100
AcDbMText
 10
0.0
 20
5.5418181818
 30
0.0
 40
4.7625
 41
0.0
 71
     1
 72
     1
  1
MODEL：T-30-ﾛ-ﾛ-ﾛ-ﾛ-ﾛ
  7
SLDTEXTSTYLE1
 73
     1
 44
1.0
  0
MTEXT
  5
7E
330
79
100
AcDbEntity
  8
0
  6
Continuous
 62
     0
370
    18
100
AcDbMText
 10
0.0
 20
-1.6285859046
 30
0.0
 40
3.7041666667
 41
0.0
 71
     1
 72
     1
  1
               (保護管径φ3.0、φ3.2、φ4.8、
  7
SLDTEXTSTYLE1
 73
     1
 44
1.0
  0
MTEXT
  5
7F
330
79
100
AcDbEntity
  8
0
  6
Continuous
 62
     0
370
    18
100
AcDbMText
 10
0.0
 20
-7.5674748977
 30
0.0
 40
3.7041666667
 41
0.0
 71
     1
 72
     1
  1
                             φ5.0、φ6.0、φ8.0、φ10.0の時)
  7
SLDTEXTSTYLE1
 73
     1
 44
1.0
  0
ENDBLK
  5
7B
330
79
100
AcDbEntity
  8
0
100
AcDbBlockEnd
  0
BLOCK
  5
82
330
81
100
AcDbEntity
  8
0
100
AcDbBlockBegin
  2
SW_BROKEN_VIEW_0
 70
     0
 10
0.0
 20
0.0
 30
0.0
  3
SW_BROKEN_VIEW_0
  1

  0
ENDBLK
  5
83
330
81
100
AcDbEntity
  8
0
100
AcDbBlockEnd
  0
BLOCK
  5
10D
330
10C
100
AcDbEntity
  8
0
100
AcDbBlockBegin
  2
_Open30
 70
     0
 10
0.0
 20
0.0
 30
0.0
  3
_Open30
  1

  0
LINE
  5
10F
330
10C
100
AcDbEntity
  8
0
  6
ByBlock
 62
     0
370
    -2
100
AcDbLine
 10
-1.0
 20
0.267949
 30
0.0
 11
0.0
 21
0.0
 31
0.0
  0
LINE
  5
110
330
10C
100
AcDbEntity
  8
0
  6
ByBlock
 62
     0
370
    -2
100
AcDbLine
 10
0.0
 20
0.0
 30
0.0
 11
-1.0
 21
-0.267949
 31
0.0
  0
LINE
  5
111
330
10C
100
AcDbEntity
  8
0
  6
ByBlock
 62
     0
370
    -2
100
AcDbLine
 10
0.0
 20
0.0
 30
0.0
 11
-1.0
 21
0.0
 31
0.0
  0
ENDBLK
  5
10E
330
10C
100
AcDbEntity
  8
0
100
AcDbBlockEnd
  0
BLOCK
  5
113
330
112
100
AcDbEntity
  8
0
100
AcDbBlockBegin
  2
_D
 70
     0
 10
0.0
 20
0.0
 30
0.0
  3
_D
  1

  0
ARC
  5
115
330
112
100
AcDbEntity
  8
0
  6
Continuous
 62
     7
370
    18
100
AcDbCircle
 10
260.6762831568
 20
106.3133294548
 30
0.0
 40
3.944175412646017
100
AcDbArc
 50
243.4349488229
 51
296.5650511771
  0
ARC
  5
116
330
112
100
AcDbEntity
  8
0
  6
Continuous
 62
     7
370
    18
100
AcDbCircle
 10
260.6762831568
 20
102.7855517197
 30
0.0
 40
3.944175412646017
100
AcDbArc
 50
63.4349488229
 51
116.5650511771
  0
INSERT
  5
117
330
112
100
AcDbEntity
  8
0
  6
Continuous
 62
     7
370
    18
100
AcDbBlockReference
  2
_Open30
 10
262.4401717915
 20
136.8702089997
 30
0.0
 41
3.0
 42
3.0
 50
90.0
  0
INSERT
  5
118
330
112
100
AcDbEntity
  8
0
  6
Continuous
 62
     7
370
    18
100
AcDbBlockReference
  2
_Open30
 10
262.4401717915
 20
72.2286720002
 30
0.0
 41
3.0
 42
3.0
 50
270.0
  0
LINE
  5
119
330
112
100
AcDbEntity
  8
0
  6
Continuous
 62
     7
370
    18
100
AcDbLine
 10
192.3437536717
 20
136.8702089997
 30
0.0
 11
263.4401717915
 21
136.8702089997
 31
0.0
  0
LINE
  5
11A
330
112
100
AcDbEntity
  8
0
  6
Continuous
 62
     7
370
    18
100
AcDbLine
 10
208.4465028312
 20
72.2286720002
 30
0.0
 11
263.4401717915
 21
72.2286720002
 31
0.0
  0
LINE
  5
11B
330
112
100
AcDbEntity
  8
0
  6
Continuous
 62
     7
370
    18
100
AcDbLine
 10
262.4401717915
 20
136.8702089997
 30
0.0
 11
262.4401717915
 21
72.2286720002
 31
0.0
  0
MTEXT
  5
11C
330
112
100
AcDbEntity
  8
0
  6
Continuous
 62
     7
370
    18
100
AcDbMText
 10
259.361384262
 20
102.7855517197
 30
0.0
 40
2.6458333333
 41
0.0
 71
     1
 72
     1
  1
65
  7
SLDTEXTSTYLE0
 11
-9.708730276744010E-15
 21
1.0
 31
0.0
 73
     1
 44
1.0
  0
ENDBLK
  5
114
330
112
100
AcDbEntity
  8
0
100
AcDbBlockEnd
  0
BLOCK
  5
120
330
11F
100
AcDbEntity
  8
0
100
AcDbBlockBegin
  2
_D_1
 70
     0
 10
0.0
 20
0.0
 30
0.0
  3
_D_1
  1

  0
ARC
  5
122
330
11F
100
AcDbEntity
  8
0
  6
Continuous
 62
     7
370
    18
100
AcDbCircle
 10
76.9414182896
 20
126.1427413056
 30
0.0
 40
7.888350825292009
100
AcDbArc
 50
243.4349488229
 51
296.5650511771
  0
ARC
  5
123
330
11F
100
AcDbEntity
  8
0
  6
Continuous
 62
     7
370
    18
100
AcDbCircle
 10
76.9414182896
 20
151.9053197781
 30
0.0
 40
7.888350825292009
100
AcDbArc
 50
63.4349488229
 51
116.5650511771
  0
INSERT
  5
124
330
11F
100
AcDbEntity
  8
0
  6
Continuous
 62
     7
370
    18
100
AcDbBlockReference
  2
_Open30
 10
73.1493996478
 20
107.8286720002
 30
0.0
 41
3.0
 42
3.0
 50
90.0
  0
INSERT
  5
125
330
11F
100
AcDbEntity
  8
0
  6
Continuous
 62
     7
370
    18
100
AcDbBlockReference
  2
_Open30
 10
73.1493996478
 20
112.6286720002
 30
0.0
 41
3.0
 42
3.0
 50
270.0
  0
LINE
  5
126
330
11F
100
AcDbEntity
  8
0
  6
Continuous
 62
     7
370
    18
100
AcDbLine
 10
73.1493996478
 20
107.8286720002
 30
0.0
 11
73.1493996478
 21
104.3286720002
 31
0.0
  0
LINE
  5
127
330
11F
100
AcDbEntity
  8
0
  6
Continuous
 62
     7
370
    18
100
AcDbLine
 10
73.1493996478
 20
107.8286720002
 30
0.0
 11
73.1493996478
 21
112.6286720002
 31
0.0
  0
LINE
  5
128
330
11F
100
AcDbEntity
  8
0
  6
Continuous
 62
     7
370
    18
100
AcDbLine
 10
73.1493996478
 20
112.6286720002
 30
0.0
 11
73.1493996478
 21
159.7936721019
 31
0.0
  0
MTEXT
  5
129
330
11F
100
AcDbEntity
  8
0
  6
Continuous
 62
     7
370
    18
100
AcDbMText
 10
69.8044610934
 20
136.473741798
 30
0.0
 40
2.6458333333
 41
0.0
 71
     1
 72
     1
  1
%%c
  7
SLDTEXTSTYLE0
 11
6.123233995736766E-17
 21
1.0
 31
0.0
 73
     1
 44
1.0
  0
MTEXT
  5
12A
330
11F
100
AcDbEntity
  8
0
  6
Continuous
 62
     7
370
    18
100
AcDbMText
 10
69.8044610934
 20
139.8251307628
 30
0.0
 40
2.6458333333
 41
0.0
 71
     1
 72
     1
  1
d
  7
SLDTEXTSTYLE0
 11
6.123233995736766E-17
 21
1.0
 31
0.0
 73
     1
 44
1.0
  0
MTEXT
  5
12B
330
11F
100
AcDbEntity
  8
0
  6
Continuous
 62
     7
370
    18
100
AcDbMText
 10
73.8626305272
 20
123.8545851165
 30
0.0
 40
2.6458333333
 41
0.0
 71
     1
 72
     1
  1
φ3.0、φ3.2、φ4.8、
  7
SLDTEXTSTYLE1
 11
6.123233995736766E-17
 21
1.0
 31
0.0
 73
     1
 44
1.0
  0
MTEXT
  5
12C
330
11F
100
AcDbEntity
  8
0
  6
Continuous
 62
     7
370
    18
100
AcDbMText
 10
77.3904082623
 20
119.0871858353
 30
0.0
 40
2.6458333333
 41
0.0
 71
     1
 72
     1
  1
φ5.0、φ6.0、φ8.0、φ10.0
  7
SLDTEXTSTYLE1
 11
6.123233995736766E-17
 21
1.0
 31
0.0
 73
     1
 44
1.0
  0
ENDBLK
  5
121
330
11F
100
AcDbEntity
  8
0
100
AcDbBlockEnd
  0
BLOCK
  5
130
330
12F
100
AcDbEntity
  8
0
100
AcDbBlockBegin
  2
_D_2
 70
     0
 10
0.0
 20
0.0
 30
0.0
  3
_D_2
  1

  0
ARC
  5
132
330
12F
100
AcDbEntity
  8
0
  6
Continuous
 62
     7
370
    18
100
AcDbCircle
 10
189.4206630933
 20
172.1180332409
 30
0.0
 40
3.944175412646017
100
AcDbArc
 50
153.4349488229
 51
206.5650511771
  0
ARC
  5
133
330
12F
100
AcDbEntity
  8
0
  6
Continuous
 62
     7
370
    18
100
AcDbCircle
 10
185.8928853581
 20
172.1180332409
 30
0.0
 40
3.944175412645992
100
AcDbArc
 50
333.4349488229
 51
26.5650511771
  0
INSERT
  5
134
330
12F
100
AcDbEntity
  8
0
  6
Continuous
 62
     7
370
    18
100
AcDbBlockReference
  2
_Open30
 10
217.5670454455
 20
170.3541446062
 30
0.0
 41
3.0
 42
3.0
 50
0.0
  0
INSERT
  5
135
330
12F
100
AcDbEntity
  8
0
  6
Continuous
 62
     7
370
    18
100
AcDbBlockReference
  2
_Open30
 10
157.7465028312
 20
170.3541446062
 30
0.0
 41
3.0
 42
3.0
 50
180.0
  0
LINE
  5
136
330
12F
100
AcDbEntity
  8
0
  6
Continuous
 62
     7
370
    18
100
AcDbLine
 10
217.5670454455
 20
91.7328358188
 30
0.0
 11
217.5670454455
 21
171.3541446062
 31
0.0
  0
LINE
  5
137
330
12F
100
AcDbEntity
  8
0
  6
Continuous
 62
     7
370
    18
100
AcDbLine
 10
157.7465028312
 20
124.7286720002
 30
0.0
 11
157.7465028312
 21
171.3541446062
 31
0.0
  0
LINE
  5
138
330
12F
100
AcDbEntity
  8
0
  6
Continuous
 62
     7
370
    18
100
AcDbLine
 10
217.5670454455
 20
170.3541446062
 30
0.0
 11
157.7465028312
 21
170.3541446062
 31
0.0
  0
MTEXT
  5
139
330
12F
100
AcDbEntity
  8
0
  6
Continuous
 62
     7
370
    18
100
AcDbMText
 10
185.8928853581
 20
173.4329321357
 30
0.0
 40
2.6458333333
 41
0.0
 71
     1
 72
     1
  1
60
  7
SLDTEXTSTYLE0
 73
     1
 44
1.0
  0
ENDBLK
  5
131
330
12F
100
AcDbEntity
  8
0
100
AcDbBlockEnd
  0
BLOCK
  5
13C
330
13B
100
AcDbEntity
  8
0
100
AcDbBlockBegin
  2
_D_3
 70
     0
 10
0.0
 20
0.0
 30
0.0
  3
_D_3
  1

  0
ARC
  5
13E
330
13B
100
AcDbEntity
  8
0
  6
Continuous
 62
     7
370
    18
100
AcDbCircle
 10
235.446480046
 20
128.550037098
 30
0.0
 40
4.497455730162186
100
AcDbArc
 50
91.4349488229
 51
144.5650511771
  0
ARC
  5
13F
330
13B
100
AcDbEntity
  8
0
  6
Continuous
 62
     7
370
    18
100
AcDbCircle
 10
234.8990167261
 20
129.5796658526
 30
0.0
 40
4.497455730162209
100
AcDbArc
 50
271.4349488229
 51
324.5650511771
  0
INSERT
  5
140
330
13B
100
AcDbEntity
  8
0
  6
Continuous
 62
     7
370
    18
100
AcDbBlockReference
  2
_Open30
 10
220.3418231119
 20
152.6735368602
 30
0.0
 41
3.0
 42
3.0
 50
118.0
  0
INSERT
  5
141
330
13B
100
AcDbEntity
  8
0
  6
Continuous
 62
     7
370
    18
100
AcDbBlockReference
  2
_Open30
 10
246.4518876075
 20
103.5676475514
 30
0.0
 41
3.0
 42
3.0
 50
298.0
  0
LINE
  5
142
330
13B
100
AcDbEntity
  8
0
  6
Continuous
 62
     7
370
    18
100
AcDbLine
 10
191.054507879
 20
137.1011951228
 30
0.0
 11
221.2247707048
 21
153.143008423
 31
0.0
  0
LINE
  5
143
330
13B
100
AcDbEntity
  8
0
  6
Continuous
 62
     7
370
    18
100
AcDbLine
 10
217.1645723746
 20
87.9953058141
 30
0.0
 11
247.3348352004
 21
104.0371191142
 31
0.0
  0
LINE
  5
144
330
13B
100
AcDbEntity
  8
0
  6
Continuous
 62
     7
370
    18
100
AcDbLine
 10
220.3418231119
 20
152.6735368602
 30
0.0
 11
246.4518876075
 21
103.5676475514
 31
0.0
  0
MTEXT
  5
145
330
13B
100
AcDbEntity
  8
0
  6
Continuous
 62
     7
370
    18
100
AcDbMText
 10
234.5004771564
 20
132.6029676109
 30
0.0
 40
2.6458333333
 41
0.0
 71
     1
 72
     1
  1
%%c
  7
SLDTEXTSTYLE0
 11
0.4694715627858982
 21
-0.882947592858923
 31
0.0
 73
     1
 44
1.0
  0
MTEXT
  5
146
330
13B
100
AcDbEntity
  8
0
  6
Continuous
 62
     7
370
    18
100
AcDbMText
 10
236.0738589712
 20
129.6438667917
 30
0.0
 40
2.6458333333
 41
0.0
 71
     1
 72
     1
  1
56
  7
SLDTEXTSTYLE0
 11
0.4694715627858982
 21
-0.882947592858923
 31
0.0
 73
     1
 44
1.0
  0
ENDBLK
  5
13D
330
13B
100
AcDbEntity
  8
0
100
AcDbBlockEnd
  0
BLOCK
  5
149
330
148
100
AcDbEntity
  8
0
100
AcDbBlockBegin
  2
_D_4
 70
     0
 10
0.0
 20
0.0
 30
0.0
  3
_D_4
  1

  0
ARC
  5
14B
330
148
100
AcDbEntity
  8
0
  6
Continuous
 62
     7
370
    18
100
AcDbCircle
 10
238.1659704021
 20
71.8745052724
 30
0.0
 40
3.944175412646004
100
AcDbArc
 50
243.4349488229
 51
296.5650511771
  0
ARC
  5
14C
330
148
100
AcDbEntity
  8
0
  6
Continuous
 62
     7
370
    18
100
AcDbCircle
 10
238.1659704021
 20
66.5828386697
 30
0.0
 40
3.944175412646004
100
AcDbArc
 50
63.4349488229
 51
116.5650511771
  0
INSERT
  5
14D
330
148
100
AcDbEntity
  8
0
  6
Continuous
 62
     7
370
    18
100
AcDbBlockReference
  2
_Open30
 10
239.9298590368
 20
66.2286720002
 30
0.0
 41
3.0
 42
3.0
 50
90.0
  0
INSERT
  5
14E
330
148
100
AcDbEntity
  8
0
  6
Continuous
 62
     7
370
    18
100
AcDbBlockReference
  2
_Open30
 10
239.9298590368
 20
72.2286720002
 30
0.0
 41
3.0
 42
3.0
 50
270.0
  0
LINE
  5
14F
330
148
100
AcDbEntity
  8
0
  6
Continuous
 62
     7
370
    18
100
AcDbLine
 10
206.4465028312
 20
66.2286720002
 30
0.0
 11
240.9298590368
 21
66.2286720002
 31
0.0
  0
LINE
  5
150
330
148
100
AcDbEntity
  8
0
  6
Continuous
 62
     7
370
    18
100
AcDbLine
 10
208.4465028312
 20
72.2286720002
 30
0.0
 11
240.9298590368
 21
72.2286720002
 31
0.0
  0
LINE
  5
151
330
148
100
AcDbEntity
  8
0
  6
Continuous
 62
     7
370
    18
100
AcDbLine
 10
239.9298590368
 20
66.2286720002
 30
0.0
 11
239.9298590368
 21
62.7286720002
 31
0.0
  0
LINE
  5
152
330
148
100
AcDbEntity
  8
0
  6
Continuous
 62
     7
370
    18
100
AcDbLine
 10
239.9298590368
 20
66.2286720002
 30
0.0
 11
239.9298590368
 21
72.2286720002
 31
0.0
  0
LINE
  5
153
330
148
100
AcDbEntity
  8
0
  6
Continuous
 62
     7
370
    18
100
AcDbLine
 10
239.9298590368
 20
72.2286720002
 30
0.0
 11
239.9298590368
 21
75.7286720002
 31
0.0
  0
MTEXT
  5
154
330
148
100
AcDbEntity
  8
0
  6
Continuous
 62
     7
370
    18
100
AcDbMText
 10
236.8510715073
 20
68.3467275373
 30
0.0
 40
2.6458333333
 41
0.0
 71
     1
 72
     1
  1
6
  7
SLDTEXTSTYLE0
 11
6.123233995736766E-17
 21
1.0
 31
0.0
 73
     1
 44
1.0
  0
ENDBLK
  5
14A
330
148
100
AcDbEntity
  8
0
100
AcDbBlockEnd
  0
BLOCK
  5
158
330
157
100
AcDbEntity
  8
0
100
AcDbBlockBegin
  2
_D_5
 70
     0
 10
0.0
 20
0.0
 30
0.0
  3
_D_5
  1

  0
ARC
  5
15A
330
157
100
AcDbEntity
  8
0
  6
Continuous
 62
     7
370
    18
100
AcDbCircle
 10
238.1659704021
 20
92.9925609551
 30
0.0
 40
3.944175412646004
100
AcDbArc
 50
243.4349488229
 51
296.5650511771
  0
ARC
  5
15B
330
157
100
AcDbEntity
  8
0
  6
Continuous
 62
     7
370
    18
100
AcDbCircle
 10
238.1659704021
 20
89.4647832199
 30
0.0
 40
3.944175412646004
100
AcDbArc
 50
63.4349488229
 51
116.5650511771
  0
INSERT
  5
15C
330
157
100
AcDbEntity
  8
0
  6
Continuous
 62
     7
370
    18
100
AcDbBlockReference
  2
_Open30
 10
239.9298590368
 20
110.2286720002
 30
0.0
 41
3.0
 42
3.0
 50
90.0
  0
INSERT
  5
15D
330
157
100
AcDbEntity
  8
0
  6
Continuous
 62
     7
370
    18
100
AcDbBlockReference
  2
_Open30
 10
239.9298590368
 20
72.2286720002
 30
0.0
 41
3.0
 42
3.0
 50
270.0
  0
LINE
  5
15E
330
157
100
AcDbEntity
  8
0
  6
Continuous
 62
     7
370
    18
100
AcDbLine
 10
228.190520102
 20
110.2286720002
 30
0.0
 11
240.9298590368
 21
110.2286720002
 31
0.0
  0
LINE
  5
15F
330
157
100
AcDbEntity
  8
0
  6
Continuous
 62
     7
370
    18
100
AcDbLine
 10
208.4465028312
 20
72.2286720002
 30
0.0
 11
240.9298590368
 21
72.2286720002
 31
0.0
  0
LINE
  5
160
330
157
100
AcDbEntity
  8
0
  6
Continuous
 62
     7
370
    18
100
AcDbLine
 10
239.9298590368
 20
110.2286720002
 30
0.0
 11
239.9298590368
 21
72.2286720002
 31
0.0
  0
MTEXT
  5
161
330
157
100
AcDbEntity
  8
0
  6
Continuous
 62
     7
370
    18
100
AcDbMText
 10
236.8510715073
 20
89.4647832199
 30
0.0
 40
2.6458333333
 41
0.0
 71
     1
 72
     1
  1
38
  7
SLDTEXTSTYLE0
 11
-7.044195017643634E-15
 21
1.0
 31
0.0
 73
     1
 44
1.0
  0
ENDBLK
  5
159
330
157
100
AcDbEntity
  8
0
100
AcDbBlockEnd
  0
BLOCK
  5
164
330
163
100
AcDbEntity
  8
0
100
AcDbBlockBegin
  2
_D_6
 70
     0
 10
0.0
 20
0.0
 30
0.0
  3
_D_6
  1

  0
INSERT
  5
166
330
163
100
AcDbEntity
  8
0
  6
Continuous
 62
     7
370
    18
100
AcDbBlockReference
  2
_Open30
 10
52.9950702731
 20
170.3541446062
 30
0.0
 41
3.0
 42
3.0
 50
180.0
  0
INSERT
  5
167
330
163
100
AcDbEntity
  8
0
  6
Continuous
 62
     7
370
    18
100
AcDbBlockReference
  2
_Open30
 10
152.7465028312
 20
170.3541446062
 30
0.0
 41
3.0
 42
3.0
 50
0.0
  0
LINE
  5
168
330
163
100
AcDbEntity
  8
0
  6
Continuous
 62
     7
370
    18
100
AcDbLine
 10
52.9950702731
 20
111.2286720002
 30
0.0
 11
52.9950702731
 21
171.3541446062
 31
0.0
  0
LINE
  5
169
330
163
100
AcDbEntity
  8
0
  6
Continuous
 62
     7
370
    18
100
AcDbLine
 10
152.7465028312
 20
119.7286720002
 30
0.0
 11
152.7465028312
 21
171.3541446062
 31
0.0
  0
LINE
  5
16A
330
163
100
AcDbEntity
  8
0
  6
Continuous
 62
     7
370
    18
100
AcDbLine
 10
52.9950702731
 20
170.3541446062
 30
0.0
 11
152.7465028312
 21
170.3541446062
 31
0.0
  0
MTEXT
  5
16B
330
163
100
AcDbEntity
  8
0
  6
Continuous
 62
     7
370
    18
100
AcDbMText
 10
86.3605005759
 20
173.4329323685
 30
0.0
 40
2.6458333333
 41
0.0
 71
     1
 72
     1
  1
L1=100～1,000
  7
SLDTEXTSTYLE1
 73
     1
 44
1.0
  0
ENDBLK
  5
165
330
163
100
AcDbEntity
  8
0
100
AcDbBlockEnd
  0
BLOCK
  5
16D
330
16C
100
AcDbEntity
  8
0
100
AcDbBlockBegin
  2
SW_NOTE_0_1
 70
     0
 10
0.0
 20
0.0
 30
0.0
  3
SW_NOTE_0_1
  1

  0
LINE
  5
16F
330
16C
100
AcDbEntity
  8
0
  6
Continuous
 62
     0
370
    18
100
AcDbLine
 10
17.4911777226
 20
0.0
 30
0.0
 11
0.0
 21
0.0
 31
0.0
  0
MTEXT
  5
170
330
16C
100
AcDbEntity
  8
0
  6
Continuous
 62
     0
370
    18
100
AcDbMText
 10
0.3965549884
 20
3.1859496344
 30
0.0
 40
2.6458333333
 41
0.0
 71
     1
 72
     1
  1
30型端子箱
  7
SLDTEXTSTYLE1
 73
     1
 44
1.0
  0
ENDBLK
  5
16E
330
16C
100
AcDbEntity
  8
0
100
AcDbBlockEnd
  0
BLOCK
  5
175
330
174
100
AcDbEntity
  8
0
100
AcDbBlockBegin
  2
SW_NOTE_0_2
 70
     0
 10
0.0
 20
0.0
 30
0.0
  3
SW_NOTE_0_2
  1

  0
LINE
  5
177
330
174
100
AcDbEntity
  8
0
  6
Continuous
 62
     0
370
    18
100
AcDbLine
 10
9.2645958735
 20
0.0
 30
0.0
 11
0.0
 21
0.0
 31
0.0
  0
MTEXT
  5
178
330
174
100
AcDbEntity
  8
0
  6
Continuous
 62
     0
370
    18
100
AcDbMText
 10
0.4893866804
 20
3.0072497488
 30
0.0
 40
2.6458333333
 41
0.0
 71
     1
 72
     1
  1
PF3/8
  7
SLDTEXTSTYLE0
 73
     1
 44
1.0
  0
ENDBLK
  5
176
330
174
100
AcDbEntity
  8
0
100
AcDbBlockEnd
  0
BLOCK
  5
17C
330
17B
100
AcDbEntity
  8
0
100
AcDbBlockBegin
  2
SW_NOTE_0_3
 70
     0
 10
0.0
 20
0.0
 30
0.0
  3
SW_NOTE_0_3
  1

  0
LINE
  5
17E
330
17B
100
AcDbEntity
  8
0
  6
Continuous
 62
     0
370
    18
100
AcDbLine
 10
-20.3099389823
 20
0.0
 30
0.0
 11
0.0
 21
0.0
 31
0.0
  0
MTEXT
  5
17F
330
17B
100
AcDbEntity
  8
0
  6
Continuous
 62
     0
370
    18
100
AcDbMText
 10
-20.7763629815
 20
3.0072497488
 30
0.0
 40
2.6458333333
 41
0.0
 71
     1
 72
     1
  1
ｹｰﾌﾞﾙ取出口
  7
SLDTEXTSTYLE1
 73
     1
 44
1.0
  0
ENDBLK
  5
17D
330
17B
100
AcDbEntity
  8
0
100
AcDbBlockEnd
  0
BLOCK
  5
183
330
182
100
AcDbEntity
  8
0
100
AcDbBlockBegin
  2
SW_NOTE_0_4
 70
     0
 10
0.0
 20
0.0
 30
0.0
  3
SW_NOTE_0_4
  1

  0
LINE
  5
185
330
182
100
AcDbEntity
  8
0
  6
Continuous
 62
     0
370
    18
100
AcDbLine
 10
-16.4097854199
 20
0.0
 30
0.0
 11
0.0
 21
0.0
 31
0.0
  0
MTEXT
  5
186
330
182
100
AcDbEntity
  8
0
  6
Continuous
 62
     0
370
    18
100
AcDbMText
 10
-16.7753271866
 20
3.1238346765
 30
0.0
 40
2.6458333333
 41
0.0
 71
     1
 72
     1
  1
ｱﾙｺﾞﾝ溶接
  7
SLDTEXTSTYLE1
 73
     1
 44
1.0
  0
ENDBLK
  5
184
330
182
100
AcDbEntity
  8
0
100
AcDbBlockEnd
  0
BLOCK
  5
18A
330
189
100
AcDbEntity
  8
0
100
AcDbBlockBegin
  2
SW_NOTE_0_5
 70
     0
 10
0.0
 20
0.0
 30
0.0
  3
SW_NOTE_0_5
  1

  0
LINE
  5
18C
330
189
100
AcDbEntity
  8
0
  6
Continuous
 62
     0
370
    18
100
AcDbLine
 10
12.5816865561
 20
0.0
 30
0.0
 11
0.0
 21
0.0
 31
0.0
  0
MTEXT
  5
18D
330
189
100
AcDbEntity
  8
0
  6
Continuous
 62
     0
370
    18
100
AcDbMText
 10
0.3906595383
 20
2.949657827
 30
0.0
 40
2.6458333333
 41
0.0
 71
     1
 72
     1
  1
 保護管 
  7
SLDTEXTSTYLE1
 73
     1
 44
1.0
  0
ENDBLK
  5
18B
330
189
100
AcDbEntity
  8
0
100
AcDbBlockEnd
  0
BLOCK
  5
191
330
190
100
AcDbEntity
  8
0
100
AcDbBlockBegin
  2
SW_NOTE_0_6
 70
     0
 10
0.0
 20
0.0
 30
0.0
  3
SW_NOTE_0_6
  1

  0
LINE
  5
193
330
190
100
AcDbEntity
  8
0
  6
Continuous
 62
     0
370
    18
100
AcDbLine
 10
41.435969129
 20
0.0
 30
0.0
 11
0.0
 21
0.0
 31
0.0
  0
MTEXT
  5
194
330
190
100
AcDbEntity
  8
0
  6
Continuous
 62
     0
370
    18
100
AcDbMText
 10
0.4738781479
 20
2.949657827
 30
0.0
 40
2.6458333333
 41
0.0
 71
     1
 72
     1
  1
 ｱﾙｺﾞﾝ溶接または銀ろう付け 
  7
SLDTEXTSTYLE1
 73
     1
 44
1.0
  0
ENDBLK
  5
192
330
190
100
AcDbEntity
  8
0
100
AcDbBlockEnd
  0
BLOCK
  5
199
330
198
100
AcDbEntity
  8
0
100
AcDbBlockBegin
  2
SW_NOTE_0_7
 70
     0
 10
0.0
 20
0.0
 30
0.0
  3
SW_NOTE_0_7
  1

  0
MTEXT
  5
19B
330
198
100
AcDbEntity
  8
0
  6
Continuous
 62
     0
370
    18
100
AcDbMText
 10
0.0
 20
3.0787878788
 30
0.0
 40
2.6458333333
 41
0.0
 71
     1
 72
     1
  1
先端120°形：φ3.0、φ3.2、φ4.8、
  7
SLDTEXTSTYLE1
 73
     1
 44
1.0
  0
MTEXT
  5
19C
330
198
100
AcDbEntity
  8
0
  6
Continuous
 62
     0
370
    18
100
AcDbMText
 10
0.0
 20
-0.4489898564
 30
0.0
 40
2.6458333333
 41
0.0
 71
     1
 72
     1
  1
　　　　　　　　　φ5.0、φ6.0、φ8.0
  7
SLDTEXTSTYLE1
 73
     1
 44
1.0
  0
MTEXT
  5
19D
330
198
100
AcDbEntity
  8
0
  6
Continuous
 62
     0
370
    18
100
AcDbMText
 10
0.0
 20
-3.9767675915
 30
0.0
 40
2.6458333333
 41
0.0
 71
     1
 72
     1
  1
先端半球形：φ10.0
  7
SLDTEXTSTYLE1
 73
     1
 44
1.0
  0
ENDBLK
  5
19A
330
198
100
AcDbEntity
  8
0
100
AcDbBlockEnd
  0
ENDSEC
  0
SECTION
  2
ENTITIES
  0
LINE
  5
73
330
1F
100
AcDbEntity
  8
0
  6
Continuous
 62
     7
370
    25
100
AcDbLine
 10
12.8700158558
 20
190.0085404097
 30
0.0
 11
12.8700749558
 21
18.0082352097
 31
0.0
  0
LINE
  5
74
330
1F
100
AcDbEntity
  8
0
  6
Continuous
 62
     7
370
    25
100
AcDbLine
 10
12.8700749558
 20
18.0082352097
 30
0.0
 11
282.5707921135
 21
18.0082352097
 31
0.0
  0
LINE
  5
75
330
1F
100
AcDbEntity
  8
0
  6
Continuous
 62
     7
370
    25
100
AcDbLine
 10
12.8700158558
 20
190.0085404097
 30
0.0
 11
282.5707921135
 21
190.0085404097
 31
0.0
  0
LINE
  5
76
330
1F
100
AcDbEntity
  8
0
  6
Continuous
 62
     7
370
    25
100
AcDbLine
 10
282.5707921135
 20
18.0082352097
 30
0.0
 11
282.5707921135
 21
190.0085404097
 31
0.0
  0
MTEXT
  5
78
330
1F
100
AcDbEntity
  8
0
  6
Continuous
 62
     7
370
    18
100
AcDbMText
 10
37.7706091776
 20
29.2940489263
 30
0.0
 40
4.7625
 41
0.0
 71
     1
 72
     1
  1
RKC INSTRUMENT INC.
  7
SLDTEXTSTYLE0
 73
     1
 44
1.0
  0
INSERT
  5
80
330
1F
100
AcDbEntity
  8
0
  6
Continuous
 62
     7
370
    18
100
AcDbBlockReference
  2
SW_NOTE_0
 10
37.7706091776
 20
44.4671472066
 30
0.0
  0
INSERT
  5
84
330
1F
100
AcDbEntity
  8
0
  6
Continuous
 62
     7
100
AcDbBlockReference
  2
SW_BROKEN_VIEW_0
 10
0.0
 20
0.0
 30
0.0
  0
LINE
  5
85
330
1F
100
AcDbEntity
  8
0
  6
Continuous
 62
     7
370
    25
100
AcDbLine
 10
153.4970575915
 20
120.0286716249
 30
0.0
 11
152.7465010034
 21
118.7286719707
 31
0.0
  0
LINE
  5
86
330
1F
100
AcDbEntity
  8
0
  6
Continuous
 62
     7
370
    25
100
AcDbLine
 10
152.7465010034
 20
101.7286719781
 30
0.0
 11
153.4970575915
 21
100.4286718581
 31
0.0
  0
LINE
  5
87
330
1F
100
AcDbEntity
  8
0
  6
Continuous
 62
     7
370
    25
100
AcDbLine
 10
209.6220651613
 20
83.2010645446
 30
0.0
 11
216.2816250668
 21
87.5258341458
 31
0.0
  0
LINE
  5
88
330
1F
100
AcDbEntity
  8
0
  6
Continuous
 62
     7
370
    25
100
AcDbLine
 10
190.1715571032
 20
136.6317223784
 30
0.0
 11
182.8621873604
 21
133.5290771004
 31
0.0
  0
ARC
  5
89
330
1F
100
AcDbEntity
  8
0
  6
Continuous
 62
     7
370
    25
100
AcDbCircle
 10
214.6477098663
 20
90.0418435093
 30
0.0
 40
2.999996999960139
100
AcDbArc
 50
302.999993838
 51
13.3165630685
  0
ARC
  5
8A
330
1F
100
AcDbEntity
  8
0
  6
Continuous
 62
     7
370
    25
100
AcDbCircle
 10
191.3437533982
 20
133.870203093
 30
0.0
 40
3.000005486287233
100
AcDbArc
 50
42.6835820162
 51
113.0000158889
  0
ARC
  5
8B
330
1F
100
AcDbEntity
  8
0
  6
Continuous
 62
     7
370
    25
100
AcDbCircle
 10
67.1257277847
 20
55.1243878123
 30
0.0
 40
154.5980309899787
100
AcDbArc
 50
13.3164567019
 51
19.7808087146
  0
ARC
  5
8C
330
1F
100
AcDbEntity
  8
0
  6
Continuous
 62
     7
370
    25
100
AcDbCircle
 10
79.9012847025
 20
31.0934645508
 30
0.0
 40
154.5997476178131
100
AcDbArc
 50
36.218022721
 51
42.6834997413
  0
SPLINE
  5
8D
330
1F
100
AcDbEntity
  8
0
  6
Continuous
 62
     7
370
    25
100
AcDbSpline
210
0.0
220
0.0
230
1.0
 70
     8
 71
     3
 72
    14
 73
    10
 74
     0
 42
0.00000001
 43
0.00000001
 40
0.0
 40
0.0
 40
0.0
 40
0.0
 40
0.0085497173350197
 40
0.0565170057086755
 40
0.1457277206114494
 40
0.3541248954415632
 40
0.6228773128082822
 40
0.9314690761638857
 40
1.0
 40
1.0
 40
1.0
 40
1.0
 10
212.5848034368459
 20
107.261764167681
 30
0.0
 10
212.5846639049083
 20
107.2627013641302
 30
0.0
 10
212.5837415437346
 20
107.2688966025212
 30
0.0
 10
212.5823563395591
 20
107.2850103236369
 30
0.0
 10
212.5824218727927
 20
107.3233397123432
 30
0.0
 10
212.5936824956722
 20
107.3860565026055
 30
0.0
 10
212.633188945144
 20
107.4637727439765
 30
0.0
 10
212.6812282790711
 20
107.5218670325055
 30
0.0
 10
212.7196884000934
 20
107.538592187283
 30
0.0
 10
212.7266773925726
 20
107.5416314907965
 30
0.0
  0
SPLINE
  5
8E
330
1F
100
AcDbEntity
  8
0
  6
Continuous
 62
     7
370
    25
100
AcDbSpline
210
0.0
220
0.0
230
1.0
 70
     8
 71
     3
 72
    14
 73
    10
 74
     0
 42
0.00000001
 43
0.00000001
 40
0.0
 40
0.0
 40
0.0
 40
0.0
 40
0.3266846321041844
 40
0.603950728773022
 40
0.8078513429805545
 40
0.9196311249792456
 40
0.9751238822405807
 40
0.997940625903437
 40
1.0
 40
1.0
 40
1.0
 40
1.0
 10
204.6836489783231
 20
122.4633574512449
 30
0.0
 10
204.6578682909238
 20
122.4625130671489
 30
0.0
 10
204.610206835768
 20
122.4609520313975
 30
0.0
 10
204.5476013884812
 20
122.4799990191791
 30
0.0
 10
204.5076532473307
 20
122.4991150274564
 30
0.0
 10
204.4803105454965
 20
122.5190466134327
 30
0.0
 10
204.473363498929
 20
122.5238665677019
 30
0.0
 10
204.4636094110863
 20
122.5332538099802
 30
0.0
 10
204.4650833827777
 20
122.5317136458398
 30
0.0
 10
204.4652054058019
 20
122.5315861430612
 30
0.0
  0
SPLINE
  5
8F
330
1F
100
AcDbEntity
  8
0
  6
Continuous
 62
     7
370
    25
100
AcDbSpline
210
0.0
220
0.0
230
1.0
 70
     8
 71
     3
 72
     9
 73
     5
 74
     0
 42
0.00000001
 43
0.00000001
 40
0.0
 40
0.0
 40
0.0
 40
0.0
 40
0.9749782546853347
 40
1.0
 40
1.0
 40
1.0
 40
1.0
 10
204.7780403839056
 20
122.4892966475931
 30
0.0
 10
204.7479742658956
 20
122.4759901184885
 30
0.0
 10
204.7171365340124
 20
122.4623420919396
 30
0.0
 10
204.6844664410682
 20
122.4633326653688
 30
0.0
 10
204.6836489783231
 20
122.4633574512449
 30
0.0
  0
LINE
  5
90
330
1F
100
AcDbEntity
  8
0
  6
Continuous
 62
     7
370
    25
100
AcDbLine
 10
185.4465031968
 20
67.2286737737
 30
0.0
 11
187.4464997993
 21
66.2286717471
 31
0.0
  0
LINE
  5
91
330
1F
100
AcDbEntity
  8
0
  6
Continuous
 62
     7
370
    25
100
AcDbLine
 10
205.4465064751
 20
66.2286717471
 30
0.0
 11
207.4465030776
 21
67.2286737737
 31
0.0
  0
LINE
  5
92
330
1F
100
AcDbEntity
  8
0
  6
Continuous
 62
     7
370
    25
100
AcDbLine
 10
221.9875926124
 20
116.3913298425
 30
0.0
 11
222.429069315
 21
116.6260659721
 31
0.0
  0
LINE
  5
93
330
1F
100
AcDbEntity
  8
0
  6
Continuous
 62
     7
370
    25
100
AcDbLine
 10
217.7343541728
 20
125.4555422839
 30
0.0
 11
217.2928774701
 21
125.2208061543
 31
0.0
  0
ARC
  5
94
330
1F
100
AcDbEntity
  8
0
  6
Continuous
 62
     7
370
    25
100
AcDbCircle
 10
214.9115821414
 20
117.9433653801
 30
0.0
 40
8.025013630816533
100
AcDbArc
 50
37.5388778773
 51
69.4058118725
  0
ARC
  5
95
330
1F
100
AcDbEntity
  8
0
  6
Continuous
 62
     7
370
    25
100
AcDbCircle
 10
214.6227154597
 20
118.4866333188
 30
0.0
 40
8.025015349942704
100
AcDbArc
 50
346.5942247769
 51
18.3962306715
  0
SPLINE
  5
96
330
1F
100
AcDbEntity
  8
0
  6
Continuous
 62
     7
370
    25
100
AcDbSpline
210
0.0
220
0.0
230
1.0
 70
     8
 71
     3
 72
    19
 73
    15
 74
     0
 42
0.00000001
 43
0.00000001
 40
0.0
 40
0.0
 40
0.0
 40
0.0
 40
0.0273096760361662
 40
0.0625193715252684
 40
0.118670391230925
 40
0.2139965279703288
 40
0.354160244605478
 40
0.5402170089517225
 40
0.7098181599658631
 40
0.8279413561883071
 40
0.8741631908063655
 40
0.9150637085423238
 40
0.9760455418360275
 40
1.0
 40
1.0
 40
1.0
 40
1.0
 10
216.1295959697668
 20
120.8919182446447
 30
0.0
 10
216.128260130561
 20
120.8876030474665
 30
0.0
 10
216.1252020266314
 20
120.8777243724053
 30
0.0
 10
216.122501309381
 20
120.8582527166948
 30
0.0
 10
216.113974470954
 20
120.8285383406751
 30
0.0
 10
216.0953847325527
 20
120.7838994513388
 30
0.0
 10
216.0553416832235
 20
120.7260748422871
 30
0.0
 10
215.9910141904977
 20
120.6731173531717
 30
0.0
 10
215.9173851581807
 20
120.6434619387406
 30
0.0
 10
215.8625308606568
 20
120.6353972516547
 30
0.0
 10
215.8284038891186
 20
120.6357422321752
 30
0.0
 10
215.8045462406352
 20
120.6356159708792
 30
0.0
 10
215.7813785064558
 20
120.6434391452182
 30
0.0
 10
215.770870962076
 20
120.6332663081345
 30
0.0
 10
215.7679075346891
 20
120.6303972777572
 30
0.0
  0
SPLINE
  5
97
330
1F
100
AcDbEntity
  8
0
  6
Continuous
 62
     7
370
    25
100
AcDbSpline
210
0.0
220
0.0
230
1.0
 70
     8
 71
     3
 72
    19
 73
    15
 74
     0
 42
0.00000001
 43
0.00000001
 40
0.0
 40
0.0
 40
0.0
 40
0.0
 40
0.0273098328766299
 40
0.0625178836303777
 40
0.1186674117667483
 40
0.2140016701758153
 40
0.354159203774443
 40
0.5402146500155853
 40
0.7098314154692751
 40
0.8279404033641744
 40
0.874162489946772
 40
0.9150631518451663
 40
0.9760454042647022
 40
1.0
 40
1.0
 40
1.0
 40
1.0
 10
216.8359557138387
 20
121.267494561955
 30
0.0
 10
216.8346198892482
 20
121.2631793603805
 30
0.0
 10
216.8315619091177
 20
121.2533009670891
 30
0.0
 10
216.8288608108586
 20
121.2338300454531
 30
0.0
 10
216.8203349859178
 20
121.2041144630413
 30
0.0
 10
216.8017333428436
 20
121.1594812099125
 30
0.0
 10
216.7617054567314
 20
121.1016479066859
 30
0.0
 10
216.6973703558763
 20
121.0486939782766
 30
0.0
 10
216.6237421695882
 20
121.0190419782241
 30
0.0
 10
216.5688881454065
 20
121.0109730325799
 30
0.0
 10
216.5347636607626
 20
121.011321122228
 30
0.0
 10
216.5109059253263
 20
121.0111923428128
 30
0.0
 10
216.4877382659626
 20
121.0190175109007
 30
0.0
 10
216.4772307076682
 20
121.0088445271319
 30
0.0
 10
216.4742672787611
 20
121.0059754577127
 30
0.0
  0
SPLINE
  5
98
330
1F
100
AcDbEntity
  8
0
  6
Continuous
 62
     7
370
    25
100
AcDbSpline
210
0.0
220
0.0
230
1.0
 70
     8
 71
     3
 72
    19
 73
    15
 74
     0
 42
0.00000001
 43
0.00000001
 40
0.0
 40
0.0
 40
0.0
 40
0.0
 40
0.0273097640148768
 40
0.0625214198774794
 40
0.1186708064327952
 40
0.2140013609245847
 40
0.3541585411159426
 40
0.540215904848068
 40
0.7098322426130246
 40
0.8279558193718941
 40
0.8741777894054843
 40
0.915078529720008
 40
0.9760454646662237
 40
1.0
 40
1.0
 40
1.0
 40
1.0
 10
217.5423154579107
 20
121.6430727419105
 30
0.0
 10
217.5409796143068
 20
121.6387575435335
 30
0.0
 10
217.5379214099665
 20
121.6288785738933
 30
0.0
 10
217.5352208958103
 20
121.6094069220654
 30
0.0
 10
217.5266949249193
 20
121.5796912949683
 30
0.0
 10
217.5080924986709
 20
121.5350590087932
 30
0.0
 10
217.4680648284775
 20
121.4772259780765
 30
0.0
 10
217.4037307270242
 20
121.4242703615365
 30
0.0
 10
217.3300995810953
 20
121.3946166651226
 30
0.0
 10
217.2752429283038
 20
121.3865501471466
 30
0.0
 10
217.2411158810281
 20
121.38689660989
 30
0.0
 10
217.2172607882266
 20
121.3867719211796
 30
0.0
 10
217.1940960246237
 20
121.3945920062807
 30
0.0
 10
217.1835904276483
 20
121.3844208431769
 30
0.0
 10
217.180627022833
 20
121.381551775023
 30
0.0
  0
SPLINE
  5
99
330
1F
100
AcDbEntity
  8
0
  6
Continuous
 62
     7
370
    25
100
AcDbSpline
210
0.0
220
0.0
230
1.0
 70
     8
 71
     3
 72
    19
 73
    15
 74
     0
 42
0.00000001
 43
0.00000001
 40
0.0
 40
0.0
 40
0.0
 40
0.0
 40
0.0273095207950343
 40
0.0625199591500288
 40
0.118664913713272
 40
0.2139980826954057
 40
0.3541540146516168
 40
0.5402189516162466
 40
0.709819844811385
 40
0.8279423695656412
 40
0.8741639279479162
 40
0.9150641224562724
 40
0.976045678004512
 40
1.0
 40
1.0
 40
1.0
 40
1.0
 10
218.2486752019826
 20
122.0186490592208
 30
0.0
 10
218.247339963991
 20
122.0143337413698
 30
0.0
 10
218.2442831902997
 20
122.0044546410446
 30
0.0
 10
218.2415672998719
 20
121.9849868393697
 30
0.0
 10
218.2330614172515
 20
121.9552665913072
 30
0.0
 10
218.2144491857981
 20
121.9106367404029
 30
0.0
 10
218.174426147856
 20
121.8527993070977
 30
0.0
 10
218.1100840812658
 20
121.7998532818163
 30
0.0
 10
218.0364576910279
 20
121.770193709321
 30
0.0
 10
217.981602585689
 20
121.7621277863245
 30
0.0
 10
217.9474757083943
 20
121.7624755803894
 30
0.0
 10
217.9236179588231
 20
121.7623468558727
 30
0.0
 10
217.900450303927
 20
121.7701720066084
 30
0.0
 10
217.8899427453198
 20
121.7599990240549
 30
0.0
 10
217.8869793163244
 20
121.7571299549785
 30
0.0
  0
SPLINE
  5
9A
330
1F
100
AcDbEntity
  8
0
  6
Continuous
 62
     7
370
    25
100
AcDbSpline
210
0.0
220
0.0
230
1.0
 70
     8
 71
     3
 72
    19
 73
    15
 74
     0
 42
0.00000001
 43
0.00000001
 40
0.0
 40
0.0
 40
0.0
 40
0.0
 40
0.0120403361921644
 40
0.0554691417011151
 40
0.0953396615771346
 40
0.1535691046452546
 40
0.2309123686767056
 40
0.3278669415191541
 40
0.544563100251528
 40
0.7152277539345248
 40
0.8338866863548917
 40
0.9215177376111888
 40
0.9806890487591415
 40
1.0
 40
1.0
 40
1.0
 40
1.0
 10
217.6734978304807
 20
117.8242860388604
 30
0.0
 10
217.6751100723983
 20
117.822286825631
 30
0.0
 10
217.6825375789026
 20
117.8130765643777
 30
0.0
 10
217.6830258228655
 20
117.8456903151979
 30
0.0
 10
217.6912825620974
 20
117.8644113167907
 30
0.0
 10
217.7018992536411
 20
117.896223023569
 30
0.0
 10
217.7216690694941
 20
117.9323464299219
 30
0.0
 10
217.7640245525861
 20
117.9890915148475
 30
0.0
 10
217.8363182786864
 20
118.041652873124
 30
0.0
 10
217.9252992568406
 20
118.0672498324424
 30
0.0
 10
217.9933527510713
 20
118.0660078770894
 30
0.0
 10
218.0407840961836
 20
118.0606667293666
 30
0.0
 10
218.0683863360212
 20
118.044444696767
 30
0.0
 10
218.0824495054393
 20
118.0470550063348
 30
0.0
 10
218.0859098182623
 20
118.0476972859946
 30
0.0
  0
SPLINE
  5
9B
330
1F
100
AcDbEntity
  8
0
  6
Continuous
 62
     7
370
    25
100
AcDbSpline
210
0.0
220
0.0
230
1.0
 70
     8
 71
     3
 72
    19
 73
    15
 74
     0
 42
0.00000001
 43
0.00000001
 40
0.0
 40
0.0
 40
0.0
 40
0.0
 40
0.0120403300014278
 40
0.0554691131807447
 40
0.0953396125566813
 40
0.1535690256851766
 40
0.2309122499493178
 40
0.3278667729409798
 40
0.5445628202554638
 40
0.7152140677315322
 40
0.8338867717647807
 40
0.9215177779641333
 40
0.9806890586881842
 40
1.0
 40
1.0
 40
1.0
 40
1.0
 10
218.3798575745527
 20
118.1998632874933
 30
0.0
 10
218.3814698164704
 20
118.1978640742632
 30
0.0
 10
218.3888973229757
 20
118.1886538130064
 30
0.0
 10
218.3893855669182
 20
118.2212675639032
 30
0.0
 10
218.3976423062449
 20
118.2399885651395
 30
0.0
 10
218.4082589972212
 20
118.2718002740511
 30
0.0
 10
218.4280288163207
 20
118.3079236681997
 30
0.0
 10
218.4703842766095
 20
118.3646688388477
 30
0.0
 10
218.5426761975434
 20
118.4172280642209
 30
0.0
 10
218.631656242578
 20
118.4428281672334
 30
0.0
 10
218.6997100476152
 20
118.4415852027579
 30
0.0
 10
218.7471438365206
 20
118.436244009297
 30
0.0
 10
218.7747460803005
 20
118.4200219436623
 30
0.0
 10
218.7888092495521
 20
118.4226322546246
 30
0.0
 10
218.7922695623342
 20
118.4232745346275
 30
0.0
  0
SPLINE
  5
9C
330
1F
100
AcDbEntity
  8
0
  6
Continuous
 62
     7
370
    25
100
AcDbSpline
210
0.0
220
0.0
230
1.0
 70
     8
 71
     3
 72
    19
 73
    15
 74
     0
 42
0.00000001
 43
0.00000001
 40
0.0
 40
0.0
 40
0.0
 40
0.0
 40
0.0120308062513692
 40
0.0554635441618462
 40
0.095334278616982
 40
0.1535640350700913
 40
0.2309077153551881
 40
0.3278628099973683
 40
0.5445601349666114
 40
0.7152123886141407
 40
0.8338857923497925
 40
0.9215173152275686
 40
0.9806889448295496
 40
1.0
 40
1.0
 40
1.0
 40
1.0
 10
219.0862173186246
 20
118.5754405361262
 30
0.0
 10
219.0878266577261
 20
118.5734418455802
 30
0.0
 10
219.0952459152937
 20
118.5642276284239
 30
0.0
 10
219.0957489757013
 20
118.596845735476
 30
0.0
 10
219.1040005334738
 20
118.6155652617633
 30
0.0
 10
219.1146193765
 20
118.6473777538483
 30
0.0
 10
219.1343883219367
 20
118.6835008300538
 30
0.0
 10
219.1767441903135
 20
118.740246149213
 30
0.0
 10
219.2490358951172
 20
118.7928052959322
 30
0.0
 10
219.3380159941909
 20
118.8184054186107
 30
0.0
 10
219.4060697904546
 20
118.8171624509423
 30
0.0
 10
219.4535035807843
 20
118.8118212579997
 30
0.0
 10
219.4811058243618
 20
118.7955991922913
 30
0.0
 10
219.495168993622
 20
118.7982095032567
 30
0.0
 10
219.4986293064062
 20
118.7988517832604
 30
0.0
  0
SPLINE
  5
9D
330
1F
100
AcDbEntity
  8
0
  6
Continuous
 62
     7
370
    25
100
AcDbSpline
210
0.0
220
0.0
230
1.0
 70
     8
 71
     3
 72
    19
 73
    15
 74
     0
 42
0.00000001
 43
0.00000001
 40
0.0
 40
0.0
 40
0.0
 40
0.0
 40
0.0120401960832957
 40
0.055472194836683
 40
0.0953383896700529
 40
0.1535671551440209
 40
0.2309095191609665
 40
0.327862963779477
 40
0.5445677569328562
 40
0.7152171063466385
 40
0.8338884904470575
 40
0.9215049274493267
 40
0.9806755500429624
 40
1.0
 40
1.0
 40
1.0
 40
1.0
 10
219.792569612116
 20
118.9510177847591
 30
0.0
 10
219.7941817206054
 20
118.9490186315261
 30
0.0
 10
219.8016091076348
 20
118.9398080325555
 30
0.0
 10
219.8021100786352
 20
118.9724188667808
 30
0.0
 10
219.8103497926157
 20
118.9911451849394
 30
0.0
 10
219.8209730305333
 20
119.0229541864258
 30
0.0
 10
219.840740149674
 20
119.0590783247533
 30
0.0
 10
219.8830977069914
 20
119.1158252661966
 30
0.0
 10
219.955394518322
 20
119.1683809848248
 30
0.0
 10
220.0443755392542
 20
119.1939822971618
 30
0.0
 10
220.1124272518672
 20
119.1927409854721
 30
0.0
 10
220.1598581204991
 20
119.187396152961
 30
0.0
 10
220.1874603731231
 20
119.1711767609239
 30
0.0
 10
220.2015262238391
 20
119.1737865390045
 30
0.0
 10
220.2049890504781
 20
119.1744290318933
 30
0.0
  0
LINE
  5
9E
330
1F
100
AcDbEntity
  8
0
  6
Continuous
 62
     7
370
    25
100
AcDbLine
 10
216.2760669337
 20
121.1691916016
 30
0.0
 11
216.1006206618
 21
121.0759047446
 31
0.0
  0
LINE
  5
9F
330
1F
100
AcDbEntity
  8
0
  6
Continuous
 62
     7
370
    25
100
AcDbLine
 10
216.9824266778
 20
121.5447697815
 30
0.0
 11
216.8069804059
 21
121.4514810619
 31
0.0
  0
LINE
  5
A0
330
1F
100
AcDbEntity
  8
0
  6
Continuous
 62
     7
370
    25
100
AcDbLine
 10
217.6887864219
 20
121.9203460988
 30
0.0
 11
217.5133326994
 21
121.8270592418
 31
0.0
  0
LINE
  5
A1
330
1F
100
AcDbEntity
  8
0
  6
Continuous
 62
     7
370
    25
100
AcDbLine
 10
218.748236631
 20
122.483667734
 30
0.0
 11
218.2196924435
 21
122.2026355591
 31
0.0
  0
LINE
  5
A2
330
1F
100
AcDbEntity
  8
0
  6
Continuous
 62
     7
370
    25
100
AcDbLine
 10
220.3568616854
 20
119.0352233153
 30
0.0
 11
220.5322334515
 21
119.1284673315
 31
0.0
  0
LINE
  5
A3
330
1F
100
AcDbEntity
  8
0
  6
Continuous
 62
     7
370
    25
100
AcDbLine
 10
219.6505093919
 20
118.6596460667
 30
0.0
 11
219.825933312
 21
118.7529236105
 31
0.0
  0
LINE
  5
A4
330
1F
100
AcDbEntity
  8
0
  6
Continuous
 62
     7
370
    25
100
AcDbLine
 10
218.9441496478
 20
118.2840688181
 30
0.0
 11
219.1195810185
 21
118.3773463619
 31
0.0
  0
LINE
  5
A5
330
1F
100
AcDbEntity
  8
0
  6
Continuous
 62
     7
370
    25
100
AcDbLine
 10
218.2377899037
 20
117.9084915694
 30
0.0
 11
218.4132212745
 21
118.0017691132
 31
0.0
  0
LINE
  5
A6
330
1F
100
AcDbEntity
  8
0
  6
Continuous
 62
     7
370
    25
100
AcDbLine
 10
217.5314301597
 20
117.5329143208
 30
0.0
 11
217.7068615304
 21
117.6261918646
 31
0.0
  0
ARC
  5
A7
330
1F
100
AcDbEntity
  8
0
  6
Continuous
 62
     7
370
    25
100
AcDbCircle
 10
207.5792278134
 20
78.2303605722
 30
0.0
 40
57.00482367001523
100
AcDbArc
 50
113.8321170128
 51
118.9401725327
  0
ARC
  5
A8
330
1F
100
AcDbEntity
  8
0
  6
Continuous
 62
     7
370
    25
100
AcDbCircle
 10
207.5795667596
 20
142.2327027484
 30
0.0
 40
57.01062359018965
100
AcDbArc
 50
269.8527774974
 51
270.8713081821
  0
ARC
  5
A9
330
1F
100
AcDbEntity
  8
0
  6
Continuous
 62
     7
370
    25
100
AcDbCircle
 10
207.5796259338
 20
142.2278181855
 30
0.0
 40
57.00574769656604
100
AcDbArc
 50
241.0598837584
 51
247.1694761295
  0
ARC
  5
AA
330
1F
100
AcDbEntity
  8
0
  6
Continuous
 62
     7
370
    25
100
AcDbCircle
 10
181.4464970249
 20
94.965982614
 30
0.0
 40
2.999993112815845
100
AcDbArc
 50
179.9999037197
 51
241.0599241374
  0
ARC
  5
AB
330
1F
100
AcDbEntity
  8
0
  6
Continuous
 62
     7
370
    25
100
AcDbCircle
 10
181.4464940854
 20
125.491362137
 30
0.0
 40
2.999990173388383
100
AcDbArc
 50
118.9400427546
 51
180.0000938144
  0
ARC
  5
AC
330
1F
100
AcDbEntity
  8
0
  6
Continuous
 62
     7
370
    25
100
AcDbCircle
 10
178.1465039429
 20
95.4286719568
 30
0.0
 40
0.2999999691552501
100
AcDbArc
 50
0.0000914387
 51
90.0002642998
  0
ARC
  5
AD
330
1F
100
AcDbEntity
  8
0
  6
Continuous
 62
     7
370
    25
100
AcDbCircle
 10
178.146502353
 20
125.0286726505
 30
0.0
 40
0.30000155901817
100
AcDbArc
 50
270.0000393415
 51
359.9999606585
  0
LINE
  5
AE
330
1F
100
AcDbEntity
  8
0
  6
Continuous
 62
     7
370
    25
100
AcDbLine
 10
178.146502559
 20
124.7286710915
 30
0.0
 11
158.7465019868
 21
124.7286710915
 31
0.0
  0
LINE
  5
AF
330
1F
100
AcDbEntity
  8
0
  6
Continuous
 62
     7
370
    25
100
AcDbLine
 10
158.7465019868
 20
95.7286719259
 30
0.0
 11
178.146502559
 21
95.7286719259
 31
0.0
  0
ARC
  5
B0
330
1F
100
AcDbEntity
  8
0
  6
Continuous
 62
     7
370
    25
100
AcDbCircle
 10
158.7465014629
 20
123.7286733141
 30
0.0
 40
0.9999977773451811
100
AcDbArc
 50
89.9999699814
 51
180.0000300186
  0
ARC
  5
B1
330
1F
100
AcDbEntity
  8
0
  6
Continuous
 62
     7
370
    25
100
AcDbCircle
 10
158.7465046427
 20
96.728672883
 30
0.0
 40
1.00000095708751
100
AcDbArc
 50
180.0000454453
 51
269.9998478329
  0
ARC
  5
B2
330
1F
100
AcDbEntity
  8
0
  6
Continuous
 62
     7
370
    25
100
AcDbCircle
 10
206.4465084799
 20
73.2286673282
 30
0.0
 40
0.9999945976630702
100
AcDbArc
 50
269.999574353
 51
0.0002122036
  0
ARC
  5
B3
330
1F
100
AcDbEntity
  8
0
  6
Continuous
 62
     7
370
    25
100
AcDbCircle
 10
186.4464977945
 20
73.2286673282
 30
0.0
 40
0.9999945976630702
100
AcDbArc
 50
179.9997877964
 51
270.000425647
  0
LINE
  5
B4
330
1F
100
AcDbEntity
  8
0
  6
Continuous
 62
     7
370
    25
100
AcDbLine
 10
207.4465030776
 20
73.2286710319
 30
0.0
 11
207.4465030776
 21
85.2278310832
 31
0.0
  0
LINE
  5
B5
330
1F
100
AcDbEntity
  8
0
  6
Continuous
 62
     7
370
    25
100
AcDbLine
 10
185.4465031968
 20
89.6962571916
 30
0.0
 11
185.4465031968
 21
73.2286710319
 31
0.0
  0
LINE
  5
B6
330
1F
100
AcDbEntity
  8
0
  6
Continuous
 62
     7
370
    25
100
AcDbLine
 10
100.4582965718
 20
107.8286720932
 30
0.0
 11
152.7465010034
 21
107.8286720932
 31
0.0
  0
LINE
  5
B7
330
1F
100
AcDbEntity
  8
0
  6
Continuous
 62
     7
370
    25
100
AcDbLine
 10
152.7465010034
 20
112.6286720884
 30
0.0
 11
99.3640297996
 21
112.6286720884
 31
0.0
  0
LINE
  5
B8
330
1F
100
AcDbEntity
  8
0
  6
Continuous
 62
     7
370
    25
100
AcDbLine
 10
153.4970575915
 20
115.1286715668
 30
0.0
 11
157.7465036856
 21
115.1286715668
 31
0.0
  0
LINE
  5
B9
330
1F
100
AcDbEntity
  8
0
  6
Continuous
 62
     7
370
    25
100
AcDbLine
 10
153.4970575915
 20
105.3286719999
 30
0.0
 11
157.7465036856
 21
105.3286719999
 31
0.0
  0
SPLINE
  5
BA
330
1F
100
AcDbEntity
  8
0
  6
Continuous
 62
     7
370
    25
100
AcDbSpline
210
0.0
220
0.0
230
1.0
 70
     8
 71
     3
 72
     9
 73
     5
 74
     0
 42
0.00000001
 43
0.00000001
 40
0.0
 40
0.0
 40
0.0
 40
0.0
 40
0.4662246768838912
 40
1.0
 40
1.0
 40
1.0
 40
1.0
 10
152.7465010033552
 20
109.7596304517832
 30
0.0
 10
152.7962444298755
 20
109.0599850886309
 30
0.0
 10
152.9029385389321
 20
107.5593237168894
 30
0.0
 10
153.2902958289092
 20
106.1049700815584
 30
0.0
 10
153.4970575915281
 20
105.3286719999345
 30
0.0
  0
LINE
  5
BB
330
1F
100
AcDbEntity
  8
0
  6
Continuous
 62
     7
370
    25
100
AcDbLine
 10
152.7465010034
 20
109.7596304518
 30
0.0
 11
152.7465010034
 21
110.697713497
 31
0.0
  0
SPLINE
  5
BC
330
1F
100
AcDbEntity
  8
0
  6
Continuous
 62
     7
370
    25
100
AcDbSpline
210
0.0
220
0.0
230
1.0
 70
     8
 71
     3
 72
     9
 73
     5
 74
     0
 42
0.00000001
 43
0.00000001
 40
0.0
 40
0.0
 40
0.0
 40
0.0
 40
0.3914037332359694
 40
1.0
 40
1.0
 40
1.0
 40
1.0
 10
153.4970575915281
 20
115.1286715668288
 30
0.0
 10
153.3420092080264
 20
114.5610377893866
 30
0.0
 10
152.9458750622946
 20
113.1107864779104
 30
0.0
 10
152.8219321792612
 20
111.6106754613675
 30
0.0
 10
152.7465010033552
 20
110.6977134969678
 30
0.0
  0
LINE
  5
BD
330
1F
100
AcDbEntity
  8
0
  6
Continuous
 62
     7
370
    25
100
AcDbLine
 10
152.7465010034
 20
109.7596304518
 30
0.0
 11
152.7465010034
 21
103.1131928813
 31
0.0
  0
SPLINE
  5
BE
330
1F
100
AcDbEntity
  8
0
  6
Continuous
 62
     7
370
    25
100
AcDbSpline
210
0.0
220
0.0
230
1.0
 70
     8
 71
     3
 72
     9
 73
     5
 74
     0
 42
0.00000001
 43
0.00000001
 40
0.0
 40
0.0
 40
0.0
 40
0.0
 40
0.2218766141418115
 40
1.0
 40
1.0
 40
1.0
 40
1.0
 10
153.4970575915281
 20
105.3286719999345
 30
0.0
 10
153.4113889172542
 20
105.1770571228229
 30
0.0
 10
153.0252793914475
 20
104.4937274366456
 30
0.0
 10
152.8684970273497
 20
103.7173276849215
 30
0.0
 10
152.7465010033552
 20
103.1131928813305
 30
0.0
  0
LINE
  5
BF
330
1F
100
AcDbEntity
  8
0
  6
Continuous
 62
     7
370
    25
100
AcDbLine
 10
153.4970575915
 20
100.4286718581
 30
0.0
 11
157.7465036856
 21
100.4286718581
 31
0.0
  0
SPLINE
  5
C0
330
1F
100
AcDbEntity
  8
0
  6
Continuous
 62
     7
370
    25
100
AcDbSpline
210
0.0
220
0.0
230
1.0
 70
     8
 71
     3
 72
     9
 73
     5
 74
     0
 42
0.00000001
 43
0.00000001
 40
0.0
 40
0.0
 40
0.0
 40
0.0
 40
0.266473295483929
 40
1.0
 40
1.0
 40
1.0
 40
1.0
 10
152.7465010033552
 20
102.6441511259076
 30
0.0
 10
152.7702263517412
 20
102.4355308259469
 30
0.0
 10
152.8592609709247
 20
101.6526369919443
 30
0.0
 10
153.2271795146321
 20
100.946582028609
 30
0.0
 10
153.4970575915281
 20
100.4286718581465
 30
0.0
  0
LINE
  5
C1
330
1F
100
AcDbEntity
  8
0
  6
Continuous
 62
     7
370
    25
100
AcDbLine
 10
152.7465010034
 20
102.6441511259
 30
0.0
 11
152.7465010034
 21
103.1131928813
 31
0.0
  0
LINE
  5
C2
330
1F
100
AcDbEntity
  8
0
  6
Continuous
 62
     7
370
    25
100
AcDbLine
 10
152.7465010034
 20
117.3441510674
 30
0.0
 11
152.7465010034
 21
110.697713497
 31
0.0
  0
SPLINE
  5
C3
330
1F
100
AcDbEntity
  8
0
  6
Continuous
 62
     7
370
    25
100
AcDbSpline
210
0.0
220
0.0
230
1.0
 70
     8
 71
     3
 72
     9
 73
     5
 74
     0
 42
0.00000001
 43
0.00000001
 40
0.0
 40
0.0
 40
0.0
 40
0.0
 40
0.2664734634725393
 40
0.9999999999999999
 40
0.9999999999999999
 40
0.9999999999999999
 40
0.9999999999999999
 10
152.7465010033552
 20
117.3441510674205
 30
0.0
 10
152.7702263384341
 20
117.1355306087726
 30
0.0
 10
152.8592608515513
 20
116.3526366728087
 30
0.0
 10
153.2271794997737
 20
115.6465816570996
 30
0.0
 10
153.4970575915281
 20
115.1286715668288
 30
0.0
  0
LINE
  5
C4
330
1F
100
AcDbEntity
  8
0
  6
Continuous
 62
     7
370
    25
100
AcDbLine
 10
153.4970575915
 20
120.0286716249
 30
0.0
 11
157.7465036856
 21
120.0286716249
 31
0.0
  0
SPLINE
  5
C5
330
1F
100
AcDbEntity
  8
0
  6
Continuous
 62
     7
370
    25
100
AcDbSpline
210
0.0
220
0.0
230
1.0
 70
     8
 71
     3
 72
     9
 73
     5
 74
     0
 42
0.00000001
 43
0.00000001
 40
0.0
 40
0.0
 40
0.0
 40
0.0
 40
0.2218765428011769
 40
1.0
 40
1.0
 40
1.0
 40
1.0
 10
153.4970575915281
 20
120.0286716249433
 30
0.0
 10
153.4113889162645
 20
119.8770568544398
 30
0.0
 10
153.0252792618504
 20
119.1937274290331
 30
0.0
 10
152.8684969769272
 20
118.4173278107896
 30
0.0
 10
152.7465010033552
 20
117.8131930556741
 30
0.0
  0
LINE
  5
C6
330
1F
100
AcDbEntity
  8
0
  6
Continuous
 62
     7
370
    25
100
AcDbLine
 10
152.7465010034
 20
117.3441510674
 30
0.0
 11
152.7465010034
 21
117.8131930557
 31
0.0
  0
LINE
  5
C7
330
1F
100
AcDbEntity
  8
0
  6
Continuous
 62
     7
370
    25
100
AcDbLine
 10
152.7465010034
 20
118.7286719707
 30
0.0
 11
152.7465010034
 21
117.8131930557
 31
0.0
  0
LINE
  5
C8
330
1F
100
AcDbEntity
  8
0
  6
Continuous
 62
     7
370
    25
100
AcDbLine
 10
152.7465010034
 20
102.6441511259
 30
0.0
 11
152.7465010034
 21
101.7286719781
 31
0.0
  0
LWPOLYLINE
  5
C9
330
1F
100
AcDbEntity
  8
0
  6
Continuous
 62
     7
370
    25
100
AcDbPolyline
 90
       35
 70
   128
 43
0.0
 10
182.8621873604
 20
133.5290771004
 10
182.8768948065
 20
133.5014205453
 10
182.994345759
 20
133.2805201438
 10
183.2282194839
 20
132.8406639424
 10
183.5764670716
 20
132.1857150671
 10
184.0360114323
 20
131.3214290914
 10
184.6028292523
 20
130.2554018822
 10
185.2719360934
 20
128.997000682
 10
186.0374459969
 20
127.5572858777
 10
186.8926310883
 20
125.9489104178
 10
187.8299811827
 20
124.1860061911
 10
188.8412633882
 20
122.2840666798
 10
189.9175817119
 20
120.2598081928
 10
191.0494813667
 20
118.1310171288
 10
192.2270083772
 20
115.9164028269
 10
193.4398287879
 20
113.6354280662
 10
194.6772733675
 20
111.30813584
 10
195.9284642683
 20
108.954980553
 10
197.1824193345
 20
106.5966410589
 10
198.4281042562
 20
104.2538425446
 10
199.6545815812
 20
101.9471737583
 10
200.8510703193
 20
99.6969056342
 10
202.0070577012
 20
97.5228136432
 10
203.1123811351
 20
95.4440038678
 10
204.1573250638
 20
93.478744666
 10
205.1327103721
 20
91.6443074149
 10
206.0299688922
 20
89.956812377
 10
206.8412104593
 20
88.4310908642
 10
207.5593048678
 20
87.0805483338
 10
208.1779489265
 20
85.9170563546
 10
208.691696261
 20
84.9508371231
 10
209.0960318194
 20
84.1903824386
 10
209.387416576
 20
83.6423773345
 10
209.5632726298
 20
83.3116367486
 10
209.6220651613
 20
83.2010645446
  0
SPLINE
  5
CA
330
1F
100
AcDbEntity
  8
0
  6
Continuous
 62
     7
370
    25
100
AcDbSpline
210
0.0
220
0.0
230
1.0
 70
     8
 71
     3
 72
    11
 73
     7
 74
     0
 42
0.00000001
 43
0.00000001
 40
0.0
 40
0.0
 40
0.0
 40
0.0
 40
0.2500442320914927
 40
0.5008380708742625
 40
0.6082209192051642
 40
1.0
 40
1.0
 40
1.0
 40
1.0
 10
211.9096318231527
 20
107.459385230079
 30
0.0
 10
211.3943960613925
 20
108.7209697443071
 30
0.0
 10
210.3623799144614
 20
111.2479208723767
 30
0.0
 10
208.8966728411237
 20
114.2235723425007
 30
0.0
 10
206.9310315138005
 20
117.8071515576733
 30
0.0
 10
205.4303092179493
 20
120.0780817024638
 30
0.0
 10
204.252431725115
 20
121.8604750957933
 30
0.0
  0
SPLINE
  5
CB
330
1F
100
AcDbEntity
  8
0
  6
Continuous
 62
     7
370
    25
100
AcDbSpline
210
0.0
220
0.0
230
1.0
 70
     8
 71
     3
 72
    12
 73
     8
 74
     0
 42
0.00000001
 43
0.00000001
 40
0.0
 40
0.0
 40
0.0
 40
0.0
 40
0.2404570026265449
 40
0.5381651548346725
 40
0.7797431189397905
 40
0.9382208154582562
 40
1.0
 40
1.0
 40
1.0
 40
1.0
 10
211.9096318231527
 20
107.459385230079
 30
0.0
 10
211.9278419151135
 20
107.4146121882701
 30
0.0
 10
211.9685977960096
 20
107.3144059530002
 30
0.0
 10
212.0320636589636
 20
107.1695309880758
 30
0.0
 10
212.1004119793432
 20
107.0500775758964
 30
0.0
 10
212.1415789358576
 20
106.9601006905679
 30
0.0
 10
212.1820038266821
 20
106.9402432926568
 30
0.0
 10
212.193342481703
 20
106.9346735513431
 30
0.0
  0
SPLINE
  5
CC
330
1F
100
AcDbEntity
  8
0
  6
Continuous
 62
     7
370
    25
100
AcDbSpline
210
0.0
220
0.0
230
1.0
 70
     8
 71
     3
 72
     9
 73
     5
 74
     0
 42
0.00000001
 43
0.00000001
 40
0.0
 40
0.0
 40
0.0
 40
0.0
 40
0.4127234987535119
 40
1.0
 40
1.0
 40
1.0
 40
1.0
 10
212.5992426620428
 20
107.1854259845462
 30
0.0
 10
212.5435178213395
 20
107.1507401382075
 30
0.0
 10
212.4085004528794
 20
107.0666987728781
 30
0.0
 10
212.2729487887506
 20
106.9835215687606
 30
0.0
 10
212.193342481703
 20
106.9346735513431
 30
0.0
  0
SPLINE
  5
CD
330
1F
100
AcDbEntity
  8
0
  6
Continuous
 62
     7
370
    25
100
AcDbSpline
210
0.0
220
0.0
230
1.0
 70
     8
 71
     3
 72
     9
 73
     5
 74
     0
 42
0.00000001
 43
0.00000001
 40
0.0
 40
0.0
 40
0.0
 40
0.0
 40
0.5872715536535432
 40
1.0
 40
1.0
 40
1.0
 40
1.0
 10
203.9760747896139
 20
122.3890956517902
 30
0.0
 10
204.0610873857378
 20
122.427778540297
 30
0.0
 10
204.2058459656402
 20
122.4936473675307
 30
0.0
 10
204.3510238037483
 20
122.5585864440413
 30
0.0
 10
204.4109428273145
 20
122.5853886481967
 30
0.0
  0
SPLINE
  5
CE
330
1F
100
AcDbEntity
  8
0
  6
Continuous
 62
     7
370
    25
100
AcDbSpline
210
0.0
220
0.0
230
1.0
 70
     8
 71
     3
 72
    12
 73
     8
 74
     0
 42
0.00000001
 43
0.00000001
 40
0.0
 40
0.0
 40
0.0
 40
0.0
 40
0.0379079369156253
 40
0.1661565642192624
 40
0.384426920016154
 40
0.6744678592969492
 40
1.0
 40
1.0
 40
1.0
 40
1.0
 10
203.9760747896139
 20
122.3890956517902
 30
0.0
 10
203.9736353087078
 20
122.3816925443862
 30
0.0
 10
203.9629426728426
 20
122.3492435379016
 30
0.0
 10
204.0068452031024
 20
122.2753718853752
 30
0.0
 10
204.0578512548596
 20
122.1626639658871
 30
0.0
 10
204.1476003614636
 20
122.0179299793607
 30
0.0
 10
204.2161701281415
 20
121.9149393832982
 30
0.0
 10
204.252431725115
 20
121.8604750957933
 30
0.0
  0
ARC
  5
CF
330
1F
100
AcDbEntity
  8
0
  6
Continuous
 62
     7
370
    25
100
AcDbCircle
 10
212.4711879419
 20
107.0436904998
 30
0.0
 40
0.2984674099386156
100
AcDbArc
 50
121.1595811588
 51
201.4233250717
  0
ARC
  5
D0
330
1F
100
AcDbEntity
  8
0
  6
Continuous
 62
     7
370
    25
100
AcDbCircle
 10
204.2218256952
 20
122.5584919526
 30
0.0
 40
0.2984771588218851
100
AcDbArc
 50
214.5785275695
 51
294.8397611823
  0
LINE
  5
D1
330
1F
100
AcDbEntity
  8
0
  6
Continuous
 62
     7
370
    25
100
AcDbLine
 10
220.0616622315
 20
111.9527107131
 30
0.0
 11
212.3167538987
 21
107.2990978629
 31
0.0
  0
LINE
  5
D2
330
1F
100
AcDbEntity
  8
0
  6
Continuous
 62
     7
370
    25
100
AcDbLine
 10
204.3472105609
 20
122.2876280573
 30
0.0
 11
212.5361287938
 21
126.106182861
 31
0.0
  0
ARC
  5
D3
330
1F
100
AcDbEntity
  8
0
  6
Continuous
 62
     7
370
    25
100
AcDbCircle
 10
212.8806979883
 20
107.288334951
 30
0.0
 40
0.2996787548103419
100
AcDbArc
 50
121.0304651194
 51
200.0840102353
  0
ARC
  5
D4
330
1F
100
AcDbEntity
  8
0
  6
Continuous
 62
     7
370
    25
100
AcDbCircle
 10
204.6536439577
 20
122.7611685271
 30
0.0
 40
0.2996704932521731
100
AcDbArc
 50
215.9144902872
 51
294.9701984703
  0
ARC
  5
D5
330
1F
100
AcDbEntity
  8
0
  6
Continuous
 62
     7
370
    25
100
AcDbCircle
 10
219.9071577036
 20
112.2098590909
 30
0.0
 40
0.2999948955176621
100
AcDbArc
 50
300.9990495826
 51
28.0009527383
  0
LINE
  5
D6
330
1F
100
AcDbEntity
  8
0
  6
Continuous
 62
     7
370
    25
100
AcDbLine
 10
212.9277983652
 20
125.9751327363
 30
0.0
 11
220.1720351325
 21
112.3507025678
 31
0.0
  0
ARC
  5
D7
330
1F
100
AcDbEntity
  8
0
  6
Continuous
 62
     7
370
    25
100
AcDbCircle
 10
212.6629161273
 20
125.8342956447
 30
0.0
 40
0.2999961438668324
100
AcDbArc
 50
27.9994447571
 51
115.0007343237
  0
LINE
  5
D8
330
1F
100
AcDbEntity
  8
0
  6
Continuous
 62
     7
370
    25
100
AcDbLine
 10
185.4465031968
 20
72.2286727306
 30
0.0
 11
185.4465031968
 21
67.2286737737
 31
0.0
  0
LINE
  5
D9
330
1F
100
AcDbEntity
  8
0
  6
Continuous
 62
     7
370
    25
100
AcDbLine
 10
190.9464994417
 20
72.2286727306
 30
0.0
 11
189.7171908961
 21
72.2286727306
 31
0.0
  0
LINE
  5
DA
330
1F
100
AcDbEntity
  8
0
  6
Continuous
 62
     7
370
    25
100
AcDbLine
 10
186.6758117424
 20
72.2286727306
 30
0.0
 11
185.4465031968
 21
72.2286727306
 31
0.0
  0
LINE
  5
DB
330
1F
100
AcDbEntity
  8
0
  6
Continuous
 62
     7
370
    25
100
AcDbLine
 10
190.9464994417
 20
72.2286727306
 30
0.0
 11
190.9464994417
 21
67.2286737737
 31
0.0
  0
SPLINE
  5
DC
330
1F
100
AcDbEntity
  8
0
  6
Continuous
 62
     7
370
    25
100
AcDbSpline
210
0.0
220
0.0
230
1.0
 70
     8
 71
     3
 72
    10
 73
     6
 74
     0
 42
0.00000001
 43
0.00000001
 40
0.0
 40
0.0
 40
0.0
 40
0.0
 40
0.3409496609157376
 40
0.6770588424374303
 40
0.9999999999999999
 40
0.9999999999999999
 40
0.9999999999999999
 40
0.9999999999999999
 10
185.4465031968061
 20
67.22867377369074
 30
0.0
 10
186.0469865864338
 20
66.96640717225941
 30
0.0
 10
187.2394282729639
 20
66.44559738145867
 30
0.0
 10
189.2219688246346
 20
66.46958325420529
 30
0.0
 10
190.3793642723834
 20
66.97903661095107
 30
0.0
 10
190.9464994417135
 20
67.22867377369074
 30
0.0
  0
LINE
  5
DD
330
1F
100
AcDbEntity
  8
0
  6
Continuous
 62
     7
370
    25
100
AcDbLine
 10
201.9464993821
 20
72.2286727306
 30
0.0
 11
199.4878822909
 21
72.2286727306
 31
0.0
  0
LINE
  5
DE
330
1F
100
AcDbEntity
  8
0
  6
Continuous
 62
     7
370
    25
100
AcDbLine
 10
193.4051239835
 20
72.2286727306
 30
0.0
 11
190.9464994417
 21
72.2286727306
 31
0.0
  0
LINE
  5
DF
330
1F
100
AcDbEntity
  8
0
  6
Continuous
 62
     7
370
    25
100
AcDbLine
 10
201.9464993821
 20
72.2286727306
 30
0.0
 11
201.9464993821
 21
67.2286737737
 31
0.0
  0
SPLINE
  5
E0
330
1F
100
AcDbEntity
  8
0
  6
Continuous
 62
     7
370
    25
100
AcDbSpline
210
0.0
220
0.0
230
1.0
 70
     8
 71
     3
 72
    11
 73
     7
 74
     0
 42
0.00000001
 43
0.00000001
 40
0.0
 40
0.0
 40
0.0
 40
0.0
 40
0.1301169153708226
 40
0.4385232672532096
 40
0.7559111656744307
 40
1.0
 40
1.0
 40
1.0
 40
1.0
 10
190.9464994417135
 20
67.22867377369074
 30
0.0
 10
191.41584171042
 20
67.11803807407179
 30
0.0
 10
192.9976307080045
 20
66.74517088510196
 30
0.0
 10
195.7907602104154
 20
66.40021597939672
 30
0.0
 10
199.0311885888422
 20
66.57427230447854
 30
0.0
 10
201.0631512819519
 20
67.03038812404282
 30
0.0
 10
201.9464993821088
 20
67.22867377369074
 30
0.0
  0
SPLINE
  5
E1
330
1F
100
AcDbEntity
  8
0
  6
Continuous
 62
     7
370
    25
100
AcDbSpline
210
0.0
220
0.0
230
1.0
 70
     8
 71
     3
 72
    10
 73
     6
 74
     0
 42
0.00000001
 43
0.00000001
 40
0.0
 40
0.0
 40
0.0
 40
0.0
 40
0.3409504964571846
 40
0.6770579897644956
 40
1.0
 40
1.0
 40
1.0
 40
1.0
 10
201.9464993821088
 20
67.22867377369074
 30
0.0
 10
202.5469852743648
 20
66.96640695143361
 30
0.0
 10
203.7394275066458
 20
66.4455986543217
 30
0.0
 10
205.7219693851107
 20
66.46958473627335
 30
0.0
 10
206.8793654093419
 20
66.9790364435797
 30
0.0
 10
207.4465030775968
 20
67.22867377369074
 30
0.0
  0
LINE
  5
E2
330
1F
100
AcDbEntity
  8
0
  6
Continuous
 62
     7
370
    25
100
AcDbLine
 10
205.4465064751
 20
66.2286717471
 30
0.0
 11
187.4464997993
 21
66.2286717471
 31
0.0
  0
LINE
  5
E3
330
1F
100
AcDbEntity
  8
0
  6
Continuous
 62
     7
370
    25
100
AcDbLine
 10
207.4465030776
 20
72.2286727306
 30
0.0
 11
207.4465030776
 21
67.2286737737
 31
0.0
  0
LINE
  5
E4
330
1F
100
AcDbEntity
  8
0
  6
Continuous
 62
     7
370
    25
100
AcDbLine
 10
207.4465030776
 20
72.2286727306
 30
0.0
 11
206.217194532
 21
72.2286727306
 31
0.0
  0
LINE
  5
E5
330
1F
100
AcDbEntity
  8
0
  6
Continuous
 62
     7
370
    25
100
AcDbLine
 10
203.1758153783
 20
72.2286727306
 30
0.0
 11
201.9464993821
 21
72.2286727306
 31
0.0
  0
LWPOLYLINE
  5
E6
330
1F
100
AcDbEntity
  8
0
  6
Continuous
 62
     7
370
    25
100
AcDbPolyline
 90
       16
 70
   128
 43
0.0
 10
221.9875926124
 20
116.3913298425
 10
221.9712758408
 20
116.4220169213
 10
221.8513512956
 20
116.6475618285
 10
221.6205546604
 20
117.0816317227
 10
221.2904566871
 20
117.7024606642
 10
220.877605115
 20
118.4789164018
 10
220.4027051078
 20
119.3720659268
 10
219.8895761715
 20
120.3371219364
 10
219.363945161
 20
121.3256929096
 10
218.8521647798
 20
122.2882092026
 10
218.3799097286
 20
123.1764022288
 10
217.9708430515
 20
123.9457380053
 10
217.645491098
 20
124.5576374259
 10
217.420163189
 20
124.9814189997
 10
217.3061618553
 20
125.1958280828
 10
217.2928774701
 20
125.2208061543
  0
LWPOLYLINE
  5
E7
330
1F
100
AcDbEntity
  8
0
  6
Continuous
 62
     7
370
    25
100
AcDbPolyline
 90
       16
 70
   128
 43
0.0
 10
222.429069315
 20
116.6260659721
 10
222.4127525435
 20
116.656753051
 10
222.2928279983
 20
116.8822979581
 10
222.0620313631
 20
117.3163678524
 10
221.7319259392
 20
117.9371958625
 10
221.3190818177
 20
118.7136525315
 10
220.8441818105
 20
119.6068020564
 10
220.3310528742
 20
120.571858066
 10
219.8054218636
 20
121.5604290393
 10
219.2936414824
 20
122.5229434696
 10
218.8213789807
 20
123.4111383584
 10
218.4123197542
 20
124.180474135
 10
218.0869678007
 20
124.7923735556
 10
217.8616398917
 20
125.2161532667
 10
217.7476311074
 20
125.4305642125
 10
217.7343541728
 20
125.4555422839
  0
SPLINE
  5
E8
330
1F
100
AcDbEntity
  8
0
  6
Continuous
 62
     7
370
    25
100
AcDbSpline
210
0.0
220
0.0
230
1.0
 70
     8
 71
     3
 72
     9
 73
     5
 74
     0
 42
0.00000001
 43
0.00000001
 40
0.0
 40
0.0
 40
0.0
 40
0.0
 40
0.001545575486157
 40
1.0
 40
1.0
 40
1.0
 40
1.0
 10
221.2740058051054
 20
122.8342063751665
 30
0.0
 10
221.2735638088647
 20
122.8347813772483
 30
0.0
 10
220.9875886205575
 20
123.2068124343036
 30
0.0
 10
220.6117675594416
 20
123.4964434859496
 30
0.0
 10
220.2365273581449
 20
123.7856268909421
 30
0.0
  0
LINE
  5
E9
330
1F
100
AcDbEntity
  8
0
  6
Continuous
 62
     7
370
    25
100
AcDbLine
 10
220.2365273581
 20
123.7856268909
 30
0.0
 11
220.7143628941
 21
122.8869453099
 31
0.0
  0
SPLINE
  5
EA
330
1F
100
AcDbEntity
  8
0
  6
Continuous
 62
     7
370
    25
100
AcDbSpline
210
0.0
220
0.0
230
1.0
 70
     8
 71
     3
 72
     9
 73
     5
 74
     0
 42
0.00000001
 43
0.00000001
 40
0.0
 40
0.0
 40
0.0
 40
0.0
 40
0.0015455768679686
 40
1.0
 40
1.0
 40
1.0
 40
1.0
 10
221.7518413411085
 20
121.9355266567913
 30
0.0
 10
221.7513993448682
 20
121.9361016588736
 30
0.0
 10
221.4654244125136
 20
122.3081323836156
 30
0.0
 10
221.0896032230624
 20
122.5977626697039
 30
0.0
 10
220.714362894148
 20
122.8869453099218
 30
0.0
  0
LINE
  5
EB
330
1F
100
AcDbEntity
  8
0
  6
Continuous
 62
     7
370
    25
100
AcDbLine
 10
221.9475680934
 20
120.3849053037
 30
0.0
 11
221.7518413411
 21
121.9355266568
 31
0.0
  0
LINE
  5
EC
330
1F
100
AcDbEntity
  8
0
  6
Continuous
 62
     7
370
    25
100
AcDbLine
 10
221.9475680934
 20
120.3849053037
 30
0.0
 11
222.4309543119
 21
119.4757826653
 31
0.0
  0
LINE
  5
ED
330
1F
100
AcDbEntity
  8
0
  6
Continuous
 62
     7
370
    25
100
AcDbLine
 10
222.4309543119
 20
119.4757826653
 30
0.0
 11
222.2352350102
 21
121.0264030871
 31
0.0
  0
SPLINE
  5
EE
330
1F
100
AcDbEntity
  8
0
  6
Continuous
 62
     7
370
    25
100
AcDbSpline
210
0.0
220
0.0
230
1.0
 70
     8
 71
     3
 72
    18
 73
    14
 74
     0
 42
0.00000001
 43
0.00000001
 40
0.0
 40
0.0
 40
0.0
 40
0.0
 40
0.0014402075168897
 40
0.0420074941765319
 40
0.1469159922357891
 40
0.3012654510529879
 40
0.4817973310897272
 40
0.6611648251617717
 40
0.8122024363037925
 40
0.9121748272923387
 40
0.9472004779538649
 40
0.9877675587431324
 40
1.0
 40
1.0
 40
1.0
 40
1.0
 10
220.3541869269315
 20
119.0402664270845
 30
0.0
 10
220.354466370866
 20
119.0382781678799
 30
0.0
 10
220.3626170986691
 20
118.98028528423
 30
0.0
 10
220.1135963402087
 20
119.314025916408
 30
0.0
 10
219.9940267480225
 20
119.4997814226147
 30
0.0
 10
219.6255569054386
 20
120.0732169870912
 30
0.0
 10
219.273970276636
 20
120.6408720334818
 30
0.0
 10
218.9174206206434
 20
121.2229667288307
 30
0.0
 10
218.5724323081514
 20
121.7418661812303
 30
0.0
 10
218.4240965663626
 20
122.0018852477357
 30
0.0
 10
218.1766482217583
 20
122.2724584518894
 30
0.0
 10
218.2343836895343
 20
122.0697416420001
 30
0.0
 10
218.2594523575571
 20
122.0079480367751
 30
0.0
 10
218.2652601943914
 20
121.9936318722215
 30
0.0
  0
SPLINE
  5
EF
330
1F
100
AcDbEntity
  8
0
  6
Continuous
 62
     7
370
    25
100
AcDbSpline
210
0.0
220
0.0
230
1.0
 70
     8
 71
     3
 72
    18
 73
    14
 74
     0
 42
0.00000001
 43
0.00000001
 40
0.0
 40
0.0
 40
0.0
 40
0.0
 40
0.0014402067695439
 40
0.0420074723781979
 40
0.146914867062164
 40
0.3012652367169529
 40
0.4817960502420141
 40
0.6611634512375107
 40
0.8122021712133101
 40
0.9121745103246469
 40
0.9471998388794209
 40
0.9877668986178071
 40
1.0
 40
1.0
 40
1.0
 40
1.0
 10
219.6478271828596
 20
118.6646891784516
 30
0.0
 10
219.6481066269079
 20
118.6627009192858
 30
0.0
 10
219.6562573580322
 20
118.6047080367678
 30
0.0
 10
219.4072373727318
 20
118.9384459437204
 30
0.0
 10
219.287677827576
 20
119.1242093565521
 30
0.0
 10
218.9191934862467
 20
119.6976341489465
 30
0.0
 10
218.5676197162669
 20
120.265297344435
 30
0.0
 10
218.2110689451299
 20
120.8473920204637
 30
0.0
 10
217.8660725506544
 20
121.3662875999895
 30
0.0
 10
217.7177364223439
 20
121.6263094777551
 30
0.0
 10
217.4702901858233
 20
121.8968801618372
 30
0.0
 10
217.528017877415
 20
121.6941597610787
 30
0.0
 10
217.5530973237516
 20
121.6323696472059
 30
0.0
 10
217.5589079009
 20
121.618053692266
 30
0.0
  0
SPLINE
  5
F0
330
1F
100
AcDbEntity
  8
0
  6
Continuous
 62
     7
370
    25
100
AcDbSpline
210
0.0
220
0.0
230
1.0
 70
     8
 71
     3
 72
    18
 73
    14
 74
     0
 42
0.00000001
 43
0.00000001
 40
0.0
 40
0.0
 40
0.0
 40
0.0
 40
0.0014402069969264
 40
0.0420061618146307
 40
0.1469146219983984
 40
0.3012650160223127
 40
0.4817958580499167
 40
0.6611632873642745
 40
0.812201837631985
 40
0.9121741925271418
 40
0.9471998305432324
 40
0.987766896686422
 40
1.0
 40
1.0
 40
1.0
 40
1.0
 10
218.9414674387876
 20
118.2891119298187
 30
0.0
 10
218.9417468827208
 20
118.2871236678994
 30
0.0
 10
218.9498973549108
 20
118.2291325235085
 30
0.0
 10
218.7008875423791
 20
118.5628772930087
 30
0.0
 10
218.5813136812691
 20
118.7486258455941
 30
0.0
 10
218.2128356859678
 20
119.3220586931279
 30
0.0
 10
217.8612594223231
 20
119.8897196266222
 30
0.0
 10
217.5047094429362
 20
120.4718145107673
 30
0.0
 10
217.159713149913
 20
120.9907102754345
 30
0.0
 10
217.0113755248984
 20
121.2507302656265
 30
0.0
 10
216.7639307607839
 20
121.5213046210775
 30
0.0
 10
216.8216580990672
 20
121.3185834388127
 30
0.0
 10
216.8467375732321
 20
121.2567933289634
 30
0.0
 10
216.8525481568281
 20
121.2424773749557
 30
0.0
  0
SPLINE
  5
F1
330
1F
100
AcDbEntity
  8
0
  6
Continuous
 62
     7
370
    25
100
AcDbSpline
210
0.0
220
0.0
230
1.0
 70
     8
 71
     3
 72
    18
 73
    14
 74
     0
 42
0.00000001
 43
0.00000001
 40
0.0
 40
0.0
 40
0.0
 40
0.0
 40
0.0014404414457868
 40
0.0420076643503884
 40
0.1469159975367615
 40
0.3012652137802801
 40
0.4817968100953733
 40
0.6611640222757061
 40
0.8122025832571703
 40
0.9121748171303563
 40
0.9472001088149236
 40
0.987767125849474
 40
1.0
 40
1.0
 40
1.0
 40
1.0
 10
218.2351076947157
 20
117.9135346811858
 30
0.0
 10
218.2353896773706
 20
117.9115464084768
 30
0.0
 10
218.2436131513331
 20
117.853562314197
 30
0.0
 10
217.994443186011
 20
118.1872829344735
 30
0.0
 10
217.8749993642881
 20
118.3730557930816
 30
0.0
 10
217.5064689050727
 20
118.9464830892505
 30
0.0
 10
217.1549025493844
 20
119.5141404647423
 30
0.0
 10
216.7983490732394
 20
120.0962377974431
 30
0.0
 10
216.4533531647317
 20
120.615133089624
 30
0.0
 10
216.3050168562023
 20
120.8751549249507
 30
0.0
 10
216.0575707910673
 20
121.1457257375394
 30
0.0
 10
216.1152979513879
 20
120.9430055229135
 30
0.0
 10
216.1403778167524
 20
120.8812157983362
 30
0.0
 10
216.1461884127561
 20
120.8669001263228
 30
0.0
  0
SPLINE
  5
F2
330
1F
100
AcDbEntity
  8
0
  6
Continuous
 62
     7
370
    25
100
AcDbSpline
210
0.0
220
0.0
230
1.0
 70
     8
 71
     3
 72
    14
 73
    10
 74
     0
 42
0.00000001
 43
0.00000001
 40
0.0
 40
0.0
 40
0.0
 40
0.0
 40
0.0764847609240617
 40
0.3855982353807338
 40
0.6473102901558643
 40
0.8222030329448177
 40
0.885777010921532
 40
0.9521396222281056
 40
1.0
 40
1.0
 40
1.0
 40
1.0
 10
216.5477896080915
 20
119.3550581139174
 30
0.0
 10
216.5796442257871
 20
119.3040172918523
 30
0.0
 10
216.7402394113344
 20
119.0466947784146
 30
0.0
 10
216.9979555694357
 20
118.6242599036744
 30
0.0
 10
217.3456938559361
 20
118.0972173718992
 30
0.0
 10
217.498173720564
 20
117.8373523164466
 30
0.0
 10
217.7452328937141
 20
117.5557123951477
 30
0.0
 10
217.685901545447
 20
117.7812982634003
 30
0.0
 10
217.6545147876504
 20
117.8550067137806
 30
0.0
 10
217.6413634763662
 20
117.885891164526
 30
0.0
  0
SPLINE
  5
F3
330
1F
100
AcDbEntity
  8
0
  6
Continuous
 62
     7
370
    25
100
AcDbSpline
210
0.0
220
0.0
230
1.0
 70
     8
 71
     3
 72
    18
 73
    14
 74
     0
 42
0.00000001
 43
0.00000001
 40
0.0
 40
0.0
 40
0.0
 40
0.0
 40
0.0001399878514057
 40
0.038267373081251
 40
0.1401745810289144
 40
0.2914902944057496
 40
0.4694197224622236
 40
0.6470129855449176
 40
0.797371177502307
 40
0.8978518400640408
 40
0.934376450003619
 40
0.9725031894288637
 40
1.0
 40
1.0
 40
1.0
 40
1.0
 10
216.2760743843023
 20
121.1691897389141
 30
0.0
 10
216.2762458029958
 20
121.1692752196913
 30
0.0
 10
216.3231051770813
 20
121.1926424244858
 30
0.0
 10
216.4493086209272
 20
120.9333562709364
 30
0.0
 10
216.6662582978036
 20
120.6980198174466
 30
0.0
 10
216.9840547938686
 20
120.1546202717659
 30
0.0
 10
217.3515770035307
 20
119.5791851965105
 30
0.0
 10
217.7048081947921
 20
118.9987749707686
 30
0.0
 10
218.0519622741808
 20
118.4729652203524
 30
0.0
 10
218.2045385143818
 20
118.2129191317433
 30
0.0
 10
218.451591577264
 20
117.9312916135572
 30
0.0
 10
218.3922614737353
 20
118.1568751698762
 30
0.0
 10
218.3608745861182
 20
118.2305838613806
 30
0.0
 10
218.3477232204382
 20
118.2614684131589
 30
0.0
  0
SPLINE
  5
F4
330
1F
100
AcDbEntity
  8
0
  6
Continuous
 62
     7
370
    25
100
AcDbSpline
210
0.0
220
0.0
230
1.0
 70
     8
 71
     3
 72
    18
 73
    14
 74
     0
 42
0.00000001
 43
0.00000001
 40
0.0
 40
0.0
 40
0.0
 40
0.0
 40
0.0001416179233489
 40
0.0382686962923311
 40
0.140176103893691
 40
0.2914918370039761
 40
0.4694212882646591
 40
0.6470145745077219
 40
0.7973727860736886
 40
0.8978534617393497
 40
0.934376736504613
 40
0.9725031858429378
 40
1.0
 40
1.0
 40
1.0
 40
1.0
 10
216.9824266777937
 20
121.5447660562244
 30
0.0
 10
216.9826005822805
 20
121.5448515448416
 30
0.0
 10
217.0295939135701
 20
121.5679527021843
 30
0.0
 10
217.1555034354616
 20
121.3092773797588
 30
0.0
 10
217.3727094014685
 20
121.0734064729676
 30
0.0
 10
217.6903806205412
 20
120.5302684609376
 30
0.0
 10
218.0579461760749
 20
119.9547418404701
 30
0.0
 10
218.4111669054308
 20
119.3743576412653
 30
0.0
 10
218.7583192376147
 20
118.8485395367433
 30
0.0
 10
218.9109031087432
 20
118.5885015073888
 30
0.0
 10
219.1579398129322
 20
118.3068690715591
 30
0.0
 10
219.0986228781218
 20
118.5324534849042
 30
0.0
 10
219.0672348621248
 20
118.6061613270419
 30
0.0
 10
219.0540829645101
 20
118.6370456617918
 30
0.0
  0
SPLINE
  5
F5
330
1F
100
AcDbEntity
  8
0
  6
Continuous
 62
     7
370
    25
100
AcDbSpline
210
0.0
220
0.0
230
1.0
 70
     8
 71
     3
 72
    18
 73
    14
 74
     0
 42
0.00000001
 43
0.00000001
 40
0.0
 40
0.0
 40
0.0
 40
0.0
 40
0.000143762185371
 40
0.0388471043887699
 40
0.1422975100706137
 40
0.2959051417619708
 40
0.4765286543104331
 40
0.656810911907294
 40
0.8094457237449387
 40
0.9114477950905324
 40
0.9485240752180382
 40
0.9872281033949954
 40
1.0
 40
1.0
 40
1.0
 40
1.0
 10
217.6887864218656
 20
121.9203442361799
 30
0.0
 10
217.6889603263665
 20
121.9204297248208
 30
0.0
 10
217.7359524215526
 20
121.9435302790412
 30
0.0
 10
217.8618509649856
 20
121.6848469024673
 30
0.0
 10
218.0790643414728
 20
121.4489811237769
 30
0.0
 10
218.3967392025388
 20
120.9058684711708
 30
0.0
 10
218.7643145884253
 20
120.3302246317085
 30
0.0
 10
219.1174952800572
 20
119.7502613735339
 30
0.0
 10
219.4647630547048
 20
119.2232443533238
 30
0.0
 10
219.6171134489732
 20
118.9656288432432
 30
0.0
 10
219.8644868217282
 20
118.6805072774019
 30
0.0
 10
219.8131008661903
 20
118.8807236123887
 30
0.0
 10
219.7885683790318
 20
118.9407017207923
 30
0.0
 10
219.7824815259878
 20
118.9555831280199
 30
0.0
  0
LINE
  5
F6
330
1F
100
AcDbEntity
  8
0
  6
Continuous
 62
     7
370
    25
100
AcDbLine
 10
222.2352350102
 20
121.0264030871
 30
0.0
 11
221.8897813903
 21
120.8427229923
 31
0.0
  0
LINE
  5
F7
330
1F
100
AcDbEntity
  8
0
  6
Continuous
 62
     7
370
    25
100
AcDbLine
 10
221.2740058051
 20
122.8342063752
 30
0.0
 11
220.9562459932
 21
122.665249559
 31
0.0
  0
SPLINE
  5
F8
330
1F
100
AcDbEntity
  8
0
  6
Continuous
 62
     7
370
    25
100
AcDbSpline
210
0.0
220
0.0
230
1.0
 70
     8
 71
     3
 72
    27
 73
    23
 74
     0
 42
0.00000001
 43
0.00000001
 40
0.0
 40
0.0
 40
0.0
 40
0.0
 40
0.0043869285969811
 40
0.0223808654092531
 40
0.0514064913646283
 40
0.0919183867006312
 40
0.1436093410250452
 40
0.2053556368299274
 40
0.2779313509571329
 40
0.3586657341580279
 40
0.4440850577611793
 40
0.5341837671491452
 40
0.617280311631577
 40
0.6999293913089735
 40
0.7698735307071277
 40
0.8348440868968673
 40
0.8889021021732019
 40
0.9344260305808355
 40
0.9685368749688493
 40
0.9907904158051922
 40
0.9993027719474004
 40
1.0
 40
1.0
 40
1.0
 40
1.0
 10
207.4335986720029
 20
85.22793352870612
 30
0.0
 10
207.4032056546411
 20
85.2413579034668
 30
0.0
 10
207.2481491006259
 20
85.30984525585482
 30
0.0
 10
206.8914861633197
 20
85.46598773775878
 30
0.0
 10
206.2825972678736
 20
85.72820909677603
 30
0.0
 10
205.4358484813041
 20
86.08327523648252
 30
0.0
 10
204.3545874835775
 20
86.5197319560519
 30
0.0
 10
203.0388854107897
 20
87.02370224220776
 30
0.0
 10
201.5045769358525
 20
87.5709528532771
 30
0.0
 10
199.7840486859339
 20
88.12786621370984
 30
0.0
 10
197.9166657727118
 20
88.6585071222394
 30
0.0
 10
196.0104832354675
 20
89.1120583492197
 30
0.0
 10
194.1050248899341
 20
89.46917938351629
 30
0.0
 10
192.3357280445178
 20
89.7081031493258
 30
0.0
 10
190.6910892700472
 20
89.84432442871463
 30
0.0
 10
189.2661040767565
 20
89.89489077123177
 30
0.0
 10
188.0021144706866
 20
89.88146315779034
 30
0.0
 10
187.0391573147556
 20
89.83958586764274
 30
0.0
 10
186.1503300217194
 20
89.76652867602232
 30
0.0
 10
185.8915628847011
 20
89.74417332764156
 30
0.0
 10
185.3843519546455
 20
89.68723588212688
 30
0.0
 10
185.4593060990492
 20
89.69565172044983
 30
0.0
 10
185.4649806366865
 20
89.69628885655074
 30
0.0
  0
LINE
  5
F9
330
1F
100
AcDbEntity
  8
0
  6
Continuous
 62
     7
370
    25
100
AcDbLine
 10
208.4465051042
 20
85.2286711362
 30
0.0
 11
208.4465051042
 21
85.4119740453
 31
0.0
  0
LINE
  5
FA
330
1F
100
AcDbEntity
  8
0
  6
Continuous
 62
     7
370
    25
100
AcDbLine
 10
178.4465039121
 20
94.9659876552
 30
0.0
 11
178.4465039121
 21
125.4913553622
 31
0.0
  0
LINE
  5
FB
330
1F
100
AcDbEntity
  8
0
  6
Continuous
 62
     7
370
    25
100
AcDbLine
 10
157.7465036856
 20
96.7286720899
 30
0.0
 11
157.7465036856
 21
123.7286727902
 31
0.0
  0
LINE
  5
FC
330
1F
100
AcDbEntity
  8
0
  6
Continuous
 62
     7
370
    25
100
AcDbLine
 10
206.217194532
 20
72.2286727306
 30
0.0
 11
203.1758153783
 21
72.2286727306
 31
0.0
  0
LINE
  5
FD
330
1F
100
AcDbEntity
  8
0
  6
Continuous
 62
     7
370
    25
100
AcDbLine
 10
199.4878822909
 20
72.2286727306
 30
0.0
 11
193.4051239835
 21
72.2286727306
 31
0.0
  0
LINE
  5
FE
330
1F
100
AcDbEntity
  8
0
  6
Continuous
 62
     7
370
    25
100
AcDbLine
 10
189.7171908961
 20
72.2286727306
 30
0.0
 11
186.6758117424
 21
72.2286727306
 31
0.0
  0
LWPOLYLINE
  5
FF
330
1F
100
AcDbEntity
  8
0
  6
Continuous
 62
     8
370
    25
100
AcDbPolyline
 90
       34
 70
   128
 43
0.0
 10
216.2816250668
 20
87.5258341458
 10
216.2225121604
 20
87.6370117095
 10
216.0457024322
 20
87.9695385721
 10
215.7528052078
 20
88.5204009738
 10
215.3464654432
 20
89.2846126136
 10
214.8303711759
 20
90.2552509707
 10
214.2091864692
 20
91.423527154
 10
213.4885439621
 20
92.7788604078
 10
212.6749629126
 20
94.3089768317
 10
211.7758193956
 20
96.0000192773
 10
210.7992568956
 20
97.8366735418
 10
209.7541118012
 20
99.8023066696
 10
208.6498463498
 20
101.8791171283
 10
207.4964741217
 20
104.0482973241
 10
206.3044333802
 20
106.2902027535
 10
205.0845200168
 20
108.584530468
 10
203.8477757917
 20
110.9105025445
 10
202.6054063784
 20
113.2470553768
 10
201.3686696039
 20
115.5730269876
 10
200.1487487899
 20
117.8673550513
 10
198.9567080484
 20
120.10926083
 10
197.8033358203
 20
122.2784414914
 10
196.6990778194
 20
124.3552517173
 10
195.653932725
 20
126.3208843794
 10
194.6773627745
 20
128.1575381782
 10
193.7782192574
 20
129.8485815552
 10
192.9646456586
 20
131.3786961165
 10
192.2440031515
 20
132.7340312329
 10
191.6228184448
 20
133.9023064849
 10
191.1067167269
 20
134.8729457733
 10
190.7003844129
 20
135.6371574131
 10
190.4074797378
 20
136.1880198148
 10
190.2306774603
 20
136.5205466774
 10
190.1715571032
 20
136.6317223784
  0
SPLINE
  5
100
330
1F
100
AcDbEntity
  8
0
  6
Continuous
 62
     8
370
    25
100
AcDbSpline
210
0.0
220
0.0
230
1.0
 70
     8
 71
     3
 72
     9
 73
     5
 74
     0
 42
0.00000001
 43
0.00000001
 40
0.0
 40
0.0
 40
0.0
 40
0.0
 40
0.1879835989444264
 40
1.0
 40
1.0
 40
1.0
 40
1.0
 10
212.5992426620428
 20
107.1854259845462
 30
0.0
 10
212.5997725336438
 20
107.1904148548959
 30
0.0
 10
212.6025912455104
 20
107.2169537145502
 30
0.0
 10
212.5933174155297
 20
107.242582640855
 30
0.0
 10
212.5857869134847
 20
107.263393749356
 30
0.0
  0
SPLINE
  5
101
330
1F
100
AcDbEntity
  8
0
  6
Continuous
 62
     8
370
    25
100
AcDbSpline
210
0.0
220
0.0
230
1.0
 70
     8
 71
     3
 72
     9
 73
     5
 74
     0
 42
0.00000001
 43
0.00000001
 40
0.0
 40
0.0
 40
0.0
 40
0.0
 40
0.5340506358742142
 40
1.0
 40
1.0
 40
1.0
 40
1.0
 10
204.4677535043661
 20
122.5303959128108
 30
0.0
 10
204.4589886162592
 20
122.54159656897
 30
0.0
 10
204.4425765243749
 20
122.5625695917636
 30
0.0
 10
204.4209975409294
 20
122.5781356522235
 30
0.0
 10
204.4109428273145
 20
122.5853886481967
 30
0.0
  0
LINE
  5
102
330
1F
100
AcDbEntity
  8
0
  6
Continuous
 62
     8
370
    25
100
AcDbLine
 10
185.4465031968
 20
73.2286710319
 30
0.0
 11
207.4465030776
 21
73.2286710319
 31
0.0
  0
LINE
  5
103
330
1F
100
AcDbEntity
  8
0
  6
Continuous
 62
     7
370
    25
100
AcDbLine
 10
54.3807140136
 20
107.8286720932
 30
0.0
 11
97.4582946443
 21
107.8286720932
 31
0.0
  0
LINE
  5
104
330
1F
100
AcDbEntity
  8
0
  6
Continuous
 62
     7
370
    25
100
AcDbLine
 10
96.3640278721
 20
112.6286720884
 30
0.0
 11
54.3807140136
 21
112.6286720884
 31
0.0
  0
LINE
  5
105
330
1F
100
AcDbEntity
  8
0
  6
Continuous
 62
     7
370
    25
100
AcDbLine
 10
54.3807140136
 20
112.6286720884
 30
0.0
 11
52.9950699353
 21
110.2286719744
 31
0.0
  0
LINE
  5
106
330
1F
100
AcDbEntity
  8
0
  6
Continuous
 62
     7
370
    25
100
AcDbLine
 10
52.9950699353
 20
110.2286719744
 30
0.0
 11
54.3807140136
 21
107.8286720932
 31
0.0
  0
LINE
  5
107
330
1F
100
AcDbEntity
  8
0
  6
Continuous
 62
     7
370
    25
100
AcDbLine
 10
54.3807140136
 20
110.2286719744
 30
0.0
 11
54.3807140136
 21
112.6286720884
 31
0.0
  0
LINE
  5
108
330
1F
100
AcDbEntity
  8
0
  6
Continuous
 62
     7
370
    25
100
AcDbLine
 10
54.3807140136
 20
107.8286720932
 30
0.0
 11
54.3807140136
 21
110.2286719744
 31
0.0
  0
POINT
  5
109
330
1F
100
AcDbEntity
  8
0
  6
Continuous
 62
     7
370
    18
100
AcDbPoint
 10
216.4680373926
 20
136.8702089997
 30
0.0
  0
DIMENSION
  5
10A
330
1F
100
AcDbEntity
  8
0
  6
Continuous
 62
     7
370
    18
100
AcDbDimension
  2
_D
 10
262.4401717915
 20
72.2286720002
 30
0.0
 11
262.4401717915
 21
104.5494404999
 31
0.0
 70
   160
  1
(<>)
 71
     2
 42
-1.0
  3
SLDDIMSTYLE0
100
AcDbAlignedDimension
 13
191.3437536717
 23
136.8702089997
 33
0.0
 14
207.4465028312
 24
72.2286720002
 34
0.0
 50
90.0
100
AcDbRotatedDimension
  0
DIMENSION
  5
11D
330
1F
100
AcDbEntity
  8
0
  6
Continuous
 62
     7
370
    18
100
AcDbDimension
  2
_D_1
 10
80.4691955591
 20
112.6286720002
 30
0.0
 11
80.4691955591
 21
139.0240312985
 31
0.0
 70
   160
  1
%%c<>
 71
     2
 42
-1.0
  3
SLDDIMSTYLE1
100
AcDbAlignedDimension
 13
54.3807109191
 23
107.8286720002
 33
0.0
 14
54.3807109191
 24
112.6286720002
 34
0.0
 50
90.0
100
AcDbRotatedDimension
  0
DIMENSION
  5
12D
330
1F
100
AcDbEntity
  8
0
  6
Continuous
 62
     7
370
    18
100
AcDbDimension
  2
_D_2
 10
157.7465028312
 20
170.3541446062
 30
0.0
 11
187.6567741384
 21
170.3541446062
 31
0.0
 70
   160
  1
(<>)
 71
     2
 42
-1.0
  3
SLDDIMSTYLE2
100
AcDbAlignedDimension
 13
217.5670454455
 23
90.7328358188
 33
0.0
 14
157.7465028312
 24
123.7286720002
 34
0.0
100
AcDbRotatedDimension
  0
DIMENSION
  5
13A
330
1F
100
AcDbEntity
  8
0
  6
Continuous
 62
     7
370
    18
100
AcDbDimension
  2
_D_3
 10
246.4518876075
 20
103.5676475514
 30
0.0
 11
233.3968553597
 21
128.1205922058
 31
0.0
 70
   160
  1
(%%c<>)
 71
     2
 42
-1.0
  3
SLDDIMSTYLE2
100
AcDbAlignedDimension
 13
190.1715602862
 23
136.6317235601
 33
0.0
 14
216.2816247818
 24
87.5258342513
 34
0.0
 50
-62.0
100
AcDbRotatedDimension
  0
DIMENSION
  5
147
330
1F
100
AcDbEntity
  8
0
  6
Continuous
 62
     7
370
    18
100
AcDbDimension
  2
_D_4
 10
239.9298590368
 20
72.2286720002
 30
0.0
 11
239.9298590368
 21
69.2286720002
 31
0.0
 70
   160
  1
(<>)
 71
     2
 42
-1.0
  3
SLDDIMSTYLE1
100
AcDbAlignedDimension
 13
205.4465028312
 23
66.2286720002
 33
0.0
 14
207.4465028312
 24
72.2286720002
 34
0.0
 50
90.0
100
AcDbRotatedDimension
  0
DIMENSION
  5
155
330
1F
100
AcDbEntity
  8
0
  6
Continuous
 62
     7
370
    18
100
AcDbDimension
  2
_D_5
 10
239.9298590368
 20
72.2286720002
 30
0.0
 11
239.9298590368
 21
91.2286720002
 31
0.0
 70
   160
  1
(<>)
 71
     2
 42
-1.0
  3
SLDDIMSTYLE3
100
AcDbAlignedDimension
 13
227.190520102
 23
110.2286720002
 33
0.0
 14
207.4465028312
 24
72.2286720002
 34
0.0
 50
90.0
100
AcDbRotatedDimension
  0
DIMENSION
  5
162
330
1F
100
AcDbEntity
  8
0
  6
Continuous
 62
     7
370
    18
100
AcDbDimension
  2
_D_6
 10
152.7465028312
 20
170.3541446062
 30
0.0
 11
97.37010804
 21
170.3541446062
 31
0.0
 70
   160
  1
L1=100～1,000
 71
     2
 42
-1.0
  3
SLDDIMSTYLE3
100
AcDbAlignedDimension
 13
52.9950702731
 23
110.2286720002
 33
0.0
 14
152.7465028312
 24
118.7286720002
 34
0.0
 50
0.0
100
AcDbRotatedDimension
  0
INSERT
  5
171
330
1F
100
AcDbEntity
  8
0
  6
Continuous
 62
     7
370
    18
100
AcDbBlockReference
  2
SW_NOTE_0_1
 10
162.1292466765
 20
138.4220006991
 30
0.0
  0
LEADER
  5
173
330
1F
100
AcDbEntity
  8
0
  6
Continuous
 62
     7
370
    18
100
AcDbLeader
  3
SLDDIMSTYLE4
 76
     2
 10
169.1075923251
 20
124.7286720002
 30
0.0
 10
162.1292466765
 20
138.4220006991
 30
0.0
  0
INSERT
  5
179
330
1F
100
AcDbEntity
  8
0
  6
Continuous
 62
     7
370
    18
100
AcDbBlockReference
  2
SW_NOTE_0_2
 10
206.7378138848
 20
52.8976284687
 30
0.0
  0
LEADER
  5
17A
330
1F
100
AcDbEntity
  8
0
  6
Continuous
 62
     7
370
    18
100
AcDbLeader
  3
SLDDIMSTYLE4
 76
     2
 10
201.661076727
 20
66.2616950839
 30
0.0
 10
206.7378138848
 20
52.8976284687
 30
0.0
  0
INSERT
  5
180
330
1F
100
AcDbEntity
  8
0
  6
Continuous
 62
     7
370
    18
100
AcDbBlockReference
  2
SW_NOTE_0_3
 10
190.3815785687
 20
52.8976284687
 30
0.0
  0
LEADER
  5
181
330
1F
100
AcDbEntity
  8
0
  6
Continuous
 62
     7
370
    18
100
AcDbLeader
  3
SLDDIMSTYLE4
 76
     2
 10
196.7257191677
 20
66.0666376207
 30
0.0
 10
190.3815785687
 20
52.8976284687
 30
0.0
  0
INSERT
  5
187
330
1F
100
AcDbEntity
  8
0
  6
Continuous
 62
     7
370
    18
100
AcDbBlockReference
  2
SW_NOTE_0_4
 10
143.0545416976
 20
125.2757673166
 30
0.0
  0
LEADER
  5
188
330
1F
100
AcDbEntity
  8
0
  6
Continuous
 62
     7
370
    18
100
AcDbLeader
  3
SLDDIMSTYLE4
 76
     2
 10
152.7465028312
 20
112.7666050446
 30
0.0
 10
143.0545416976
 20
125.2757673166
 30
0.0
  0
INSERT
  5
18E
330
1F
100
AcDbEntity
  8
0
  6
Continuous
 62
     7
370
    18
100
AcDbBlockReference
  2
SW_NOTE_0_5
 10
119.5886262925
 20
86.4279091186
 30
0.0
  0
LEADER
  5
18F
330
1F
100
AcDbEntity
  8
0
  6
Continuous
 62
     7
370
    18
100
AcDbLeader
  3
SLDDIMSTYLE4
 76
     2
 10
111.884866884
 20
107.8286720002
 30
0.0
 10
119.5886262925
 20
86.4279091186
 30
0.0
  0
INSERT
  5
195
330
1F
100
AcDbEntity
  8
0
  6
Continuous
 62
     7
370
    18
100
AcDbBlockReference
  2
SW_NOTE_0_6
 10
46.7673559823
 20
86.4279091186
 30
0.0
  0
LEADER
  5
196
330
1F
100
AcDbEntity
  8
0
  6
Continuous
 62
     7
370
    18
100
AcDbLeader
  3
SLDDIMSTYLE4
 76
     2
 10
53.5784843858
 20
109.2181691151
 30
0.0
 10
46.7673559823
 20
86.4279091186
 30
0.0
  0
MTEXT
  5
197
330
1F
100
AcDbEntity
  8
0
  6
Continuous
 62
     7
370
    18
100
AcDbMText
 10
119.3741734234
 20
85.0931835805
 30
0.0
 40
2.6458333333
 41
0.0
 71
     1
 72
     1
  1
(SUS304)
  7
SLDTEXTSTYLE0
 73
     1
 44
1.0
  0
INSERT
  5
19E
330
1F
100
AcDbEntity
  8
0
  6
Continuous
 62
     7
370
    18
100
AcDbBlockReference
  2
SW_NOTE_0_7
 10
47.2412341302
 20
82.0143957017
 30
0.0
  0
ARC
  5
19F
330
1F
100
AcDbEntity
  8
0
  6
HIDDEN
 62
     7
370
    18
100
AcDbCircle
 10
103.6011627777
 20
113.0161720002
 30
0.0
 40
7.247499999999996
100
AcDbArc
 50
157.380135052
 51
202.619864948
  0
ARC
  5
1A0
330
1F
100
AcDbEntity
  8
0
  6
HIDDEN
 62
     7
370
    18
100
AcDbCircle
 10
90.2211627777
 20
107.4411720002
 30
0.0
 40
7.247500000000015
100
AcDbArc
 50
337.380135052
 51
22.619864948
  0
ARC
  5
1A1
330
1F
100
AcDbEntity
  8
0
  6
HIDDEN
 62
     7
370
    18
100
AcDbCircle
 10
106.6011627777
 20
113.0161720002
 30
0.0
 40
7.247499999999996
100
AcDbArc
 50
157.380135052
 51
202.619864948
  0
ARC
  5
1A2
330
1F
100
AcDbEntity
  8
0
  6
HIDDEN
 62
     7
370
    18
100
AcDbCircle
 10
93.2211627777
 20
107.4411720002
 30
0.0
 40
7.247500000000001
100
AcDbArc
 50
337.380135052
 51
22.619864948
  0
LINE
  5
1A3
330
1F
100
AcDbEntity
  8
0
  6
CENTERX2
 62
     7
370
    18
100
AcDbLine
 10
96.9111612582
 20
110.2286719744
 30
0.0
 11
49.1038030529
 21
110.2286719744
 31
0.0
  0
LINE
  5
1A4
330
1F
100
AcDbEntity
  8
0
  6
CENTERX2
 62
     7
370
    18
100
AcDbLine
 10
227.1905193077
 20
110.2286719744
 30
0.0
 11
99.9111631857
 21
110.2286719744
 31
0.0
  0
LINE
  5
1A5
330
1F
100
AcDbEntity
  8
0
  6
CENTERX2
 62
     7
370
    18
100
AcDbLine
 10
196.4465031372
 20
74.2286711958
 30
0.0
 11
196.4465031372
 21
65.2286734459
 31
0.0
  0
ENDSEC
  0
SECTION
  2
OBJECTS
  0
DICTIONARY
  5
C
330
0
100
AcDbDictionary
281
     1
  3
ACAD_GROUP
350
D
  3
ACAD_LAYOUT
350
1A
  3
ACAD_MLINESTYLE
350
17
  3
ACAD_PLOTSETTINGS
350
19
  3
ACAD_PLOTSTYLENAME
350
E
  3
ACAD_SCALELIST
350
47
  3
DWGPROPS
350
1A6
  0
DICTIONARY
  5
D
102
{ACAD_REACTORS
330
C
102
}
330
C
100
AcDbDictionary
281
     1
  0
DICTIONARY
  5
1A
102
{ACAD_REACTORS
330
C
102
}
330
C
100
AcDbDictionary
281
     1
  3
Layout1
350
1E
  3
Layout2
350
26
  3
Model
350
22
  0
DICTIONARY
  5
17
102
{ACAD_REACTORS
330
C
102
}
330
C
100
AcDbDictionary
281
     1
  3
Standard
350
18
  0
DICTIONARY
  5
19
102
{ACAD_REACTORS
330
C
102
}
330
C
100
AcDbDictionary
281
     1
  0
ACDBDICTIONARYWDFLT
  5
E
102
{ACAD_REACTORS
330
C
102
}
330
C
100
AcDbDictionary
281
     1
  3
Normal
350
F
100
AcDbDictionaryWithDefault
340
F
  0
DICTIONARY
  5
47
102
{ACAD_REACTORS
330
C
102
}
330
C
100
AcDbDictionary
281
     1
  3
A0
350
48
  3
A1
350
49
  3
A2
350
4A
  3
A3
350
4B
  3
A4
350
4C
  3
A5
350
4D
  3
A6
350
4E
  3
A7
350
4F
  3
A8
350
50
  3
A9
350
51
  3
B0
350
52
  3
B1
350
53
  3
B2
350
54
  3
B3
350
55
  3
B4
350
56
  3
B5
350
57
  3
B6
350
58
  3
B7
350
59
  3
B8
350
5A
  3
B9
350
5B
  3
C0
350
5C
  3
C1
350
5D
  3
C2
350
5E
  3
C3
350
5F
  3
C4
350
60
  3
C5
350
61
  3
C6
350
62
  3
C7
350
63
  3
C8
350
64
  3
C9
350
65
  3
D0
350
66
  3
D1
350
67
  3
D2
350
68
  0
XRECORD
  5
1A6
102
{ACAD_REACTORS
330
C
102
}
330
C
100
AcDbXrecord
280
     1
  1
DWGPROPS COOKIE
  2

  3

  4

  6

  7

  8
p870382
  9

300
=
301
=
302
=
303
=
304
=
305
=
306
=
307
=
308
=
309
=
 40
0.0
 41
2460489.259470579
 42
2460489.259472755
  1

 90
        0
  0
LAYOUT
  5
1E
102
{ACAD_REACTORS
330
1A
102
}
330
1A
100
AcDbPlotSettings
  1

  2
none_device
  4

  6

 40
0.0
 41
0.0
 42
0.0
 43
0.0
 44
0.0
 45
0.0
 46
0.0
 47
0.0
 48
0.0
 49
0.0
140
0.0
141
0.0
142
1.0
143
1.0
 70
   688
 72
     1
 73
     0
 74
     5
  7

 75
    16
147
1.0
148
0.0
149
0.0
100
AcDbLayout
  1
Layout1
 70
     1
 71
     1
 10
0.0
 20
0.0
 11
420.0
 21
297.0
 12
0.0
 22
0.0
 32
0.0
 14
1.0000000000E+20
 24
1.0000000000E+20
 34
1.0000000000E+20
 15
-1.0000000000E+20
 25
-1.0000000000E+20
 35
-1.0000000000E+20
146
0.0
 13
0.0
 23
0.0
 33
0.0
 16
1.0
 26
0.0
 36
0.0
 17
0.0
 27
1.0
 37
0.0
 76
     0
330
1B
  0
LAYOUT
  5
26
102
{ACAD_REACTORS
330
1A
102
}
330
1A
100
AcDbPlotSettings
  1

  2
none_device
  4

  6

 40
0.0
 41
0.0
 42
0.0
 43
0.0
 44
0.0
 45
0.0
 46
0.0
 47
0.0
 48
0.0
 49
0.0
140
0.0
141
0.0
142
1.0
143
1.0
 70
   688
 72
     1
 73
     0
 74
     5
  7

 75
    16
147
1.0
148
0.0
149
0.0
100
AcDbLayout
  1
Layout2
 70
     1
 71
     2
 10
0.0
 20
0.0
 11
0.0
 21
0.0
 12
0.0
 22
0.0
 32
0.0
 14
0.0
 24
0.0
 34
0.0
 15
0.0
 25
0.0
 35
0.0
146
0.0
 13
0.0
 23
0.0
 33
0.0
 16
1.0
 26
0.0
 36
0.0
 17
0.0
 27
1.0
 37
0.0
 76
     0
330
23
  0
LAYOUT
  5
22
102
{ACAD_REACTORS
330
1A
102
}
330
1A
100
AcDbPlotSettings
  1

  2
none_device
  4
Letter_(8.50_x_11.00_Inches)
  6

 40
6.35
 41
6.35
 42
6.35000508
 43
6.35000508
 44
215.9
 45
279.4
 46
0.0
 47
0.0
 48
0.0
 49
0.0
140
0.0
141
0.0
142
1.0
143
1.0
 70
  1712
 72
     1
 73
     0
 74
     0
  7

 75
     0
147
1.0
148
0.0
149
0.0
100
AcDbLayout
  1
Model
 70
     1
 71
     0
 10
0.0
 20
0.0
 11
297.0
 21
210.0
 12
0.0
 22
0.0
 32
0.0
 14
0.0
 24
0.0
 34
0.0
 15
297.0
 25
210.0
 35
0.0
146
0.0
 13
0.0
 23
0.0
 33
0.0
 16
1.0
 26
0.0
 36
0.0
 17
0.0
 27
1.0
 37
0.0
 76
     0
330
1F
331
29
  0
MLINESTYLE
  5
18
102
{ACAD_REACTORS
330
17
102
}
330
17
100
AcDbMlineStyle
  2
Standard
 70
     0
  3

 62
   256
 51
90.0
 52
90.0
 71
     2
 49
0.5
 62
   256
  6
BYLAYER
 49
-0.5
 62
   256
  6
BYLAYER
  0
ACDBPLACEHOLDER
  5
F
102
{ACAD_REACTORS
330
E
102
}
330
E
  0
SCALE
  5
48
102
{ACAD_REACTORS
330
47
102
}
330
47
100
AcDbScale
 70
     0
300
1:1
140
1.0
141
1.0
290
     1
  0
SCALE
  5
49
102
{ACAD_REACTORS
330
47
102
}
330
47
100
AcDbScale
 70
     0
300
1:2
140
1.0
141
2.0
290
     0
  0
SCALE
  5
4A
102
{ACAD_REACTORS
330
47
102
}
330
47
100
AcDbScale
 70
     0
300
1:4
140
1.0
141
4.0
290
     0
  0
SCALE
  5
4B
102
{ACAD_REACTORS
330
47
102
}
330
47
100
AcDbScale
 70
     0
300
1:5
140
1.0
141
5.0
290
     0
  0
SCALE
  5
4C
102
{ACAD_REACTORS
330
47
102
}
330
47
100
AcDbScale
 70
     0
300
1:8
140
1.0
141
8.0
290
     0
  0
SCALE
  5
4D
102
{ACAD_REACTORS
330
47
102
}
330
47
100
AcDbScale
 70
     0
300
1:10
140
1.0
141
10.0
290
     0
  0
SCALE
  5
4E
102
{ACAD_REACTORS
330
47
102
}
330
47
100
AcDbScale
 70
     0
300
1:16
140
1.0
141
16.0
290
     0
  0
SCALE
  5
4F
102
{ACAD_REACTORS
330
47
102
}
330
47
100
AcDbScale
 70
     0
300
1:20
140
1.0
141
20.0
290
     0
  0
SCALE
  5
50
102
{ACAD_REACTORS
330
47
102
}
330
47
100
AcDbScale
 70
     0
300
1:30
140
1.0
141
30.0
290
     0
  0
SCALE
  5
51
102
{ACAD_REACTORS
330
47
102
}
330
47
100
AcDbScale
 70
     0
300
1:40
140
1.0
141
40.0
290
     0
  0
SCALE
  5
52
102
{ACAD_REACTORS
330
47
102
}
330
47
100
AcDbScale
 70
     0
300
1:50
140
1.0
141
50.0
290
     0
  0
SCALE
  5
53
102
{ACAD_REACTORS
330
47
102
}
330
47
100
AcDbScale
 70
     0
300
1:100
140
1.0
141
100.0
290
     0
  0
SCALE
  5
54
102
{ACAD_REACTORS
330
47
102
}
330
47
100
AcDbScale
 70
     0
300
2:1
140
2.0
141
1.0
290
     0
  0
SCALE
  5
55
102
{ACAD_REACTORS
330
47
102
}
330
47
100
AcDbScale
 70
     0
300
4:1
140
4.0
141
1.0
290
     0
  0
SCALE
  5
56
102
{ACAD_REACTORS
330
47
102
}
330
47
100
AcDbScale
 70
     0
300
8:1
140
8.0
141
1.0
290
     0
  0
SCALE
  5
57
102
{ACAD_REACTORS
330
47
102
}
330
47
100
AcDbScale
 70
     0
300
10:1
140
10.0
141
1.0
290
     0
  0
SCALE
  5
58
102
{ACAD_REACTORS
330
47
102
}
330
47
100
AcDbScale
 70
     0
300
100:1
140
100.0
141
1.0
290
     0
  0
SCALE
  5
59
102
{ACAD_REACTORS
330
47
102
}
330
47
100
AcDbScale
 70
     0
300
1/128" = 1'-0"
140
0.0078125
141
12.0
290
     0
  0
SCALE
  5
5A
102
{ACAD_REACTORS
330
47
102
}
330
47
100
AcDbScale
 70
     0
300
1/64" = 1'-0"
140
0.015625
141
12.0
290
     0
  0
SCALE
  5
5B
102
{ACAD_REACTORS
330
47
102
}
330
47
100
AcDbScale
 70
     0
300
1/32" = 1'-0"
140
0.03125
141
12.0
290
     0
  0
SCALE
  5
5C
102
{ACAD_REACTORS
330
47
102
}
330
47
100
AcDbScale
 70
     0
300
1/16" = 1'-0"
140
0.0625
141
12.0
290
     0
  0
SCALE
  5
5D
102
{ACAD_REACTORS
330
47
102
}
330
47
100
AcDbScale
 70
     0
300
3/32" = 1'-0"
140
0.09375
141
12.0
290
     0
  0
SCALE
  5
5E
102
{ACAD_REACTORS
330
47
102
}
330
47
100
AcDbScale
 70
     0
300
1/8" = 1'-0"
140
0.125
141
12.0
290
     0
  0
SCALE
  5
5F
102
{ACAD_REACTORS
330
47
102
}
330
47
100
AcDbScale
 70
     0
300
3/16" = 1'-0"
140
0.1875
141
12.0
290
     0
  0
SCALE
  5
60
102
{ACAD_REACTORS
330
47
102
}
330
47
100
AcDbScale
 70
     0
300
1/4" = 1'-0"
140
0.25
141
12.0
290
     0
  0
SCALE
  5
61
102
{ACAD_REACTORS
330
47
102
}
330
47
100
AcDbScale
 70
     0
300
3/8" = 1'-0"
140
0.375
141
12.0
290
     0
  0
SCALE
  5
62
102
{ACAD_REACTORS
330
47
102
}
330
47
100
AcDbScale
 70
     0
300
1/2" = 1'-0"
140
0.5
141
12.0
290
     0
  0
SCALE
  5
63
102
{ACAD_REACTORS
330
47
102
}
330
47
100
AcDbScale
 70
     0
300
3/4" = 1'-0"
140
0.75
141
12.0
290
     0
  0
SCALE
  5
64
102
{ACAD_REACTORS
330
47
102
}
330
47
100
AcDbScale
 70
     0
300
1" = 1'-0"
140
1.0
141
12.0
290
     0
  0
SCALE
  5
65
102
{ACAD_REACTORS
330
47
102
}
330
47
100
AcDbScale
 70
     0
300
1-1/2" = 1'-0"
140
1.5
141
12.0
290
     0
  0
SCALE
  5
66
102
{ACAD_REACTORS
330
47
102
}
330
47
100
AcDbScale
 70
     0
300
3" = 1'-0"
140
3.0
141
12.0
290
     0
  0
SCALE
  5
67
102
{ACAD_REACTORS
330
47
102
}
330
47
100
AcDbScale
 70
     0
300
6" = 1'-0"
140
6.0
141
12.0
290
     0
  0
SCALE
  5
68
102
{ACAD_REACTORS
330
47
102
}
330
47
100
AcDbScale
 70
     0
300
1'-0" = 1'-0"
140
12.0
141
12.0
290
     0
  0
ENDSEC
  0
EOF
