  0
SECTION
  2
HEADER
  9
$ACADVER
  1
AC1015
  9
$ACADMAINTVER
 70
     6
  9
$DWGCODEPAGE
  3
DOS932
  9
$INSBASE
 10
0.0
 20
0.0
 30
0.0
  9
$EXTMIN
 10
0.0
 20
0.0
 30
0.0
  9
$EXTMAX
 10
297.0
 20
210.0
 30
0.0
  9
$LIMMIN
 10
0.0
 20
0.0
  9
$LIMMAX
 10
297.0
 20
210.0
  9
$ORTHOMODE
 70
     0
  9
$REGENMODE
 70
     1
  9
$FILLMODE
 70
     1
  9
$QTEXTMODE
 70
     0
  9
$MIRRTEXT
 70
     1
  9
$LTSCALE
 40
1.0
  9
$ATTMODE
 70
     1
  9
$TEXTSIZE
 40
3.5277777778
  9
$TRACEWID
 40
1.0
  9
$TEXTSTYLE
  7
STANDARD
  9
$CLAYER
  8
0
  9
$CELTYPE
  6
ByLayer
  9
$CECOLOR
 62
   256
  9
$CELTSCALE
 40
1.0
  9
$DISPSILH
 70
     0
  9
$DIMSCALE
 40
1.0
  9
$DIMASZ
 40
3.0
  9
$DIMEXO
 40
1.0
  9
$DIMDLI
 40
3.75
  9
$DIMRND
 40
0.0
  9
$DIMDLE
 40
0.0
  9
$DIMEXE
 40
1.0
  9
$DIMTP
 40
0.0
  9
$DIMTM
 40
0.0
  9
$DIMTXT
 40
3.5277777778
  9
$DIMCEN
 40
2.5
  9
$DIMTSZ
 40
0.0
  9
$DIMTOL
 70
     0
  9
$DIMLIM
 70
     0
  9
$DIMTIH
 70
     1
  9
$DIMTOH
 70
     1
  9
$DIMSE1
 70
     0
  9
$DIMSE2
 70
     0
  9
$DIMTAD
 70
     1
  9
$DIMZIN
 70
     0
  9
$DIMBLK
  1

  9
$DIMASO
 70
     1
  9
$DIMSHO
 70
     1
  9
$DIMPOST
  1

  9
$DIMAPOST
  1

  9
$DIMALT
 70
     0
  9
$DIMALTD
 70
     3
  9
$DIMALTF
 40
0.0393700787
  9
$DIMLFAC
 40
5.0
  9
$DIMTOFL
 70
     1
  9
$DIMTVP
 40
0.0
  9
$DIMTIX
 70
     0
  9
$DIMSOXD
 70
     0
  9
$DIMSAH
 70
     0
  9
$DIMBLK1
  1

  9
$DIMBLK2
  1

  9
$DIMSTYLE
  2
ISO-25
  9
$DIMCLRD
 70
     0
  9
$DIMCLRE
 70
     0
  9
$DIMCLRT
 70
     0
  9
$DIMTFAC
 40
1.0
  9
$DIMGAP
 40
1.524
  9
$DIMJUST
 70
     0
  9
$DIMSD1
 70
     0
  9
$DIMSD2
 70
     0
  9
$DIMTOLJ
 70
     0
  9
$DIMTZIN
 70
     0
  9
$DIMALTZ
 70
     0
  9
$DIMALTTZ
 70
     0
  9
$DIMUPT
 70
     0
  9
$DIMDEC
 70
     2
  9
$DIMTDEC
 70
     2
  9
$DIMALTU
 70
     2
  9
$DIMALTTD
 70
     3
  9
$DIMTXSTY
  7
STANDARD
  9
$DIMAUNIT
 70
     0
  9
$DIMADEC
 70
     2
  9
$DIMALTRND
 40
0.0
  9
$DIMAZIN
 70
     0
  9
$DIMDSEP
 70
    44
  9
$DIMATFIT
 70
     3
  9
$DIMFRAC
 70
     0
  9
$DIMLDRBLK
  1

  9
$DIMLUNIT
 70
     2
  9
$DIMLWD
 70
    -2
  9
$DIMLWE
 70
    -2
  9
$DIMTMOVE
 70
     0
  9
$LUNITS
 70
     2
  9
$LUPREC
 70
     2
  9
$SKETCHINC
 40
1.0
  9
$FILLETRAD
 40
10.0
  9
$AUNITS
 70
     0
  9
$AUPREC
 70
     2
  9
$MENU
  1
.
  9
$ELEVATION
 40
0.0
  9
$PELEVATION
 40
0.0
  9
$THICKNESS
 40
0.0
  9
$LIMCHECK
 70
     0
  9
$CHAMFERA
 40
0.0
  9
$CHAMFERB
 40
0.0
  9
$CHAMFERC
 40
0.0
  9
$CHAMFERD
 40
0.0
  9
$SKPOLY
 70
     0
  9
$TDCREATE
 40
2460656.698662685
  9
$TDUCREATE
 40
2460656.323662685
  9
$TDUPDATE
 40
2460656.69866485
  9
$TDUUPDATE
 40
2460656.32366485
  9
$TDINDWG
 40
0.0000000116
  9
$TDUSRTIMER
 40
0.0000000116
  9
$USRTIMER
 70
     1
  9
$ANGBASE
 50
0.0
  9
$ANGDIR
 70
     0
  9
$PDMODE
 70
     0
  9
$PDSIZE
 40
-1.0
  9
$PLINEWID
 40
0.0
  9
$SPLFRAME
 70
     0
  9
$SPLINETYPE
 70
     6
  9
$SPLINESEGS
 70
     8
  9
$HANDSEED
  5
1A8
  9
$SURFTAB1
 70
     6
  9
$SURFTAB2
 70
     6
  9
$SURFTYPE
 70
     6
  9
$SURFU
 70
     6
  9
$SURFV
 70
     6
  9
$UCSBASE
  2

  9
$UCSNAME
  2

  9
$UCSORG
 10
0.0
 20
0.0
 30
0.0
  9
$UCSXDIR
 10
1.0
 20
0.0
 30
0.0
  9
$UCSYDIR
 10
0.0
 20
1.0
 30
0.0
  9
$UCSORTHOREF
  2

  9
$UCSORTHOVIEW
 70
     0
  9
$UCSORGTOP
 10
0.0
 20
0.0
 30
0.0
  9
$UCSORGBOTTOM
 10
0.0
 20
0.0
 30
0.0
  9
$UCSORGLEFT
 10
0.0
 20
0.0
 30
0.0
  9
$UCSORGRIGHT
 10
0.0
 20
0.0
 30
0.0
  9
$UCSORGFRONT
 10
0.0
 20
0.0
 30
0.0
  9
$UCSORGBACK
 10
0.0
 20
0.0
 30
0.0
  9
$PUCSBASE
  2

  9
$PUCSNAME
  2

  9
$PUCSORG
 10
0.0
 20
0.0
 30
0.0
  9
$PUCSXDIR
 10
1.0
 20
0.0
 30
0.0
  9
$PUCSYDIR
 10
0.0
 20
1.0
 30
0.0
  9
$PUCSORTHOREF
  2

  9
$PUCSORTHOVIEW
 70
     0
  9
$PUCSORGTOP
 10
0.0
 20
0.0
 30
0.0
  9
$PUCSORGBOTTOM
 10
0.0
 20
0.0
 30
0.0
  9
$PUCSORGLEFT
 10
0.0
 20
0.0
 30
0.0
  9
$PUCSORGRIGHT
 10
0.0
 20
0.0
 30
0.0
  9
$PUCSORGFRONT
 10
0.0
 20
0.0
 30
0.0
  9
$PUCSORGBACK
 10
0.0
 20
0.0
 30
0.0
  9
$USERI1
 70
     0
  9
$USERI2
 70
     0
  9
$USERI3
 70
     0
  9
$USERI4
 70
     0
  9
$USERI5
 70
     0
  9
$USERR1
 40
0.0
  9
$USERR2
 40
0.0
  9
$USERR3
 40
0.0
  9
$USERR4
 40
0.0
  9
$USERR5
 40
0.0
  9
$WORLDVIEW
 70
     1
  9
$SHADEDGE
 70
     3
  9
$SHADEDIF
 70
    70
  9
$TILEMODE
 70
     1
  9
$MAXACTVP
 70
    64
  9
$PINSBASE
 10
0.0
 20
0.0
 30
0.0
  9
$PLIMCHECK
 70
     0
  9
$PEXTMIN
 10
1.0000000000E+20
 20
1.0000000000E+20
 30
1.0000000000E+20
  9
$PEXTMAX
 10
-1.0000000000E+20
 20
-1.0000000000E+20
 30
-1.0000000000E+20
  9
$PLIMMIN
 10
0.0
 20
0.0
  9
$PLIMMAX
 10
420.0
 20
297.0
  9
$UNITMODE
 70
     0
  9
$VISRETAIN
 70
     1
  9
$PLINEGEN
 70
     0
  9
$PSLTSCALE
 70
     1
  9
$TREEDEPTH
 70
  3020
  9
$CMLSTYLE
  2
Standard
  9
$CMLJUST
 70
     0
  9
$CMLSCALE
 40
20.0
  9
$PROXYGRAPHICS
 70
     1
  9
$MEASUREMENT
 70
     1
  9
$CELWEIGHT
370
    -1
  9
$ENDCAPS
280
     0
  9
$JOINSTYLE
280
     0
  9
$LWDISPLAY
290
     1
  9
$INSUNITS
 70
     4
  9
$HYPERLINKBASE
  1

  9
$STYLESHEET
  1

  9
$XEDIT
290
     1
  9
$CEPSNTYPE
380
     0
  9
$PSTYLEMODE
290
     1
  9
$FINGERPRINTGUID
  2
{82566747-09b8-4d96-b793-1d59f9ae0537}
  9
$VERSIONGUID
  2
{FAEB1C32-E019-11D5-929B-00C0DF256EC4}
  9
$EXTNAMES
290
     1
  9
$PSVPSCALE
 40
0.0
  9
$OLESTARTUP
290
     0
  0
ENDSEC
  0
SECTION
  2
CLASSES
  0
CLASS
  1
ACDBDICTIONARYWDFLT
  2
AcDbDictionaryWithDefault
  3
ObjectDBX Classes
 90
        0
280
     0
281
     0
  0
CLASS
  1
VISUALSTYLE
  2
AcDbVisualStyle
  3
ObjectDBX Classes
 90
     4095
280
     0
281
     0
  0
CLASS
  1
MATERIAL
  2
AcDbMaterial
  3
ObjectDBX Classes
 90
     1153
280
     0
281
     0
  0
CLASS
  1
SCALE
  2
AcDbScale
  3
ObjectDBX Classes
 90
     1153
280
     0
281
     0
  0
CLASS
  1
TABLESTYLE
  2
AcDbTableStyle
  3
ObjectDBX Classes
 90
     4095
280
     0
281
     0
  0
CLASS
  1
MLEADERSTYLE
  2
AcDbMLeaderStyle
  3
ACDB_MLEADERSTYLE_CLASS
 90
     4095
280
     0
281
     0
  0
CLASS
  1
SUN
  2
AcDbSun
  3
SCENEOE
 90
     1153
280
     0
281
     0
  0
CLASS
  1
ACDBPLACEHOLDER
  2
AcDbPlaceHolder
  3
ObjectDBX Classes
 90
        0
280
     0
281
     0
  0
CLASS
  1
LAYOUT
  2
AcDbLayout
  3
ObjectDBX Classes
 90
        0
280
     0
281
     0
  0
ENDSEC
  0
SECTION
  2
TABLES
  0
TABLE
  2
VPORT
  5
8
330
0
100
AcDbSymbolTable
 70
     1
  0
VPORT
  5
29
330
8
100
AcDbSymbolTableRecord
100
AcDbViewportTableRecord
  2
*Active
 70
     0
 10
0.0
 20
0.0
 11
1.0
 21
1.0
 12
148.5
 22
105.0
 13
0.0
 23
0.0
 14
10.0
 24
10.0
 15
10.0
 25
10.0
 16
0.0
 26
0.0
 36
1.0
 17
0.0
 27
0.0
 37
0.0
 40
210.0
 41
1.4142857143
 42
50.0
 43
0.0
 44
0.0
 50
0.0
 51
0.0
 71
     0
 72
  2000
 73
     1
 74
     3
 75
     0
 76
     0
 77
     0
 78
     0
281
     0
 65
     1
110
0.0
120
0.0
130
0.0
111
1.0
121
0.0
131
0.0
112
0.0
122
1.0
132
0.0
 79
     0
146
0.0
  0
ENDTAB
  0
TABLE
  2
LTYPE
  5
5
330
0
100
AcDbSymbolTable
 70
     6
  0
LTYPE
  5
14
330
5
100
AcDbSymbolTableRecord
100
AcDbLinetypeTableRecord
  2
ByBlock
 70
     0
  3

 72
    65
 73
     0
 40
0.0
  0
LTYPE
  5
15
330
5
100
AcDbSymbolTableRecord
100
AcDbLinetypeTableRecord
  2
ByLayer
 70
     0
  3

 72
    65
 73
     0
 40
0.0
  0
LTYPE
  5
16
330
5
100
AcDbSymbolTableRecord
100
AcDbLinetypeTableRecord
  2
Continuous
 70
     0
  3
Solid line
 72
    65
 73
     0
 40
0.0
  0
LTYPE
  5
6E
330
5
100
AcDbSymbolTableRecord
100
AcDbLinetypeTableRecord
  2
HIDDEN
 70
     0
  3
Hidden __ __ __ __ __ __ __ __ __ __ __ __ __ __
 72
    65
 73
     2
 40
1.905
 49
1.27
 74
     0
 49
-0.635
 74
     0
  0
LTYPE
  5
6F
330
5
100
AcDbSymbolTableRecord
100
AcDbLinetypeTableRecord
  2
PHANTOM
 70
     0
  3
Phantom ______  __  __  ______  __  __  ______
 72
    65
 73
     6
 40
12.7
 49
6.35
 74
     0
 49
-1.27
 74
     0
 49
1.27
 74
     0
 49
-1.27
 74
     0
 49
1.27
 74
     0
 49
-1.27
 74
     0
  0
LTYPE
  5
70
330
5
100
AcDbSymbolTableRecord
100
AcDbLinetypeTableRecord
  2
CENTER
 70
     0
  3
Center ____ _ ____ _ ____ _ ____ _ ____ _ ____
 72
    65
 73
     4
 40
10.16
 49
6.35
 74
     0
 49
-1.27
 74
     0
 49
1.27
 74
     0
 49
-1.27
 74
     0
  0
LTYPE
  5
71
330
5
100
AcDbSymbolTableRecord
100
AcDbLinetypeTableRecord
  2
CENTERX2
 70
     0
  3
Center (2x) ________  __  ________  __  _____
 72
    65
 73
     4
 40
20.32
 49
12.7
 74
     0
 49
-2.54
 74
     0
 49
2.54
 74
     0
 49
-2.54
 74
     0
  0
LTYPE
  5
72
330
5
100
AcDbSymbolTableRecord
100
AcDbLinetypeTableRecord
  2
DOT2
 70
     0
  3
Dot (.5x) ........................................
 72
    65
 73
     2
 40
0.635
 49
0.0
 74
     0
 49
-0.635
 74
     0
  0
ENDTAB
  0
TABLE
  2
LAYER
  5
2
330
0
100
AcDbSymbolTable
 70
     1
  0
LAYER
  5
10
330
2
100
AcDbSymbolTableRecord
100
AcDbLayerTableRecord
  2
0
 70
     0
 62
     7
  6
Continuous
370
    -3
390
F
  0
ENDTAB
  0
TABLE
  2
STYLE
  5
3
330
0
100
AcDbSymbolTable
 70
     3
  0
STYLE
  5
11
330
3
100
AcDbSymbolTableRecord
100
AcDbTextStyleTableRecord
  2
STANDARD
 70
     0
 40
0.0
 41
1.0
 50
0.0
 71
     0
 42
3.5277777778
  3
MSGOTHIC.TTC
  4

1001
ACAD
1000
MS UI GOTHIC
1071
    32818
  0
STYLE
  5
77
330
3
100
AcDbSymbolTableRecord
100
AcDbTextStyleTableRecord
  2
SLDTEXTSTYLE0
 70
     0
 40
0.0
 41
1.0
 50
0.0
 71
     0
 42
3.5277777778
  3
MSGOTHIC.TTC
  4

1001
ACAD
1000
MS UI Gothic
1071
      306
  0
STYLE
  5
7C
330
3
100
AcDbSymbolTableRecord
100
AcDbTextStyleTableRecord
  2
SLDTEXTSTYLE1
 70
     0
 40
0.0
 41
1.0
 50
0.0
 71
     0
 42
3.5277777778
  3
MSGOTHIC.TTC
  4
bigfont
1001
ACAD
1000
MS UI Gothic
1071
      306
  0
ENDTAB
  0
TABLE
  2
VIEW
  5
6
330
0
100
AcDbSymbolTable
 70
     0
  0
ENDTAB
  0
TABLE
  2
UCS
  5
7
330
0
100
AcDbSymbolTable
 70
     0
  0
ENDTAB
  0
TABLE
  2
APPID
  5
9
330
0
100
AcDbSymbolTable
 70
     1
  0
APPID
  5
12
330
9
100
AcDbSymbolTableRecord
100
AcDbRegAppTableRecord
  2
ACAD
 70
     0
  0
ENDTAB
  0
TABLE
  2
DIMSTYLE
  5
A
330
0
100
AcDbSymbolTable
 70
     6
100
AcDbDimStyleTable
  0
DIMSTYLE
105
27
330
A
100
AcDbSymbolTableRecord
100
AcDbDimStyleTableRecord
  2
ISO-25
 70
     0
 41
2.5
 42
0.625
 43
3.75
 44
1.25
 73
     0
 74
     0
 77
     1
 78
     8
140
2.5
141
2.5
143
0.0393700787
147
0.625
171
     3
172
     1
178
     0
271
     2
272
     2
274
     3
278
    44
283
     0
284
     8
340
11
  0
DIMSTYLE
105
10B
102
{ACAD_REACTORS
330
10A
102
}
330
A
100
AcDbSymbolTableRecord
100
AcDbDimStyleTableRecord
  2
SLDDIMSTYLE0
 70
     0
 41
3.0
 44
0.0
 45
0.000000001
 73
     0
 74
     0
 77
     1
 78
    12
 79
     3
140
3.0316840278
147
0.7579210069
173
     1
178
     0
271
     0
272
     2
276
     2
284
    12
340
77
341
10C
343
10C
344
10C
  0
DIMSTYLE
105
11E
102
{ACAD_REACTORS
330
11D
330
148
102
}
330
A
100
AcDbSymbolTableRecord
100
AcDbDimStyleTableRecord
  2
SLDDIMSTYLE1
 70
     0
 41
3.0
 44
0.0
 45
0.000000001
 73
     0
 74
     0
 77
     1
 78
    12
 79
     3
140
3.0316840278
147
0.7579210069
172
     1
173
     1
178
     0
271
     2
272
     2
276
     2
284
    12
289
     0
340
77
341
10C
343
10C
344
10C
  0
DIMSTYLE
105
12F
102
{ACAD_REACTORS
330
12E
330
13B
102
}
330
A
100
AcDbSymbolTableRecord
100
AcDbDimStyleTableRecord
  2
SLDDIMSTYLE2
 70
     0
 41
3.0
 44
0.0
 45
0.000000001
 73
     0
 74
     0
 77
     1
 78
    12
 79
     3
140
3.0316840278
147
0.7579210069
173
     1
178
     0
271
     0
272
     0
276
     2
284
    12
340
77
341
10C
343
10C
344
10C
  0
DIMSTYLE
105
157
102
{ACAD_REACTORS
330
156
330
163
102
}
330
A
100
AcDbSymbolTableRecord
100
AcDbDimStyleTableRecord
  2
SLDDIMSTYLE3
 70
     0
 41
3.0
 44
0.0
 45
0.000000001
 73
     0
 74
     0
 77
     1
 78
    12
 79
     3
140
3.0316840278
147
0.7579210069
173
     1
178
     0
271
     2
272
     2
276
     2
284
    12
340
77
341
10C
343
10C
344
10C
  0
DIMSTYLE
105
173
330
A
100
AcDbSymbolTableRecord
100
AcDbDimStyleTableRecord
  2
SLDDIMSTYLE4
 70
     0
 41
3.0
 44
0.0
 45
0.000000001
146
3.0
147
0.0
173
     1
178
     0
271
     0
272
     0
276
     2
340
11
341
10C
343
10C
344
10C
  0
ENDTAB
  0
TABLE
  2
BLOCK_RECORD
  5
1
330
0
100
AcDbSymbolTable
 70
    18
  0
BLOCK_RECORD
  5
1F
330
1
100
AcDbSymbolTableRecord
100
AcDbBlockTableRecord
  2
*Model_Space
340
22
  0
BLOCK_RECORD
  5
1B
330
1
100
AcDbSymbolTableRecord
100
AcDbBlockTableRecord
  2
*Paper_Space
340
1E
  0
BLOCK_RECORD
  5
23
330
1
100
AcDbSymbolTableRecord
100
AcDbBlockTableRecord
  2
*Paper_Space0
340
26
  0
BLOCK_RECORD
  5
79
330
1
100
AcDbSymbolTableRecord
100
AcDbBlockTableRecord
  2
SW_NOTE_0
340
0
102
{BLKREFS
331
80
102
}
  0
BLOCK_RECORD
  5
81
330
1
100
AcDbSymbolTableRecord
100
AcDbBlockTableRecord
  2
SW_BROKEN_VIEW_0
340
0
102
{BLKREFS
331
84
102
}
  0
BLOCK_RECORD
  5
10C
330
1
100
AcDbSymbolTableRecord
100
AcDbBlockTableRecord
  2
_Open30
340
0
102
{BLKREFS
331
117
331
118
331
124
331
125
331
135
331
136
331
141
331
142
331
14E
331
14F
331
15D
331
15E
331
167
331
168
102
}
  0
BLOCK_RECORD
  5
112
330
1
100
AcDbSymbolTableRecord
100
AcDbBlockTableRecord
  2
_D
340
0
  0
BLOCK_RECORD
  5
11F
330
1
100
AcDbSymbolTableRecord
100
AcDbBlockTableRecord
  2
_D_1
340
0
  0
BLOCK_RECORD
  5
130
330
1
100
AcDbSymbolTableRecord
100
AcDbBlockTableRecord
  2
_D_2
340
0
  0
BLOCK_RECORD
  5
13C
330
1
100
AcDbSymbolTableRecord
100
AcDbBlockTableRecord
  2
_D_3
340
0
  0
BLOCK_RECORD
  5
149
330
1
100
AcDbSymbolTableRecord
100
AcDbBlockTableRecord
  2
_D_4
340
0
  0
BLOCK_RECORD
  5
158
330
1
100
AcDbSymbolTableRecord
100
AcDbBlockTableRecord
  2
_D_5
340
0
  0
BLOCK_RECORD
  5
164
330
1
100
AcDbSymbolTableRecord
100
AcDbBlockTableRecord
  2
_D_6
340
0
  0
BLOCK_RECORD
  5
16D
330
1
100
AcDbSymbolTableRecord
100
AcDbBlockTableRecord
  2
SW_NOTE_0_1
340
0
102
{BLKREFS
331
172
102
}
  0
BLOCK_RECORD
  5
175
330
1
100
AcDbSymbolTableRecord
100
AcDbBlockTableRecord
  2
SW_NOTE_0_2
340
0
102
{BLKREFS
331
17A
102
}
  0
BLOCK_RECORD
  5
17C
330
1
100
AcDbSymbolTableRecord
100
AcDbBlockTableRecord
  2
SW_NOTE_0_3
340
0
102
{BLKREFS
331
181
102
}
  0
BLOCK_RECORD
  5
183
330
1
100
AcDbSymbolTableRecord
100
AcDbBlockTableRecord
  2
SW_NOTE_0_4
340
0
102
{BLKREFS
331
188
102
}
  0
BLOCK_RECORD
  5
18A
330
1
100
AcDbSymbolTableRecord
100
AcDbBlockTableRecord
  2
SW_NOTE_0_5
340
0
102
{BLKREFS
331
18F
102
}
  0
BLOCK_RECORD
  5
191
330
1
100
AcDbSymbolTableRecord
100
AcDbBlockTableRecord
  2
SW_NOTE_0_6
340
0
102
{BLKREFS
331
196
102
}
  0
BLOCK_RECORD
  5
199
330
1
100
AcDbSymbolTableRecord
100
AcDbBlockTableRecord
  2
SW_NOTE_0_7
340
0
102
{BLKREFS
331
19F
102
}
  0
ENDTAB
  0
ENDSEC
  0
SECTION
  2
BLOCKS
  0
BLOCK
  5
20
330
1F
100
AcDbEntity
  8
0
100
AcDbBlockBegin
  2
*Model_Space
 70
     0
 10
0.0
 20
0.0
 30
0.0
  3
*Model_Space
  1

  0
ENDBLK
  5
21
330
1F
100
AcDbEntity
  8
0
100
AcDbBlockEnd
  0
BLOCK
  5
1C
330
1B
100
AcDbEntity
 67
     1
  8
0
100
AcDbBlockBegin
  2
*Paper_Space
 70
     0
 10
0.0
 20
0.0
 30
0.0
  3
*Paper_Space
  1

  0
ENDBLK
  5
1D
330
1B
100
AcDbEntity
 67
     1
  8
0
100
AcDbBlockEnd
  0
BLOCK
  5
24
330
23
100
AcDbEntity
  8
0
100
AcDbBlockBegin
  2
*Paper_Space0
 70
     0
 10
0.0
 20
0.0
 30
0.0
  3
*Paper_Space0
  1

  0
ENDBLK
  5
25
330
23
100
AcDbEntity
  8
0
100
AcDbBlockEnd
  0
BLOCK
  5
7A
330
79
100
AcDbEntity
  8
0
100
AcDbBlockBegin
  2
SW_NOTE_0
 70
     0
 10
0.0
 20
0.0
 30
0.0
  3
SW_NOTE_0
  1

  0
MTEXT
  5
7D
330
79
100
AcDbEntity
  8
0
  6
Continuous
 62
     0
370
    18
100
AcDbMText
 10
0.0
 20
5.5418181818
 30
0.0
 40
4.7625
 41
0.0
 71
     1
 72
     1
  1
MODEL：R-30-ﾛ-ﾛ-ﾛ-ﾛ-ﾛ
  7
SLDTEXTSTYLE1
 73
     1
 44
1.0
  0
MTEXT
  5
7E
330
79
100
AcDbEntity
  8
0
  6
Continuous
 62
     0
370
    18
100
AcDbMText
 10
23.0099316686
 20
-2.8417495077
 30
0.0
 40
3.7041666667
 41
0.0
 71
     1
 72
     1
  1
(保護管径φ3.0、φ3.2、φ4.8、φ5.0、
  7
SLDTEXTSTYLE1
 73
     1
 44
1.0
  0
MTEXT
  5
7F
330
79
100
AcDbEntity
  8
0
  6
Continuous
 62
     0
370
    18
100
AcDbMText
 10
0.0
 20
-8.9785859918
 30
0.0
 40
3.7041666667
 41
0.0
 71
     1
 72
     1
  1
                             φ6.0、φ6.4、φ8.0、φ10.0、φ12.0 の時)
  7
SLDTEXTSTYLE1
 73
     1
 44
1.0
  0
ENDBLK
  5
7B
330
79
100
AcDbEntity
  8
0
100
AcDbBlockEnd
  0
BLOCK
  5
82
330
81
100
AcDbEntity
  8
0
100
AcDbBlockBegin
  2
SW_BROKEN_VIEW_0
 70
     0
 10
0.0
 20
0.0
 30
0.0
  3
SW_BROKEN_VIEW_0
  1

  0
ENDBLK
  5
83
330
81
100
AcDbEntity
  8
0
100
AcDbBlockEnd
  0
BLOCK
  5
10D
330
10C
100
AcDbEntity
  8
0
100
AcDbBlockBegin
  2
_Open30
 70
     0
 10
0.0
 20
0.0
 30
0.0
  3
_Open30
  1

  0
LINE
  5
10F
330
10C
100
AcDbEntity
  8
0
  6
ByBlock
 62
     0
370
    -2
100
AcDbLine
 10
-1.0
 20
0.267949
 30
0.0
 11
0.0
 21
0.0
 31
0.0
  0
LINE
  5
110
330
10C
100
AcDbEntity
  8
0
  6
ByBlock
 62
     0
370
    -2
100
AcDbLine
 10
0.0
 20
0.0
 30
0.0
 11
-1.0
 21
-0.267949
 31
0.0
  0
LINE
  5
111
330
10C
100
AcDbEntity
  8
0
  6
ByBlock
 62
     0
370
    -2
100
AcDbLine
 10
0.0
 20
0.0
 30
0.0
 11
-1.0
 21
0.0
 31
0.0
  0
ENDBLK
  5
10E
330
10C
100
AcDbEntity
  8
0
100
AcDbBlockEnd
  0
BLOCK
  5
113
330
112
100
AcDbEntity
  8
0
100
AcDbBlockBegin
  2
_D
 70
     0
 10
0.0
 20
0.0
 30
0.0
  3
_D
  1

  0
ARC
  5
115
330
112
100
AcDbEntity
  8
0
  6
Continuous
 62
     7
370
    18
100
AcDbCircle
 10
263.1456078492
 20
117.3796627562
 30
0.0
 40
3.944175412646017
100
AcDbArc
 50
243.4349488229
 51
296.5650511771
  0
ARC
  5
116
330
112
100
AcDbEntity
  8
0
  6
Continuous
 62
     7
370
    18
100
AcDbCircle
 10
263.1456078492
 20
113.8518850211
 30
0.0
 40
3.944175412646017
100
AcDbArc
 50
63.4349488229
 51
116.5650511771
  0
INSERT
  5
117
330
112
100
AcDbEntity
  8
0
  6
Continuous
 62
     7
370
    18
100
AcDbBlockReference
  2
_Open30
 10
264.909496484
 20
147.9365423011
 30
0.0
 41
3.0
 42
3.0
 50
90.0
  0
INSERT
  5
118
330
112
100
AcDbEntity
  8
0
  6
Continuous
 62
     7
370
    18
100
AcDbBlockReference
  2
_Open30
 10
264.909496484
 20
83.2950053016
 30
0.0
 41
3.0
 42
3.0
 50
270.0
  0
LINE
  5
119
330
112
100
AcDbEntity
  8
0
  6
Continuous
 62
     7
370
    18
100
AcDbLine
 10
191.0469888598
 20
147.9365423011
 30
0.0
 11
265.909496484
 21
147.9365423011
 31
0.0
  0
LINE
  5
11A
330
112
100
AcDbEntity
  8
0
  6
Continuous
 62
     7
370
    18
100
AcDbLine
 10
207.1497380194
 20
83.2950053016
 30
0.0
 11
265.909496484
 21
83.2950053016
 31
0.0
  0
LINE
  5
11B
330
112
100
AcDbEntity
  8
0
  6
Continuous
 62
     7
370
    18
100
AcDbLine
 10
264.909496484
 20
147.9365423011
 30
0.0
 11
264.909496484
 21
83.2950053016
 31
0.0
  0
MTEXT
  5
11C
330
112
100
AcDbEntity
  8
0
  6
Continuous
 62
     7
370
    18
100
AcDbMText
 10
261.8307089544
 20
113.8518850211
 30
0.0
 40
2.6458333333
 41
0.0
 71
     1
 72
     1
  1
65
  7
SLDTEXTSTYLE0
 11
-7.044195017643634E-15
 21
1.0
 31
0.0
 73
     1
 44
1.0
  0
ENDBLK
  5
114
330
112
100
AcDbEntity
  8
0
100
AcDbBlockEnd
  0
BLOCK
  5
120
330
11F
100
AcDbEntity
  8
0
100
AcDbBlockBegin
  2
_D_1
 70
     0
 10
0.0
 20
0.0
 30
0.0
  3
_D_1
  1

  0
ARC
  5
122
330
11F
100
AcDbEntity
  8
0
  6
Continuous
 62
     7
370
    18
100
AcDbCircle
 10
79.8451187722
 20
140.367291163
 30
0.0
 40
11.83252675856316
100
AcDbArc
 50
243.4349488229
 51
296.5650511771
  0
ARC
  5
123
330
11F
100
AcDbEntity
  8
0
  6
Continuous
 62
     7
370
    18
100
AcDbCircle
 10
79.8451187722
 20
150.7252373204
 30
0.0
 40
11.83252675856316
100
AcDbArc
 50
63.4349488229
 51
116.5650511771
  0
INSERT
  5
124
330
11F
100
AcDbEntity
  8
0
  6
Continuous
 62
     7
370
    18
100
AcDbBlockReference
  2
_Open30
 10
74.2903174498
 20
118.8950053016
 30
0.0
 41
3.0
 42
3.0
 50
90.0
  0
INSERT
  5
125
330
11F
100
AcDbEntity
  8
0
  6
Continuous
 62
     7
370
    18
100
AcDbBlockReference
  2
_Open30
 10
74.2903174498
 20
123.6950053016
 30
0.0
 41
3.0
 42
3.0
 50
270.0
  0
LINE
  5
126
330
11F
100
AcDbEntity
  8
0
  6
Continuous
 62
     7
370
    18
100
AcDbLine
 10
74.2903174498
 20
118.8950053016
 30
0.0
 11
74.2903174498
 21
115.3950053016
 31
0.0
  0
LINE
  5
127
330
11F
100
AcDbEntity
  8
0
  6
Continuous
 62
     7
370
    18
100
AcDbLine
 10
74.2903174498
 20
118.8950053016
 30
0.0
 11
74.2903174498
 21
123.6950053016
 31
0.0
  0
LINE
  5
128
330
11F
100
AcDbEntity
  8
0
  6
Continuous
 62
     7
370
    18
100
AcDbLine
 10
74.2903174498
 20
123.6950053016
 30
0.0
 11
74.2903174498
 21
162.5577624592
 31
0.0
  0
MTEXT
  5
129
330
11F
100
AcDbEntity
  8
0
  6
Continuous
 62
     7
370
    18
100
AcDbMText
 10
70.9442720099
 20
142.9959739263
 30
0.0
 40
2.6458333333
 41
0.0
 71
     1
 72
     1
  1
%%c
  7
SLDTEXTSTYLE0
 11
6.123233995736766E-17
 21
1.0
 31
0.0
 73
     1
 44
1.0
  0
MTEXT
  5
12A
330
11F
100
AcDbEntity
  8
0
  6
Continuous
 62
     7
370
    18
100
AcDbMText
 10
70.9442720099
 20
146.3473628911
 30
0.0
 40
2.6458333333
 41
0.0
 71
     1
 72
     1
  1
d
  7
SLDTEXTSTYLE0
 11
6.123233995736766E-17
 21
1.0
 31
0.0
 73
     1
 44
1.0
  0
MTEXT
  5
12B
330
11F
100
AcDbEntity
  8
0
  6
Continuous
 62
     7
370
    18
100
AcDbMText
 10
75.0024419094
 20
130.3768188164
 30
0.0
 40
2.6458333333
 41
0.0
 71
     1
 72
     1
  1
φ3.0、φ3.2、φ4.8、
  7
SLDTEXTSTYLE1
 11
6.123233995736766E-17
 21
1.0
 31
0.0
 73
     1
 44
1.0
  0
MTEXT
  5
12C
330
11F
100
AcDbEntity
  8
0
  6
Continuous
 62
     7
370
    18
100
AcDbMText
 10
78.5302196445
 20
130.3768188164
 30
0.0
 40
2.6458333333
 41
0.0
 71
     1
 72
     1
  1
φ5.0、φ6.0、φ6.4、
  7
SLDTEXTSTYLE1
 11
6.123233995736766E-17
 21
1.0
 31
0.0
 73
     1
 44
1.0
  0
MTEXT
  5
12D
330
11F
100
AcDbEntity
  8
0
  6
Continuous
 62
     7
370
    18
100
AcDbMText
 10
82.0579973797
 20
129.7839574919
 30
0.0
 40
2.6458333333
 41
0.0
 71
     1
 72
     1
  1
φ8.0、φ10.0、φ12.0
  7
SLDTEXTSTYLE1
 11
6.123233995736766E-17
 21
1.0
 31
0.0
 73
     1
 44
1.0
  0
ENDBLK
  5
121
330
11F
100
AcDbEntity
  8
0
100
AcDbBlockEnd
  0
BLOCK
  5
131
330
130
100
AcDbEntity
  8
0
100
AcDbBlockBegin
  2
_D_2
 70
     0
 10
0.0
 20
0.0
 30
0.0
  3
_D_2
  1

  0
ARC
  5
133
330
130
100
AcDbEntity
  8
0
  6
Continuous
 62
     7
370
    18
100
AcDbCircle
 10
188.1238982814
 20
173.1571458459
 30
0.0
 40
3.944175412645992
100
AcDbArc
 50
153.4349488229
 51
206.5650511771
  0
ARC
  5
134
330
130
100
AcDbEntity
  8
0
  6
Continuous
 62
     7
370
    18
100
AcDbCircle
 10
184.5961205463
 20
173.1571458459
 30
0.0
 40
3.944175412646017
100
AcDbArc
 50
333.4349488229
 51
26.5650511771
  0
INSERT
  5
135
330
130
100
AcDbEntity
  8
0
  6
Continuous
 62
     7
370
    18
100
AcDbBlockReference
  2
_Open30
 10
216.2702806337
 20
171.3932572111
 30
0.0
 41
3.0
 42
3.0
 50
0.0
  0
INSERT
  5
136
330
130
100
AcDbEntity
  8
0
  6
Continuous
 62
     7
370
    18
100
AcDbBlockReference
  2
_Open30
 10
156.4497380194
 20
171.3932572111
 30
0.0
 41
3.0
 42
3.0
 50
180.0
  0
LINE
  5
137
330
130
100
AcDbEntity
  8
0
  6
Continuous
 62
     7
370
    18
100
AcDbLine
 10
216.2702806337
 20
102.7991691202
 30
0.0
 11
216.2702806337
 21
172.3932572111
 31
0.0
  0
LINE
  5
138
330
130
100
AcDbEntity
  8
0
  6
Continuous
 62
     7
370
    18
100
AcDbLine
 10
156.4497380194
 20
135.7950053016
 30
0.0
 11
156.4497380194
 21
172.3932572111
 31
0.0
  0
LINE
  5
139
330
130
100
AcDbEntity
  8
0
  6
Continuous
 62
     7
370
    18
100
AcDbLine
 10
216.2702806337
 20
171.3932572111
 30
0.0
 11
156.4497380194
 21
171.3932572111
 31
0.0
  0
MTEXT
  5
13A
330
130
100
AcDbEntity
  8
0
  6
Continuous
 62
     7
370
    18
100
AcDbMText
 10
184.5961205463
 20
174.4720447407
 30
0.0
 40
2.6458333333
 41
0.0
 71
     1
 72
     1
  1
60
  7
SLDTEXTSTYLE0
 73
     1
 44
1.0
  0
ENDBLK
  5
132
330
130
100
AcDbEntity
  8
0
100
AcDbBlockEnd
  0
BLOCK
  5
13D
330
13C
100
AcDbEntity
  8
0
100
AcDbBlockBegin
  2
_D_3
 70
     0
 10
0.0
 20
0.0
 30
0.0
  3
_D_3
  1

  0
ARC
  5
13F
330
13C
100
AcDbEntity
  8
0
  6
Continuous
 62
     7
370
    18
100
AcDbCircle
 10
236.2439657698
 20
140.7299031614
 30
0.0
 40
4.497455730162202
100
AcDbArc
 50
91.4349488229
 51
144.5650511771
  0
ARC
  5
140
330
13C
100
AcDbEntity
  8
0
  6
Continuous
 62
     7
370
    18
100
AcDbCircle
 10
235.6965024498
 20
141.759531916
 30
0.0
 40
4.497455730162202
100
AcDbArc
 50
271.4349488229
 51
324.5650511771
  0
INSERT
  5
141
330
13C
100
AcDbEntity
  8
0
  6
Continuous
 62
     7
370
    18
100
AcDbBlockReference
  2
_Open30
 10
221.1393088357
 20
164.8534029236
 30
0.0
 41
3.0
 42
3.0
 50
118.0
  0
INSERT
  5
142
330
13C
100
AcDbEntity
  8
0
  6
Continuous
 62
     7
370
    18
100
AcDbBlockReference
  2
_Open30
 10
247.2493733313
 20
115.7475136149
 30
0.0
 41
3.0
 42
3.0
 50
298.0
  0
LINE
  5
143
330
13C
100
AcDbEntity
  8
0
  6
Continuous
 62
     7
370
    18
100
AcDbLine
 10
189.7577430672
 20
148.1675284242
 30
0.0
 11
222.0222564285
 21
165.3228744864
 31
0.0
  0
LINE
  5
144
330
13C
100
AcDbEntity
  8
0
  6
Continuous
 62
     7
370
    18
100
AcDbLine
 10
215.8678075628
 20
99.0616391155
 30
0.0
 11
248.1323209241
 21
116.2169851776
 31
0.0
  0
LINE
  5
145
330
13C
100
AcDbEntity
  8
0
  6
Continuous
 62
     7
370
    18
100
AcDbLine
 10
221.1393088357
 20
164.8534029236
 30
0.0
 11
247.2493733313
 21
115.7475136149
 31
0.0
  0
MTEXT
  5
146
330
13C
100
AcDbEntity
  8
0
  6
Continuous
 62
     7
370
    18
100
AcDbMText
 10
235.2979628801
 20
144.7828336743
 30
0.0
 40
2.6458333333
 41
0.0
 71
     1
 72
     1
  1
%%c
  7
SLDTEXTSTYLE0
 11
0.4694715627858982
 21
-0.882947592858923
 31
0.0
 73
     1
 44
1.0
  0
MTEXT
  5
147
330
13C
100
AcDbEntity
  8
0
  6
Continuous
 62
     7
370
    18
100
AcDbMText
 10
236.8713446949
 20
141.8237328551
 30
0.0
 40
2.6458333333
 41
0.0
 71
     1
 72
     1
  1
56
  7
SLDTEXTSTYLE0
 11
0.4694715627858982
 21
-0.882947592858923
 31
0.0
 73
     1
 44
1.0
  0
ENDBLK
  5
13E
330
13C
100
AcDbEntity
  8
0
100
AcDbBlockEnd
  0
BLOCK
  5
14A
330
149
100
AcDbEntity
  8
0
100
AcDbBlockBegin
  2
_D_4
 70
     0
 10
0.0
 20
0.0
 30
0.0
  3
_D_4
  1

  0
ARC
  5
14C
330
149
100
AcDbEntity
  8
0
  6
Continuous
 62
     7
370
    18
100
AcDbCircle
 10
251.3414386649
 20
82.9408385738
 30
0.0
 40
3.944175412646004
100
AcDbArc
 50
243.4349488229
 51
296.5650511771
  0
ARC
  5
14D
330
149
100
AcDbEntity
  8
0
  6
Continuous
 62
     7
370
    18
100
AcDbCircle
 10
251.3414386649
 20
77.6491719711
 30
0.0
 40
3.944175412646004
100
AcDbArc
 50
63.4349488229
 51
116.5650511771
  0
INSERT
  5
14E
330
149
100
AcDbEntity
  8
0
  6
Continuous
 62
     7
370
    18
100
AcDbBlockReference
  2
_Open30
 10
253.1053272996
 20
77.2950053016
 30
0.0
 41
3.0
 42
3.0
 50
90.0
  0
INSERT
  5
14F
330
149
100
AcDbEntity
  8
0
  6
Continuous
 62
     7
370
    18
100
AcDbBlockReference
  2
_Open30
 10
253.1053272996
 20
83.2950053016
 30
0.0
 41
3.0
 42
3.0
 50
270.0
  0
LINE
  5
150
330
149
100
AcDbEntity
  8
0
  6
Continuous
 62
     7
370
    18
100
AcDbLine
 10
205.1497380194
 20
77.2950053016
 30
0.0
 11
254.1053272996
 21
77.2950053016
 31
0.0
  0
LINE
  5
151
330
149
100
AcDbEntity
  8
0
  6
Continuous
 62
     7
370
    18
100
AcDbLine
 10
207.1497380194
 20
83.2950053016
 30
0.0
 11
254.1053272996
 21
83.2950053016
 31
0.0
  0
LINE
  5
152
330
149
100
AcDbEntity
  8
0
  6
Continuous
 62
     7
370
    18
100
AcDbLine
 10
253.1053272996
 20
77.2950053016
 30
0.0
 11
253.1053272996
 21
73.7950053016
 31
0.0
  0
LINE
  5
153
330
149
100
AcDbEntity
  8
0
  6
Continuous
 62
     7
370
    18
100
AcDbLine
 10
253.1053272996
 20
77.2950053016
 30
0.0
 11
253.1053272996
 21
83.2950053016
 31
0.0
  0
LINE
  5
154
330
149
100
AcDbEntity
  8
0
  6
Continuous
 62
     7
370
    18
100
AcDbLine
 10
253.1053272996
 20
83.2950053016
 30
0.0
 11
253.1053272996
 21
86.7950053016
 31
0.0
  0
MTEXT
  5
155
330
149
100
AcDbEntity
  8
0
  6
Continuous
 62
     7
370
    18
100
AcDbMText
 10
250.0265397701
 20
79.4130608387
 30
0.0
 40
2.6458333333
 41
0.0
 71
     1
 72
     1
  1
6
  7
SLDTEXTSTYLE0
 11
6.123233995736766E-17
 21
1.0
 31
0.0
 73
     1
 44
1.0
  0
ENDBLK
  5
14B
330
149
100
AcDbEntity
  8
0
100
AcDbBlockEnd
  0
BLOCK
  5
159
330
158
100
AcDbEntity
  8
0
100
AcDbBlockBegin
  2
_D_5
 70
     0
 10
0.0
 20
0.0
 30
0.0
  3
_D_5
  1

  0
ARC
  5
15B
330
158
100
AcDbEntity
  8
0
  6
Continuous
 62
     7
370
    18
100
AcDbCircle
 10
251.3414386649
 20
104.0588942565
 30
0.0
 40
3.944175412646017
100
AcDbArc
 50
243.4349488229
 51
296.5650511771
  0
ARC
  5
15C
330
158
100
AcDbEntity
  8
0
  6
Continuous
 62
     7
370
    18
100
AcDbCircle
 10
251.3414386649
 20
100.5311165213
 30
0.0
 40
3.944175412646017
100
AcDbArc
 50
63.4349488229
 51
116.5650511771
  0
INSERT
  5
15D
330
158
100
AcDbEntity
  8
0
  6
Continuous
 62
     7
370
    18
100
AcDbBlockReference
  2
_Open30
 10
253.1053272996
 20
121.2950053016
 30
0.0
 41
3.0
 42
3.0
 50
90.0
  0
INSERT
  5
15E
330
158
100
AcDbEntity
  8
0
  6
Continuous
 62
     7
370
    18
100
AcDbBlockReference
  2
_Open30
 10
253.1053272996
 20
83.2950053016
 30
0.0
 41
3.0
 42
3.0
 50
270.0
  0
LINE
  5
15F
330
158
100
AcDbEntity
  8
0
  6
Continuous
 62
     7
370
    18
100
AcDbLine
 10
226.8937552902
 20
121.2950053016
 30
0.0
 11
254.1053272996
 21
121.2950053016
 31
0.0
  0
LINE
  5
160
330
158
100
AcDbEntity
  8
0
  6
Continuous
 62
     7
370
    18
100
AcDbLine
 10
207.1497380194
 20
83.2950053016
 30
0.0
 11
254.1053272996
 21
83.2950053016
 31
0.0
  0
LINE
  5
161
330
158
100
AcDbEntity
  8
0
  6
Continuous
 62
     7
370
    18
100
AcDbLine
 10
253.1053272996
 20
121.2950053016
 30
0.0
 11
253.1053272996
 21
83.2950053016
 31
0.0
  0
MTEXT
  5
162
330
158
100
AcDbEntity
  8
0
  6
Continuous
 62
     7
370
    18
100
AcDbMText
 10
250.0265397701
 20
100.5311165213
 30
0.0
 40
2.6458333333
 41
0.0
 71
     1
 72
     1
  1
38
  7
SLDTEXTSTYLE0
 11
-7.044195017643634E-15
 21
1.0
 31
0.0
 73
     1
 44
1.0
  0
ENDBLK
  5
15A
330
158
100
AcDbEntity
  8
0
100
AcDbBlockEnd
  0
BLOCK
  5
165
330
164
100
AcDbEntity
  8
0
100
AcDbBlockBegin
  2
_D_6
 70
     0
 10
0.0
 20
0.0
 30
0.0
  3
_D_6
  1

  0
INSERT
  5
167
330
164
100
AcDbEntity
  8
0
  6
Continuous
 62
     7
370
    18
100
AcDbBlockReference
  2
_Open30
 10
50.3073104455
 20
171.3932572111
 30
0.0
 41
3.0
 42
3.0
 50
180.0
  0
INSERT
  5
168
330
164
100
AcDbEntity
  8
0
  6
Continuous
 62
     7
370
    18
100
AcDbBlockReference
  2
_Open30
 10
151.4497380194
 20
171.3932572111
 30
0.0
 41
3.0
 42
3.0
 50
0.0
  0
LINE
  5
169
330
164
100
AcDbEntity
  8
0
  6
Continuous
 62
     7
370
    18
100
AcDbLine
 10
50.3073104455
 20
122.2950053016
 30
0.0
 11
50.3073104455
 21
172.3932572111
 31
0.0
  0
LINE
  5
16A
330
164
100
AcDbEntity
  8
0
  6
Continuous
 62
     7
370
    18
100
AcDbLine
 10
151.4497380194
 20
130.7950053016
 30
0.0
 11
151.4497380194
 21
172.3932572111
 31
0.0
  0
LINE
  5
16B
330
164
100
AcDbEntity
  8
0
  6
Continuous
 62
     7
370
    18
100
AcDbLine
 10
50.3073104455
 20
171.3932572111
 30
0.0
 11
151.4497380194
 21
171.3932572111
 31
0.0
  0
MTEXT
  5
16C
330
164
100
AcDbEntity
  8
0
  6
Continuous
 62
     7
370
    18
100
AcDbMText
 10
84.3964253361
 20
174.4720449735
 30
0.0
 40
2.6458333333
 41
0.0
 71
     1
 72
     1
  1
L1=100～1000
  7
SLDTEXTSTYLE1
 73
     1
 44
1.0
  0
ENDBLK
  5
166
330
164
100
AcDbEntity
  8
0
100
AcDbBlockEnd
  0
BLOCK
  5
16E
330
16D
100
AcDbEntity
  8
0
100
AcDbBlockBegin
  2
SW_NOTE_0_1
 70
     0
 10
0.0
 20
0.0
 30
0.0
  3
SW_NOTE_0_1
  1

  0
LINE
  5
170
330
16D
100
AcDbEntity
  8
0
  6
Continuous
 62
     0
370
    18
100
AcDbLine
 10
17.5294790197
 20
0.0
 30
0.0
 11
0.0
 21
0.0
 31
0.0
  0
MTEXT
  5
171
330
16D
100
AcDbEntity
  8
0
  6
Continuous
 62
     0
370
    18
100
AcDbMText
 10
0.4598902447
 20
3.1386040396
 30
0.0
 40
2.6458333333
 41
0.0
 71
     1
 72
     1
  1
30型端子箱
  7
SLDTEXTSTYLE1
 73
     1
 44
1.0
  0
ENDBLK
  5
16F
330
16D
100
AcDbEntity
  8
0
100
AcDbBlockEnd
  0
BLOCK
  5
176
330
175
100
AcDbEntity
  8
0
100
AcDbBlockBegin
  2
SW_NOTE_0_2
 70
     0
 10
0.0
 20
0.0
 30
0.0
  3
SW_NOTE_0_2
  1

  0
LINE
  5
178
330
175
100
AcDbEntity
  8
0
  6
Continuous
 62
     0
370
    18
100
AcDbLine
 10
13.8449108008
 20
0.0
 30
0.0
 11
0.0
 21
0.0
 31
0.0
  0
MTEXT
  5
179
330
175
100
AcDbEntity
  8
0
  6
Continuous
 62
     0
370
    18
100
AcDbMText
 10
0.4129302829
 20
2.9935187946
 30
0.0
 40
2.6458333333
 41
0.0
 71
     1
 72
     1
  1
G(PF)3/8
  7
SLDTEXTSTYLE0
 73
     1
 44
1.0
  0
ENDBLK
  5
177
330
175
100
AcDbEntity
  8
0
100
AcDbBlockEnd
  0
BLOCK
  5
17D
330
17C
100
AcDbEntity
  8
0
100
AcDbBlockBegin
  2
SW_NOTE_0_3
 70
     0
 10
0.0
 20
0.0
 30
0.0
  3
SW_NOTE_0_3
  1

  0
LINE
  5
17F
330
17C
100
AcDbEntity
  8
0
  6
Continuous
 62
     0
370
    18
100
AcDbLine
 10
-20.2716376853
 20
0.0
 30
0.0
 11
0.0
 21
0.0
 31
0.0
  0
MTEXT
  5
180
330
17C
100
AcDbEntity
  8
0
  6
Continuous
 62
     0
370
    18
100
AcDbMText
 10
-20.7619300986
 20
2.9935187946
 30
0.0
 40
2.6458333333
 41
0.0
 71
     1
 72
     1
  1
ｹｰﾌﾞﾙ取出口
  7
SLDTEXTSTYLE1
 73
     1
 44
1.0
  0
ENDBLK
  5
17E
330
17C
100
AcDbEntity
  8
0
100
AcDbBlockEnd
  0
BLOCK
  5
184
330
183
100
AcDbEntity
  8
0
100
AcDbBlockBegin
  2
SW_NOTE_0_4
 70
     0
 10
0.0
 20
0.0
 30
0.0
  3
SW_NOTE_0_4
  1

  0
LINE
  5
186
330
183
100
AcDbEntity
  8
0
  6
Continuous
 62
     0
370
    18
100
AcDbLine
 10
-16.3714841228
 20
0.0
 30
0.0
 11
0.0
 21
0.0
 31
0.0
  0
MTEXT
  5
187
330
183
100
AcDbEntity
  8
0
  6
Continuous
 62
     0
370
    18
100
AcDbMText
 10
-16.815375953
 20
3.1760839841
 30
0.0
 40
2.6458333333
 41
0.0
 71
     1
 72
     1
  1
ｱﾙｺﾞﾝ溶接
  7
SLDTEXTSTYLE1
 73
     1
 44
1.0
  0
ENDBLK
  5
185
330
183
100
AcDbEntity
  8
0
100
AcDbBlockEnd
  0
BLOCK
  5
18B
330
18A
100
AcDbEntity
  8
0
100
AcDbBlockBegin
  2
SW_NOTE_0_5
 70
     0
 10
0.0
 20
0.0
 30
0.0
  3
SW_NOTE_0_5
  1

  0
LINE
  5
18D
330
18A
100
AcDbEntity
  8
0
  6
Continuous
 62
     0
370
    18
100
AcDbLine
 10
12.6199878532
 20
0.0
 30
0.0
 11
0.0
 21
0.0
 31
0.0
  0
MTEXT
  5
18E
330
18A
100
AcDbEntity
  8
0
  6
Continuous
 62
     0
370
    18
100
AcDbMText
 10
0.4057475047
 20
3.0964044591
 30
0.0
 40
2.6458333333
 41
0.0
 71
     1
 72
     1
  1
 保護管 
  7
SLDTEXTSTYLE1
 73
     1
 44
1.0
  0
ENDBLK
  5
18C
330
18A
100
AcDbEntity
  8
0
100
AcDbBlockEnd
  0
BLOCK
  5
192
330
191
100
AcDbEntity
  8
0
100
AcDbBlockBegin
  2
SW_NOTE_0_6
 70
     0
 10
0.0
 20
0.0
 30
0.0
  3
SW_NOTE_0_6
  1

  0
LINE
  5
194
330
191
100
AcDbEntity
  8
0
  6
Continuous
 62
     0
370
    18
100
AcDbLine
 10
41.4742704261
 20
0.0
 30
0.0
 11
0.0
 21
0.0
 31
0.0
  0
MTEXT
  5
195
330
191
100
AcDbEntity
  8
0
  6
Continuous
 62
     0
370
    18
100
AcDbMText
 10
0.4667480403
 20
3.0964044591
 30
0.0
 40
2.6458333333
 41
0.0
 71
     1
 72
     1
  1
 ｱﾙｺﾞﾝ溶接または銀ろう付け 
  7
SLDTEXTSTYLE1
 73
     1
 44
1.0
  0
ENDBLK
  5
193
330
191
100
AcDbEntity
  8
0
100
AcDbBlockEnd
  0
BLOCK
  5
19A
330
199
100
AcDbEntity
  8
0
100
AcDbBlockBegin
  2
SW_NOTE_0_7
 70
     0
 10
0.0
 20
0.0
 30
0.0
  3
SW_NOTE_0_7
  1

  0
MTEXT
  5
19C
330
199
100
AcDbEntity
  8
0
  6
Continuous
 62
     0
370
    18
100
AcDbMText
 10
0.0
 20
3.0787878788
 30
0.0
 40
2.6458333333
 41
0.0
 71
     1
 72
     1
  1
先端120°形：φ3.0、φ3.2、φ4.8、
  7
SLDTEXTSTYLE1
 73
     1
 44
1.0
  0
MTEXT
  5
19D
330
199
100
AcDbEntity
  8
0
  6
Continuous
 62
     0
370
    18
100
AcDbMText
 10
0.0
 20
-0.4489898564
 30
0.0
 40
2.6458333333
 41
0.0
 71
     1
 72
     1
  1
　　　　　　　　　φ5.0、φ6.0、φ6.4、φ8.0
  7
SLDTEXTSTYLE1
 73
     1
 44
1.0
  0
MTEXT
  5
19E
330
199
100
AcDbEntity
  8
0
  6
Continuous
 62
     0
370
    18
100
AcDbMText
 10
0.0
 20
-3.9767675915
 30
0.0
 40
2.6458333333
 41
0.0
 71
     1
 72
     1
  1
先端半球形：φ10.0、φ12.0
  7
SLDTEXTSTYLE1
 73
     1
 44
1.0
  0
ENDBLK
  5
19B
330
199
100
AcDbEntity
  8
0
100
AcDbBlockEnd
  0
ENDSEC
  0
SECTION
  2
ENTITIES
  0
LINE
  5
73
330
1F
100
AcDbEntity
  8
0
  6
Continuous
 62
     7
370
    25
100
AcDbLine
 10
12.8700158558
 20
190.0085404097
 30
0.0
 11
12.8700749558
 21
18.0082352097
 31
0.0
  0
LINE
  5
74
330
1F
100
AcDbEntity
  8
0
  6
Continuous
 62
     7
370
    25
100
AcDbLine
 10
12.8700749558
 20
18.0082352097
 30
0.0
 11
282.5707921135
 21
18.0082352097
 31
0.0
  0
LINE
  5
75
330
1F
100
AcDbEntity
  8
0
  6
Continuous
 62
     7
370
    25
100
AcDbLine
 10
12.8700158558
 20
190.0085404097
 30
0.0
 11
282.5707921135
 21
190.0085404097
 31
0.0
  0
LINE
  5
76
330
1F
100
AcDbEntity
  8
0
  6
Continuous
 62
     7
370
    25
100
AcDbLine
 10
282.5707921135
 20
18.0082352097
 30
0.0
 11
282.5707921135
 21
190.0085404097
 31
0.0
  0
MTEXT
  5
78
330
1F
100
AcDbEntity
  8
0
  6
Continuous
 62
     7
370
    18
100
AcDbMText
 10
36.0641720461
 20
33.2964553917
 30
0.0
 40
4.7625
 41
0.0
 71
     1
 72
     1
  1
RKC INSTRUMENT INC.
  7
SLDTEXTSTYLE0
 73
     1
 44
1.0
  0
INSERT
  5
80
330
1F
100
AcDbEntity
  8
0
  6
Continuous
 62
     7
370
    18
100
AcDbBlockReference
  2
SW_NOTE_0
 10
36.0641720461
 20
49.9848456177
 30
0.0
  0
INSERT
  5
84
330
1F
100
AcDbEntity
  8
0
  6
Continuous
 62
     7
100
AcDbBlockReference
  2
SW_BROKEN_VIEW_0
 10
0.0
 20
0.0
 30
0.0
  0
LINE
  5
85
330
1F
100
AcDbEntity
  8
0
  6
Continuous
 62
     7
370
    25
100
AcDbLine
 10
152.2002927797
 20
131.0950049263
 30
0.0
 11
151.4497361915
 21
129.795005272
 31
0.0
  0
LINE
  5
86
330
1F
100
AcDbEntity
  8
0
  6
Continuous
 62
     7
370
    25
100
AcDbLine
 10
151.4497361915
 20
112.7950052795
 30
0.0
 11
152.2002927797
 21
111.4950051595
 31
0.0
  0
LINE
  5
87
330
1F
100
AcDbEntity
  8
0
  6
Continuous
 62
     7
370
    25
100
AcDbLine
 10
208.3253003495
 20
94.267397846
 30
0.0
 11
214.984860255
 21
98.5921674472
 31
0.0
  0
LINE
  5
88
330
1F
100
AcDbEntity
  8
0
  6
Continuous
 62
     7
370
    25
100
AcDbLine
 10
188.8747922914
 20
147.6980556798
 30
0.0
 11
181.5654225486
 21
144.5954104018
 31
0.0
  0
ARC
  5
89
330
1F
100
AcDbEntity
  8
0
  6
Continuous
 62
     7
370
    25
100
AcDbCircle
 10
213.3509450545
 20
101.1081768107
 30
0.0
 40
2.999996999960135
100
AcDbArc
 50
302.999993838
 51
13.3165630685
  0
ARC
  5
8A
330
1F
100
AcDbEntity
  8
0
  6
Continuous
 62
     7
370
    25
100
AcDbCircle
 10
190.0469885864
 20
144.9365363944
 30
0.0
 40
3.000005486287233
100
AcDbArc
 50
42.6835820162
 51
113.0000158889
  0
ARC
  5
8B
330
1F
100
AcDbEntity
  8
0
  6
Continuous
 62
     7
370
    25
100
AcDbCircle
 10
65.8289629729
 20
66.1907211137
 30
0.0
 40
154.598030989979
100
AcDbArc
 50
13.3164567019
 51
19.7808087146
  0
ARC
  5
8C
330
1F
100
AcDbEntity
  8
0
  6
Continuous
 62
     7
370
    25
100
AcDbCircle
 10
78.6045198907
 20
42.1597978522
 30
0.0
 40
154.5997476178132
100
AcDbArc
 50
36.218022721
 51
42.6834997413
  0
SPLINE
  5
8D
330
1F
100
AcDbEntity
  8
0
  6
Continuous
 62
     7
370
    25
100
AcDbSpline
210
0.0
220
0.0
230
1.0
 70
     8
 71
     3
 72
    14
 73
    10
 74
     0
 42
0.00000001
 43
0.00000001
 40
0.0
 40
0.0
 40
0.0
 40
0.0
 40
0.0085497173350197
 40
0.0565170057086755
 40
0.1457277206114494
 40
0.3541248954415632
 40
0.6228773128082822
 40
0.9314690761638857
 40
1.0
 40
1.0
 40
1.0
 40
1.0
 10
211.2880386250234
 20
118.3280974690796
 30
0.0
 10
211.2878990930858
 20
118.3290346655287
 30
0.0
 10
211.2869767319121
 20
118.3352299039197
 30
0.0
 10
211.2855915277366
 20
118.3513436250355
 30
0.0
 10
211.2856570609702
 20
118.3896730137418
 30
0.0
 10
211.2969176838497
 20
118.4523898040041
 30
0.0
 10
211.3364241333215
 20
118.530106045375
 30
0.0
 10
211.3844634672485
 20
118.5882003339041
 30
0.0
 10
211.4229235882709
 20
118.6049254886816
 30
0.0
 10
211.42991258075
 20
118.6079647921951
 30
0.0
  0
SPLINE
  5
8E
330
1F
100
AcDbEntity
  8
0
  6
Continuous
 62
     7
370
    25
100
AcDbSpline
210
0.0
220
0.0
230
1.0
 70
     8
 71
     3
 72
    14
 73
    10
 74
     0
 42
0.00000001
 43
0.00000001
 40
0.0
 40
0.0
 40
0.0
 40
0.0
 40
0.3266846321041844
 40
0.603950728773022
 40
0.8078513429805545
 40
0.9196311249792456
 40
0.9751238822405807
 40
0.997940625903437
 40
1.0
 40
1.0
 40
1.0
 40
1.0
 10
203.3868841665006
 20
133.5296907526435
 30
0.0
 10
203.3611034791012
 20
133.5288463685474
 30
0.0
 10
203.3134420239455
 20
133.5272853327961
 30
0.0
 10
203.2508365766586
 20
133.5463323205777
 30
0.0
 10
203.2108884355082
 20
133.565448328855
 30
0.0
 10
203.1835457336739
 20
133.5853799148313
 30
0.0
 10
203.1765986871064
 20
133.5901998691005
 30
0.0
 10
203.1668445992638
 20
133.5995871113788
 30
0.0
 10
203.1683185709552
 20
133.5980469472384
 30
0.0
 10
203.1684405939794
 20
133.5979194444598
 30
0.0
  0
SPLINE
  5
8F
330
1F
100
AcDbEntity
  8
0
  6
Continuous
 62
     7
370
    25
100
AcDbSpline
210
0.0
220
0.0
230
1.0
 70
     8
 71
     3
 72
     9
 73
     5
 74
     0
 42
0.00000001
 43
0.00000001
 40
0.0
 40
0.0
 40
0.0
 40
0.0
 40
0.9749782546853347
 40
1.0
 40
1.0
 40
1.0
 40
1.0
 10
203.481275572083
 20
133.5556299489917
 30
0.0
 10
203.4512094540731
 20
133.5423234198871
 30
0.0
 10
203.4203717221898
 20
133.5286753933381
 30
0.0
 10
203.3877016292457
 20
133.5296659667674
 30
0.0
 10
203.3868841665006
 20
133.5296907526435
 30
0.0
  0
LINE
  5
90
330
1F
100
AcDbEntity
  8
0
  6
Continuous
 62
     7
370
    25
100
AcDbLine
 10
184.149738385
 20
78.2950070751
 30
0.0
 11
186.1497349875
 21
77.2950050485
 31
0.0
  0
LINE
  5
91
330
1F
100
AcDbEntity
  8
0
  6
Continuous
 62
     7
370
    25
100
AcDbLine
 10
204.1497416632
 20
77.2950050485
 30
0.0
 11
206.1497382658
 21
78.2950070751
 31
0.0
  0
LINE
  5
92
330
1F
100
AcDbEntity
  8
0
  6
Continuous
 62
     7
370
    25
100
AcDbLine
 10
220.6908278005
 20
127.4576631439
 30
0.0
 11
221.1323045032
 21
127.6923992735
 31
0.0
  0
LINE
  5
93
330
1F
100
AcDbEntity
  8
0
  6
Continuous
 62
     7
370
    25
100
AcDbLine
 10
216.437589361
 20
136.5218755853
 30
0.0
 11
215.9961126583
 21
136.2871394557
 31
0.0
  0
ARC
  5
94
330
1F
100
AcDbEntity
  8
0
  6
Continuous
 62
     7
370
    25
100
AcDbCircle
 10
213.6148173296
 20
129.0096986815
 30
0.0
 40
8.025013630816682
100
AcDbArc
 50
37.5388778773
 51
69.4058118725
  0
ARC
  5
95
330
1F
100
AcDbEntity
  8
0
  6
Continuous
 62
     7
370
    25
100
AcDbCircle
 10
213.3259506479
 20
129.5529666202
 30
0.0
 40
8.025015349942677
100
AcDbArc
 50
346.5942247769
 51
18.3962306715
  0
SPLINE
  5
96
330
1F
100
AcDbEntity
  8
0
  6
Continuous
 62
     7
370
    25
100
AcDbSpline
210
0.0
220
0.0
230
1.0
 70
     8
 71
     3
 72
    19
 73
    15
 74
     0
 42
0.00000001
 43
0.00000001
 40
0.0
 40
0.0
 40
0.0
 40
0.0
 40
0.0273096760361662
 40
0.0625193715252684
 40
0.118670391230925
 40
0.2139965279703288
 40
0.354160244605478
 40
0.5402170089517225
 40
0.7098181599658631
 40
0.8279413561883071
 40
0.8741631908063655
 40
0.9150637085423238
 40
0.9760455418360275
 40
1.0
 40
1.0
 40
1.0
 40
1.0
 10
214.8328311579442
 20
131.9582515460433
 30
0.0
 10
214.8314953187385
 20
131.9539363488651
 30
0.0
 10
214.8284372148088
 20
131.9440576738039
 30
0.0
 10
214.8257364975585
 20
131.9245860180934
 30
0.0
 10
214.8172096591315
 20
131.8948716420737
 30
0.0
 10
214.7986199207302
 20
131.8502327527374
 30
0.0
 10
214.758576871401
 20
131.7924081436857
 30
0.0
 10
214.6942493786752
 20
131.7394506545703
 30
0.0
 10
214.6206203463581
 20
131.7097952401392
 30
0.0
 10
214.5657660488343
 20
131.7017305530533
 30
0.0
 10
214.5316390772961
 20
131.7020755335738
 30
0.0
 10
214.5077814288126
 20
131.7019492722778
 30
0.0
 10
214.4846136946333
 20
131.7097724466168
 30
0.0
 10
214.4741061502535
 20
131.6995996095331
 30
0.0
 10
214.4711427228666
 20
131.6967305791558
 30
0.0
  0
SPLINE
  5
97
330
1F
100
AcDbEntity
  8
0
  6
Continuous
 62
     7
370
    25
100
AcDbSpline
210
0.0
220
0.0
230
1.0
 70
     8
 71
     3
 72
    19
 73
    15
 74
     0
 42
0.00000001
 43
0.00000001
 40
0.0
 40
0.0
 40
0.0
 40
0.0
 40
0.0273098328766299
 40
0.0625178836303777
 40
0.1186674117667483
 40
0.2140016701758153
 40
0.354159203774443
 40
0.5402146500155853
 40
0.7098314154692751
 40
0.8279404033641744
 40
0.874162489946772
 40
0.9150631518451663
 40
0.9760454042647022
 40
1.0
 40
1.0
 40
1.0
 40
1.0
 10
215.5391909020162
 20
132.3338278633536
 30
0.0
 10
215.5378550774256
 20
132.3295126617791
 30
0.0
 10
215.5347970972952
 20
132.3196342684877
 30
0.0
 10
215.5320959990361
 20
132.3001633468517
 30
0.0
 10
215.5235701740952
 20
132.2704477644399
 30
0.0
 10
215.5049685310211
 20
132.2258145113111
 30
0.0
 10
215.4649406449088
 20
132.1679812080845
 30
0.0
 10
215.4006055440538
 20
132.1150272796752
 30
0.0
 10
215.3269773577657
 20
132.0853752796227
 30
0.0
 10
215.2721233335839
 20
132.0773063339784
 30
0.0
 10
215.23799884894
 20
132.0776544236265
 30
0.0
 10
215.2141411135038
 20
132.0775256442114
 30
0.0
 10
215.19097345414
 20
132.0853508122992
 30
0.0
 10
215.1804658958457
 20
132.0751778285305
 30
0.0
 10
215.1775024669385
 20
132.0723087591113
 30
0.0
  0
SPLINE
  5
98
330
1F
100
AcDbEntity
  8
0
  6
Continuous
 62
     7
370
    25
100
AcDbSpline
210
0.0
220
0.0
230
1.0
 70
     8
 71
     3
 72
    19
 73
    15
 74
     0
 42
0.00000001
 43
0.00000001
 40
0.0
 40
0.0
 40
0.0
 40
0.0
 40
0.0273097640148768
 40
0.0625214198774794
 40
0.1186708064327952
 40
0.2140013609245847
 40
0.3541585411159426
 40
0.540215904848068
 40
0.7098322426130246
 40
0.8279558193718941
 40
0.8741777894054843
 40
0.915078529720008
 40
0.9760454646662237
 40
1.0
 40
1.0
 40
1.0
 40
1.0
 10
216.2455506460882
 20
132.7094060433091
 30
0.0
 10
216.2442148024843
 20
132.7050908449321
 30
0.0
 10
216.2411565981439
 20
132.6952118752919
 30
0.0
 10
216.2384560839878
 20
132.6757402234639
 30
0.0
 10
216.2299301130968
 20
132.6460245963669
 30
0.0
 10
216.2113276868484
 20
132.6013923101918
 30
0.0
 10
216.1713000166549
 20
132.543559279475
 30
0.0
 10
216.1069659152016
 20
132.4906036629351
 30
0.0
 10
216.0333347692728
 20
132.4609499665212
 30
0.0
 10
215.9784781164812
 20
132.4528834485452
 30
0.0
 10
215.9443510692056
 20
132.4532299112886
 30
0.0
 10
215.9204959764041
 20
132.4531052225782
 30
0.0
 10
215.8973312128012
 20
132.4609253076792
 30
0.0
 10
215.8868256158258
 20
132.4507541445754
 30
0.0
 10
215.8838622110105
 20
132.4478850764216
 30
0.0
  0
SPLINE
  5
99
330
1F
100
AcDbEntity
  8
0
  6
Continuous
 62
     7
370
    25
100
AcDbSpline
210
0.0
220
0.0
230
1.0
 70
     8
 71
     3
 72
    19
 73
    15
 74
     0
 42
0.00000001
 43
0.00000001
 40
0.0
 40
0.0
 40
0.0
 40
0.0
 40
0.0273095207950343
 40
0.0625199591500288
 40
0.118664913713272
 40
0.2139980826954057
 40
0.3541540146516168
 40
0.5402189516162466
 40
0.709819844811385
 40
0.8279423695656412
 40
0.8741639279479162
 40
0.9150641224562724
 40
0.976045678004512
 40
1.0
 40
1.0
 40
1.0
 40
1.0
 10
216.9519103901602
 20
133.0849823606194
 30
0.0
 10
216.9505751521685
 20
133.0806670427684
 30
0.0
 10
216.9475183784771
 20
133.0707879424432
 30
0.0
 10
216.9448024880494
 20
133.0513201407683
 30
0.0
 10
216.936296605429
 20
133.0215998927058
 30
0.0
 10
216.9176843739755
 20
132.9769700418015
 30
0.0
 10
216.8776613360334
 20
132.9191326084963
 30
0.0
 10
216.8133192694432
 20
132.8661865832149
 30
0.0
 10
216.7396928792054
 20
132.8365270107196
 30
0.0
 10
216.6848377738665
 20
132.8284610877231
 30
0.0
 10
216.6507108965718
 20
132.828808881788
 30
0.0
 10
216.6268531470005
 20
132.8286801572714
 30
0.0
 10
216.6036854921045
 20
132.836505308007
 30
0.0
 10
216.5931779334973
 20
132.8263323254535
 30
0.0
 10
216.5902145045019
 20
132.8234632563771
 30
0.0
  0
SPLINE
  5
9A
330
1F
100
AcDbEntity
  8
0
  6
Continuous
 62
     7
370
    25
100
AcDbSpline
210
0.0
220
0.0
230
1.0
 70
     8
 71
     3
 72
    19
 73
    15
 74
     0
 42
0.00000001
 43
0.00000001
 40
0.0
 40
0.0
 40
0.0
 40
0.0
 40
0.0120403361921644
 40
0.0554691417011151
 40
0.0953396615771346
 40
0.1535691046452546
 40
0.2309123686767056
 40
0.3278669415191541
 40
0.544563100251528
 40
0.7152277539345248
 40
0.8338866863548917
 40
0.9215177376111888
 40
0.9806890487591415
 40
1.0
 40
1.0
 40
1.0
 40
1.0
 10
216.3767330186582
 20
128.890619340259
 30
0.0
 10
216.3783452605757
 20
128.8886201270296
 30
0.0
 10
216.3857727670801
 20
128.8794098657763
 30
0.0
 10
216.386261011043
 20
128.9120236165965
 30
0.0
 10
216.3945177502748
 20
128.9307446181893
 30
0.0
 10
216.4051344418186
 20
128.9625563249676
 30
0.0
 10
216.4249042576716
 20
128.9986797313205
 30
0.0
 10
216.4672597407636
 20
129.055424816246
 30
0.0
 10
216.5395534668639
 20
129.1079861745226
 30
0.0
 10
216.6285344450181
 20
129.133583133841
 30
0.0
 10
216.6965879392488
 20
129.132341178488
 30
0.0
 10
216.744019284361
 20
129.1270000307652
 30
0.0
 10
216.7716215241987
 20
129.1107779981656
 30
0.0
 10
216.7856846936167
 20
129.1133883077334
 30
0.0
 10
216.7891450064397
 20
129.1140305873932
 30
0.0
  0
SPLINE
  5
9B
330
1F
100
AcDbEntity
  8
0
  6
Continuous
 62
     7
370
    25
100
AcDbSpline
210
0.0
220
0.0
230
1.0
 70
     8
 71
     3
 72
    19
 73
    15
 74
     0
 42
0.00000001
 43
0.00000001
 40
0.0
 40
0.0
 40
0.0
 40
0.0
 40
0.0120403300014278
 40
0.0554691131807447
 40
0.0953396125566813
 40
0.1535690256851766
 40
0.2309122499493178
 40
0.3278667729409798
 40
0.5445628202554638
 40
0.7152140677315322
 40
0.8338867717647807
 40
0.9215177779641333
 40
0.9806890586881842
 40
1.0
 40
1.0
 40
1.0
 40
1.0
 10
217.0830927627302
 20
129.2661965888919
 30
0.0
 10
217.0847050046479
 20
129.2641973756618
 30
0.0
 10
217.0921325111532
 20
129.254987114405
 30
0.0
 10
217.0926207550957
 20
129.2876008653018
 30
0.0
 10
217.1008774944223
 20
129.3063218665381
 30
0.0
 10
217.1114941853986
 20
129.3381335754496
 30
0.0
 10
217.1312640044981
 20
129.3742569695983
 30
0.0
 10
217.173619464787
 20
129.4310021402462
 30
0.0
 10
217.2459113857209
 20
129.4835613656194
 30
0.0
 10
217.3348914307554
 20
129.509161468632
 30
0.0
 10
217.4029452357927
 20
129.5079185041565
 30
0.0
 10
217.4503790246981
 20
129.5025773106956
 30
0.0
 10
217.477981268478
 20
129.4863552450609
 30
0.0
 10
217.4920444377296
 20
129.4889655560231
 30
0.0
 10
217.4955047505117
 20
129.4896078360261
 30
0.0
  0
SPLINE
  5
9C
330
1F
100
AcDbEntity
  8
0
  6
Continuous
 62
     7
370
    25
100
AcDbSpline
210
0.0
220
0.0
230
1.0
 70
     8
 71
     3
 72
    19
 73
    15
 74
     0
 42
0.00000001
 43
0.00000001
 40
0.0
 40
0.0
 40
0.0
 40
0.0
 40
0.0120308062513692
 40
0.0554635441618462
 40
0.095334278616982
 40
0.1535640350700913
 40
0.2309077153551881
 40
0.3278628099973683
 40
0.5445601349666114
 40
0.7152123886141407
 40
0.8338857923497925
 40
0.9215173152275686
 40
0.9806889448295496
 40
1.0
 40
1.0
 40
1.0
 40
1.0
 10
217.7894525068021
 20
129.6417738375248
 30
0.0
 10
217.7910618459036
 20
129.6397751469787
 30
0.0
 10
217.7984811034712
 20
129.6305609298225
 30
0.0
 10
217.7989841638788
 20
129.6631790368746
 30
0.0
 10
217.8072357216513
 20
129.6818985631619
 30
0.0
 10
217.8178545646774
 20
129.7137110552468
 30
0.0
 10
217.8376235101141
 20
129.7498341314524
 30
0.0
 10
217.879979378491
 20
129.8065794506116
 30
0.0
 10
217.9522710832947
 20
129.8591385973307
 30
0.0
 10
218.0412511823684
 20
129.8847387200092
 30
0.0
 10
218.1093049786321
 20
129.8834957523409
 30
0.0
 10
218.1567387689617
 20
129.8781545593983
 30
0.0
 10
218.1843410125393
 20
129.8619324936899
 30
0.0
 10
218.1984041817995
 20
129.8645428046553
 30
0.0
 10
218.2018644945836
 20
129.865185084659
 30
0.0
  0
SPLINE
  5
9D
330
1F
100
AcDbEntity
  8
0
  6
Continuous
 62
     7
370
    25
100
AcDbSpline
210
0.0
220
0.0
230
1.0
 70
     8
 71
     3
 72
    19
 73
    15
 74
     0
 42
0.00000001
 43
0.00000001
 40
0.0
 40
0.0
 40
0.0
 40
0.0
 40
0.0120401960832957
 40
0.055472194836683
 40
0.0953383896700529
 40
0.1535671551440209
 40
0.2309095191609665
 40
0.327862963779477
 40
0.5445677569328562
 40
0.7152171063466385
 40
0.8338884904470575
 40
0.9215049274493267
 40
0.9806755500429624
 40
1.0
 40
1.0
 40
1.0
 40
1.0
 10
218.4958048002935
 20
130.0173510861577
 30
0.0
 10
218.4974169087829
 20
130.0153519329247
 30
0.0
 10
218.5048442958123
 20
130.006141333954
 30
0.0
 10
218.5053452668127
 20
130.0387521681794
 30
0.0
 10
218.5135849807932
 20
130.057478486338
 30
0.0
 10
218.5242082187108
 20
130.0892874878244
 30
0.0
 10
218.5439753378515
 20
130.1254116261519
 30
0.0
 10
218.5863328951688
 20
130.1821585675952
 30
0.0
 10
218.6586297064995
 20
130.2347142862234
 30
0.0
 10
218.7476107274317
 20
130.2603155985604
 30
0.0
 10
218.8156624400447
 20
130.2590742868707
 30
0.0
 10
218.8630933086766
 20
130.2537294543596
 30
0.0
 10
218.8906955613006
 20
130.2375100623225
 30
0.0
 10
218.9047614120165
 20
130.2401198404031
 30
0.0
 10
218.9082242386556
 20
130.2407623332919
 30
0.0
  0
LINE
  5
9E
330
1F
100
AcDbEntity
  8
0
  6
Continuous
 62
     7
370
    25
100
AcDbLine
 10
214.9793021219
 20
132.235524903
 30
0.0
 11
214.80385585
 21
132.1422380459
 31
0.0
  0
LINE
  5
9F
330
1F
100
AcDbEntity
  8
0
  6
Continuous
 62
     7
370
    25
100
AcDbLine
 10
215.685661866
 20
132.6111030829
 30
0.0
 11
215.5102155941
 21
132.5178143633
 31
0.0
  0
LINE
  5
A0
330
1F
100
AcDbEntity
  8
0
  6
Continuous
 62
     7
370
    25
100
AcDbLine
 10
216.39202161
 20
132.9866794002
 30
0.0
 11
216.2165678876
 21
132.8933925432
 31
0.0
  0
LINE
  5
A1
330
1F
100
AcDbEntity
  8
0
  6
Continuous
 62
     7
370
    25
100
AcDbLine
 10
217.4514718192
 20
133.5500010354
 30
0.0
 11
216.9229276316
 21
133.2689688605
 31
0.0
  0
LINE
  5
A2
330
1F
100
AcDbEntity
  8
0
  6
Continuous
 62
     7
370
    25
100
AcDbLine
 10
219.0600968735
 20
130.1015566167
 30
0.0
 11
219.2354686396
 21
130.1948006329
 31
0.0
  0
LINE
  5
A3
330
1F
100
AcDbEntity
  8
0
  6
Continuous
 62
     7
370
    25
100
AcDbLine
 10
218.3537445801
 20
129.7259793681
 30
0.0
 11
218.5291685002
 21
129.8192569119
 31
0.0
  0
LINE
  5
A4
330
1F
100
AcDbEntity
  8
0
  6
Continuous
 62
     7
370
    25
100
AcDbLine
 10
217.647384836
 20
129.3504021195
 30
0.0
 11
217.8228162067
 21
129.4436796633
 31
0.0
  0
LINE
  5
A5
330
1F
100
AcDbEntity
  8
0
  6
Continuous
 62
     7
370
    25
100
AcDbLine
 10
216.9410250919
 20
128.9748248708
 30
0.0
 11
217.1164564626
 21
129.0681024146
 31
0.0
  0
LINE
  5
A6
330
1F
100
AcDbEntity
  8
0
  6
Continuous
 62
     7
370
    25
100
AcDbLine
 10
216.2346653478
 20
128.5992476222
 30
0.0
 11
216.4100967186
 21
128.692525166
 31
0.0
  0
ARC
  5
A7
330
1F
100
AcDbEntity
  8
0
  6
Continuous
 62
     7
370
    25
100
AcDbCircle
 10
206.2824630016
 20
89.2966938736
 30
0.0
 40
57.00482367001567
100
AcDbArc
 50
113.8321170128
 51
118.9401725327
  0
ARC
  5
A8
330
1F
100
AcDbEntity
  8
0
  6
Continuous
 62
     7
370
    25
100
AcDbCircle
 10
206.2828019478
 20
153.2990360498
 30
0.0
 40
57.01062359019253
100
AcDbArc
 50
269.8527774974
 51
270.8713081821
  0
ARC
  5
A9
330
1F
100
AcDbEntity
  8
0
  6
Continuous
 62
     7
370
    25
100
AcDbCircle
 10
206.282861122
 20
153.2941514869
 30
0.0
 40
57.00574769656605
100
AcDbArc
 50
241.0598837584
 51
247.1694761295
  0
ARC
  5
AA
330
1F
100
AcDbEntity
  8
0
  6
Continuous
 62
     7
370
    25
100
AcDbCircle
 10
180.1497322131
 20
106.0323159154
 30
0.0
 40
2.999993112815845
100
AcDbArc
 50
179.9999037197
 51
241.0599241374
  0
ARC
  5
AB
330
1F
100
AcDbEntity
  8
0
  6
Continuous
 62
     7
370
    25
100
AcDbCircle
 10
180.1497292736
 20
136.5576954384
 30
0.0
 40
2.999990173388412
100
AcDbArc
 50
118.9400427546
 51
180.0000938144
  0
ARC
  5
AC
330
1F
100
AcDbEntity
  8
0
  6
Continuous
 62
     7
370
    25
100
AcDbCircle
 10
176.8497391311
 20
106.4950052582
 30
0.0
 40
0.2999999691552319
100
AcDbArc
 50
0.0000914387
 51
90.0002642998
  0
ARC
  5
AD
330
1F
100
AcDbEntity
  8
0
  6
Continuous
 62
     7
370
    25
100
AcDbCircle
 10
176.8497375412
 20
136.0950059519
 30
0.0
 40
0.3000015590181843
100
AcDbArc
 50
270.0000393415
 51
359.9999606585
  0
LINE
  5
AE
330
1F
100
AcDbEntity
  8
0
  6
Continuous
 62
     7
370
    25
100
AcDbLine
 10
176.8497377472
 20
135.7950043929
 30
0.0
 11
157.449737175
 21
135.7950043929
 31
0.0
  0
LINE
  5
AF
330
1F
100
AcDbEntity
  8
0
  6
Continuous
 62
     7
370
    25
100
AcDbLine
 10
157.449737175
 20
106.7950052273
 30
0.0
 11
176.8497377472
 21
106.7950052273
 31
0.0
  0
ARC
  5
B0
330
1F
100
AcDbEntity
  8
0
  6
Continuous
 62
     7
370
    25
100
AcDbCircle
 10
157.4497366511
 20
134.7950066155
 30
0.0
 40
0.9999977773451811
100
AcDbArc
 50
89.9999699814
 51
180.0000300186
  0
ARC
  5
B1
330
1F
100
AcDbEntity
  8
0
  6
Continuous
 62
     7
370
    25
100
AcDbCircle
 10
157.4497398308
 20
107.7950061844
 30
0.0
 40
1.00000095708751
100
AcDbArc
 50
180.0000454453
 51
269.9998478329
  0
ARC
  5
B2
330
1F
100
AcDbEntity
  8
0
  6
Continuous
 62
     7
370
    25
100
AcDbCircle
 10
205.1497436681
 20
84.2950006296
 30
0.0
 40
0.9999945976630583
100
AcDbArc
 50
269.999574353
 51
0.0002122036
  0
ARC
  5
B3
330
1F
100
AcDbEntity
  8
0
  6
Continuous
 62
     7
370
    25
100
AcDbCircle
 10
185.1497329826
 20
84.2950006296
 30
0.0
 40
0.9999945976630702
100
AcDbArc
 50
179.9997877964
 51
270.000425647
  0
LINE
  5
B4
330
1F
100
AcDbEntity
  8
0
  6
Continuous
 62
     7
370
    25
100
AcDbLine
 10
206.1497382658
 20
84.2950043333
 30
0.0
 11
206.1497382658
 21
96.2941643846
 31
0.0
  0
LINE
  5
B5
330
1F
100
AcDbEntity
  8
0
  6
Continuous
 62
     7
370
    25
100
AcDbLine
 10
184.149738385
 20
100.762590493
 30
0.0
 11
184.149738385
 21
84.2950043333
 31
0.0
  0
LINE
  5
B6
330
1F
100
AcDbEntity
  8
0
  6
Continuous
 62
     7
370
    25
100
AcDbLine
 10
106.5861834051
 20
118.8950053946
 30
0.0
 11
151.4497361915
 21
118.8950053946
 31
0.0
  0
LINE
  5
B7
330
1F
100
AcDbEntity
  8
0
  6
Continuous
 62
     7
370
    25
100
AcDbLine
 10
151.4497361915
 20
123.6950053898
 30
0.0
 11
105.4919157015
 21
123.6950053898
 31
0.0
  0
LINE
  5
B8
330
1F
100
AcDbEntity
  8
0
  6
Continuous
 62
     7
370
    25
100
AcDbLine
 10
152.2002927797
 20
126.1950048682
 30
0.0
 11
156.4497388737
 21
126.1950048682
 31
0.0
  0
LINE
  5
B9
330
1F
100
AcDbEntity
  8
0
  6
Continuous
 62
     7
370
    25
100
AcDbLine
 10
152.2002927797
 20
116.3950053013
 30
0.0
 11
156.4497388737
 21
116.3950053013
 31
0.0
  0
SPLINE
  5
BA
330
1F
100
AcDbEntity
  8
0
  6
Continuous
 62
     7
370
    25
100
AcDbSpline
210
0.0
220
0.0
230
1.0
 70
     8
 71
     3
 72
     9
 73
     5
 74
     0
 42
0.00000001
 43
0.00000001
 40
0.0
 40
0.0
 40
0.0
 40
0.0
 40
0.4662246768838912
 40
1.0
 40
1.0
 40
1.0
 40
1.0
 10
151.4497361915327
 20
120.8259637531818
 30
0.0
 10
151.499479618053
 20
120.1263183900295
 30
0.0
 10
151.6061737271096
 20
118.625657018288
 30
0.0
 10
151.9935310170867
 20
117.171303382957
 30
0.0
 10
152.2002927797056
 20
116.3950053013331
 30
0.0
  0
LINE
  5
BB
330
1F
100
AcDbEntity
  8
0
  6
Continuous
 62
     7
370
    25
100
AcDbLine
 10
151.4497361915
 20
120.8259637532
 30
0.0
 11
151.4497361915
 21
121.7640467984
 31
0.0
  0
SPLINE
  5
BC
330
1F
100
AcDbEntity
  8
0
  6
Continuous
 62
     7
370
    25
100
AcDbSpline
210
0.0
220
0.0
230
1.0
 70
     8
 71
     3
 72
    10
 73
     6
 74
     0
 42
0.00000001
 43
0.00000001
 40
0.0
 40
0.0
 40
0.0
 40
0.0
 40
0.3911899603237357
 40
0.6945532245637408
 40
1.0
 40
1.0
 40
1.0
 40
1.0
 10
152.2002927797056
 20
126.1950048682274
 30
0.0
 10
152.049018395178
 20
125.6272140590262
 30
0.0
 10
151.7804324849451
 20
124.6191080813523
 30
0.0
 10
151.5316003573298
 20
123.1351329083806
 30
0.0
 10
151.477086433886
 20
122.2221170300854
 30
0.0
 10
151.4497361915327
 20
121.7640467983664
 30
0.0
  0
LINE
  5
BD
330
1F
100
AcDbEntity
  8
0
  6
Continuous
 62
     7
370
    25
100
AcDbLine
 10
151.4497361915
 20
120.8259637532
 30
0.0
 11
151.4497361915
 21
114.1795261827
 31
0.0
  0
SPLINE
  5
BE
330
1F
100
AcDbEntity
  8
0
  6
Continuous
 62
     7
370
    25
100
AcDbSpline
210
0.0
220
0.0
230
1.0
 70
     8
 71
     3
 72
    10
 73
     6
 74
     0
 42
0.00000001
 43
0.00000001
 40
0.0
 40
0.0
 40
0.0
 40
0.0
 40
0.2210337304004046
 40
0.6166053340942175
 40
1.0
 40
1.0
 40
1.0
 40
1.0
 10
152.2002927797056
 20
116.3950053013331
 30
0.0
 10
152.1165190740686
 20
116.2430197285675
 30
0.0
 10
151.8828202912673
 20
115.8190341463541
 30
0.0
 10
151.5745478552997
 20
115.0876310904916
 30
0.0
 10
151.4909042355278
 20
114.4790567046901
 30
0.0
 10
151.4497361915327
 20
114.1795261827291
 30
0.0
  0
LINE
  5
BF
330
1F
100
AcDbEntity
  8
0
  6
Continuous
 62
     7
370
    25
100
AcDbLine
 10
152.2002927797
 20
111.4950051595
 30
0.0
 11
156.4497388737
 21
111.4950051595
 31
0.0
  0
SPLINE
  5
C0
330
1F
100
AcDbEntity
  8
0
  6
Continuous
 62
     7
370
    25
100
AcDbSpline
210
0.0
220
0.0
230
1.0
 70
     8
 71
     3
 72
    10
 73
     6
 74
     0
 42
0.00000001
 43
0.00000001
 40
0.0
 40
0.0
 40
0.0
 40
0.0
 40
0.2659286451328657
 40
0.623461199459028
 40
1.0
 40
1.0
 40
1.0
 40
1.0
 10
151.4497361915327
 20
113.7104844273062
 30
0.0
 10
151.4737564034688
 20
113.502486896453
 30
0.0
 10
151.530071021766
 20
113.0148433407711
 30
0.0
 10
151.7871843703917
 20
112.2643191248007
 30
0.0
 10
152.0602334220822
 20
111.7558316577598
 30
0.0
 10
152.2002927797056
 20
111.4950051595451
 30
0.0
  0
LINE
  5
C1
330
1F
100
AcDbEntity
  8
0
  6
Continuous
 62
     7
370
    25
100
AcDbLine
 10
151.4497361915
 20
113.7104844273
 30
0.0
 11
151.4497361915
 21
114.1795261827
 31
0.0
  0
LINE
  5
C2
330
1F
100
AcDbEntity
  8
0
  6
Continuous
 62
     7
370
    25
100
AcDbLine
 10
151.4497361915
 20
128.4104843688
 30
0.0
 11
151.4497361915
 21
121.7640467984
 31
0.0
  0
SPLINE
  5
C3
330
1F
100
AcDbEntity
  8
0
  6
Continuous
 62
     7
370
    25
100
AcDbSpline
210
0.0
220
0.0
230
1.0
 70
     8
 71
     3
 72
    10
 73
     6
 74
     0
 42
0.00000001
 43
0.00000001
 40
0.0
 40
0.0
 40
0.0
 40
0.0
 40
0.2659288135315837
 40
0.6234612376881502
 40
1.0
 40
1.0
 40
1.0
 40
1.0
 10
151.4497361915327
 20
128.4104843688191
 30
0.0
 10
151.473756385313
 20
128.20248667881
 30
0.0
 10
151.5300709288367
 20
127.7148430288904
 30
0.0
 10
151.7871844311736
 20
126.9643187756926
 30
0.0
 10
152.0602334308516
 20
126.4558313688943
 30
0.0
 10
152.2002927797056
 20
126.1950048682274
 30
0.0
  0
LINE
  5
C4
330
1F
100
AcDbEntity
  8
0
  6
Continuous
 62
     7
370
    25
100
AcDbLine
 10
152.2002927797
 20
131.0950049263
 30
0.0
 11
156.4497388737
 21
131.0950049263
 31
0.0
  0
SPLINE
  5
C5
330
1F
100
AcDbEntity
  8
0
  6
Continuous
 62
     7
370
    25
100
AcDbSpline
210
0.0
220
0.0
230
1.0
 70
     8
 71
     3
 72
    10
 73
     6
 74
     0
 42
0.00000001
 43
0.00000001
 40
0.0
 40
0.0
 40
0.0
 40
0.0
 40
0.2210336572822045
 40
0.6166051583556904
 40
1.0
 40
1.0
 40
1.0
 40
1.0
 10
152.2002927797056
 20
131.0950049263419
 30
0.0
 10
152.1165190737275
 20
130.9430194601657
 30
0.0
 10
151.8828202792732
 20
130.5190341558838
 30
0.0
 10
151.5745477559404
 20
129.7876312971035
 30
0.0
 10
151.4909042128115
 20
129.1790569628461
 30
0.0
 10
151.4497361915327
 20
128.8795263570727
 30
0.0
  0
LINE
  5
C6
330
1F
100
AcDbEntity
  8
0
  6
Continuous
 62
     7
370
    25
100
AcDbLine
 10
151.4497361915
 20
128.4104843688
 30
0.0
 11
151.4497361915
 21
128.8795263571
 31
0.0
  0
LINE
  5
C7
330
1F
100
AcDbEntity
  8
0
  6
Continuous
 62
     7
370
    25
100
AcDbLine
 10
151.4497361915
 20
129.795005272
 30
0.0
 11
151.4497361915
 21
128.8795263571
 31
0.0
  0
LINE
  5
C8
330
1F
100
AcDbEntity
  8
0
  6
Continuous
 62
     7
370
    25
100
AcDbLine
 10
151.4497361915
 20
113.7104844273
 30
0.0
 11
151.4497361915
 21
112.7950052795
 31
0.0
  0
LWPOLYLINE
  5
C9
330
1F
100
AcDbEntity
  8
0
  6
Continuous
 62
     7
370
    25
100
AcDbPolyline
 90
       35
 70
   128
 43
0.0
 10
181.5654225486
 20
144.5954104018
 10
181.5801299947
 20
144.5677538467
 10
181.6975809472
 20
144.3468534452
 10
181.9314546721
 20
143.9069972438
 10
182.2797022598
 20
143.2520483685
 10
182.7392466204
 20
142.3877623928
 10
183.3060644405
 20
141.3217351836
 10
183.9751712816
 20
140.0633339834
 10
184.740681185
 20
138.6236191791
 10
185.5958662765
 20
137.0152437192
 10
186.5332163708
 20
135.2523394925
 10
187.5444985764
 20
133.3503999812
 10
188.6208169
 20
131.3261414942
 10
189.7527165549
 20
129.1973504302
 10
190.9302435653
 20
126.9827361283
 10
192.1430639761
 20
124.7017613676
 10
193.3805085557
 20
122.3744691414
 10
194.6316994565
 20
120.0213138544
 10
195.8856545227
 20
117.6629743603
 10
197.1313394444
 20
115.320175846
 10
198.3578167694
 20
113.0135070597
 10
199.5543055074
 20
110.7632389356
 10
200.7102928894
 20
108.5891469446
 10
201.8156163233
 20
106.5103371692
 10
202.860560252
 20
104.5450779674
 10
203.8359455602
 20
102.7106407163
 10
204.7332040804
 20
101.0231456784
 10
205.5444456475
 20
99.4974241656
 10
206.262540056
 20
98.1468816352
 10
206.8811841147
 20
96.983389656
 10
207.3949314492
 20
96.0171704245
 10
207.7992670076
 20
95.25671574
 10
208.0906517642
 20
94.7087106359
 10
208.266507818
 20
94.37797005
 10
208.3253003495
 20
94.267397846
  0
SPLINE
  5
CA
330
1F
100
AcDbEntity
  8
0
  6
Continuous
 62
     7
370
    25
100
AcDbSpline
210
0.0
220
0.0
230
1.0
 70
     8
 71
     3
 72
    11
 73
     7
 74
     0
 42
0.00000001
 43
0.00000001
 40
0.0
 40
0.0
 40
0.0
 40
0.0
 40
0.2500442320914927
 40
0.5008380708742625
 40
0.6082209192051642
 40
1.0
 40
1.0
 40
1.0
 40
1.0
 10
210.6128670113302
 20
118.5257185314776
 30
0.0
 10
210.09763124957
 20
119.7873030457057
 30
0.0
 10
209.0656151026389
 20
122.3142541737753
 30
0.0
 10
207.5999080293012
 20
125.2899056438993
 30
0.0
 10
205.634266701978
 20
128.8734848590719
 30
0.0
 10
204.1335444061267
 20
131.1444150038624
 30
0.0
 10
202.9556669132924
 20
132.9268083971919
 30
0.0
  0
SPLINE
  5
CB
330
1F
100
AcDbEntity
  8
0
  6
Continuous
 62
     7
370
    25
100
AcDbSpline
210
0.0
220
0.0
230
1.0
 70
     8
 71
     3
 72
    12
 73
     8
 74
     0
 42
0.00000001
 43
0.00000001
 40
0.0
 40
0.0
 40
0.0
 40
0.0
 40
0.2404570026265449
 40
0.5381651548346725
 40
0.7797431189397905
 40
0.9382208154582562
 40
1.0
 40
1.0
 40
1.0
 40
1.0
 10
210.6128670113302
 20
118.5257185314776
 30
0.0
 10
210.631077103291
 20
118.4809454896687
 30
0.0
 10
210.671832984187
 20
118.3807392543988
 30
0.0
 10
210.7352988471411
 20
118.2358642894744
 30
0.0
 10
210.8036471675207
 20
118.116410877295
 30
0.0
 10
210.8448141240351
 20
118.0264339919665
 30
0.0
 10
210.8852390148595
 20
118.0065765940553
 30
0.0
 10
210.8965776698805
 20
118.0010068527417
 30
0.0
  0
SPLINE
  5
CC
330
1F
100
AcDbEntity
  8
0
  6
Continuous
 62
     7
370
    25
100
AcDbSpline
210
0.0
220
0.0
230
1.0
 70
     8
 71
     3
 72
     9
 73
     5
 74
     0
 42
0.00000001
 43
0.00000001
 40
0.0
 40
0.0
 40
0.0
 40
0.0
 40
0.4127234987535119
 40
1.0
 40
1.0
 40
1.0
 40
1.0
 10
211.3024778502202
 20
118.2517592859448
 30
0.0
 10
211.2467530095169
 20
118.2170734396061
 30
0.0
 10
211.1117356410569
 20
118.1330320742767
 30
0.0
 10
210.9761839769281
 20
118.0498548701592
 30
0.0
 10
210.8965776698804
 20
118.0010068527417
 30
0.0
  0
SPLINE
  5
CD
330
1F
100
AcDbEntity
  8
0
  6
Continuous
 62
     7
370
    25
100
AcDbSpline
210
0.0
220
0.0
230
1.0
 70
     8
 71
     3
 72
     9
 73
     5
 74
     0
 42
0.00000001
 43
0.00000001
 40
0.0
 40
0.0
 40
0.0
 40
0.0
 40
0.5872715536535432
 40
1.0
 40
1.0
 40
1.0
 40
1.0
 10
202.6793099777913
 20
133.4554289531888
 30
0.0
 10
202.7643225739153
 20
133.4941118416956
 30
0.0
 10
202.9090811538177
 20
133.5599806689293
 30
0.0
 10
203.0542589919257
 20
133.6249197454399
 30
0.0
 10
203.114178015492
 20
133.6517219495953
 30
0.0
  0
SPLINE
  5
CE
330
1F
100
AcDbEntity
  8
0
  6
Continuous
 62
     7
370
    25
100
AcDbSpline
210
0.0
220
0.0
230
1.0
 70
     8
 71
     3
 72
    12
 73
     8
 74
     0
 42
0.00000001
 43
0.00000001
 40
0.0
 40
0.0
 40
0.0
 40
0.0
 40
0.0379079369156253
 40
0.1661565642192624
 40
0.384426920016154
 40
0.6744678592969492
 40
1.0
 40
1.0
 40
1.0
 40
1.0
 10
202.6793099777913
 20
133.4554289531888
 30
0.0
 10
202.6768704968852
 20
133.4480258457848
 30
0.0
 10
202.66617786102
 20
133.4155768393002
 30
0.0
 10
202.7100803912798
 20
133.3417051867738
 30
0.0
 10
202.7610864430371
 20
133.2289972672857
 30
0.0
 10
202.8508355496411
 20
133.0842632807593
 30
0.0
 10
202.9194053163189
 20
132.9812726846968
 30
0.0
 10
202.9556669132924
 20
132.9268083971919
 30
0.0
  0
ARC
  5
CF
330
1F
100
AcDbEntity
  8
0
  6
Continuous
 62
     7
370
    25
100
AcDbCircle
 10
211.1744231301
 20
118.1100238012
 30
0.0
 40
0.2984674099386607
100
AcDbArc
 50
121.1595811588
 51
201.4233250717
  0
ARC
  5
D0
330
1F
100
AcDbEntity
  8
0
  6
Continuous
 62
     7
370
    25
100
AcDbCircle
 10
202.9250608834
 20
133.624825254
 30
0.0
 40
0.2984771588219078
100
AcDbArc
 50
214.5785275695
 51
294.8397611823
  0
LINE
  5
D1
330
1F
100
AcDbEntity
  8
0
  6
Continuous
 62
     7
370
    25
100
AcDbLine
 10
218.7648974197
 20
123.0190440145
 30
0.0
 11
211.0199890869
 21
118.3654311643
 31
0.0
  0
LINE
  5
D2
330
1F
100
AcDbEntity
  8
0
  6
Continuous
 62
     7
370
    25
100
AcDbLine
 10
203.0504457491
 20
133.3539613587
 30
0.0
 11
211.239363982
 21
137.1725161624
 31
0.0
  0
ARC
  5
D3
330
1F
100
AcDbEntity
  8
0
  6
Continuous
 62
     7
370
    25
100
AcDbCircle
 10
211.5839331765
 20
118.3546682524
 30
0.0
 40
0.2996787548103151
100
AcDbArc
 50
121.0304651194
 51
200.0840102353
  0
ARC
  5
D4
330
1F
100
AcDbEntity
  8
0
  6
Continuous
 62
     7
370
    25
100
AcDbCircle
 10
203.3568791459
 20
133.8275018285
 30
0.0
 40
0.2996704932521645
100
AcDbArc
 50
215.9144902873
 51
294.9701984703
  0
ARC
  5
D5
330
1F
100
AcDbEntity
  8
0
  6
Continuous
 62
     7
370
    25
100
AcDbCircle
 10
218.6103928918
 20
123.2761923923
 30
0.0
 40
0.2999948955176554
100
AcDbArc
 50
300.9990495826
 51
28.0009527383
  0
LINE
  5
D6
330
1F
100
AcDbEntity
  8
0
  6
Continuous
 62
     7
370
    25
100
AcDbLine
 10
211.6310335534
 20
137.0414660376
 30
0.0
 11
218.8752703207
 21
123.4170358692
 31
0.0
  0
ARC
  5
D7
330
1F
100
AcDbEntity
  8
0
  6
Continuous
 62
     7
370
    25
100
AcDbCircle
 10
211.3661513155
 20
136.9006289461
 30
0.0
 40
0.2999961438668575
100
AcDbArc
 50
27.9994447571
 51
115.0007343237
  0
LINE
  5
D8
330
1F
100
AcDbEntity
  8
0
  6
Continuous
 62
     7
370
    25
100
AcDbLine
 10
184.149738385
 20
83.295006032
 30
0.0
 11
184.149738385
 21
78.2950070751
 31
0.0
  0
LINE
  5
D9
330
1F
100
AcDbEntity
  8
0
  6
Continuous
 62
     7
370
    25
100
AcDbLine
 10
189.6497346299
 20
83.295006032
 30
0.0
 11
188.4204260843
 21
83.295006032
 31
0.0
  0
LINE
  5
DA
330
1F
100
AcDbEntity
  8
0
  6
Continuous
 62
     7
370
    25
100
AcDbLine
 10
185.3790469306
 20
83.295006032
 30
0.0
 11
184.149738385
 21
83.295006032
 31
0.0
  0
LINE
  5
DB
330
1F
100
AcDbEntity
  8
0
  6
Continuous
 62
     7
370
    25
100
AcDbLine
 10
189.6497346299
 20
83.295006032
 30
0.0
 11
189.6497346299
 21
78.2950070751
 31
0.0
  0
SPLINE
  5
DC
330
1F
100
AcDbEntity
  8
0
  6
Continuous
 62
     7
370
    25
100
AcDbSpline
210
0.0
220
0.0
230
1.0
 70
     8
 71
     3
 72
    10
 73
     6
 74
     0
 42
0.00000001
 43
0.00000001
 40
0.0
 40
0.0
 40
0.0
 40
0.0
 40
0.3409496609157376
 40
0.6770588424374303
 40
0.9999999999999999
 40
0.9999999999999999
 40
0.9999999999999999
 40
0.9999999999999999
 10
184.1497383849836
 20
78.29500707508933
 30
0.0
 10
184.7502217746113
 20
78.032740473658
 30
0.0
 10
185.9426634611414
 20
77.51193068285725
 30
0.0
 10
187.925204012812
 20
77.53591655560388
 30
0.0
 10
189.0825994605608
 20
78.04536991234966
 30
0.0
 10
189.649734629891
 20
78.29500707508933
 30
0.0
  0
LINE
  5
DD
330
1F
100
AcDbEntity
  8
0
  6
Continuous
 62
     7
370
    25
100
AcDbLine
 10
200.6497345703
 20
83.295006032
 30
0.0
 11
198.1911174791
 21
83.295006032
 31
0.0
  0
LINE
  5
DE
330
1F
100
AcDbEntity
  8
0
  6
Continuous
 62
     7
370
    25
100
AcDbLine
 10
192.1083591717
 20
83.295006032
 30
0.0
 11
189.6497346299
 21
83.295006032
 31
0.0
  0
LINE
  5
DF
330
1F
100
AcDbEntity
  8
0
  6
Continuous
 62
     7
370
    25
100
AcDbLine
 10
200.6497345703
 20
83.295006032
 30
0.0
 11
200.6497345703
 21
78.2950070751
 31
0.0
  0
SPLINE
  5
E0
330
1F
100
AcDbEntity
  8
0
  6
Continuous
 62
     7
370
    25
100
AcDbSpline
210
0.0
220
0.0
230
1.0
 70
     8
 71
     3
 72
    11
 73
     7
 74
     0
 42
0.00000001
 43
0.00000001
 40
0.0
 40
0.0
 40
0.0
 40
0.0
 40
0.1301169153708226
 40
0.4385232672532096
 40
0.7559111656744307
 40
1.0
 40
1.0
 40
1.0
 40
1.0
 10
189.649734629891
 20
78.29500707508933
 30
0.0
 10
190.1190768985975
 20
78.18437137547038
 30
0.0
 10
191.7008658961819
 20
77.81150418650054
 30
0.0
 10
194.4939953985929
 20
77.4665492807953
 30
0.0
 10
197.7344237770197
 20
77.64060560587713
 30
0.0
 10
199.7663864701294
 20
78.0967214254414
 30
0.0
 10
200.6497345702863
 20
78.29500707508933
 30
0.0
  0
SPLINE
  5
E1
330
1F
100
AcDbEntity
  8
0
  6
Continuous
 62
     7
370
    25
100
AcDbSpline
210
0.0
220
0.0
230
1.0
 70
     8
 71
     3
 72
    10
 73
     6
 74
     0
 42
0.00000001
 43
0.00000001
 40
0.0
 40
0.0
 40
0.0
 40
0.0
 40
0.3409504964571834
 40
0.6770579897644956
 40
1.0
 40
1.0
 40
1.0
 40
1.0
 10
200.6497345702863
 20
78.29500707508933
 30
0.0
 10
201.2502204625422
 20
78.0327402528322
 30
0.0
 10
202.4426626948232
 20
77.51193195572029
 30
0.0
 10
204.4252045732881
 20
77.53591803767193
 30
0.0
 10
205.5826005975194
 20
78.0453697449783
 30
0.0
 10
206.1497382657743
 20
78.29500707508933
 30
0.0
  0
LINE
  5
E2
330
1F
100
AcDbEntity
  8
0
  6
Continuous
 62
     7
370
    25
100
AcDbLine
 10
204.1497416632
 20
77.2950050485
 30
0.0
 11
186.1497349875
 21
77.2950050485
 31
0.0
  0
LINE
  5
E3
330
1F
100
AcDbEntity
  8
0
  6
Continuous
 62
     7
370
    25
100
AcDbLine
 10
206.1497382658
 20
83.295006032
 30
0.0
 11
206.1497382658
 21
78.2950070751
 31
0.0
  0
LINE
  5
E4
330
1F
100
AcDbEntity
  8
0
  6
Continuous
 62
     7
370
    25
100
AcDbLine
 10
206.1497382658
 20
83.295006032
 30
0.0
 11
204.9204297202
 21
83.295006032
 31
0.0
  0
LINE
  5
E5
330
1F
100
AcDbEntity
  8
0
  6
Continuous
 62
     7
370
    25
100
AcDbLine
 10
201.8790505665
 20
83.295006032
 30
0.0
 11
200.6497345703
 21
83.295006032
 31
0.0
  0
LWPOLYLINE
  5
E6
330
1F
100
AcDbEntity
  8
0
  6
Continuous
 62
     7
370
    25
100
AcDbPolyline
 90
       16
 70
   128
 43
0.0
 10
220.6908278005
 20
127.4576631439
 10
220.674511029
 20
127.4883502227
 10
220.5545864837
 20
127.7138951299
 10
220.3237898486
 20
128.1479650241
 10
219.9936918752
 20
128.7687939656
 10
219.5808403032
 20
129.5452497032
 10
219.105940296
 20
130.4383992282
 10
218.5928113597
 20
131.4034552378
 10
218.0671803491
 20
132.392026211
 10
217.5553999679
 20
133.354542504
 10
217.0831449168
 20
134.2427355302
 10
216.6740782397
 20
135.0120713067
 10
216.3487262862
 20
135.6239707273
 10
216.1233983772
 20
136.0477523011
 10
216.0093970435
 20
136.2621613842
 10
215.9961126583
 20
136.2871394557
  0
LWPOLYLINE
  5
E7
330
1F
100
AcDbEntity
  8
0
  6
Continuous
 62
     7
370
    25
100
AcDbPolyline
 90
       16
 70
   128
 43
0.0
 10
221.1323045032
 20
127.6923992735
 10
221.1159877317
 20
127.7230863524
 10
220.9960631864
 20
127.9486312595
 10
220.7652665513
 20
128.3827011538
 10
220.4351611274
 20
129.0035291639
 10
220.0223170059
 20
129.7799858329
 10
219.5474169986
 20
130.6731353578
 10
219.0342880624
 20
131.6381913674
 10
218.5086570518
 20
132.6267623407
 10
217.9968766706
 20
133.589276771
 10
217.5246141689
 20
134.4774716598
 10
217.1155549424
 20
135.2468074364
 10
216.7902029889
 20
135.858706857
 10
216.5648750799
 20
136.2824865681
 10
216.4508662956
 20
136.4968975139
 10
216.437589361
 20
136.5218755853
  0
SPLINE
  5
E8
330
1F
100
AcDbEntity
  8
0
  6
Continuous
 62
     7
370
    25
100
AcDbSpline
210
0.0
220
0.0
230
1.0
 70
     8
 71
     3
 72
     9
 73
     5
 74
     0
 42
0.00000001
 43
0.00000001
 40
0.0
 40
0.0
 40
0.0
 40
0.0
 40
0.001545575486157
 40
1.0
 40
1.0
 40
1.0
 40
1.0
 10
219.9772409932828
 20
133.900539676565
 30
0.0
 10
219.9767989970422
 20
133.9011146786469
 30
0.0
 10
219.6908238087354
 20
134.2731457357022
 30
0.0
 10
219.3150027476193
 20
134.5627767873482
 30
0.0
 10
218.9397625463224
 20
134.8519601923407
 30
0.0
  0
LINE
  5
E9
330
1F
100
AcDbEntity
  8
0
  6
Continuous
 62
     7
370
    25
100
AcDbLine
 10
218.9397625463
 20
134.8519601923
 30
0.0
 11
219.4175980823
 21
133.9532786113
 31
0.0
  0
SPLINE
  5
EA
330
1F
100
AcDbEntity
  8
0
  6
Continuous
 62
     7
370
    25
100
AcDbSpline
210
0.0
220
0.0
230
1.0
 70
     8
 71
     3
 72
     9
 73
     5
 74
     0
 42
0.00000001
 43
0.00000001
 40
0.0
 40
0.0
 40
0.0
 40
0.0
 40
0.0015455768679686
 40
1.0
 40
1.0
 40
1.0
 40
1.0
 10
220.4550765292859
 20
133.0018599581898
 30
0.0
 10
220.4546345330457
 20
133.0024349602722
 30
0.0
 10
220.1686596006921
 20
133.3744656850141
 30
0.0
 10
219.7928384112403
 20
133.6640959711025
 30
0.0
 10
219.4175980823255
 20
133.9532786113204
 30
0.0
  0
LINE
  5
EB
330
1F
100
AcDbEntity
  8
0
  6
Continuous
 62
     7
370
    25
100
AcDbLine
 10
220.6508032816
 20
131.4512386051
 30
0.0
 11
220.4550765293
 21
133.0018599582
 31
0.0
  0
LINE
  5
EC
330
1F
100
AcDbEntity
  8
0
  6
Continuous
 62
     7
370
    25
100
AcDbLine
 10
220.6508032816
 20
131.4512386051
 30
0.0
 11
221.1341895001
 21
130.5421159667
 31
0.0
  0
LINE
  5
ED
330
1F
100
AcDbEntity
  8
0
  6
Continuous
 62
     7
370
    25
100
AcDbLine
 10
221.1341895001
 20
130.5421159667
 30
0.0
 11
220.9384701984
 21
132.0927363885
 31
0.0
  0
SPLINE
  5
EE
330
1F
100
AcDbEntity
  8
0
  6
Continuous
 62
     7
370
    25
100
AcDbSpline
210
0.0
220
0.0
230
1.0
 70
     8
 71
     3
 72
    18
 73
    14
 74
     0
 42
0.00000001
 43
0.00000001
 40
0.0
 40
0.0
 40
0.0
 40
0.0
 40
0.0014402075168897
 40
0.0420074941765319
 40
0.1469159922357891
 40
0.3012654510529879
 40
0.4817973310897272
 40
0.6611648251617717
 40
0.8122024363037925
 40
0.9121748272923387
 40
0.9472004779538649
 40
0.9877675587431324
 40
1.0
 40
1.0
 40
1.0
 40
1.0
 10
219.057422115109
 20
130.1065997284831
 30
0.0
 10
219.0577015590435
 20
130.1046114692785
 30
0.0
 10
219.0658522868465
 20
130.0466185856286
 30
0.0
 10
218.8168315283862
 20
130.3803592178066
 30
0.0
 10
218.6972619361999
 20
130.5661147240133
 30
0.0
 10
218.3287920936161
 20
131.1395502884898
 30
0.0
 10
217.9772054648135
 20
131.7072053348804
 30
0.0
 10
217.6206558088209
 20
132.2893000302293
 30
0.0
 10
217.2756674963289
 20
132.8081994826289
 30
0.0
 10
217.1273317545401
 20
133.0682185491343
 30
0.0
 10
216.8798834099358
 20
133.338791753288
 30
0.0
 10
216.9376188777118
 20
133.1360749433987
 30
0.0
 10
216.9626875457346
 20
133.0742813381737
 30
0.0
 10
216.9684953825689
 20
133.0599651736201
 30
0.0
  0
SPLINE
  5
EF
330
1F
100
AcDbEntity
  8
0
  6
Continuous
 62
     7
370
    25
100
AcDbSpline
210
0.0
220
0.0
230
1.0
 70
     8
 71
     3
 72
    18
 73
    14
 74
     0
 42
0.00000001
 43
0.00000001
 40
0.0
 40
0.0
 40
0.0
 40
0.0
 40
0.0014402067695439
 40
0.0420074723781979
 40
0.146914867062164
 40
0.3012652367169529
 40
0.4817960502420141
 40
0.6611634512375107
 40
0.8122021712133101
 40
0.9121745103246469
 40
0.9471998388794209
 40
0.9877668986178071
 40
1.0
 40
1.0
 40
1.0
 40
1.0
 10
218.3510623710371
 20
129.7310224798502
 30
0.0
 10
218.3513418150854
 20
129.7290342206844
 30
0.0
 10
218.3594925462096
 20
129.6710413381663
 30
0.0
 10
218.1104725609093
 20
130.004779245119
 30
0.0
 10
217.9909130157534
 20
130.1905426579507
 30
0.0
 10
217.6224286744242
 20
130.7639674503451
 30
0.0
 10
217.2708549044443
 20
131.3316306458335
 30
0.0
 10
216.9143041333074
 20
131.9137253218622
 30
0.0
 10
216.5693077388319
 20
132.4326209013881
 30
0.0
 10
216.4209716105213
 20
132.6926427791537
 30
0.0
 10
216.1735253740008
 20
132.9632134632358
 30
0.0
 10
216.2312530655925
 20
132.7604930624773
 30
0.0
 10
216.256332511929
 20
132.6987029486045
 30
0.0
 10
216.2621430890775
 20
132.6843869936646
 30
0.0
  0
SPLINE
  5
F0
330
1F
100
AcDbEntity
  8
0
  6
Continuous
 62
     7
370
    25
100
AcDbSpline
210
0.0
220
0.0
230
1.0
 70
     8
 71
     3
 72
    18
 73
    14
 74
     0
 42
0.00000001
 43
0.00000001
 40
0.0
 40
0.0
 40
0.0
 40
0.0
 40
0.0014402069969264
 40
0.0420061618146307
 40
0.1469146219983984
 40
0.3012650160223127
 40
0.4817958580499167
 40
0.6611632873642745
 40
0.812201837631985
 40
0.9121741925271418
 40
0.9471998305432324
 40
0.987766896686422
 40
1.0
 40
1.0
 40
1.0
 40
1.0
 10
217.6447026269651
 20
129.3554452312173
 30
0.0
 10
217.6449820708983
 20
129.353456969298
 30
0.0
 10
217.6531325430882
 20
129.2954658249071
 30
0.0
 10
217.4041227305567
 20
129.6292105944073
 30
0.0
 10
217.2845488694465
 20
129.8149591469927
 30
0.0
 10
216.9160708741453
 20
130.3883919945265
 30
0.0
 10
216.5644946105006
 20
130.9560529280208
 30
0.0
 10
216.2079446311137
 20
131.5381478121659
 30
0.0
 10
215.8629483380905
 20
132.0570435768331
 30
0.0
 10
215.7146107130758
 20
132.3170635670251
 30
0.0
 10
215.4671659489614
 20
132.5876379224761
 30
0.0
 10
215.5248932872446
 20
132.3849167402113
 30
0.0
 10
215.5499727614096
 20
132.323126630362
 30
0.0
 10
215.5557833450056
 20
132.3088106763543
 30
0.0
  0
SPLINE
  5
F1
330
1F
100
AcDbEntity
  8
0
  6
Continuous
 62
     7
370
    25
100
AcDbSpline
210
0.0
220
0.0
230
1.0
 70
     8
 71
     3
 72
    18
 73
    14
 74
     0
 42
0.00000001
 43
0.00000001
 40
0.0
 40
0.0
 40
0.0
 40
0.0
 40
0.0014404414457868
 40
0.0420076643503884
 40
0.1469159975367615
 40
0.3012652137802801
 40
0.4817968100953733
 40
0.6611640222757061
 40
0.8122025832571703
 40
0.9121748171303563
 40
0.9472001088149236
 40
0.987767125849474
 40
1.0
 40
1.0
 40
1.0
 40
1.0
 10
216.9383428828932
 20
128.9798679825844
 30
0.0
 10
216.9386248655481
 20
128.9778797098753
 30
0.0
 10
216.9468483395106
 20
128.9198956155956
 30
0.0
 10
216.6976783741884
 20
129.2536162358721
 30
0.0
 10
216.5782345524656
 20
129.4393890944802
 30
0.0
 10
216.2097040932501
 20
130.0128163906491
 30
0.0
 10
215.8581377375619
 20
130.5804737661409
 30
0.0
 10
215.5015842614169
 20
131.1625710988417
 30
0.0
 10
215.1565883529092
 20
131.6814663910226
 30
0.0
 10
215.0082520443798
 20
131.9414882263492
 30
0.0
 10
214.7608059792449
 20
132.212059038938
 30
0.0
 10
214.8185331395654
 20
132.0093388243121
 30
0.0
 10
214.8436130049299
 20
131.9475490997348
 30
0.0
 10
214.8494236009336
 20
131.9332334277214
 30
0.0
  0
SPLINE
  5
F2
330
1F
100
AcDbEntity
  8
0
  6
Continuous
 62
     7
370
    25
100
AcDbSpline
210
0.0
220
0.0
230
1.0
 70
     8
 71
     3
 72
    13
 73
     9
 74
     0
 42
0.00000001
 43
0.00000001
 40
0.0
 40
0.0
 40
0.0
 40
0.0
 40
0.0803293541603483
 40
0.4049807679239248
 40
0.6798480758957295
 40
0.8635320007172659
 40
0.930301596785482
 40
1.0
 40
1.0
 40
1.0
 40
1.0
 10
215.251024796269
 20
130.421391415316
 30
0.0
 10
215.2828785513744
 20
130.3703597213489
 30
0.0
 10
215.44346938817
 20
130.1130832272548
 30
0.0
 10
215.7012886597759
 20
129.6895571851871
 30
0.0
 10
216.048675948505
 20
129.1662289806633
 30
0.0
 10
216.2018576352275
 20
128.8989371061699
 30
0.0
 10
216.447906918479
 20
128.6279840378278
 30
0.0
 10
216.4064218375111
 20
128.7730025100541
 30
0.0
 10
216.3852341311193
 20
128.8470679027022
 30
0.0
  0
SPLINE
  5
F3
330
1F
100
AcDbEntity
  8
0
  6
Continuous
 62
     7
370
    25
100
AcDbSpline
210
0.0
220
0.0
230
1.0
 70
     8
 71
     3
 72
    17
 73
    13
 74
     0
 42
0.00000001
 43
0.00000001
 40
0.0
 40
0.0
 40
0.0
 40
0.0
 40
0.0001439459046791
 40
0.0393493548373089
 40
0.1441379139447726
 40
0.2997319675392914
 40
0.4826922189714427
 40
0.6653068006130637
 40
0.8199162595760647
 40
0.9232379387787257
 40
0.9607952551316197
 40
1.0
 40
1.0
 40
1.0
 40
1.0
 10
214.9793095724798
 20
132.2355230403126
 30
0.0
 10
214.9794809911731
 20
132.235608521091
 30
0.0
 10
215.0263403652299
 20
132.2589757261855
 30
0.0
 10
215.1525438942117
 20
131.9996886716173
 30
0.0
 10
215.3694924466318
 20
131.764364118693
 30
0.0
 10
215.6872962005745
 20
131.2208877599828
 30
0.0
 10
216.0547848854178
 20
130.6458074913388
 30
0.0
 10
216.4081378668496
 20
130.0641083113472
 30
0.0
 10
216.7549449638834
 20
129.5419708144395
 30
0.0
 10
216.9082223326436
 20
129.274504400921
 30
0.0
 10
217.1542656856893
 20
129.0035630471395
 30
0.0
 10
217.1127812513368
 20
129.1485803539173
 30
0.0
 10
217.0915938751913
 20
129.2226451513351
 30
0.0
  0
SPLINE
  5
F4
330
1F
100
AcDbEntity
  8
0
  6
Continuous
 62
     7
370
    25
100
AcDbSpline
210
0.0
220
0.0
230
1.0
 70
     8
 71
     3
 72
    18
 73
    14
 74
     0
 42
0.00000001
 43
0.00000001
 40
0.0
 40
0.0
 40
0.0
 40
0.0
 40
0.0001437621005379
 40
0.0388481064665726
 40
0.1422984511030422
 40
0.2959051918457057
 40
0.4765285978094734
 40
0.6568107490230116
 40
0.8094454707919018
 40
0.9114474819467734
 40
0.9485237401958208
 40
0.9872274460073105
 40
1.0
 40
1.0
 40
1.0
 40
1.0
 10
215.6856618659711
 20
132.611099357623
 30
0.0
 10
215.6858357704579
 20
132.6111848462398
 30
0.0
 10
215.7328291017584
 20
132.6342860034833
 30
0.0
 10
215.8587385959989
 20
132.3756109754187
 30
0.0
 10
216.0759449271803
 20
132.1397361806882
 30
0.0
 10
216.3936137892267
 20
131.5966232636279
 30
0.0
 10
216.7611902320782
 20
131.0209807271588
 30
0.0
 10
217.1143714095949
 20
130.4410176317906
 30
0.0
 10
217.4616364256695
 20
129.913999794971
 30
0.0
 10
217.6139926035902
 20
129.6563859887595
 30
0.0
 10
217.8613572074121
 20
129.3712624436132
 30
0.0
 10
217.8099898552892
 20
129.5714835897906
 30
0.0
 10
217.7854467351332
 20
129.6314580176771
 30
0.0
 10
217.7793569700933
 20
129.6463391807855
 30
0.0
  0
SPLINE
  5
F5
330
1F
100
AcDbEntity
  8
0
  6
Continuous
 62
     7
370
    25
100
AcDbSpline
210
0.0
220
0.0
230
1.0
 70
     8
 71
     3
 72
    17
 73
    13
 74
     0
 42
0.00000001
 43
0.00000001
 40
0.0
 40
0.0
 40
0.0
 40
0.0
 40
0.0001456220552034
 40
0.0393496743611511
 40
0.1441384312108461
 40
0.2997333045365884
 40
0.4826935666354014
 40
0.6653081589235312
 40
0.8199176269003304
 40
0.92323931212669
 40
0.960795252845966
 40
1.0
 40
1.0
 40
1.0
 40
1.0
 10
216.3920216100431
 20
132.9866775375785
 30
0.0
 10
216.3921955145438
 20
132.9867630262209
 30
0.0
 10
216.4391876096922
 20
133.0098635808443
 30
0.0
 10
216.5650862662413
 20
132.7511790090236
 30
0.0
 10
216.7822981486298
 20
132.5153290176916
 30
0.0
 10
217.0999826535053
 20
131.9721144640524
 30
0.0
 10
217.4675134939373
 20
131.3969413128228
 30
0.0
 10
217.8208560117459
 20
130.8152681231225
 30
0.0
 10
218.1676627407264
 20
130.2931227283592
 30
0.0
 10
218.3209447408056
 20
130.0256634329489
 30
0.0
 10
218.5669765113178
 20
129.7547178676469
 30
0.0
 10
218.5254931309122
 20
129.8997340804742
 30
0.0
 10
218.5043059127546
 20
129.9737996486009
 30
0.0
  0
LINE
  5
F6
330
1F
100
AcDbEntity
  8
0
  6
Continuous
 62
     7
370
    25
100
AcDbLine
 10
220.9384701984
 20
132.0927363885
 30
0.0
 11
220.5930165785
 21
131.9090562937
 31
0.0
  0
LINE
  5
F7
330
1F
100
AcDbEntity
  8
0
  6
Continuous
 62
     7
370
    25
100
AcDbLine
 10
219.9772409933
 20
133.9005396766
 30
0.0
 11
219.6594811814
 21
133.7315828604
 31
0.0
  0
SPLINE
  5
F8
330
1F
100
AcDbEntity
  8
0
  6
Continuous
 62
     7
370
    25
100
AcDbSpline
210
0.0
220
0.0
230
1.0
 70
     8
 71
     3
 72
    27
 73
    23
 74
     0
 42
0.00000001
 43
0.00000001
 40
0.0
 40
0.0
 40
0.0
 40
0.0
 40
0.0043869285969811
 40
0.0223808654092531
 40
0.0514064913646283
 40
0.0919183867006312
 40
0.1436093410250452
 40
0.2053556368299274
 40
0.2779313509571329
 40
0.3586657341580279
 40
0.4440850577611793
 40
0.5341837671491452
 40
0.617280311631577
 40
0.6999293913089735
 40
0.7698735307071277
 40
0.8348440868968673
 40
0.8889021021732019
 40
0.9344260305808355
 40
0.9685368749688493
 40
0.9907904158051922
 40
0.9993027719474004
 40
1.0
 40
1.0
 40
1.0
 40
1.0
 10
206.1368338601804
 20
96.2942668301047
 30
0.0
 10
206.1064408428185
 20
96.30769120486539
 30
0.0
 10
205.9513842888034
 20
96.3761785572534
 30
0.0
 10
205.5947213514972
 20
96.53232103915737
 30
0.0
 10
204.9858324560511
 20
96.79454239817461
 30
0.0
 10
204.1390836694816
 20
97.1496085378811
 30
0.0
 10
203.057822671755
 20
97.58606525745047
 30
0.0
 10
201.7421205989672
 20
98.09003554360635
 30
0.0
 10
200.20781212403
 20
98.63728615467569
 30
0.0
 10
198.4872838741114
 20
99.19419951510842
 30
0.0
 10
196.6199009608893
 20
99.72484042363799
 30
0.0
 10
194.713718423645
 20
100.1783916506183
 30
0.0
 10
192.8082600781116
 20
100.5355126849149
 30
0.0
 10
191.0389632326953
 20
100.7744364507244
 30
0.0
 10
189.3943244582246
 20
100.9106577301132
 30
0.0
 10
187.969339264934
 20
100.9612240726304
 30
0.0
 10
186.7053496588641
 20
100.9477964591889
 30
0.0
 10
185.7423925029331
 20
100.9059191690413
 30
0.0
 10
184.8535652098969
 20
100.8328619774209
 30
0.0
 10
184.5947980728786
 20
100.8105066290401
 30
0.0
 10
184.087587142823
 20
100.7535691835255
 30
0.0
 10
184.1625412872267
 20
100.7619850218484
 30
0.0
 10
184.1682158248639
 20
100.7626221579493
 30
0.0
  0
LINE
  5
F9
330
1F
100
AcDbEntity
  8
0
  6
Continuous
 62
     7
370
    25
100
AcDbLine
 10
207.1497402923
 20
96.2950044376
 30
0.0
 11
207.1497402923
 21
96.4783073467
 31
0.0
  0
LINE
  5
FA
330
1F
100
AcDbEntity
  8
0
  6
Continuous
 62
     7
370
    25
100
AcDbLine
 10
177.1497391002
 20
106.0323209566
 30
0.0
 11
177.1497391002
 21
136.5576886636
 31
0.0
  0
LINE
  5
FB
330
1F
100
AcDbEntity
  8
0
  6
Continuous
 62
     7
370
    25
100
AcDbLine
 10
156.4497388737
 20
107.7950053913
 30
0.0
 11
156.4497388737
 21
134.7950060916
 31
0.0
  0
LINE
  5
FC
330
1F
100
AcDbEntity
  8
0
  6
Continuous
 62
     7
370
    25
100
AcDbLine
 10
204.9204297202
 20
83.295006032
 30
0.0
 11
201.8790505665
 21
83.295006032
 31
0.0
  0
LINE
  5
FD
330
1F
100
AcDbEntity
  8
0
  6
Continuous
 62
     7
370
    25
100
AcDbLine
 10
198.1911174791
 20
83.295006032
 30
0.0
 11
192.1083591717
 21
83.295006032
 31
0.0
  0
LINE
  5
FE
330
1F
100
AcDbEntity
  8
0
  6
Continuous
 62
     7
370
    25
100
AcDbLine
 10
188.4204260843
 20
83.295006032
 30
0.0
 11
185.3790469306
 21
83.295006032
 31
0.0
  0
LWPOLYLINE
  5
FF
330
1F
100
AcDbEntity
  8
0
  6
Continuous
 62
     8
370
    25
100
AcDbPolyline
 90
       34
 70
   128
 43
0.0
 10
214.984860255
 20
98.5921674472
 10
214.9257473486
 20
98.7033450109
 10
214.7489376204
 20
99.0358718735
 10
214.456040396
 20
99.5867342752
 10
214.0497006314
 20
100.350945915
 10
213.533606364
 20
101.3215842721
 10
212.9124216573
 20
102.4898604554
 10
212.1917791503
 20
103.8451937092
 10
211.3781981008
 20
105.3753101331
 10
210.4790545838
 20
107.0663525787
 10
209.5024920838
 20
108.9030068432
 10
208.4573469894
 20
110.868639971
 10
207.353081538
 20
112.9454504297
 10
206.1997093098
 20
115.1146306255
 10
205.0076685684
 20
117.3565360549
 10
203.7877552049
 20
119.6508637694
 10
202.5510109799
 20
121.9768358459
 10
201.3086415665
 20
124.3133886782
 10
200.0719047921
 20
126.639360289
 10
198.8519839781
 20
128.9336883527
 10
197.6599432366
 20
131.1755941314
 10
196.5065710085
 20
133.3447747928
 10
195.4023130076
 20
135.4215850187
 10
194.3571679132
 20
137.3872176808
 10
193.3805979626
 20
139.2238714796
 10
192.4814544456
 20
140.9149148566
 10
191.6678808468
 20
142.4450294179
 10
190.9472383397
 20
143.8003645343
 10
190.326053633
 20
144.9686397863
 10
189.809951915
 20
145.9392790747
 10
189.403619601
 20
146.7034907144
 10
189.110714926
 20
147.2543531162
 10
188.9339126485
 20
147.5868799788
 10
188.8747922914
 20
147.6980556798
  0
SPLINE
  5
100
330
1F
100
AcDbEntity
  8
0
  6
Continuous
 62
     8
370
    25
100
AcDbSpline
210
0.0
220
0.0
230
1.0
 70
     8
 71
     3
 72
     9
 73
     5
 74
     0
 42
0.00000001
 43
0.00000001
 40
0.0
 40
0.0
 40
0.0
 40
0.0
 40
0.1879835989444264
 40
1.0
 40
1.0
 40
1.0
 40
1.0
 10
211.3024778502202
 20
118.2517592859448
 30
0.0
 10
211.3030077218213
 20
118.2567481562945
 30
0.0
 10
211.3058264336878
 20
118.2832870159487
 30
0.0
 10
211.2965526037071
 20
118.3089159422536
 30
0.0
 10
211.2890221016622
 20
118.3297270507545
 30
0.0
  0
SPLINE
  5
101
330
1F
100
AcDbEntity
  8
0
  6
Continuous
 62
     8
370
    25
100
AcDbSpline
210
0.0
220
0.0
230
1.0
 70
     8
 71
     3
 72
     9
 73
     5
 74
     0
 42
0.00000001
 43
0.00000001
 40
0.0
 40
0.0
 40
0.0
 40
0.0
 40
0.5340506358742142
 40
1.0
 40
1.0
 40
1.0
 40
1.0
 10
203.1709886925436
 20
133.5967292142094
 30
0.0
 10
203.1622238044367
 20
133.6079298703686
 30
0.0
 10
203.1458117125524
 20
133.6289028931621
 30
0.0
 10
203.1242327291069
 20
133.6444689536221
 30
0.0
 10
203.114178015492
 20
133.6517219495953
 30
0.0
  0
LINE
  5
102
330
1F
100
AcDbEntity
  8
0
  6
Continuous
 62
     8
370
    25
100
AcDbLine
 10
184.149738385
 20
84.2950043333
 30
0.0
 11
206.1497382658
 21
84.2950043333
 31
0.0
  0
LINE
  5
103
330
1F
100
AcDbEntity
  8
0
  6
Continuous
 62
     7
370
    25
100
AcDbLine
 10
51.692954186
 20
118.8950053946
 30
0.0
 11
103.5861847136
 21
118.8950053946
 31
0.0
  0
LINE
  5
104
330
1F
100
AcDbEntity
  8
0
  6
Continuous
 62
     7
370
    25
100
AcDbLine
 10
102.4919179414
 20
123.6950053898
 30
0.0
 11
51.692954186
 21
123.6950053898
 31
0.0
  0
LINE
  5
105
330
1F
100
AcDbEntity
  8
0
  6
Continuous
 62
     7
370
    25
100
AcDbLine
 10
51.692954186
 20
123.6950053898
 30
0.0
 11
50.3073101077
 21
121.2950052758
 31
0.0
  0
LINE
  5
106
330
1F
100
AcDbEntity
  8
0
  6
Continuous
 62
     7
370
    25
100
AcDbLine
 10
50.3073101077
 20
121.2950052758
 30
0.0
 11
51.692954186
 21
118.8950053946
 31
0.0
  0
LINE
  5
107
330
1F
100
AcDbEntity
  8
0
  6
Continuous
 62
     7
370
    25
100
AcDbLine
 10
51.692954186
 20
121.2950052758
 30
0.0
 11
51.692954186
 21
123.6950053898
 31
0.0
  0
LINE
  5
108
330
1F
100
AcDbEntity
  8
0
  6
Continuous
 62
     7
370
    25
100
AcDbLine
 10
51.692954186
 20
118.8950053946
 30
0.0
 11
51.692954186
 21
121.2950052758
 31
0.0
  0
POINT
  5
109
330
1F
100
AcDbEntity
  8
0
  6
Continuous
 62
     7
370
    18
100
AcDbPoint
 10
214.4757750729
 20
147.9365423011
 30
0.0
  0
DIMENSION
  5
10A
330
1F
100
AcDbEntity
  8
0
  6
Continuous
 62
     7
370
    18
100
AcDbDimension
  2
_D
 10
264.909496484
 20
83.2950053016
 30
0.0
 11
264.909496484
 21
115.6157738013
 31
0.0
 70
   160
  1
(<>)
 71
     2
 42
-1.0
  3
SLDDIMSTYLE0
100
AcDbAlignedDimension
 13
190.0469888598
 23
147.9365423011
 33
0.0
 14
206.1497380194
 24
83.2950053016
 34
0.0
 50
90.0
100
AcDbRotatedDimension
  0
DIMENSION
  5
11D
330
1F
100
AcDbEntity
  8
0
  6
Continuous
 62
     7
370
    18
100
AcDbDimension
  2
_D_1
 10
85.1367856077
 20
123.6950053016
 30
0.0
 11
85.1367856077
 21
145.5462634268
 31
0.0
 70
   160
  1
%%c<>
 71
     2
 42
-1.0
  3
SLDDIMSTYLE1
100
AcDbAlignedDimension
 13
51.6929510916
 23
118.8950053016
 33
0.0
 14
51.6929510916
 24
123.6950053016
 34
0.0
 50
90.0
100
AcDbRotatedDimension
  0
DIMENSION
  5
12E
330
1F
100
AcDbEntity
  8
0
  6
Continuous
 62
     7
370
    18
100
AcDbDimension
  2
_D_2
 10
156.4497380194
 20
171.3932572111
 30
0.0
 11
186.3600093266
 21
171.3932572111
 31
0.0
 70
   160
  1
(<>)
 71
     2
 42
-1.0
  3
SLDDIMSTYLE2
100
AcDbAlignedDimension
 13
216.2702806337
 23
101.7991691202
 33
0.0
 14
156.4497380194
 24
134.7950053016
 34
0.0
100
AcDbRotatedDimension
  0
DIMENSION
  5
13B
330
1F
100
AcDbEntity
  8
0
  6
Continuous
 62
     7
370
    18
100
AcDbDimension
  2
_D_3
 10
247.2493733313
 20
115.7475136149
 30
0.0
 11
234.1943410835
 21
140.3004582692
 31
0.0
 70
   160
  1
(%%c<>)
 71
     2
 42
-1.0
  3
SLDDIMSTYLE2
100
AcDbAlignedDimension
 13
188.8747954744
 23
147.6980568615
 33
0.0
 14
214.98485997
 24
98.5921675527
 34
0.0
 50
-62.0
100
AcDbRotatedDimension
  0
DIMENSION
  5
148
330
1F
100
AcDbEntity
  8
0
  6
Continuous
 62
     7
370
    18
100
AcDbDimension
  2
_D_4
 10
253.1053272996
 20
83.2950053016
 30
0.0
 11
253.1053272996
 21
80.2950053016
 31
0.0
 70
   160
  1
(<>)
 71
     2
 42
-1.0
  3
SLDDIMSTYLE1
100
AcDbAlignedDimension
 13
204.1497380194
 23
77.2950053016
 33
0.0
 14
206.1497380194
 24
83.2950053016
 34
0.0
 50
90.0
100
AcDbRotatedDimension
  0
DIMENSION
  5
156
330
1F
100
AcDbEntity
  8
0
  6
Continuous
 62
     7
370
    18
100
AcDbDimension
  2
_D_5
 10
253.1053272996
 20
83.2950053016
 30
0.0
 11
253.1053272996
 21
102.2950053016
 31
0.0
 70
   160
  1
(<>)
 71
     2
 42
-1.0
  3
SLDDIMSTYLE3
100
AcDbAlignedDimension
 13
225.8937552902
 23
121.2950053016
 33
0.0
 14
206.1497380194
 24
83.2950053016
 34
0.0
 50
90.0
100
AcDbRotatedDimension
  0
DIMENSION
  5
163
330
1F
100
AcDbEntity
  8
0
  6
Continuous
 62
     7
370
    18
100
AcDbDimension
  2
_D_6
 10
151.4497380194
 20
171.3932572111
 30
0.0
 11
95.0483555714
 21
171.3932572111
 31
0.0
 70
   160
  1
L1=100～1000
 71
     2
 42
-1.0
  3
SLDDIMSTYLE3
100
AcDbAlignedDimension
 13
50.3073104455
 23
121.2950053016
 33
0.0
 14
151.4497380194
 24
129.7950053016
 34
0.0
 50
0.0
100
AcDbRotatedDimension
  0
INSERT
  5
172
330
1F
100
AcDbEntity
  8
0
  6
Continuous
 62
     7
370
    18
100
AcDbBlockReference
  2
SW_NOTE_0_1
 10
160.7691466083
 20
149.5356795953
 30
0.0
  0
LEADER
  5
174
330
1F
100
AcDbEntity
  8
0
  6
Continuous
 62
     7
370
    18
100
AcDbLeader
  3
SLDDIMSTYLE4
 76
     2
 10
167.8108275133
 20
135.7950053016
 30
0.0
 10
160.7691466083
 20
149.5356795953
 30
0.0
  0
INSERT
  5
17A
330
1F
100
AcDbEntity
  8
0
  6
Continuous
 62
     7
370
    18
100
AcDbBlockReference
  2
SW_NOTE_0_2
 10
205.5175054705
 20
63.9776927244
 30
0.0
  0
LEADER
  5
17B
330
1F
100
AcDbEntity
  8
0
  6
Continuous
 62
     7
370
    18
100
AcDbLeader
  3
SLDDIMSTYLE4
 76
     2
 10
200.3643119151
 20
77.3280283853
 30
0.0
 10
205.5175054705
 20
63.9776927244
 30
0.0
  0
INSERT
  5
181
330
1F
100
AcDbEntity
  8
0
  6
Continuous
 62
     7
370
    18
100
AcDbBlockReference
  2
SW_NOTE_0_3
 10
189.5900184292
 20
63.9776927244
 30
0.0
  0
LEADER
  5
182
330
1F
100
AcDbEntity
  8
0
  6
Continuous
 62
     7
370
    18
100
AcDbLeader
  3
SLDDIMSTYLE4
 76
     2
 10
194.733456848
 20
77.1329709221
 30
0.0
 10
189.5900184292
 20
63.9776927244
 30
0.0
  0
INSERT
  5
188
330
1F
100
AcDbEntity
  8
0
  6
Continuous
 62
     7
370
    18
100
AcDbBlockReference
  2
SW_NOTE_0_4
 10
142.1450070988
 20
138.5947605581
 30
0.0
  0
LEADER
  5
189
330
1F
100
AcDbEntity
  8
0
  6
Continuous
 62
     7
370
    18
100
AcDbLeader
  3
SLDDIMSTYLE4
 76
     2
 10
151.4497380194
 20
123.832938346
 30
0.0
 10
142.1450070988
 20
138.5947605581
 30
0.0
  0
INSERT
  5
18F
330
1F
100
AcDbEntity
  8
0
  6
Continuous
 62
     7
370
    18
100
AcDbBlockReference
  2
SW_NOTE_0_5
 10
124.3358862144
 20
97.3474957878
 30
0.0
  0
LEADER
  5
190
330
1F
100
AcDbEntity
  8
0
  6
Continuous
 62
     7
370
    18
100
AcDbLeader
  3
SLDDIMSTYLE4
 76
     2
 10
117.3573816795
 20
118.8950053016
 30
0.0
 10
124.3358862144
 20
97.3474957878
 30
0.0
  0
INSERT
  5
196
330
1F
100
AcDbEntity
  8
0
  6
Continuous
 62
     7
370
    18
100
AcDbBlockReference
  2
SW_NOTE_0_6
 10
40.966083151
 20
97.3474957878
 30
0.0
  0
LEADER
  5
197
330
1F
100
AcDbEntity
  8
0
  6
Continuous
 62
     7
370
    18
100
AcDbLeader
  3
SLDDIMSTYLE4
 76
     2
 10
50.8907245582
 20
120.2845024165
 30
0.0
 10
40.966083151
 20
97.3474957878
 30
0.0
  0
MTEXT
  5
198
330
1F
100
AcDbEntity
  8
0
  6
Continuous
 62
     7
370
    18
100
AcDbMText
 10
124.1365213118
 20
96.4009084527
 30
0.0
 40
2.6458333333
 41
0.0
 71
     1
 72
     1
  1
(SUS304)
  7
SLDTEXTSTYLE0
 73
     1
 44
1.0
  0
INSERT
  5
19F
330
1F
100
AcDbEntity
  8
0
  6
Continuous
 62
     7
370
    18
100
AcDbBlockReference
  2
SW_NOTE_0_7
 10
41.4328311913
 20
93.322120574
 30
0.0
  0
ARC
  5
1A0
330
1F
100
AcDbEntity
  8
0
  6
HIDDEN
 62
     7
370
    18
100
AcDbCircle
 10
109.7290495378
 20
124.0825053016
 30
0.0
 40
7.247499999999996
100
AcDbArc
 50
157.380135052
 51
202.619864948
  0
ARC
  5
1A1
330
1F
100
AcDbEntity
  8
0
  6
HIDDEN
 62
     7
370
    18
100
AcDbCircle
 10
96.3490495378
 20
118.5075053016
 30
0.0
 40
7.247500000000007
100
AcDbArc
 50
337.380135052
 51
22.619864948
  0
ARC
  5
1A2
330
1F
100
AcDbEntity
  8
0
  6
HIDDEN
 62
     7
370
    18
100
AcDbCircle
 10
112.7290495378
 20
124.0825053016
 30
0.0
 40
7.247500000000009
100
AcDbArc
 50
157.380135052
 51
202.619864948
  0
ARC
  5
1A3
330
1F
100
AcDbEntity
  8
0
  6
HIDDEN
 62
     7
370
    18
100
AcDbCircle
 10
99.3490495378
 20
118.5075053016
 30
0.0
 40
7.247500000000007
100
AcDbArc
 50
337.380135052
 51
22.619864948
  0
LINE
  5
1A4
330
1F
100
AcDbEntity
  8
0
  6
CENTERX2
 62
     7
370
    18
100
AcDbLine
 10
103.0390513275
 20
121.2950052758
 30
0.0
 11
46.4160432253
 21
121.2950052758
 31
0.0
  0
LINE
  5
1A5
330
1F
100
AcDbEntity
  8
0
  6
CENTERX2
 62
     7
370
    18
100
AcDbLine
 10
225.8937544959
 20
121.2950052758
 30
0.0
 11
106.0390490877
 21
121.2950052758
 31
0.0
  0
LINE
  5
1A6
330
1F
100
AcDbEntity
  8
0
  6
CENTERX2
 62
     7
370
    18
100
AcDbLine
 10
195.1497383254
 20
85.2950044972
 30
0.0
 11
195.1497383254
 21
76.2950067473
 31
0.0
  0
ENDSEC
  0
SECTION
  2
OBJECTS
  0
DICTIONARY
  5
C
330
0
100
AcDbDictionary
281
     1
  3
ACAD_GROUP
350
D
  3
ACAD_LAYOUT
350
1A
  3
ACAD_MLINESTYLE
350
17
  3
ACAD_PLOTSETTINGS
350
19
  3
ACAD_PLOTSTYLENAME
350
E
  3
ACAD_SCALELIST
350
47
  3
DWGPROPS
350
1A7
  0
DICTIONARY
  5
D
102
{ACAD_REACTORS
330
C
102
}
330
C
100
AcDbDictionary
281
     1
  0
DICTIONARY
  5
1A
102
{ACAD_REACTORS
330
C
102
}
330
C
100
AcDbDictionary
281
     1
  3
Layout1
350
1E
  3
Layout2
350
26
  3
Model
350
22
  0
DICTIONARY
  5
17
102
{ACAD_REACTORS
330
C
102
}
330
C
100
AcDbDictionary
281
     1
  3
Standard
350
18
  0
DICTIONARY
  5
19
102
{ACAD_REACTORS
330
C
102
}
330
C
100
AcDbDictionary
281
     1
  0
ACDBDICTIONARYWDFLT
  5
E
102
{ACAD_REACTORS
330
C
102
}
330
C
100
AcDbDictionary
281
     1
  3
Normal
350
F
100
AcDbDictionaryWithDefault
340
F
  0
DICTIONARY
  5
47
102
{ACAD_REACTORS
330
C
102
}
330
C
100
AcDbDictionary
281
     1
  3
A0
350
48
  3
A1
350
49
  3
A2
350
4A
  3
A3
350
4B
  3
A4
350
4C
  3
A5
350
4D
  3
A6
350
4E
  3
A7
350
4F
  3
A8
350
50
  3
A9
350
51
  3
B0
350
52
  3
B1
350
53
  3
B2
350
54
  3
B3
350
55
  3
B4
350
56
  3
B5
350
57
  3
B6
350
58
  3
B7
350
59
  3
B8
350
5A
  3
B9
350
5B
  3
C0
350
5C
  3
C1
350
5D
  3
C2
350
5E
  3
C3
350
5F
  3
C4
350
60
  3
C5
350
61
  3
C6
350
62
  3
C7
350
63
  3
C8
350
64
  3
C9
350
65
  3
D0
350
66
  3
D1
350
67
  3
D2
350
68
  0
XRECORD
  5
1A7
102
{ACAD_REACTORS
330
C
102
}
330
C
100
AcDbXrecord
280
     1
  1
DWGPROPS COOKIE
  2

  3

  4

  6

  7

  8
p870382
  9

300
=
301
=
302
=
303
=
304
=
305
=
306
=
307
=
308
=
309
=
 40
0.0
 41
2460656.323662685
 42
2460656.32366485
  1

 90
        0
  0
LAYOUT
  5
1E
102
{ACAD_REACTORS
330
1A
102
}
330
1A
100
AcDbPlotSettings
  1

  2
none_device
  4

  6

 40
0.0
 41
0.0
 42
0.0
 43
0.0
 44
0.0
 45
0.0
 46
0.0
 47
0.0
 48
0.0
 49
0.0
140
0.0
141
0.0
142
1.0
143
1.0
 70
   688
 72
     1
 73
     0
 74
     5
  7

 75
    16
147
1.0
148
0.0
149
0.0
100
AcDbLayout
  1
Layout1
 70
     1
 71
     1
 10
0.0
 20
0.0
 11
420.0
 21
297.0
 12
0.0
 22
0.0
 32
0.0
 14
1.0000000000E+20
 24
1.0000000000E+20
 34
1.0000000000E+20
 15
-1.0000000000E+20
 25
-1.0000000000E+20
 35
-1.0000000000E+20
146
0.0
 13
0.0
 23
0.0
 33
0.0
 16
1.0
 26
0.0
 36
0.0
 17
0.0
 27
1.0
 37
0.0
 76
     0
330
1B
  0
LAYOUT
  5
26
102
{ACAD_REACTORS
330
1A
102
}
330
1A
100
AcDbPlotSettings
  1

  2
none_device
  4

  6

 40
0.0
 41
0.0
 42
0.0
 43
0.0
 44
0.0
 45
0.0
 46
0.0
 47
0.0
 48
0.0
 49
0.0
140
0.0
141
0.0
142
1.0
143
1.0
 70
   688
 72
     1
 73
     0
 74
     5
  7

 75
    16
147
1.0
148
0.0
149
0.0
100
AcDbLayout
  1
Layout2
 70
     1
 71
     2
 10
0.0
 20
0.0
 11
0.0
 21
0.0
 12
0.0
 22
0.0
 32
0.0
 14
0.0
 24
0.0
 34
0.0
 15
0.0
 25
0.0
 35
0.0
146
0.0
 13
0.0
 23
0.0
 33
0.0
 16
1.0
 26
0.0
 36
0.0
 17
0.0
 27
1.0
 37
0.0
 76
     0
330
23
  0
LAYOUT
  5
22
102
{ACAD_REACTORS
330
1A
102
}
330
1A
100
AcDbPlotSettings
  1

  2
none_device
  4
Letter_(8.50_x_11.00_Inches)
  6

 40
6.35
 41
6.35
 42
6.35000508
 43
6.35000508
 44
215.9
 45
279.4
 46
0.0
 47
0.0
 48
0.0
 49
0.0
140
0.0
141
0.0
142
1.0
143
1.0
 70
  1712
 72
     1
 73
     0
 74
     0
  7

 75
     0
147
1.0
148
0.0
149
0.0
100
AcDbLayout
  1
Model
 70
     1
 71
     0
 10
0.0
 20
0.0
 11
297.0
 21
210.0
 12
0.0
 22
0.0
 32
0.0
 14
0.0
 24
0.0
 34
0.0
 15
297.0
 25
210.0
 35
0.0
146
0.0
 13
0.0
 23
0.0
 33
0.0
 16
1.0
 26
0.0
 36
0.0
 17
0.0
 27
1.0
 37
0.0
 76
     0
330
1F
331
29
  0
MLINESTYLE
  5
18
102
{ACAD_REACTORS
330
17
102
}
330
17
100
AcDbMlineStyle
  2
Standard
 70
     0
  3

 62
   256
 51
90.0
 52
90.0
 71
     2
 49
0.5
 62
   256
  6
BYLAYER
 49
-0.5
 62
   256
  6
BYLAYER
  0
ACDBPLACEHOLDER
  5
F
102
{ACAD_REACTORS
330
E
102
}
330
E
  0
SCALE
  5
48
102
{ACAD_REACTORS
330
47
102
}
330
47
100
AcDbScale
 70
     0
300
1:1
140
1.0
141
1.0
290
     1
  0
SCALE
  5
49
102
{ACAD_REACTORS
330
47
102
}
330
47
100
AcDbScale
 70
     0
300
1:2
140
1.0
141
2.0
290
     0
  0
SCALE
  5
4A
102
{ACAD_REACTORS
330
47
102
}
330
47
100
AcDbScale
 70
     0
300
1:4
140
1.0
141
4.0
290
     0
  0
SCALE
  5
4B
102
{ACAD_REACTORS
330
47
102
}
330
47
100
AcDbScale
 70
     0
300
1:5
140
1.0
141
5.0
290
     0
  0
SCALE
  5
4C
102
{ACAD_REACTORS
330
47
102
}
330
47
100
AcDbScale
 70
     0
300
1:8
140
1.0
141
8.0
290
     0
  0
SCALE
  5
4D
102
{ACAD_REACTORS
330
47
102
}
330
47
100
AcDbScale
 70
     0
300
1:10
140
1.0
141
10.0
290
     0
  0
SCALE
  5
4E
102
{ACAD_REACTORS
330
47
102
}
330
47
100
AcDbScale
 70
     0
300
1:16
140
1.0
141
16.0
290
     0
  0
SCALE
  5
4F
102
{ACAD_REACTORS
330
47
102
}
330
47
100
AcDbScale
 70
     0
300
1:20
140
1.0
141
20.0
290
     0
  0
SCALE
  5
50
102
{ACAD_REACTORS
330
47
102
}
330
47
100
AcDbScale
 70
     0
300
1:30
140
1.0
141
30.0
290
     0
  0
SCALE
  5
51
102
{ACAD_REACTORS
330
47
102
}
330
47
100
AcDbScale
 70
     0
300
1:40
140
1.0
141
40.0
290
     0
  0
SCALE
  5
52
102
{ACAD_REACTORS
330
47
102
}
330
47
100
AcDbScale
 70
     0
300
1:50
140
1.0
141
50.0
290
     0
  0
SCALE
  5
53
102
{ACAD_REACTORS
330
47
102
}
330
47
100
AcDbScale
 70
     0
300
1:100
140
1.0
141
100.0
290
     0
  0
SCALE
  5
54
102
{ACAD_REACTORS
330
47
102
}
330
47
100
AcDbScale
 70
     0
300
2:1
140
2.0
141
1.0
290
     0
  0
SCALE
  5
55
102
{ACAD_REACTORS
330
47
102
}
330
47
100
AcDbScale
 70
     0
300
4:1
140
4.0
141
1.0
290
     0
  0
SCALE
  5
56
102
{ACAD_REACTORS
330
47
102
}
330
47
100
AcDbScale
 70
     0
300
8:1
140
8.0
141
1.0
290
     0
  0
SCALE
  5
57
102
{ACAD_REACTORS
330
47
102
}
330
47
100
AcDbScale
 70
     0
300
10:1
140
10.0
141
1.0
290
     0
  0
SCALE
  5
58
102
{ACAD_REACTORS
330
47
102
}
330
47
100
AcDbScale
 70
     0
300
100:1
140
100.0
141
1.0
290
     0
  0
SCALE
  5
59
102
{ACAD_REACTORS
330
47
102
}
330
47
100
AcDbScale
 70
     0
300
1/128" = 1'-0"
140
0.0078125
141
12.0
290
     0
  0
SCALE
  5
5A
102
{ACAD_REACTORS
330
47
102
}
330
47
100
AcDbScale
 70
     0
300
1/64" = 1'-0"
140
0.015625
141
12.0
290
     0
  0
SCALE
  5
5B
102
{ACAD_REACTORS
330
47
102
}
330
47
100
AcDbScale
 70
     0
300
1/32" = 1'-0"
140
0.03125
141
12.0
290
     0
  0
SCALE
  5
5C
102
{ACAD_REACTORS
330
47
102
}
330
47
100
AcDbScale
 70
     0
300
1/16" = 1'-0"
140
0.0625
141
12.0
290
     0
  0
SCALE
  5
5D
102
{ACAD_REACTORS
330
47
102
}
330
47
100
AcDbScale
 70
     0
300
3/32" = 1'-0"
140
0.09375
141
12.0
290
     0
  0
SCALE
  5
5E
102
{ACAD_REACTORS
330
47
102
}
330
47
100
AcDbScale
 70
     0
300
1/8" = 1'-0"
140
0.125
141
12.0
290
     0
  0
SCALE
  5
5F
102
{ACAD_REACTORS
330
47
102
}
330
47
100
AcDbScale
 70
     0
300
3/16" = 1'-0"
140
0.1875
141
12.0
290
     0
  0
SCALE
  5
60
102
{ACAD_REACTORS
330
47
102
}
330
47
100
AcDbScale
 70
     0
300
1/4" = 1'-0"
140
0.25
141
12.0
290
     0
  0
SCALE
  5
61
102
{ACAD_REACTORS
330
47
102
}
330
47
100
AcDbScale
 70
     0
300
3/8" = 1'-0"
140
0.375
141
12.0
290
     0
  0
SCALE
  5
62
102
{ACAD_REACTORS
330
47
102
}
330
47
100
AcDbScale
 70
     0
300
1/2" = 1'-0"
140
0.5
141
12.0
290
     0
  0
SCALE
  5
63
102
{ACAD_REACTORS
330
47
102
}
330
47
100
AcDbScale
 70
     0
300
3/4" = 1'-0"
140
0.75
141
12.0
290
     0
  0
SCALE
  5
64
102
{ACAD_REACTORS
330
47
102
}
330
47
100
AcDbScale
 70
     0
300
1" = 1'-0"
140
1.0
141
12.0
290
     0
  0
SCALE
  5
65
102
{ACAD_REACTORS
330
47
102
}
330
47
100
AcDbScale
 70
     0
300
1-1/2" = 1'-0"
140
1.5
141
12.0
290
     0
  0
SCALE
  5
66
102
{ACAD_REACTORS
330
47
102
}
330
47
100
AcDbScale
 70
     0
300
3" = 1'-0"
140
3.0
141
12.0
290
     0
  0
SCALE
  5
67
102
{ACAD_REACTORS
330
47
102
}
330
47
100
AcDbScale
 70
     0
300
6" = 1'-0"
140
6.0
141
12.0
290
     0
  0
SCALE
  5
68
102
{ACAD_REACTORS
330
47
102
}
330
47
100
AcDbScale
 70
     0
300
1'-0" = 1'-0"
140
12.0
141
12.0
290
     0
  0
ENDSEC
  0
EOF
