  0
SECTION
  2
HEADER
  9
$ACADVER
  1
AC1015
  9
$ACADMAINTVER
 70
     6
  9
$DWGCODEPAGE
  3
DOS932
  9
$INSBASE
 10
0.0
 20
0.0
 30
0.0
  9
$EXTMIN
 10
0.0
 20
0.0
 30
0.0
  9
$EXTMAX
 10
297.0
 20
210.0
 30
0.0
  9
$LIMMIN
 10
0.0
 20
0.0
  9
$LIMMAX
 10
297.0
 20
210.0
  9
$ORTHOMODE
 70
     0
  9
$REGENMODE
 70
     1
  9
$FILLMODE
 70
     1
  9
$QTEXTMODE
 70
     0
  9
$MIRRTEXT
 70
     1
  9
$LTSCALE
 40
1.0
  9
$ATTMODE
 70
     1
  9
$TEXTSIZE
 40
3.5277777778
  9
$TRACEWID
 40
1.0
  9
$TEXTSTYLE
  7
STANDARD
  9
$CLAYER
  8
0
  9
$CELTYPE
  6
ByLayer
  9
$CECOLOR
 62
   256
  9
$CELTSCALE
 40
1.0
  9
$DISPSILH
 70
     0
  9
$DIMSCALE
 40
1.0
  9
$DIMASZ
 40
3.0
  9
$DIMEXO
 40
1.0
  9
$DIMDLI
 40
3.75
  9
$DIMRND
 40
0.0
  9
$DIMDLE
 40
0.0
  9
$DIMEXE
 40
1.0
  9
$DIMTP
 40
0.0
  9
$DIMTM
 40
0.0
  9
$DIMTXT
 40
3.5277777778
  9
$DIMCEN
 40
2.5
  9
$DIMTSZ
 40
0.0
  9
$DIMTOL
 70
     0
  9
$DIMLIM
 70
     0
  9
$DIMTIH
 70
     1
  9
$DIMTOH
 70
     1
  9
$DIMSE1
 70
     0
  9
$DIMSE2
 70
     0
  9
$DIMTAD
 70
     1
  9
$DIMZIN
 70
     0
  9
$DIMBLK
  1

  9
$DIMASO
 70
     1
  9
$DIMSHO
 70
     1
  9
$DIMPOST
  1

  9
$DIMAPOST
  1

  9
$DIMALT
 70
     0
  9
$DIMALTD
 70
     3
  9
$DIMALTF
 40
0.0393700787
  9
$DIMLFAC
 40
5.0
  9
$DIMTOFL
 70
     1
  9
$DIMTVP
 40
0.0
  9
$DIMTIX
 70
     0
  9
$DIMSOXD
 70
     0
  9
$DIMSAH
 70
     0
  9
$DIMBLK1
  1

  9
$DIMBLK2
  1

  9
$DIMSTYLE
  2
ISO-25
  9
$DIMCLRD
 70
     0
  9
$DIMCLRE
 70
     0
  9
$DIMCLRT
 70
     0
  9
$DIMTFAC
 40
1.0
  9
$DIMGAP
 40
1.524
  9
$DIMJUST
 70
     0
  9
$DIMSD1
 70
     0
  9
$DIMSD2
 70
     0
  9
$DIMTOLJ
 70
     0
  9
$DIMTZIN
 70
     0
  9
$DIMALTZ
 70
     0
  9
$DIMALTTZ
 70
     0
  9
$DIMUPT
 70
     0
  9
$DIMDEC
 70
     2
  9
$DIMTDEC
 70
     2
  9
$DIMALTU
 70
     2
  9
$DIMALTTD
 70
     3
  9
$DIMTXSTY
  7
STANDARD
  9
$DIMAUNIT
 70
     0
  9
$DIMADEC
 70
     2
  9
$DIMALTRND
 40
0.0
  9
$DIMAZIN
 70
     0
  9
$DIMDSEP
 70
    44
  9
$DIMATFIT
 70
     3
  9
$DIMFRAC
 70
     0
  9
$DIMLDRBLK
  1

  9
$DIMLUNIT
 70
     2
  9
$DIMLWD
 70
    -2
  9
$DIMLWE
 70
    -2
  9
$DIMTMOVE
 70
     0
  9
$LUNITS
 70
     2
  9
$LUPREC
 70
     2
  9
$SKETCHINC
 40
1.0
  9
$FILLETRAD
 40
10.0
  9
$AUNITS
 70
     0
  9
$AUPREC
 70
     2
  9
$MENU
  1
.
  9
$ELEVATION
 40
0.0
  9
$PELEVATION
 40
0.0
  9
$THICKNESS
 40
0.0
  9
$LIMCHECK
 70
     0
  9
$CHAMFERA
 40
0.0
  9
$CHAMFERB
 40
0.0
  9
$CHAMFERC
 40
0.0
  9
$CHAMFERD
 40
0.0
  9
$SKPOLY
 70
     0
  9
$TDCREATE
 40
2460656.640115614
  9
$TDUCREATE
 40
2460656.265115614
  9
$TDUPDATE
 40
2460656.640117558
  9
$TDUUPDATE
 40
2460656.265117558
  9
$TDINDWG
 40
0.0000000116
  9
$TDUSRTIMER
 40
0.0000000116
  9
$USRTIMER
 70
     1
  9
$ANGBASE
 50
0.0
  9
$ANGDIR
 70
     0
  9
$PDMODE
 70
     0
  9
$PDSIZE
 40
-1.0
  9
$PLINEWID
 40
0.0
  9
$SPLFRAME
 70
     0
  9
$SPLINETYPE
 70
     6
  9
$SPLINESEGS
 70
     8
  9
$HANDSEED
  5
1A0
  9
$SURFTAB1
 70
     6
  9
$SURFTAB2
 70
     6
  9
$SURFTYPE
 70
     6
  9
$SURFU
 70
     6
  9
$SURFV
 70
     6
  9
$UCSBASE
  2

  9
$UCSNAME
  2

  9
$UCSORG
 10
0.0
 20
0.0
 30
0.0
  9
$UCSXDIR
 10
1.0
 20
0.0
 30
0.0
  9
$UCSYDIR
 10
0.0
 20
1.0
 30
0.0
  9
$UCSORTHOREF
  2

  9
$UCSORTHOVIEW
 70
     0
  9
$UCSORGTOP
 10
0.0
 20
0.0
 30
0.0
  9
$UCSORGBOTTOM
 10
0.0
 20
0.0
 30
0.0
  9
$UCSORGLEFT
 10
0.0
 20
0.0
 30
0.0
  9
$UCSORGRIGHT
 10
0.0
 20
0.0
 30
0.0
  9
$UCSORGFRONT
 10
0.0
 20
0.0
 30
0.0
  9
$UCSORGBACK
 10
0.0
 20
0.0
 30
0.0
  9
$PUCSBASE
  2

  9
$PUCSNAME
  2

  9
$PUCSORG
 10
0.0
 20
0.0
 30
0.0
  9
$PUCSXDIR
 10
1.0
 20
0.0
 30
0.0
  9
$PUCSYDIR
 10
0.0
 20
1.0
 30
0.0
  9
$PUCSORTHOREF
  2

  9
$PUCSORTHOVIEW
 70
     0
  9
$PUCSORGTOP
 10
0.0
 20
0.0
 30
0.0
  9
$PUCSORGBOTTOM
 10
0.0
 20
0.0
 30
0.0
  9
$PUCSORGLEFT
 10
0.0
 20
0.0
 30
0.0
  9
$PUCSORGRIGHT
 10
0.0
 20
0.0
 30
0.0
  9
$PUCSORGFRONT
 10
0.0
 20
0.0
 30
0.0
  9
$PUCSORGBACK
 10
0.0
 20
0.0
 30
0.0
  9
$USERI1
 70
     0
  9
$USERI2
 70
     0
  9
$USERI3
 70
     0
  9
$USERI4
 70
     0
  9
$USERI5
 70
     0
  9
$USERR1
 40
0.0
  9
$USERR2
 40
0.0
  9
$USERR3
 40
0.0
  9
$USERR4
 40
0.0
  9
$USERR5
 40
0.0
  9
$WORLDVIEW
 70
     1
  9
$SHADEDGE
 70
     3
  9
$SHADEDIF
 70
    70
  9
$TILEMODE
 70
     1
  9
$MAXACTVP
 70
    64
  9
$PINSBASE
 10
0.0
 20
0.0
 30
0.0
  9
$PLIMCHECK
 70
     0
  9
$PEXTMIN
 10
1.0000000000E+20
 20
1.0000000000E+20
 30
1.0000000000E+20
  9
$PEXTMAX
 10
-1.0000000000E+20
 20
-1.0000000000E+20
 30
-1.0000000000E+20
  9
$PLIMMIN
 10
0.0
 20
0.0
  9
$PLIMMAX
 10
420.0
 20
297.0
  9
$UNITMODE
 70
     0
  9
$VISRETAIN
 70
     1
  9
$PLINEGEN
 70
     0
  9
$PSLTSCALE
 70
     1
  9
$TREEDEPTH
 70
  3020
  9
$CMLSTYLE
  2
Standard
  9
$CMLJUST
 70
     0
  9
$CMLSCALE
 40
20.0
  9
$PROXYGRAPHICS
 70
     1
  9
$MEASUREMENT
 70
     1
  9
$CELWEIGHT
370
    -1
  9
$ENDCAPS
280
     0
  9
$JOINSTYLE
280
     0
  9
$LWDISPLAY
290
     1
  9
$INSUNITS
 70
     4
  9
$HYPERLINKBASE
  1

  9
$STYLESHEET
  1

  9
$XEDIT
290
     1
  9
$CEPSNTYPE
380
     0
  9
$PSTYLEMODE
290
     1
  9
$FINGERPRINTGUID
  2
{8d03746c-42a5-40a4-b115-bdc0a594534b}
  9
$VERSIONGUID
  2
{FAEB1C32-E019-11D5-929B-00C0DF256EC4}
  9
$EXTNAMES
290
     1
  9
$PSVPSCALE
 40
0.0
  9
$OLESTARTUP
290
     0
  0
ENDSEC
  0
SECTION
  2
CLASSES
  0
CLASS
  1
ACDBDICTIONARYWDFLT
  2
AcDbDictionaryWithDefault
  3
ObjectDBX Classes
 90
        0
280
     0
281
     0
  0
CLASS
  1
VISUALSTYLE
  2
AcDbVisualStyle
  3
ObjectDBX Classes
 90
     4095
280
     0
281
     0
  0
CLASS
  1
MATERIAL
  2
AcDbMaterial
  3
ObjectDBX Classes
 90
     1153
280
     0
281
     0
  0
CLASS
  1
SCALE
  2
AcDbScale
  3
ObjectDBX Classes
 90
     1153
280
     0
281
     0
  0
CLASS
  1
TABLESTYLE
  2
AcDbTableStyle
  3
ObjectDBX Classes
 90
     4095
280
     0
281
     0
  0
CLASS
  1
MLEADERSTYLE
  2
AcDbMLeaderStyle
  3
ACDB_MLEADERSTYLE_CLASS
 90
     4095
280
     0
281
     0
  0
CLASS
  1
SUN
  2
AcDbSun
  3
SCENEOE
 90
     1153
280
     0
281
     0
  0
CLASS
  1
ACDBPLACEHOLDER
  2
AcDbPlaceHolder
  3
ObjectDBX Classes
 90
        0
280
     0
281
     0
  0
CLASS
  1
LAYOUT
  2
AcDbLayout
  3
ObjectDBX Classes
 90
        0
280
     0
281
     0
  0
ENDSEC
  0
SECTION
  2
TABLES
  0
TABLE
  2
VPORT
  5
8
330
0
100
AcDbSymbolTable
 70
     1
  0
VPORT
  5
29
330
8
100
AcDbSymbolTableRecord
100
AcDbViewportTableRecord
  2
*Active
 70
     0
 10
0.0
 20
0.0
 11
1.0
 21
1.0
 12
148.5
 22
105.0
 13
0.0
 23
0.0
 14
10.0
 24
10.0
 15
10.0
 25
10.0
 16
0.0
 26
0.0
 36
1.0
 17
0.0
 27
0.0
 37
0.0
 40
210.0
 41
1.4142857143
 42
50.0
 43
0.0
 44
0.0
 50
0.0
 51
0.0
 71
     0
 72
  2000
 73
     1
 74
     3
 75
     0
 76
     0
 77
     0
 78
     0
281
     0
 65
     1
110
0.0
120
0.0
130
0.0
111
1.0
121
0.0
131
0.0
112
0.0
122
1.0
132
0.0
 79
     0
146
0.0
  0
ENDTAB
  0
TABLE
  2
LTYPE
  5
5
330
0
100
AcDbSymbolTable
 70
     6
  0
LTYPE
  5
14
330
5
100
AcDbSymbolTableRecord
100
AcDbLinetypeTableRecord
  2
ByBlock
 70
     0
  3

 72
    65
 73
     0
 40
0.0
  0
LTYPE
  5
15
330
5
100
AcDbSymbolTableRecord
100
AcDbLinetypeTableRecord
  2
ByLayer
 70
     0
  3

 72
    65
 73
     0
 40
0.0
  0
LTYPE
  5
16
330
5
100
AcDbSymbolTableRecord
100
AcDbLinetypeTableRecord
  2
Continuous
 70
     0
  3
Solid line
 72
    65
 73
     0
 40
0.0
  0
LTYPE
  5
6E
330
5
100
AcDbSymbolTableRecord
100
AcDbLinetypeTableRecord
  2
HIDDEN
 70
     0
  3
Hidden __ __ __ __ __ __ __ __ __ __ __ __ __ __
 72
    65
 73
     2
 40
1.905
 49
1.27
 74
     0
 49
-0.635
 74
     0
  0
LTYPE
  5
6F
330
5
100
AcDbSymbolTableRecord
100
AcDbLinetypeTableRecord
  2
PHANTOM
 70
     0
  3
Phantom ______  __  __  ______  __  __  ______
 72
    65
 73
     6
 40
12.7
 49
6.35
 74
     0
 49
-1.27
 74
     0
 49
1.27
 74
     0
 49
-1.27
 74
     0
 49
1.27
 74
     0
 49
-1.27
 74
     0
  0
LTYPE
  5
70
330
5
100
AcDbSymbolTableRecord
100
AcDbLinetypeTableRecord
  2
CENTER
 70
     0
  3
Center ____ _ ____ _ ____ _ ____ _ ____ _ ____
 72
    65
 73
     4
 40
10.16
 49
6.35
 74
     0
 49
-1.27
 74
     0
 49
1.27
 74
     0
 49
-1.27
 74
     0
  0
LTYPE
  5
71
330
5
100
AcDbSymbolTableRecord
100
AcDbLinetypeTableRecord
  2
CENTERX2
 70
     0
  3
Center (2x) ________  __  ________  __  _____
 72
    65
 73
     4
 40
20.32
 49
12.7
 74
     0
 49
-2.54
 74
     0
 49
2.54
 74
     0
 49
-2.54
 74
     0
  0
LTYPE
  5
72
330
5
100
AcDbSymbolTableRecord
100
AcDbLinetypeTableRecord
  2
DOT2
 70
     0
  3
Dot (.5x) ........................................
 72
    65
 73
     2
 40
0.635
 49
0.0
 74
     0
 49
-0.635
 74
     0
  0
ENDTAB
  0
TABLE
  2
LAYER
  5
2
330
0
100
AcDbSymbolTable
 70
     1
  0
LAYER
  5
10
330
2
100
AcDbSymbolTableRecord
100
AcDbLayerTableRecord
  2
0
 70
     0
 62
     7
  6
Continuous
370
    -3
390
F
  0
ENDTAB
  0
TABLE
  2
STYLE
  5
3
330
0
100
AcDbSymbolTable
 70
     3
  0
STYLE
  5
11
330
3
100
AcDbSymbolTableRecord
100
AcDbTextStyleTableRecord
  2
STANDARD
 70
     0
 40
0.0
 41
1.0
 50
0.0
 71
     0
 42
3.5277777778
  3
MSGOTHIC.TTC
  4

1001
ACAD
1000
MS UI GOTHIC
1071
    32818
  0
STYLE
  5
77
330
3
100
AcDbSymbolTableRecord
100
AcDbTextStyleTableRecord
  2
SLDTEXTSTYLE0
 70
     0
 40
0.0
 41
1.0
 50
0.0
 71
     0
 42
3.5277777778
  3
MSGOTHIC.TTC
  4

1001
ACAD
1000
MS UI Gothic
1071
      306
  0
STYLE
  5
7C
330
3
100
AcDbSymbolTableRecord
100
AcDbTextStyleTableRecord
  2
SLDTEXTSTYLE1
 70
     0
 40
0.0
 41
1.0
 50
0.0
 71
     0
 42
3.5277777778
  3
MSGOTHIC.TTC
  4
bigfont
1001
ACAD
1000
MS UI Gothic
1071
      306
  0
ENDTAB
  0
TABLE
  2
VIEW
  5
6
330
0
100
AcDbSymbolTable
 70
     0
  0
ENDTAB
  0
TABLE
  2
UCS
  5
7
330
0
100
AcDbSymbolTable
 70
     0
  0
ENDTAB
  0
TABLE
  2
APPID
  5
9
330
0
100
AcDbSymbolTable
 70
     1
  0
APPID
  5
12
330
9
100
AcDbSymbolTableRecord
100
AcDbRegAppTableRecord
  2
ACAD
 70
     0
  0
ENDTAB
  0
TABLE
  2
DIMSTYLE
  5
A
330
0
100
AcDbSymbolTable
 70
     6
100
AcDbDimStyleTable
  0
DIMSTYLE
105
27
330
A
100
AcDbSymbolTableRecord
100
AcDbDimStyleTableRecord
  2
ISO-25
 70
     0
 41
2.5
 42
0.625
 43
3.75
 44
1.25
 73
     0
 74
     0
 77
     1
 78
     8
140
2.5
141
2.5
143
0.0393700787
147
0.625
171
     3
172
     1
178
     0
271
     2
272
     2
274
     3
278
    44
283
     0
284
     8
340
11
  0
DIMSTYLE
105
10A
102
{ACAD_REACTORS
330
109
102
}
330
A
100
AcDbSymbolTableRecord
100
AcDbDimStyleTableRecord
  2
SLDDIMSTYLE0
 70
     0
 41
3.0
 44
0.0
 45
0.000000001
 73
     0
 74
     0
 77
     1
 78
    12
 79
     3
140
3.0316840278
147
0.7579210069
173
     1
178
     0
271
     0
272
     2
276
     2
284
    12
340
77
341
10B
343
10B
344
10B
  0
DIMSTYLE
105
11D
102
{ACAD_REACTORS
330
11C
330
146
102
}
330
A
100
AcDbSymbolTableRecord
100
AcDbDimStyleTableRecord
  2
SLDDIMSTYLE1
 70
     0
 41
3.0
 44
0.0
 45
0.000000001
 73
     0
 74
     0
 77
     1
 78
    12
 79
     3
140
3.0316840278
147
0.7579210069
172
     1
173
     1
178
     0
271
     2
272
     2
276
     2
284
    12
289
     0
340
77
341
10B
343
10B
344
10B
  0
DIMSTYLE
105
12D
102
{ACAD_REACTORS
330
12C
330
139
102
}
330
A
100
AcDbSymbolTableRecord
100
AcDbDimStyleTableRecord
  2
SLDDIMSTYLE2
 70
     0
 41
3.0
 44
0.0
 45
0.000000001
 73
     0
 74
     0
 77
     1
 78
    12
 79
     3
140
3.0316840278
147
0.7579210069
173
     1
178
     0
271
     0
272
     0
276
     2
284
    12
340
77
341
10B
343
10B
344
10B
  0
DIMSTYLE
105
155
102
{ACAD_REACTORS
330
154
330
161
102
}
330
A
100
AcDbSymbolTableRecord
100
AcDbDimStyleTableRecord
  2
SLDDIMSTYLE3
 70
     0
 41
3.0
 44
0.0
 45
0.000000001
 73
     0
 74
     0
 77
     1
 78
    12
 79
     3
140
3.0316840278
147
0.7579210069
173
     1
178
     0
271
     2
272
     2
276
     2
284
    12
340
77
341
10B
343
10B
344
10B
  0
DIMSTYLE
105
171
330
A
100
AcDbSymbolTableRecord
100
AcDbDimStyleTableRecord
  2
SLDDIMSTYLE4
 70
     0
 41
3.0
 44
0.0
 45
0.000000001
146
3.0
147
0.0
173
     1
178
     0
271
     0
272
     0
276
     2
340
11
341
10B
343
10B
344
10B
  0
ENDTAB
  0
TABLE
  2
BLOCK_RECORD
  5
1
330
0
100
AcDbSymbolTable
 70
    17
  0
BLOCK_RECORD
  5
1F
330
1
100
AcDbSymbolTableRecord
100
AcDbBlockTableRecord
  2
*Model_Space
340
22
  0
BLOCK_RECORD
  5
1B
330
1
100
AcDbSymbolTableRecord
100
AcDbBlockTableRecord
  2
*Paper_Space
340
1E
  0
BLOCK_RECORD
  5
23
330
1
100
AcDbSymbolTableRecord
100
AcDbBlockTableRecord
  2
*Paper_Space0
340
26
  0
BLOCK_RECORD
  5
79
330
1
100
AcDbSymbolTableRecord
100
AcDbBlockTableRecord
  2
SW_NOTE_0
340
0
102
{BLKREFS
331
7F
102
}
  0
BLOCK_RECORD
  5
80
330
1
100
AcDbSymbolTableRecord
100
AcDbBlockTableRecord
  2
SW_BROKEN_VIEW_0
340
0
102
{BLKREFS
331
83
102
}
  0
BLOCK_RECORD
  5
10B
330
1
100
AcDbSymbolTableRecord
100
AcDbBlockTableRecord
  2
_Open30
340
0
102
{BLKREFS
331
116
331
117
331
123
331
124
331
133
331
134
331
13F
331
140
331
14C
331
14D
331
15B
331
15C
331
165
331
166
102
}
  0
BLOCK_RECORD
  5
111
330
1
100
AcDbSymbolTableRecord
100
AcDbBlockTableRecord
  2
_D
340
0
  0
BLOCK_RECORD
  5
11E
330
1
100
AcDbSymbolTableRecord
100
AcDbBlockTableRecord
  2
_D_1
340
0
  0
BLOCK_RECORD
  5
12E
330
1
100
AcDbSymbolTableRecord
100
AcDbBlockTableRecord
  2
_D_2
340
0
  0
BLOCK_RECORD
  5
13A
330
1
100
AcDbSymbolTableRecord
100
AcDbBlockTableRecord
  2
_D_3
340
0
  0
BLOCK_RECORD
  5
147
330
1
100
AcDbSymbolTableRecord
100
AcDbBlockTableRecord
  2
_D_4
340
0
  0
BLOCK_RECORD
  5
156
330
1
100
AcDbSymbolTableRecord
100
AcDbBlockTableRecord
  2
_D_5
340
0
  0
BLOCK_RECORD
  5
162
330
1
100
AcDbSymbolTableRecord
100
AcDbBlockTableRecord
  2
_D_6
340
0
  0
BLOCK_RECORD
  5
16B
330
1
100
AcDbSymbolTableRecord
100
AcDbBlockTableRecord
  2
SW_NOTE_0_1
340
0
102
{BLKREFS
331
170
102
}
  0
BLOCK_RECORD
  5
173
330
1
100
AcDbSymbolTableRecord
100
AcDbBlockTableRecord
  2
SW_NOTE_0_2
340
0
102
{BLKREFS
331
178
102
}
  0
BLOCK_RECORD
  5
17A
330
1
100
AcDbSymbolTableRecord
100
AcDbBlockTableRecord
  2
SW_NOTE_0_3
340
0
102
{BLKREFS
331
17F
102
}
  0
BLOCK_RECORD
  5
181
330
1
100
AcDbSymbolTableRecord
100
AcDbBlockTableRecord
  2
SW_NOTE_0_4
340
0
102
{BLKREFS
331
186
102
}
  0
BLOCK_RECORD
  5
188
330
1
100
AcDbSymbolTableRecord
100
AcDbBlockTableRecord
  2
SW_NOTE_0_5
340
0
102
{BLKREFS
331
18D
102
}
  0
BLOCK_RECORD
  5
18F
330
1
100
AcDbSymbolTableRecord
100
AcDbBlockTableRecord
  2
SW_NOTE_0_6
340
0
102
{BLKREFS
331
194
102
}
  0
ENDTAB
  0
ENDSEC
  0
SECTION
  2
BLOCKS
  0
BLOCK
  5
20
330
1F
100
AcDbEntity
  8
0
100
AcDbBlockBegin
  2
*Model_Space
 70
     0
 10
0.0
 20
0.0
 30
0.0
  3
*Model_Space
  1

  0
ENDBLK
  5
21
330
1F
100
AcDbEntity
  8
0
100
AcDbBlockEnd
  0
BLOCK
  5
1C
330
1B
100
AcDbEntity
 67
     1
  8
0
100
AcDbBlockBegin
  2
*Paper_Space
 70
     0
 10
0.0
 20
0.0
 30
0.0
  3
*Paper_Space
  1

  0
ENDBLK
  5
1D
330
1B
100
AcDbEntity
 67
     1
  8
0
100
AcDbBlockEnd
  0
BLOCK
  5
24
330
23
100
AcDbEntity
  8
0
100
AcDbBlockBegin
  2
*Paper_Space0
 70
     0
 10
0.0
 20
0.0
 30
0.0
  3
*Paper_Space0
  1

  0
ENDBLK
  5
25
330
23
100
AcDbEntity
  8
0
100
AcDbBlockEnd
  0
BLOCK
  5
7A
330
79
100
AcDbEntity
  8
0
100
AcDbBlockBegin
  2
SW_NOTE_0
 70
     0
 10
0.0
 20
0.0
 30
0.0
  3
SW_NOTE_0
  1

  0
MTEXT
  5
7D
330
79
100
AcDbEntity
  8
0
  6
Continuous
 62
     0
370
    18
100
AcDbMText
 10
0.0
 20
5.5418181818
 30
0.0
 40
4.7625
 41
0.0
 71
     1
 72
     1
  1
MODEL：T-30N-ﾛ-ﾛ-ﾛ-ﾛ-ﾛ
  7
SLDTEXTSTYLE1
 73
     1
 44
1.0
  0
MTEXT
  5
7E
330
79
100
AcDbEntity
  8
0
  6
Continuous
 62
     0
370
    18
100
AcDbMText
 10
0.0
 20
-1.6285859046
 30
0.0
 40
3.7041666667
 41
0.0
 71
     1
 72
     1
  1
                (保護管径φ3.2、φ4.8、φ6.4、φ8.0 の時)
  7
SLDTEXTSTYLE1
 73
     1
 44
1.0
  0
ENDBLK
  5
7B
330
79
100
AcDbEntity
  8
0
100
AcDbBlockEnd
  0
BLOCK
  5
81
330
80
100
AcDbEntity
  8
0
100
AcDbBlockBegin
  2
SW_BROKEN_VIEW_0
 70
     0
 10
0.0
 20
0.0
 30
0.0
  3
SW_BROKEN_VIEW_0
  1

  0
ENDBLK
  5
82
330
80
100
AcDbEntity
  8
0
100
AcDbBlockEnd
  0
BLOCK
  5
10C
330
10B
100
AcDbEntity
  8
0
100
AcDbBlockBegin
  2
_Open30
 70
     0
 10
0.0
 20
0.0
 30
0.0
  3
_Open30
  1

  0
LINE
  5
10E
330
10B
100
AcDbEntity
  8
0
  6
ByBlock
 62
     0
370
    -2
100
AcDbLine
 10
-1.0
 20
0.267949
 30
0.0
 11
0.0
 21
0.0
 31
0.0
  0
LINE
  5
10F
330
10B
100
AcDbEntity
  8
0
  6
ByBlock
 62
     0
370
    -2
100
AcDbLine
 10
0.0
 20
0.0
 30
0.0
 11
-1.0
 21
-0.267949
 31
0.0
  0
LINE
  5
110
330
10B
100
AcDbEntity
  8
0
  6
ByBlock
 62
     0
370
    -2
100
AcDbLine
 10
0.0
 20
0.0
 30
0.0
 11
-1.0
 21
0.0
 31
0.0
  0
ENDBLK
  5
10D
330
10B
100
AcDbEntity
  8
0
100
AcDbBlockEnd
  0
BLOCK
  5
112
330
111
100
AcDbEntity
  8
0
100
AcDbBlockBegin
  2
_D
 70
     0
 10
0.0
 20
0.0
 30
0.0
  3
_D
  1

  0
ARC
  5
114
330
111
100
AcDbEntity
  8
0
  6
Continuous
 62
     7
370
    18
100
AcDbCircle
 10
259.0022363873
 20
109.6237532984
 30
0.0
 40
3.944175412646017
100
AcDbArc
 50
243.4349488229
 51
296.5650511771
  0
ARC
  5
115
330
111
100
AcDbEntity
  8
0
  6
Continuous
 62
     7
370
    18
100
AcDbCircle
 10
259.0022363873
 20
106.0959755632
 30
0.0
 40
3.944175412646017
100
AcDbArc
 50
63.4349488229
 51
116.5650511771
  0
INSERT
  5
116
330
111
100
AcDbEntity
  8
0
  6
Continuous
 62
     7
370
    18
100
AcDbBlockReference
  2
_Open30
 10
260.766125022
 20
140.1806328432
 30
0.0
 41
3.0
 42
3.0
 50
90.0
  0
INSERT
  5
117
330
111
100
AcDbEntity
  8
0
  6
Continuous
 62
     7
370
    18
100
AcDbBlockReference
  2
_Open30
 10
260.766125022
 20
75.5390958437
 30
0.0
 41
3.0
 42
3.0
 50
270.0
  0
LINE
  5
118
330
111
100
AcDbEntity
  8
0
  6
Continuous
 62
     7
370
    18
100
AcDbLine
 10
187.3641570207
 20
140.1806328432
 30
0.0
 11
261.766125022
 21
140.1806328432
 31
0.0
  0
LINE
  5
119
330
111
100
AcDbEntity
  8
0
  6
Continuous
 62
     7
370
    18
100
AcDbLine
 10
203.4669061803
 20
75.5390958437
 30
0.0
 11
261.766125022
 21
75.5390958437
 31
0.0
  0
LINE
  5
11A
330
111
100
AcDbEntity
  8
0
  6
Continuous
 62
     7
370
    18
100
AcDbLine
 10
260.766125022
 20
140.1806328432
 30
0.0
 11
260.766125022
 21
75.5390958437
 31
0.0
  0
MTEXT
  5
11B
330
111
100
AcDbEntity
  8
0
  6
Continuous
 62
     7
370
    18
100
AcDbMText
 10
257.6873374925
 20
106.0959755632
 30
0.0
 40
2.6458333333
 41
0.0
 71
     1
 72
     1
  1
65
  7
SLDTEXTSTYLE0
 11
-7.044195017643634E-15
 21
1.0
 31
0.0
 73
     1
 44
1.0
  0
ENDBLK
  5
113
330
111
100
AcDbEntity
  8
0
100
AcDbBlockEnd
  0
BLOCK
  5
11F
330
11E
100
AcDbEntity
  8
0
100
AcDbBlockBegin
  2
_D_1
 70
     0
 10
0.0
 20
0.0
 30
0.0
  3
_D_1
  1

  0
ARC
  5
121
330
11E
100
AcDbEntity
  8
0
  6
Continuous
 62
     7
370
    18
100
AcDbCircle
 10
74.4618285789
 20
130.8534767336
 30
0.0
 40
7.888350825291996
100
AcDbArc
 50
243.4349488229
 51
296.5650511771
  0
ARC
  5
122
330
11E
100
AcDbEntity
  8
0
  6
Continuous
 62
     7
370
    18
100
AcDbCircle
 10
74.4618285789
 20
136.9682930268
 30
0.0
 40
7.888350825292009
100
AcDbArc
 50
63.4349488229
 51
116.5650511771
  0
INSERT
  5
123
330
11E
100
AcDbEntity
  8
0
  6
Continuous
 62
     7
370
    18
100
AcDbBlockReference
  2
_Open30
 10
70.6703596968
 20
111.1390958437
 30
0.0
 41
3.0
 42
3.0
 50
90.0
  0
INSERT
  5
124
330
11E
100
AcDbEntity
  8
0
  6
Continuous
 62
     7
370
    18
100
AcDbBlockReference
  2
_Open30
 10
70.6703596968
 20
115.9390958437
 30
0.0
 41
3.0
 42
3.0
 50
270.0
  0
LINE
  5
125
330
11E
100
AcDbEntity
  8
0
  6
Continuous
 62
     7
370
    18
100
AcDbLine
 10
70.6703596968
 20
111.1390958437
 30
0.0
 11
70.6703596968
 21
107.6390958437
 31
0.0
  0
LINE
  5
126
330
11E
100
AcDbEntity
  8
0
  6
Continuous
 62
     7
370
    18
100
AcDbLine
 10
70.6703596968
 20
111.1390958437
 30
0.0
 11
70.6703596968
 21
115.9390958437
 31
0.0
  0
LINE
  5
127
330
11E
100
AcDbEntity
  8
0
  6
Continuous
 62
     7
370
    18
100
AcDbLine
 10
70.6703596968
 20
115.9390958437
 30
0.0
 11
70.6703596968
 21
144.8566434879
 31
0.0
  0
MTEXT
  5
128
330
11E
100
AcDbEntity
  8
0
  6
Continuous
 62
     7
370
    18
100
AcDbMText
 10
67.3248713827
 20
131.3605952051
 30
0.0
 40
2.6458333333
 41
0.0
 71
     1
 72
     1
  1
%%c
  7
SLDTEXTSTYLE0
 11
6.123233995736766E-17
 21
1.0
 31
0.0
 73
     1
 44
1.0
  0
MTEXT
  5
129
330
11E
100
AcDbEntity
  8
0
  6
Continuous
 62
     7
370
    18
100
AcDbMText
 10
67.3248713827
 20
134.7119841699
 30
0.0
 40
2.6458333333
 41
0.0
 71
     1
 72
     1
  1
d
  7
SLDTEXTSTYLE0
 11
6.123233995736766E-17
 21
1.0
 31
0.0
 73
     1
 44
1.0
  0
MTEXT
  5
12A
330
11E
100
AcDbEntity
  8
0
  6
Continuous
 62
     7
370
    18
100
AcDbMText
 10
71.3830408166
 20
123.7979212634
 30
0.0
 40
2.6458333333
 41
0.0
 71
     1
 72
     1
  1
φ3.2、φ4.8、
  7
SLDTEXTSTYLE1
 11
6.123233995736766E-17
 21
1.0
 31
0.0
 73
     1
 44
1.0
  0
MTEXT
  5
12B
330
11E
100
AcDbEntity
  8
0
  6
Continuous
 62
     7
370
    18
100
AcDbMText
 10
74.9108185517
 20
123.7979212634
 30
0.0
 40
2.6458333333
 41
0.0
 71
     1
 72
     1
  1
φ6.4、φ8.0　
  7
SLDTEXTSTYLE1
 11
6.123233995736766E-17
 21
1.0
 31
0.0
 73
     1
 44
1.0
  0
ENDBLK
  5
120
330
11E
100
AcDbEntity
  8
0
100
AcDbBlockEnd
  0
BLOCK
  5
12F
330
12E
100
AcDbEntity
  8
0
100
AcDbBlockBegin
  2
_D_2
 70
     0
 10
0.0
 20
0.0
 30
0.0
  3
_D_2
  1

  0
ARC
  5
131
330
12E
100
AcDbEntity
  8
0
  6
Continuous
 62
     7
370
    18
100
AcDbCircle
 10
184.4410664423
 20
165.401236388
 30
0.0
 40
3.944175412646017
100
AcDbArc
 50
153.4349488229
 51
206.5650511771
  0
ARC
  5
132
330
12E
100
AcDbEntity
  8
0
  6
Continuous
 62
     7
370
    18
100
AcDbCircle
 10
180.9132887072
 20
165.401236388
 30
0.0
 40
3.944175412645992
100
AcDbArc
 50
333.4349488229
 51
26.5650511771
  0
INSERT
  5
133
330
12E
100
AcDbEntity
  8
0
  6
Continuous
 62
     7
370
    18
100
AcDbBlockReference
  2
_Open30
 10
212.5874487946
 20
163.6373477533
 30
0.0
 41
3.0
 42
3.0
 50
0.0
  0
INSERT
  5
134
330
12E
100
AcDbEntity
  8
0
  6
Continuous
 62
     7
370
    18
100
AcDbBlockReference
  2
_Open30
 10
152.7669061803
 20
163.6373477533
 30
0.0
 41
3.0
 42
3.0
 50
180.0
  0
LINE
  5
135
330
12E
100
AcDbEntity
  8
0
  6
Continuous
 62
     7
370
    18
100
AcDbLine
 10
212.5874487946
 20
95.0432596623
 30
0.0
 11
212.5874487946
 21
164.6373477533
 31
0.0
  0
LINE
  5
136
330
12E
100
AcDbEntity
  8
0
  6
Continuous
 62
     7
370
    18
100
AcDbLine
 10
152.7669061803
 20
128.0390958437
 30
0.0
 11
152.7669061803
 21
164.6373477533
 31
0.0
  0
LINE
  5
137
330
12E
100
AcDbEntity
  8
0
  6
Continuous
 62
     7
370
    18
100
AcDbLine
 10
212.5874487946
 20
163.6373477533
 30
0.0
 11
152.7669061803
 21
163.6373477533
 31
0.0
  0
MTEXT
  5
138
330
12E
100
AcDbEntity
  8
0
  6
Continuous
 62
     7
370
    18
100
AcDbMText
 10
180.9132887072
 20
166.7161352828
 30
0.0
 40
2.6458333333
 41
0.0
 71
     1
 72
     1
  1
60
  7
SLDTEXTSTYLE0
 73
     1
 44
1.0
  0
ENDBLK
  5
130
330
12E
100
AcDbEntity
  8
0
100
AcDbBlockEnd
  0
BLOCK
  5
13B
330
13A
100
AcDbEntity
  8
0
100
AcDbBlockBegin
  2
_D_3
 70
     0
 10
0.0
 20
0.0
 30
0.0
  3
_D_3
  1

  0
ARC
  5
13D
330
13A
100
AcDbEntity
  8
0
  6
Continuous
 62
     7
370
    18
100
AcDbCircle
 10
230.1453897194
 20
131.689519722
 30
0.0
 40
4.497455730162209
100
AcDbArc
 50
91.4349488229
 51
144.5650511771
  0
ARC
  5
13E
330
13A
100
AcDbEntity
  8
0
  6
Continuous
 62
     7
370
    18
100
AcDbCircle
 10
229.5979263994
 20
132.7191484766
 30
0.0
 40
4.497455730162186
100
AcDbArc
 50
271.4349488229
 51
324.5650511771
  0
INSERT
  5
13F
330
13A
100
AcDbEntity
  8
0
  6
Continuous
 62
     7
370
    18
100
AcDbBlockReference
  2
_Open30
 10
215.0407327853
 20
155.8130194842
 30
0.0
 41
3.0
 42
3.0
 50
118.0
  0
INSERT
  5
140
330
13A
100
AcDbEntity
  8
0
  6
Continuous
 62
     7
370
    18
100
AcDbBlockReference
  2
_Open30
 10
241.1507972809
 20
106.7071301754
 30
0.0
 41
3.0
 42
3.0
 50
298.0
  0
LINE
  5
141
330
13A
100
AcDbEntity
  8
0
  6
Continuous
 62
     7
370
    18
100
AcDbLine
 10
186.0749112281
 20
140.4116189664
 30
0.0
 11
215.9236803781
 21
156.2824910469
 31
0.0
  0
LINE
  5
142
330
13A
100
AcDbEntity
  8
0
  6
Continuous
 62
     7
370
    18
100
AcDbLine
 10
212.1849757237
 20
91.3057296576
 30
0.0
 11
242.0337448737
 21
107.1766017382
 31
0.0
  0
LINE
  5
143
330
13A
100
AcDbEntity
  8
0
  6
Continuous
 62
     7
370
    18
100
AcDbLine
 10
215.0407327853
 20
155.8130194842
 30
0.0
 11
241.1507972809
 21
106.7071301754
 31
0.0
  0
MTEXT
  5
144
330
13A
100
AcDbEntity
  8
0
  6
Continuous
 62
     7
370
    18
100
AcDbMText
 10
229.1993868297
 20
135.7424502348
 30
0.0
 40
2.6458333333
 41
0.0
 71
     1
 72
     1
  1
%%c
  7
SLDTEXTSTYLE0
 11
0.4694715627858982
 21
-0.882947592858923
 31
0.0
 73
     1
 44
1.0
  0
MTEXT
  5
145
330
13A
100
AcDbEntity
  8
0
  6
Continuous
 62
     7
370
    18
100
AcDbMText
 10
230.7727686446
 20
132.7833494156
 30
0.0
 40
2.6458333333
 41
0.0
 71
     1
 72
     1
  1
56
  7
SLDTEXTSTYLE0
 11
0.4694715627858982
 21
-0.882947592858923
 31
0.0
 73
     1
 44
1.0
  0
ENDBLK
  5
13C
330
13A
100
AcDbEntity
  8
0
100
AcDbBlockEnd
  0
BLOCK
  5
148
330
147
100
AcDbEntity
  8
0
100
AcDbBlockBegin
  2
_D_4
 70
     0
 10
0.0
 20
0.0
 30
0.0
  3
_D_4
  1

  0
ARC
  5
14A
330
147
100
AcDbEntity
  8
0
  6
Continuous
 62
     7
370
    18
100
AcDbCircle
 10
246.8702386262
 20
75.184929116
 30
0.0
 40
3.944175412646004
100
AcDbArc
 50
243.4349488229
 51
296.5650511771
  0
ARC
  5
14B
330
147
100
AcDbEntity
  8
0
  6
Continuous
 62
     7
370
    18
100
AcDbCircle
 10
246.8702386262
 20
69.8932625133
 30
0.0
 40
3.944175412646004
100
AcDbArc
 50
63.4349488229
 51
116.5650511771
  0
INSERT
  5
14C
330
147
100
AcDbEntity
  8
0
  6
Continuous
 62
     7
370
    18
100
AcDbBlockReference
  2
_Open30
 10
248.634127261
 20
69.5390958437
 30
0.0
 41
3.0
 42
3.0
 50
90.0
  0
INSERT
  5
14D
330
147
100
AcDbEntity
  8
0
  6
Continuous
 62
     7
370
    18
100
AcDbBlockReference
  2
_Open30
 10
248.634127261
 20
75.5390958437
 30
0.0
 41
3.0
 42
3.0
 50
270.0
  0
LINE
  5
14E
330
147
100
AcDbEntity
  8
0
  6
Continuous
 62
     7
370
    18
100
AcDbLine
 10
201.4669061803
 20
69.5390958437
 30
0.0
 11
249.634127261
 21
69.5390958437
 31
0.0
  0
LINE
  5
14F
330
147
100
AcDbEntity
  8
0
  6
Continuous
 62
     7
370
    18
100
AcDbLine
 10
203.4669061803
 20
75.5390958437
 30
0.0
 11
249.634127261
 21
75.5390958437
 31
0.0
  0
LINE
  5
150
330
147
100
AcDbEntity
  8
0
  6
Continuous
 62
     7
370
    18
100
AcDbLine
 10
248.634127261
 20
69.5390958437
 30
0.0
 11
248.634127261
 21
66.0390958437
 31
0.0
  0
LINE
  5
151
330
147
100
AcDbEntity
  8
0
  6
Continuous
 62
     7
370
    18
100
AcDbLine
 10
248.634127261
 20
69.5390958437
 30
0.0
 11
248.634127261
 21
75.5390958437
 31
0.0
  0
LINE
  5
152
330
147
100
AcDbEntity
  8
0
  6
Continuous
 62
     7
370
    18
100
AcDbLine
 10
248.634127261
 20
75.5390958437
 30
0.0
 11
248.634127261
 21
79.0390958437
 31
0.0
  0
MTEXT
  5
153
330
147
100
AcDbEntity
  8
0
  6
Continuous
 62
     7
370
    18
100
AcDbMText
 10
245.5553397314
 20
71.6571513808
 30
0.0
 40
2.6458333333
 41
0.0
 71
     1
 72
     1
  1
6
  7
SLDTEXTSTYLE0
 11
6.123233995736766E-17
 21
1.0
 31
0.0
 73
     1
 44
1.0
  0
ENDBLK
  5
149
330
147
100
AcDbEntity
  8
0
100
AcDbBlockEnd
  0
BLOCK
  5
157
330
156
100
AcDbEntity
  8
0
100
AcDbBlockBegin
  2
_D_5
 70
     0
 10
0.0
 20
0.0
 30
0.0
  3
_D_5
  1

  0
ARC
  5
159
330
156
100
AcDbEntity
  8
0
  6
Continuous
 62
     7
370
    18
100
AcDbCircle
 10
246.8702386262
 20
96.3029847986
 30
0.0
 40
3.944175412646004
100
AcDbArc
 50
243.4349488229
 51
296.5650511771
  0
ARC
  5
15A
330
156
100
AcDbEntity
  8
0
  6
Continuous
 62
     7
370
    18
100
AcDbCircle
 10
246.8702386262
 20
92.7752070635
 30
0.0
 40
3.944175412646004
100
AcDbArc
 50
63.4349488229
 51
116.5650511771
  0
INSERT
  5
15B
330
156
100
AcDbEntity
  8
0
  6
Continuous
 62
     7
370
    18
100
AcDbBlockReference
  2
_Open30
 10
248.634127261
 20
113.5390958437
 30
0.0
 41
3.0
 42
3.0
 50
90.0
  0
INSERT
  5
15C
330
156
100
AcDbEntity
  8
0
  6
Continuous
 62
     7
370
    18
100
AcDbBlockReference
  2
_Open30
 10
248.634127261
 20
75.5390958437
 30
0.0
 41
3.0
 42
3.0
 50
270.0
  0
LINE
  5
15D
330
156
100
AcDbEntity
  8
0
  6
Continuous
 62
     7
370
    18
100
AcDbLine
 10
223.2109234511
 20
113.5390958437
 30
0.0
 11
249.634127261
 21
113.5390958437
 31
0.0
  0
LINE
  5
15E
330
156
100
AcDbEntity
  8
0
  6
Continuous
 62
     7
370
    18
100
AcDbLine
 10
203.4669061803
 20
75.5390958437
 30
0.0
 11
249.634127261
 21
75.5390958437
 31
0.0
  0
LINE
  5
15F
330
156
100
AcDbEntity
  8
0
  6
Continuous
 62
     7
370
    18
100
AcDbLine
 10
248.634127261
 20
113.5390958437
 30
0.0
 11
248.634127261
 21
75.5390958437
 31
0.0
  0
MTEXT
  5
160
330
156
100
AcDbEntity
  8
0
  6
Continuous
 62
     7
370
    18
100
AcDbMText
 10
245.5553397314
 20
92.7752070635
 30
0.0
 40
2.6458333333
 41
0.0
 71
     1
 72
     1
  1
38
  7
SLDTEXTSTYLE0
 11
-7.044195017643634E-15
 21
1.0
 31
0.0
 73
     1
 44
1.0
  0
ENDBLK
  5
158
330
156
100
AcDbEntity
  8
0
100
AcDbBlockEnd
  0
BLOCK
  5
163
330
162
100
AcDbEntity
  8
0
100
AcDbBlockBegin
  2
_D_6
 70
     0
 10
0.0
 20
0.0
 30
0.0
  3
_D_6
  1

  0
INSERT
  5
165
330
162
100
AcDbEntity
  8
0
  6
Continuous
 62
     7
370
    18
100
AcDbBlockReference
  2
_Open30
 10
48.0154736221
 20
163.6373477533
 30
0.0
 41
3.0
 42
3.0
 50
180.0
  0
INSERT
  5
166
330
162
100
AcDbEntity
  8
0
  6
Continuous
 62
     7
370
    18
100
AcDbBlockReference
  2
_Open30
 10
147.7669061803
 20
163.6373477533
 30
0.0
 41
3.0
 42
3.0
 50
0.0
  0
LINE
  5
167
330
162
100
AcDbEntity
  8
0
  6
Continuous
 62
     7
370
    18
100
AcDbLine
 10
48.0154736221
 20
114.5390958437
 30
0.0
 11
48.0154736221
 21
164.6373477533
 31
0.0
  0
LINE
  5
168
330
162
100
AcDbEntity
  8
0
  6
Continuous
 62
     7
370
    18
100
AcDbLine
 10
147.7669061803
 20
123.0390958437
 30
0.0
 11
147.7669061803
 21
164.6373477533
 31
0.0
  0
LINE
  5
169
330
162
100
AcDbEntity
  8
0
  6
Continuous
 62
     7
370
    18
100
AcDbLine
 10
48.0154736221
 20
163.6373477533
 30
0.0
 11
147.7669061803
 21
163.6373477533
 31
0.0
  0
MTEXT
  5
16A
330
162
100
AcDbEntity
  8
0
  6
Continuous
 62
     7
370
    18
100
AcDbMText
 10
79.3820791692
 20
166.7161355156
 30
0.0
 40
2.6458333333
 41
0.0
 71
     1
 72
     1
  1
L1=100～10000
  7
SLDTEXTSTYLE1
 73
     1
 44
1.0
  0
ENDBLK
  5
164
330
162
100
AcDbEntity
  8
0
100
AcDbBlockEnd
  0
BLOCK
  5
16C
330
16B
100
AcDbEntity
  8
0
100
AcDbBlockBegin
  2
SW_NOTE_0_1
 70
     0
 10
0.0
 20
0.0
 30
0.0
  3
SW_NOTE_0_1
  1

  0
LINE
  5
16E
330
16B
100
AcDbEntity
  8
0
  6
Continuous
 62
     0
370
    18
100
AcDbLine
 10
17.4821483981
 20
0.0
 30
0.0
 11
0.0
 21
0.0
 31
0.0
  0
MTEXT
  5
16F
330
16B
100
AcDbEntity
  8
0
  6
Continuous
 62
     0
370
    18
100
AcDbMText
 10
0.4443241362
 20
3.1483462695
 30
0.0
 40
2.6458333333
 41
0.0
 71
     1
 72
     1
  1
30型端子箱
  7
SLDTEXTSTYLE1
 73
     1
 44
1.0
  0
ENDBLK
  5
16D
330
16B
100
AcDbEntity
  8
0
100
AcDbBlockEnd
  0
BLOCK
  5
174
330
173
100
AcDbEntity
  8
0
100
AcDbBlockBegin
  2
SW_NOTE_0_2
 70
     0
 10
0.0
 20
0.0
 30
0.0
  3
SW_NOTE_0_2
  1

  0
LINE
  5
176
330
173
100
AcDbEntity
  8
0
  6
Continuous
 62
     0
370
    18
100
AcDbLine
 10
13.7975801793
 20
0.0
 30
0.0
 11
0.0
 21
0.0
 31
0.0
  0
MTEXT
  5
177
330
173
100
AcDbEntity
  8
0
  6
Continuous
 62
     0
370
    18
100
AcDbMText
 10
0.3940528384
 20
3.0252114577
 30
0.0
 40
2.6458333333
 41
0.0
 71
     1
 72
     1
  1
G(PF)3/8
  7
SLDTEXTSTYLE0
 73
     1
 44
1.0
  0
ENDBLK
  5
175
330
173
100
AcDbEntity
  8
0
100
AcDbBlockEnd
  0
BLOCK
  5
17B
330
17A
100
AcDbEntity
  8
0
100
AcDbBlockBegin
  2
SW_NOTE_0_3
 70
     0
 10
0.0
 20
0.0
 30
0.0
  3
SW_NOTE_0_3
  1

  0
LINE
  5
17D
330
17A
100
AcDbEntity
  8
0
  6
Continuous
 62
     0
370
    18
100
AcDbLine
 10
-20.3189683068
 20
0.0
 30
0.0
 11
0.0
 21
0.0
 31
0.0
  0
MTEXT
  5
17E
330
17A
100
AcDbEntity
  8
0
  6
Continuous
 62
     0
370
    18
100
AcDbMText
 10
-20.7165402029
 20
3.0252114577
 30
0.0
 40
2.6458333333
 41
0.0
 71
     1
 72
     1
  1
ｹｰﾌﾞﾙ取出口
  7
SLDTEXTSTYLE1
 73
     1
 44
1.0
  0
ENDBLK
  5
17C
330
17A
100
AcDbEntity
  8
0
100
AcDbBlockEnd
  0
BLOCK
  5
182
330
181
100
AcDbEntity
  8
0
100
AcDbBlockBegin
  2
SW_NOTE_0_4
 70
     0
 10
0.0
 20
0.0
 30
0.0
  3
SW_NOTE_0_4
  1

  0
LINE
  5
184
330
181
100
AcDbEntity
  8
0
  6
Continuous
 62
     0
370
    18
100
AcDbLine
 10
-14.8852114487
 20
0.0
 30
0.0
 11
0.0
 21
0.0
 31
0.0
  0
MTEXT
  5
185
330
181
100
AcDbEntity
  8
0
  6
Continuous
 62
     0
370
    18
100
AcDbMText
 10
-15.3669559569
 20
3.1887256763
 30
0.0
 40
2.6458333333
 41
0.0
 71
     1
 72
     1
  1
銀ろう付け
  7
SLDTEXTSTYLE1
 73
     1
 44
1.0
  0
ENDBLK
  5
183
330
181
100
AcDbEntity
  8
0
100
AcDbBlockEnd
  0
BLOCK
  5
189
330
188
100
AcDbEntity
  8
0
100
AcDbBlockBegin
  2
SW_NOTE_0_5
 70
     0
 10
0.0
 20
0.0
 30
0.0
  3
SW_NOTE_0_5
  1

  0
LINE
  5
18B
330
188
100
AcDbEntity
  8
0
  6
Continuous
 62
     0
370
    18
100
AcDbLine
 10
17.0117783439
 20
0.0
 30
0.0
 11
0.0
 21
0.0
 31
0.0
  0
MTEXT
  5
18C
330
188
100
AcDbEntity
  8
0
  6
Continuous
 62
     0
370
    18
100
AcDbMText
 10
0.3742973303
 20
2.9555804365
 30
0.0
 40
2.6458333333
 41
0.0
 71
     1
 72
     1
  1
ｼｰｽ熱電対
  7
SLDTEXTSTYLE1
 73
     1
 44
1.0
  0
ENDBLK
  5
18A
330
188
100
AcDbEntity
  8
0
100
AcDbBlockEnd
  0
BLOCK
  5
190
330
18F
100
AcDbEntity
  8
0
100
AcDbBlockBegin
  2
SW_NOTE_0_6
 70
     0
 10
0.0
 20
0.0
 30
0.0
  3
SW_NOTE_0_6
  1

  0
LINE
  5
192
330
18F
100
AcDbEntity
  8
0
  6
Continuous
 62
     0
370
    18
100
AcDbLine
 10
20.3190687191
 20
0.0
 30
0.0
 11
0.0
 21
0.0
 31
0.0
  0
MTEXT
  5
193
330
18F
100
AcDbEntity
  8
0
  6
Continuous
 62
     0
370
    18
100
AcDbMText
 10
0.363518357
 20
2.9555804365
 30
0.0
 40
2.6458333333
 41
0.0
 71
     1
 72
     1
  1
 先端120°形
  7
SLDTEXTSTYLE1
 73
     1
 44
1.0
  0
ENDBLK
  5
191
330
18F
100
AcDbEntity
  8
0
100
AcDbBlockEnd
  0
ENDSEC
  0
SECTION
  2
ENTITIES
  0
LINE
  5
73
330
1F
100
AcDbEntity
  8
0
  6
Continuous
 62
     7
370
    25
100
AcDbLine
 10
12.8700158558
 20
190.0085404097
 30
0.0
 11
12.8700749558
 21
18.0082352097
 31
0.0
  0
LINE
  5
74
330
1F
100
AcDbEntity
  8
0
  6
Continuous
 62
     7
370
    25
100
AcDbLine
 10
12.8700749558
 20
18.0082352097
 30
0.0
 11
282.5707921135
 21
18.0082352097
 31
0.0
  0
LINE
  5
75
330
1F
100
AcDbEntity
  8
0
  6
Continuous
 62
     7
370
    25
100
AcDbLine
 10
12.8700158558
 20
190.0085404097
 30
0.0
 11
282.5707921135
 21
190.0085404097
 31
0.0
  0
LINE
  5
76
330
1F
100
AcDbEntity
  8
0
  6
Continuous
 62
     7
370
    25
100
AcDbLine
 10
282.5707921135
 20
18.0082352097
 30
0.0
 11
282.5707921135
 21
190.0085404097
 31
0.0
  0
MTEXT
  5
78
330
1F
100
AcDbEntity
  8
0
  6
Continuous
 62
     7
370
    18
100
AcDbMText
 10
37.7706091776
 20
30.9904635868
 30
0.0
 40
4.7625
 41
0.0
 71
     1
 72
     1
  1
RKC INSTRUMENT INC.
  7
SLDTEXTSTYLE0
 73
     1
 44
1.0
  0
INSERT
  5
7F
330
1F
100
AcDbEntity
  8
0
  6
Continuous
 62
     7
370
    18
100
AcDbBlockReference
  2
SW_NOTE_0
 10
37.7706091776
 20
39.7548842609
 30
0.0
  0
INSERT
  5
83
330
1F
100
AcDbEntity
  8
0
  6
Continuous
 62
     7
100
AcDbBlockReference
  2
SW_BROKEN_VIEW_0
 10
0.0
 20
0.0
 30
0.0
  0
LINE
  5
84
330
1F
100
AcDbEntity
  8
0
  6
Continuous
 62
     7
370
    25
100
AcDbLine
 10
148.5174609406
 20
123.3390954685
 30
0.0
 11
147.7669043524
 21
122.0390958142
 31
0.0
  0
LINE
  5
85
330
1F
100
AcDbEntity
  8
0
  6
Continuous
 62
     7
370
    25
100
AcDbLine
 10
147.7669043524
 20
105.0390958216
 30
0.0
 11
148.5174609406
 21
103.7390957017
 31
0.0
  0
LINE
  5
86
330
1F
100
AcDbEntity
  8
0
  6
Continuous
 62
     7
370
    25
100
AcDbLine
 10
204.6424685104
 20
86.5114883881
 30
0.0
 11
211.3020284159
 21
90.8362579894
 31
0.0
  0
LINE
  5
87
330
1F
100
AcDbEntity
  8
0
  6
Continuous
 62
     7
370
    25
100
AcDbLine
 10
185.1919604523
 20
139.942146222
 30
0.0
 11
177.8825907094
 21
136.839500944
 31
0.0
  0
ARC
  5
88
330
1F
100
AcDbEntity
  8
0
  6
Continuous
 62
     7
370
    25
100
AcDbCircle
 10
209.6681132154
 20
93.3522673529
 30
0.0
 40
2.999996999960139
100
AcDbArc
 50
302.999993838
 51
13.3165630685
  0
ARC
  5
89
330
1F
100
AcDbEntity
  8
0
  6
Continuous
 62
     7
370
    25
100
AcDbCircle
 10
186.3641567473
 20
137.1806269365
 30
0.0
 40
3.000005486287207
100
AcDbArc
 50
42.6835820162
 51
113.0000158889
  0
ARC
  5
8A
330
1F
100
AcDbEntity
  8
0
  6
Continuous
 62
     7
370
    25
100
AcDbCircle
 10
62.1461311338
 20
58.4348116558
 30
0.0
 40
154.5980309899787
100
AcDbArc
 50
13.3164567019
 51
19.7808087146
  0
ARC
  5
8B
330
1F
100
AcDbEntity
  8
0
  6
Continuous
 62
     7
370
    25
100
AcDbCircle
 10
74.9216880516
 20
34.4038883944
 30
0.0
 40
154.5997476178131
100
AcDbArc
 50
36.218022721
 51
42.6834997413
  0
SPLINE
  5
8C
330
1F
100
AcDbEntity
  8
0
  6
Continuous
 62
     7
370
    25
100
AcDbSpline
210
0.0
220
0.0
230
1.0
 70
     8
 71
     3
 72
    14
 73
    10
 74
     0
 42
0.00000001
 43
0.00000001
 40
0.0
 40
0.0
 40
0.0
 40
0.0
 40
0.0085497173350197
 40
0.0565170057086755
 40
0.1457277206114494
 40
0.3541248954415632
 40
0.6228773128082822
 40
0.9314690761638857
 40
1.0
 40
1.0
 40
1.0
 40
1.0
 10
207.605206785916
 20
110.5721880112274
 30
0.0
 10
207.6050672539783
 20
110.5731252076766
 30
0.0
 10
207.6041448928046
 20
110.5793204460676
 30
0.0
 10
207.6027596886291
 20
110.5954341671833
 30
0.0
 10
207.6028252218628
 20
110.6337635558896
 30
0.0
 10
207.6140858447422
 20
110.696480346152
 30
0.0
 10
207.653592294214
 20
110.7741965875229
 30
0.0
 10
207.7016316281411
 20
110.8322908760519
 30
0.0
 10
207.7400917491634
 20
110.8490160308294
 30
0.0
 10
207.7470807416426
 20
110.8520553343429
 30
0.0
  0
SPLINE
  5
8D
330
1F
100
AcDbEntity
  8
0
  6
Continuous
 62
     7
370
    25
100
AcDbSpline
210
0.0
220
0.0
230
1.0
 70
     8
 71
     3
 72
    14
 73
    10
 74
     0
 42
0.00000001
 43
0.00000001
 40
0.0
 40
0.0
 40
0.0
 40
0.0
 40
0.3266846321041844
 40
0.603950728773022
 40
0.8078513429805545
 40
0.9196311249792456
 40
0.9751238822405807
 40
0.997940625903437
 40
1.0
 40
1.0
 40
1.0
 40
1.0
 10
199.7040523273932
 20
125.7737812947913
 30
0.0
 10
199.6782716399938
 20
125.7729369106953
 30
0.0
 10
199.630610184838
 20
125.7713758749439
 30
0.0
 10
199.5680047375512
 20
125.7904228627255
 30
0.0
 10
199.5280565964007
 20
125.8095388710029
 30
0.0
 10
199.5007138945665
 20
125.8294704569791
 30
0.0
 10
199.493766847999
 20
125.8342904112484
 30
0.0
 10
199.4840127601563
 20
125.8436776535266
 30
0.0
 10
199.4854867318477
 20
125.8421374893862
 30
0.0
 10
199.4856087548719
 20
125.8420099866076
 30
0.0
  0
SPLINE
  5
8E
330
1F
100
AcDbEntity
  8
0
  6
Continuous
 62
     7
370
    25
100
AcDbSpline
210
0.0
220
0.0
230
1.0
 70
     8
 71
     3
 72
     9
 73
     5
 74
     0
 42
0.00000001
 43
0.00000001
 40
0.0
 40
0.0
 40
0.0
 40
0.0
 40
0.9749782546853347
 40
1.0
 40
1.0
 40
1.0
 40
1.0
 10
199.7984437329756
 20
125.7997204911395
 30
0.0
 10
199.7683776149657
 20
125.7864139620349
 30
0.0
 10
199.7375398830825
 20
125.772765935486
 30
0.0
 10
199.7048697901382
 20
125.7737565089152
 30
0.0
 10
199.7040523273932
 20
125.7737812947913
 30
0.0
  0
LINE
  5
8F
330
1F
100
AcDbEntity
  8
0
  6
Continuous
 62
     7
370
    25
100
AcDbLine
 10
180.4669065459
 20
70.5390976172
 30
0.0
 11
182.4669031484
 21
69.5390955907
 31
0.0
  0
LINE
  5
90
330
1F
100
AcDbEntity
  8
0
  6
Continuous
 62
     7
370
    25
100
AcDbLine
 10
200.4669098241
 20
69.5390955907
 30
0.0
 11
202.4669064267
 21
70.5390976172
 31
0.0
  0
LINE
  5
91
330
1F
100
AcDbEntity
  8
0
  6
Continuous
 62
     7
370
    25
100
AcDbLine
 10
217.0079959614
 20
119.701753686
 30
0.0
 11
217.4494726641
 21
119.9364898157
 31
0.0
  0
LINE
  5
92
330
1F
100
AcDbEntity
  8
0
  6
Continuous
 62
     7
370
    25
100
AcDbLine
 10
212.7547575219
 20
128.7659661275
 30
0.0
 11
212.3132808192
 21
128.5312299978
 31
0.0
  0
ARC
  5
93
330
1F
100
AcDbEntity
  8
0
  6
Continuous
 62
     7
370
    25
100
AcDbCircle
 10
209.9319854905
 20
121.2537892237
 30
0.0
 40
8.02501363081651
100
AcDbArc
 50
37.5388778773
 51
69.4058118725
  0
ARC
  5
94
330
1F
100
AcDbEntity
  8
0
  6
Continuous
 62
     7
370
    25
100
AcDbCircle
 10
209.6431188087
 20
121.7970571624
 30
0.0
 40
8.025015349942677
100
AcDbArc
 50
346.5942247769
 51
18.3962306715
  0
SPLINE
  5
95
330
1F
100
AcDbEntity
  8
0
  6
Continuous
 62
     7
370
    25
100
AcDbSpline
210
0.0
220
0.0
230
1.0
 70
     8
 71
     3
 72
    19
 73
    15
 74
     0
 42
0.00000001
 43
0.00000001
 40
0.0
 40
0.0
 40
0.0
 40
0.0
 40
0.0273096760361662
 40
0.0625193715252684
 40
0.118670391230925
 40
0.2139965279703288
 40
0.354160244605478
 40
0.5402170089517225
 40
0.7098181599658631
 40
0.8279413561883071
 40
0.8741631908063655
 40
0.9150637085423238
 40
0.9760455418360275
 40
1.0
 40
1.0
 40
1.0
 40
1.0
 10
211.1499993188368
 20
124.2023420881911
 30
0.0
 10
211.148663479631
 20
124.1980268910129
 30
0.0
 10
211.1456053757014
 20
124.1881482159517
 30
0.0
 10
211.142904658451
 20
124.1686765602412
 30
0.0
 10
211.1343778200241
 20
124.1389621842215
 30
0.0
 10
211.1157880816227
 20
124.0943232948853
 30
0.0
 10
211.0757450322935
 20
124.0364986858335
 30
0.0
 10
211.0114175395677
 20
123.9835411967181
 30
0.0
 10
210.9377885072506
 20
123.9538857822871
 30
0.0
 10
210.8829342097268
 20
123.9458210952011
 30
0.0
 10
210.8488072381887
 20
123.9461660757216
 30
0.0
 10
210.8249495897052
 20
123.9460398144256
 30
0.0
 10
210.8017818555258
 20
123.9538629887646
 30
0.0
 10
210.7912743111461
 20
123.943690151681
 30
0.0
 10
210.7883108837591
 20
123.9408211213036
 30
0.0
  0
SPLINE
  5
96
330
1F
100
AcDbEntity
  8
0
  6
Continuous
 62
     7
370
    25
100
AcDbSpline
210
0.0
220
0.0
230
1.0
 70
     8
 71
     3
 72
    19
 73
    15
 74
     0
 42
0.00000001
 43
0.00000001
 40
0.0
 40
0.0
 40
0.0
 40
0.0
 40
0.0273098328766299
 40
0.0625178836303777
 40
0.1186674117667483
 40
0.2140016701758153
 40
0.354159203774443
 40
0.5402146500155853
 40
0.7098314154692751
 40
0.8279404033641744
 40
0.874162489946772
 40
0.9150631518451663
 40
0.9760454042647022
 40
1.0
 40
1.0
 40
1.0
 40
1.0
 10
211.8563590629088
 20
124.5779184055014
 30
0.0
 10
211.8550232383182
 20
124.5736032039269
 30
0.0
 10
211.8519652581877
 20
124.5637248106355
 30
0.0
 10
211.8492641599287
 20
124.5442538889995
 30
0.0
 10
211.8407383349877
 20
124.5145383065877
 30
0.0
 10
211.8221366919136
 20
124.4699050534589
 30
0.0
 10
211.7821088058014
 20
124.4120717502323
 30
0.0
 10
211.7177737049463
 20
124.359117821823
 30
0.0
 10
211.6441455186582
 20
124.3294658217705
 30
0.0
 10
211.5892914944765
 20
124.3213968761263
 30
0.0
 10
211.5551670098326
 20
124.3217449657744
 30
0.0
 10
211.5313092743964
 20
124.3216161863593
 30
0.0
 10
211.5081416150326
 20
124.3294413544471
 30
0.0
 10
211.4976340567383
 20
124.3192683706783
 30
0.0
 10
211.4946706278311
 20
124.3163993012591
 30
0.0
  0
SPLINE
  5
97
330
1F
100
AcDbEntity
  8
0
  6
Continuous
 62
     7
370
    25
100
AcDbSpline
210
0.0
220
0.0
230
1.0
 70
     8
 71
     3
 72
    19
 73
    15
 74
     0
 42
0.00000001
 43
0.00000001
 40
0.0
 40
0.0
 40
0.0
 40
0.0
 40
0.0273097640148768
 40
0.0625214198774794
 40
0.1186708064327952
 40
0.2140013609245847
 40
0.3541585411159426
 40
0.540215904848068
 40
0.7098322426130246
 40
0.8279558193718941
 40
0.8741777894054843
 40
0.915078529720008
 40
0.9760454646662237
 40
1.0
 40
1.0
 40
1.0
 40
1.0
 10
212.5627188069807
 20
124.9534965854569
 30
0.0
 10
212.5613829633769
 20
124.9491813870799
 30
0.0
 10
212.5583247590365
 20
124.9393024174397
 30
0.0
 10
212.5556242448804
 20
124.9198307656118
 30
0.0
 10
212.5470982739893
 20
124.8901151385147
 30
0.0
 10
212.528495847741
 20
124.8454828523396
 30
0.0
 10
212.4884681775475
 20
124.7876498216229
 30
0.0
 10
212.4241340760942
 20
124.7346942050829
 30
0.0
 10
212.3505029301654
 20
124.705040508669
 30
0.0
 10
212.2956462773738
 20
124.696973990693
 30
0.0
 10
212.2615192300981
 20
124.6973204534365
 30
0.0
 10
212.2376641372967
 20
124.697195764726
 30
0.0
 10
212.2144993736937
 20
124.7050158498271
 30
0.0
 10
212.2039937767183
 20
124.6948446867233
 30
0.0
 10
212.201030371903
 20
124.6919756185694
 30
0.0
  0
SPLINE
  5
98
330
1F
100
AcDbEntity
  8
0
  6
Continuous
 62
     7
370
    25
100
AcDbSpline
210
0.0
220
0.0
230
1.0
 70
     8
 71
     3
 72
    19
 73
    15
 74
     0
 42
0.00000001
 43
0.00000001
 40
0.0
 40
0.0
 40
0.0
 40
0.0
 40
0.0273095207950343
 40
0.0625199591500288
 40
0.118664913713272
 40
0.2139980826954057
 40
0.3541540146516168
 40
0.5402189516162466
 40
0.709819844811385
 40
0.8279423695656412
 40
0.8741639279479162
 40
0.9150641224562724
 40
0.976045678004512
 40
1.0
 40
1.0
 40
1.0
 40
1.0
 10
213.2690785510527
 20
125.3290729027673
 30
0.0
 10
213.2677433130611
 20
125.3247575849162
 30
0.0
 10
213.2646865393697
 20
125.314878484591
 30
0.0
 10
213.261970648942
 20
125.2954106829161
 30
0.0
 10
213.2534647663216
 20
125.2656904348536
 30
0.0
 10
213.2348525348681
 20
125.2210605839494
 30
0.0
 10
213.194829496926
 20
125.1632231506442
 30
0.0
 10
213.1304874303358
 20
125.1102771253627
 30
0.0
 10
213.0568610400979
 20
125.0806175528674
 30
0.0
 10
213.0020059347591
 20
125.072551629871
 30
0.0
 10
212.9678790574643
 20
125.0728994239358
 30
0.0
 10
212.9440213078931
 20
125.0727706994192
 30
0.0
 10
212.9208536529971
 20
125.0805958501548
 30
0.0
 10
212.9103460943898
 20
125.0704228676014
 30
0.0
 10
212.9073826653944
 20
125.0675537985249
 30
0.0
  0
SPLINE
  5
99
330
1F
100
AcDbEntity
  8
0
  6
Continuous
 62
     7
370
    25
100
AcDbSpline
210
0.0
220
0.0
230
1.0
 70
     8
 71
     3
 72
    19
 73
    15
 74
     0
 42
0.00000001
 43
0.00000001
 40
0.0
 40
0.0
 40
0.0
 40
0.0
 40
0.0120403361921644
 40
0.0554691417011151
 40
0.0953396615771346
 40
0.1535691046452546
 40
0.2309123686767056
 40
0.3278669415191541
 40
0.544563100251528
 40
0.7152277539345248
 40
0.8338866863548917
 40
0.9215177376111888
 40
0.9806890487591415
 40
1.0
 40
1.0
 40
1.0
 40
1.0
 10
212.6939011795507
 20
121.1347098824068
 30
0.0
 10
212.6955134214683
 20
121.1327106691775
 30
0.0
 10
212.7029409279726
 20
121.1235004079241
 30
0.0
 10
212.7034291719355
 20
121.1561141587443
 30
0.0
 10
212.7116859111674
 20
121.1748351603371
 30
0.0
 10
212.7223026027111
 20
121.2066468671154
 30
0.0
 10
212.7420724185641
 20
121.2427702734683
 30
0.0
 10
212.7844279016561
 20
121.2995153583939
 30
0.0
 10
212.8567216277564
 20
121.3520767166704
 30
0.0
 10
212.9457026059106
 20
121.3776736759889
 30
0.0
 10
213.0137561001413
 20
121.3764317206358
 30
0.0
 10
213.0611874452536
 20
121.371090572913
 30
0.0
 10
213.0887896850912
 20
121.3548685403134
 30
0.0
 10
213.1028528545093
 20
121.3574788498812
 30
0.0
 10
213.1063131673323
 20
121.358121129541
 30
0.0
  0
SPLINE
  5
9A
330
1F
100
AcDbEntity
  8
0
  6
Continuous
 62
     7
370
    25
100
AcDbSpline
210
0.0
220
0.0
230
1.0
 70
     8
 71
     3
 72
    19
 73
    15
 74
     0
 42
0.00000001
 43
0.00000001
 40
0.0
 40
0.0
 40
0.0
 40
0.0
 40
0.0120403300014278
 40
0.0554691131807447
 40
0.0953396125566813
 40
0.1535690256851766
 40
0.2309122499493178
 40
0.3278667729409798
 40
0.5445628202554638
 40
0.7152140677315322
 40
0.8338867717647807
 40
0.9215177779641333
 40
0.9806890586881842
 40
1.0
 40
1.0
 40
1.0
 40
1.0
 10
213.4002609236227
 20
121.5102871310397
 30
0.0
 10
213.4018731655405
 20
121.5082879178096
 30
0.0
 10
213.4093006720457
 20
121.4990776565528
 30
0.0
 10
213.4097889159883
 20
121.5316914074496
 30
0.0
 10
213.4180456553149
 20
121.5504124086859
 30
0.0
 10
213.4286623462912
 20
121.5822241175975
 30
0.0
 10
213.4484321653907
 20
121.6183475117461
 30
0.0
 10
213.4907876256795
 20
121.6750926823941
 30
0.0
 10
213.5630795466135
 20
121.7276519077673
 30
0.0
 10
213.652059591648
 20
121.7532520107799
 30
0.0
 10
213.7201133966852
 20
121.7520090463044
 30
0.0
 10
213.7675471855906
 20
121.7466678528435
 30
0.0
 10
213.7951494293706
 20
121.7304457872087
 30
0.0
 10
213.8092125986222
 20
121.733056098171
 30
0.0
 10
213.8126729114042
 20
121.7336983781739
 30
0.0
  0
SPLINE
  5
9B
330
1F
100
AcDbEntity
  8
0
  6
Continuous
 62
     7
370
    25
100
AcDbSpline
210
0.0
220
0.0
230
1.0
 70
     8
 71
     3
 72
    19
 73
    15
 74
     0
 42
0.00000001
 43
0.00000001
 40
0.0
 40
0.0
 40
0.0
 40
0.0
 40
0.0120308062513692
 40
0.0554635441618462
 40
0.095334278616982
 40
0.1535640350700913
 40
0.2309077153551881
 40
0.3278628099973683
 40
0.5445601349666114
 40
0.7152123886141407
 40
0.8338857923497925
 40
0.9215173152275686
 40
0.9806889448295496
 40
1.0
 40
1.0
 40
1.0
 40
1.0
 10
214.1066206676947
 20
121.8858643796726
 30
0.0
 10
214.1082300067961
 20
121.8838656891266
 30
0.0
 10
214.1156492643637
 20
121.8746514719703
 30
0.0
 10
214.1161523247714
 20
121.9072695790224
 30
0.0
 10
214.1244038825438
 20
121.9259891053097
 30
0.0
 10
214.13502272557
 20
121.9578015973947
 30
0.0
 10
214.1547916710067
 20
121.9939246736002
 30
0.0
 10
214.1971475393835
 20
122.0506699927594
 30
0.0
 10
214.2694392441873
 20
122.1032291394786
 30
0.0
 10
214.3584193432609
 20
122.1288292621571
 30
0.0
 10
214.4264731395246
 20
122.1275862944887
 30
0.0
 10
214.4739069298543
 20
122.1222451015461
 30
0.0
 10
214.5015091734319
 20
122.1060230358377
 30
0.0
 10
214.515572342692
 20
122.1086333468031
 30
0.0
 10
214.5190326554762
 20
122.1092756268068
 30
0.0
  0
SPLINE
  5
9C
330
1F
100
AcDbEntity
  8
0
  6
Continuous
 62
     7
370
    25
100
AcDbSpline
210
0.0
220
0.0
230
1.0
 70
     8
 71
     3
 72
    19
 73
    15
 74
     0
 42
0.00000001
 43
0.00000001
 40
0.0
 40
0.0
 40
0.0
 40
0.0
 40
0.0120401960832957
 40
0.055472194836683
 40
0.0953383896700529
 40
0.1535671551440209
 40
0.2309095191609665
 40
0.327862963779477
 40
0.5445677569328562
 40
0.7152171063466385
 40
0.8338884904470575
 40
0.9215049274493267
 40
0.9806755500429624
 40
1.0
 40
1.0
 40
1.0
 40
1.0
 10
214.812972961186
 20
122.2614416283055
 30
0.0
 10
214.8145850696754
 20
122.2594424750725
 30
0.0
 10
214.8220124567048
 20
122.2502318761019
 30
0.0
 10
214.8225134277052
 20
122.2828427103272
 30
0.0
 10
214.8307531416857
 20
122.3015690284858
 30
0.0
 10
214.8413763796033
 20
122.3333780299723
 30
0.0
 10
214.861143498744
 20
122.3695021682997
 30
0.0
 10
214.9035010560614
 20
122.426249109743
 30
0.0
 10
214.975797867392
 20
122.4788048283712
 30
0.0
 10
215.0647788883243
 20
122.5044061407082
 30
0.0
 10
215.1328306009372
 20
122.5031648290185
 30
0.0
 10
215.1802614695691
 20
122.4978199965075
 30
0.0
 10
215.2078637221931
 20
122.4816006044703
 30
0.0
 10
215.2219295729091
 20
122.4842103825509
 30
0.0
 10
215.2253923995482
 20
122.4848528754397
 30
0.0
  0
LINE
  5
9D
330
1F
100
AcDbEntity
  8
0
  6
Continuous
 62
     7
370
    25
100
AcDbLine
 10
211.2964702828
 20
124.4796154451
 30
0.0
 11
211.1210240109
 21
124.3863285881
 31
0.0
  0
LINE
  5
9E
330
1F
100
AcDbEntity
  8
0
  6
Continuous
 62
     7
370
    25
100
AcDbLine
 10
212.0028300269
 20
124.8551936251
 30
0.0
 11
211.827383755
 21
124.7619049054
 31
0.0
  0
LINE
  5
9F
330
1F
100
AcDbEntity
  8
0
  6
Continuous
 62
     7
370
    25
100
AcDbLine
 10
212.7091897709
 20
125.2307699424
 30
0.0
 11
212.5337360485
 21
125.1374830854
 31
0.0
  0
LINE
  5
A0
330
1F
100
AcDbEntity
  8
0
  6
Continuous
 62
     7
370
    25
100
AcDbLine
 10
213.7686399801
 20
125.7940915775
 30
0.0
 11
213.2400957925
 21
125.5130594027
 31
0.0
  0
LINE
  5
A1
330
1F
100
AcDbEntity
  8
0
  6
Continuous
 62
     7
370
    25
100
AcDbLine
 10
215.3772650344
 20
122.3456471589
 30
0.0
 11
215.5526368005
 21
122.4388911751
 31
0.0
  0
LINE
  5
A2
330
1F
100
AcDbEntity
  8
0
  6
Continuous
 62
     7
370
    25
100
AcDbLine
 10
214.6709127409
 20
121.9700699103
 30
0.0
 11
214.8463366611
 21
122.063347454
 31
0.0
  0
LINE
  5
A3
330
1F
100
AcDbEntity
  8
0
  6
Continuous
 62
     7
370
    25
100
AcDbLine
 10
213.9645529969
 20
121.5944926616
 30
0.0
 11
214.1399843676
 21
121.6877702054
 31
0.0
  0
LINE
  5
A4
330
1F
100
AcDbEntity
  8
0
  6
Continuous
 62
     7
370
    25
100
AcDbLine
 10
213.2581932528
 20
121.218915413
 30
0.0
 11
213.4336246235
 21
121.3121929568
 31
0.0
  0
LINE
  5
A5
330
1F
100
AcDbEntity
  8
0
  6
Continuous
 62
     7
370
    25
100
AcDbLine
 10
212.5518335087
 20
120.8433381644
 30
0.0
 11
212.7272648795
 21
120.9366157081
 31
0.0
  0
ARC
  5
A6
330
1F
100
AcDbEntity
  8
0
  6
Continuous
 62
     7
370
    25
100
AcDbCircle
 10
202.5996311624
 20
81.5407844157
 30
0.0
 40
57.00482367001522
100
AcDbArc
 50
113.8321170128
 51
118.9401725327
  0
ARC
  5
A7
330
1F
100
AcDbEntity
  8
0
  6
Continuous
 62
     7
370
    25
100
AcDbCircle
 10
202.5999701087
 20
145.543126592
 30
0.0
 40
57.01062359018963
100
AcDbArc
 50
269.8527774974
 51
270.8713081821
  0
ARC
  5
A8
330
1F
100
AcDbEntity
  8
0
  6
Continuous
 62
     7
370
    25
100
AcDbCircle
 10
202.6000292829
 20
145.5382420291
 30
0.0
 40
57.00574769656602
100
AcDbArc
 50
241.0598837584
 51
247.1694761295
  0
ARC
  5
A9
330
1F
100
AcDbEntity
  8
0
  6
Continuous
 62
     7
370
    25
100
AcDbCircle
 10
176.4669003739
 20
98.2764064575
 30
0.0
 40
2.999993112815845
100
AcDbArc
 50
179.9999037197
 51
241.0599241374
  0
ARC
  5
AA
330
1F
100
AcDbEntity
  8
0
  6
Continuous
 62
     7
370
    25
100
AcDbCircle
 10
176.4668974345
 20
128.8017859805
 30
0.0
 40
2.999990173388355
100
AcDbArc
 50
118.9400427546
 51
180.0000938144
  0
ARC
  5
AB
330
1F
100
AcDbEntity
  8
0
  6
Continuous
 62
     7
370
    25
100
AcDbCircle
 10
173.166907292
 20
98.7390958003
 30
0.0
 40
0.2999999691552461
100
AcDbArc
 50
0.0000914387
 51
90.0002642998
  0
ARC
  5
AC
330
1F
100
AcDbEntity
  8
0
  6
Continuous
 62
     7
370
    25
100
AcDbCircle
 10
173.1669057021
 20
128.339096494
 30
0.0
 40
0.3000015590182127
100
AcDbArc
 50
270.0000393415
 51
359.9999606585
  0
LINE
  5
AD
330
1F
100
AcDbEntity
  8
0
  6
Continuous
 62
     7
370
    25
100
AcDbLine
 10
173.1669059081
 20
128.039094935
 30
0.0
 11
153.7669053359
 21
128.039094935
 31
0.0
  0
LINE
  5
AE
330
1F
100
AcDbEntity
  8
0
  6
Continuous
 62
     7
370
    25
100
AcDbLine
 10
153.7669053359
 20
99.0390957695
 30
0.0
 11
173.1669059081
 21
99.0390957695
 31
0.0
  0
ARC
  5
AF
330
1F
100
AcDbEntity
  8
0
  6
Continuous
 62
     7
370
    25
100
AcDbCircle
 10
153.766904812
 20
127.0390971577
 30
0.0
 40
0.9999977773451527
100
AcDbArc
 50
89.9999699814
 51
180.0000300186
  0
ARC
  5
B0
330
1F
100
AcDbEntity
  8
0
  6
Continuous
 62
     7
370
    25
100
AcDbCircle
 10
153.7669079917
 20
100.0390967266
 30
0.0
 40
1.00000095708751
100
AcDbArc
 50
180.0000454453
 51
269.9998478329
  0
ARC
  5
B1
330
1F
100
AcDbEntity
  8
0
  6
Continuous
 62
     7
370
    25
100
AcDbCircle
 10
201.466911829
 20
76.5390911718
 30
0.0
 40
0.9999945976630725
100
AcDbArc
 50
269.999574353
 51
0.0002122036
  0
ARC
  5
B2
330
1F
100
AcDbEntity
  8
0
  6
Continuous
 62
     7
370
    25
100
AcDbCircle
 10
181.4669011435
 20
76.5390911718
 30
0.0
 40
0.9999945976630702
100
AcDbArc
 50
179.9997877964
 51
270.000425647
  0
LINE
  5
B3
330
1F
100
AcDbEntity
  8
0
  6
Continuous
 62
     7
370
    25
100
AcDbLine
 10
202.4669064267
 20
76.5390948754
 30
0.0
 11
202.4669064267
 21
88.5382549268
 31
0.0
  0
LINE
  5
B4
330
1F
100
AcDbEntity
  8
0
  6
Continuous
 62
     7
370
    25
100
AcDbLine
 10
180.4669065459
 20
93.0066810351
 30
0.0
 11
180.4669065459
 21
76.5390948754
 31
0.0
  0
LINE
  5
B5
330
1F
100
AcDbEntity
  8
0
  6
Continuous
 62
     7
370
    25
100
AcDbLine
 10
95.4786999209
 20
111.1390959368
 30
0.0
 11
147.7669043524
 21
111.1390959368
 31
0.0
  0
LINE
  5
B6
330
1F
100
AcDbEntity
  8
0
  6
Continuous
 62
     7
370
    25
100
AcDbLine
 10
147.7669043524
 20
115.9390959319
 30
0.0
 11
94.3844331486
 21
115.9390959319
 31
0.0
  0
LINE
  5
B7
330
1F
100
AcDbEntity
  8
0
  6
Continuous
 62
     7
370
    25
100
AcDbLine
 10
148.5174609406
 20
118.4390954104
 30
0.0
 11
152.7669070346
 21
118.4390954104
 31
0.0
  0
LINE
  5
B8
330
1F
100
AcDbEntity
  8
0
  6
Continuous
 62
     7
370
    25
100
AcDbLine
 10
148.5174609406
 20
108.6390958435
 30
0.0
 11
152.7669070346
 21
108.6390958435
 31
0.0
  0
SPLINE
  5
B9
330
1F
100
AcDbEntity
  8
0
  6
Continuous
 62
     7
370
    25
100
AcDbSpline
210
0.0
220
0.0
230
1.0
 70
     8
 71
     3
 72
     9
 73
     5
 74
     0
 42
0.00000001
 43
0.00000001
 40
0.0
 40
0.0
 40
0.0
 40
0.0
 40
0.4662246768838912
 40
1.0
 40
1.0
 40
1.0
 40
1.0
 10
147.7669043524252
 20
113.0700542953296
 30
0.0
 10
147.8166477789455
 20
112.3704089321773
 30
0.0
 10
147.9233418880022
 20
110.8697475604358
 30
0.0
 10
148.3106991779792
 20
109.4153939251048
 30
0.0
 10
148.5174609405981
 20
108.6390958434809
 30
0.0
  0
LINE
  5
BA
330
1F
100
AcDbEntity
  8
0
  6
Continuous
 62
     7
370
    25
100
AcDbLine
 10
147.7669043524
 20
113.0700542953
 30
0.0
 11
147.7669043524
 21
114.0081373405
 31
0.0
  0
SPLINE
  5
BB
330
1F
100
AcDbEntity
  8
0
  6
Continuous
 62
     7
370
    25
100
AcDbSpline
210
0.0
220
0.0
230
1.0
 70
     8
 71
     3
 72
     9
 73
     5
 74
     0
 42
0.00000001
 43
0.00000001
 40
0.0
 40
0.0
 40
0.0
 40
0.0
 40
0.3914037332359694
 40
1.0
 40
1.0
 40
1.0
 40
1.0
 10
148.5174609405981
 20
118.4390954103752
 30
0.0
 10
148.3624125570964
 20
117.871461632933
 30
0.0
 10
147.9662784113646
 20
116.4212103214568
 30
0.0
 10
147.8423355283313
 20
114.9210993049139
 30
0.0
 10
147.7669043524252
 20
114.0081373405143
 30
0.0
  0
LINE
  5
BC
330
1F
100
AcDbEntity
  8
0
  6
Continuous
 62
     7
370
    25
100
AcDbLine
 10
147.7669043524
 20
113.0700542953
 30
0.0
 11
147.7669043524
 21
106.4236167249
 31
0.0
  0
SPLINE
  5
BD
330
1F
100
AcDbEntity
  8
0
  6
Continuous
 62
     7
370
    25
100
AcDbSpline
210
0.0
220
0.0
230
1.0
 70
     8
 71
     3
 72
     9
 73
     5
 74
     0
 42
0.00000001
 43
0.00000001
 40
0.0
 40
0.0
 40
0.0
 40
0.0
 40
0.2218766141418115
 40
1.0
 40
1.0
 40
1.0
 40
1.0
 10
148.5174609405981
 20
108.6390958434809
 30
0.0
 10
148.4317922663242
 20
108.4874809663693
 30
0.0
 10
148.0456827405175
 20
107.804151280192
 30
0.0
 10
147.8889003764198
 20
107.027751528468
 30
0.0
 10
147.7669043524252
 20
106.423616724877
 30
0.0
  0
LINE
  5
BE
330
1F
100
AcDbEntity
  8
0
  6
Continuous
 62
     7
370
    25
100
AcDbLine
 10
148.5174609406
 20
103.7390957017
 30
0.0
 11
152.7669070346
 21
103.7390957017
 31
0.0
  0
SPLINE
  5
BF
330
1F
100
AcDbEntity
  8
0
  6
Continuous
 62
     7
370
    25
100
AcDbSpline
210
0.0
220
0.0
230
1.0
 70
     8
 71
     3
 72
     9
 73
     5
 74
     0
 42
0.00000001
 43
0.00000001
 40
0.0
 40
0.0
 40
0.0
 40
0.0
 40
0.266473295483929
 40
1.0
 40
1.0
 40
1.0
 40
1.0
 10
147.7669043524252
 20
105.954574969454
 30
0.0
 10
147.7906297008112
 20
105.7459546694933
 30
0.0
 10
147.8796643199947
 20
104.9630608354907
 30
0.0
 10
148.2475828637021
 20
104.2570058721554
 30
0.0
 10
148.5174609405981
 20
103.7390957016929
 30
0.0
  0
LINE
  5
C0
330
1F
100
AcDbEntity
  8
0
  6
Continuous
 62
     7
370
    25
100
AcDbLine
 10
147.7669043524
 20
105.9545749695
 30
0.0
 11
147.7669043524
 21
106.4236167249
 31
0.0
  0
LINE
  5
C1
330
1F
100
AcDbEntity
  8
0
  6
Continuous
 62
     7
370
    25
100
AcDbLine
 10
147.7669043524
 20
120.654574911
 30
0.0
 11
147.7669043524
 21
114.0081373405
 31
0.0
  0
SPLINE
  5
C2
330
1F
100
AcDbEntity
  8
0
  6
Continuous
 62
     7
370
    25
100
AcDbSpline
210
0.0
220
0.0
230
1.0
 70
     8
 71
     3
 72
     9
 73
     5
 74
     0
 42
0.00000001
 43
0.00000001
 40
0.0
 40
0.0
 40
0.0
 40
0.0
 40
0.2664734634725393
 40
0.9999999999999999
 40
0.9999999999999999
 40
0.9999999999999999
 40
0.9999999999999999
 10
147.7669043524252
 20
120.6545749109669
 30
0.0
 10
147.7906296875042
 20
120.445954452319
 30
0.0
 10
147.8796642006213
 20
119.6630605163551
 30
0.0
 10
148.2475828488437
 20
118.9570055006461
 30
0.0
 10
148.5174609405981
 20
118.4390954103752
 30
0.0
  0
LINE
  5
C3
330
1F
100
AcDbEntity
  8
0
  6
Continuous
 62
     7
370
    25
100
AcDbLine
 10
148.5174609406
 20
123.3390954685
 30
0.0
 11
152.7669070346
 21
123.3390954685
 31
0.0
  0
SPLINE
  5
C4
330
1F
100
AcDbEntity
  8
0
  6
Continuous
 62
     7
370
    25
100
AcDbSpline
210
0.0
220
0.0
230
1.0
 70
     8
 71
     3
 72
     9
 73
     5
 74
     0
 42
0.00000001
 43
0.00000001
 40
0.0
 40
0.0
 40
0.0
 40
0.0
 40
0.2218765428011769
 40
1.0
 40
1.0
 40
1.0
 40
1.0
 10
148.5174609405981
 20
123.3390954684897
 30
0.0
 10
148.4317922653346
 20
123.1874806979862
 30
0.0
 10
148.0456826109205
 20
122.5041512725795
 30
0.0
 10
147.8889003259972
 20
121.727751654336
 30
0.0
 10
147.7669043524252
 20
121.1236168992205
 30
0.0
  0
LINE
  5
C5
330
1F
100
AcDbEntity
  8
0
  6
Continuous
 62
     7
370
    25
100
AcDbLine
 10
147.7669043524
 20
120.654574911
 30
0.0
 11
147.7669043524
 21
121.1236168992
 31
0.0
  0
LINE
  5
C6
330
1F
100
AcDbEntity
  8
0
  6
Continuous
 62
     7
370
    25
100
AcDbLine
 10
147.7669043524
 20
122.0390958142
 30
0.0
 11
147.7669043524
 21
121.1236168992
 31
0.0
  0
LINE
  5
C7
330
1F
100
AcDbEntity
  8
0
  6
Continuous
 62
     7
370
    25
100
AcDbLine
 10
147.7669043524
 20
105.9545749695
 30
0.0
 11
147.7669043524
 21
105.0390958216
 31
0.0
  0
LWPOLYLINE
  5
C8
330
1F
100
AcDbEntity
  8
0
  6
Continuous
 62
     7
370
    25
100
AcDbPolyline
 90
       35
 70
   128
 43
0.0
 10
177.8825907094
 20
136.839500944
 10
177.8972981555
 20
136.8118443888
 10
178.0147491081
 20
136.5909439873
 10
178.248622833
 20
136.1510877859
 10
178.5968704207
 20
135.4961389106
 10
179.0564147813
 20
134.6318529349
 10
179.6232326014
 20
133.5658257258
 10
180.2923394425
 20
132.3074245256
 10
181.0578493459
 20
130.8677097213
 10
181.9130344374
 20
129.2593342614
 10
182.8503845317
 20
127.4964300346
 10
183.8616667373
 20
125.5944905233
 10
184.9379850609
 20
123.5702320364
 10
186.0698847158
 20
121.4414409724
 10
187.2474117262
 20
119.2268266704
 10
188.460232137
 20
116.9458519098
 10
189.6976767166
 20
114.6185596835
 10
190.9488676174
 20
112.2654043965
 10
192.2028226836
 20
109.9070649025
 10
193.4485076053
 20
107.5642663882
 10
194.6749849303
 20
105.2575976018
 10
195.8714736683
 20
103.0073294778
 10
197.0274610503
 20
100.8332374867
 10
198.1327844841
 20
98.7544277113
 10
199.1777284129
 20
96.7891685095
 10
200.1531137211
 20
94.9547312584
 10
201.0503722413
 20
93.2672362205
 10
201.8616138084
 20
91.7415147078
 10
202.5797082169
 20
90.3909721774
 10
203.1983522756
 20
89.2274801981
 10
203.7120996101
 20
88.2612609666
 10
204.1164351685
 20
87.5008062821
 10
204.4078199251
 20
86.9528011781
 10
204.5836759789
 20
86.6220605921
 10
204.6424685104
 20
86.5114883881
  0
SPLINE
  5
C9
330
1F
100
AcDbEntity
  8
0
  6
Continuous
 62
     7
370
    25
100
AcDbSpline
210
0.0
220
0.0
230
1.0
 70
     8
 71
     3
 72
    11
 73
     7
 74
     0
 42
0.00000001
 43
0.00000001
 40
0.0
 40
0.0
 40
0.0
 40
0.0
 40
0.2500442320914927
 40
0.5008380708742625
 40
0.6082209192051642
 40
1.0
 40
1.0
 40
1.0
 40
1.0
 10
206.9300351722227
 20
110.7698090736254
 30
0.0
 10
206.4147994104625
 20
112.0313935878536
 30
0.0
 10
205.3827832635315
 20
114.5583447159231
 30
0.0
 10
203.9170761901937
 20
117.5339961860472
 30
0.0
 10
201.9514348628706
 20
121.1175754012197
 30
0.0
 10
200.4507125670193
 20
123.3885055460102
 30
0.0
 10
199.272835074185
 20
125.1708989393397
 30
0.0
  0
SPLINE
  5
CA
330
1F
100
AcDbEntity
  8
0
  6
Continuous
 62
     7
370
    25
100
AcDbSpline
210
0.0
220
0.0
230
1.0
 70
     8
 71
     3
 72
    12
 73
     8
 74
     0
 42
0.00000001
 43
0.00000001
 40
0.0
 40
0.0
 40
0.0
 40
0.0
 40
0.2404570026265449
 40
0.5381651548346725
 40
0.7797431189397905
 40
0.9382208154582562
 40
1.0
 40
1.0
 40
1.0
 40
1.0
 10
206.9300351722227
 20
110.7698090736254
 30
0.0
 10
206.9482452641836
 20
110.7250360318165
 30
0.0
 10
206.9890011450796
 20
110.6248297965467
 30
0.0
 10
207.0524670080336
 20
110.4799548316222
 30
0.0
 10
207.1208153284132
 20
110.3605014194428
 30
0.0
 10
207.1619822849276
 20
110.2705245341143
 30
0.0
 10
207.2024071757521
 20
110.2506671362032
 30
0.0
 10
207.213745830773
 20
110.2450973948895
 30
0.0
  0
SPLINE
  5
CB
330
1F
100
AcDbEntity
  8
0
  6
Continuous
 62
     7
370
    25
100
AcDbSpline
210
0.0
220
0.0
230
1.0
 70
     8
 71
     3
 72
     9
 73
     5
 74
     0
 42
0.00000001
 43
0.00000001
 40
0.0
 40
0.0
 40
0.0
 40
0.0
 40
0.4127234987535119
 40
1.0
 40
1.0
 40
1.0
 40
1.0
 10
207.6196460111128
 20
110.4958498280926
 30
0.0
 10
207.5639211704095
 20
110.4611639817539
 30
0.0
 10
207.4289038019494
 20
110.3771226164245
 30
0.0
 10
207.2933521378206
 20
110.2939454123071
 30
0.0
 10
207.213745830773
 20
110.2450973948895
 30
0.0
  0
SPLINE
  5
CC
330
1F
100
AcDbEntity
  8
0
  6
Continuous
 62
     7
370
    25
100
AcDbSpline
210
0.0
220
0.0
230
1.0
 70
     8
 71
     3
 72
     9
 73
     5
 74
     0
 42
0.00000001
 43
0.00000001
 40
0.0
 40
0.0
 40
0.0
 40
0.0
 40
0.5872715536535432
 40
1.0
 40
1.0
 40
1.0
 40
1.0
 10
198.9964781386839
 20
125.6995194953366
 30
0.0
 10
199.0814907348079
 20
125.7382023838434
 30
0.0
 10
199.2262493147103
 20
125.8040712110771
 30
0.0
 10
199.3714271528183
 20
125.8690102875877
 30
0.0
 10
199.4313461763846
 20
125.8958124917431
 30
0.0
  0
SPLINE
  5
CD
330
1F
100
AcDbEntity
  8
0
  6
Continuous
 62
     7
370
    25
100
AcDbSpline
210
0.0
220
0.0
230
1.0
 70
     8
 71
     3
 72
    12
 73
     8
 74
     0
 42
0.00000001
 43
0.00000001
 40
0.0
 40
0.0
 40
0.0
 40
0.0
 40
0.0379079369156253
 40
0.1661565642192624
 40
0.384426920016154
 40
0.6744678592969492
 40
1.0
 40
1.0
 40
1.0
 40
1.0
 10
198.9964781386839
 20
125.6995194953366
 30
0.0
 10
198.9940386577778
 20
125.6921163879326
 30
0.0
 10
198.9833460219126
 20
125.659667381448
 30
0.0
 10
199.0272485521724
 20
125.5857957289216
 30
0.0
 10
199.0782546039297
 20
125.4730878094335
 30
0.0
 10
199.1680037105337
 20
125.3283538229072
 30
0.0
 10
199.2365734772115
 20
125.2253632268446
 30
0.0
 10
199.272835074185
 20
125.1708989393397
 30
0.0
  0
ARC
  5
CE
330
1F
100
AcDbEntity
  8
0
  6
Continuous
 62
     7
370
    25
100
AcDbCircle
 10
207.4915912909
 20
110.3541143434
 30
0.0
 40
0.2984674099386304
100
AcDbArc
 50
121.1595811588
 51
201.4233250717
  0
ARC
  5
CF
330
1F
100
AcDbEntity
  8
0
  6
Continuous
 62
     7
370
    25
100
AcDbCircle
 10
199.2422290443
 20
125.8689157962
 30
0.0
 40
0.2984771588219151
100
AcDbArc
 50
214.5785275695
 51
294.8397611823
  0
LINE
  5
D0
330
1F
100
AcDbEntity
  8
0
  6
Continuous
 62
     7
370
    25
100
AcDbLine
 10
215.0820655806
 20
115.2631345567
 30
0.0
 11
207.3371572478
 21
110.6095217064
 31
0.0
  0
LINE
  5
D1
330
1F
100
AcDbEntity
  8
0
  6
Continuous
 62
     7
370
    25
100
AcDbLine
 10
199.36761391
 20
125.5980519008
 30
0.0
 11
207.5565321429
 21
129.4166067046
 31
0.0
  0
ARC
  5
D2
330
1F
100
AcDbEntity
  8
0
  6
Continuous
 62
     7
370
    25
100
AcDbCircle
 10
207.9011013374
 20
110.5987587946
 30
0.0
 40
0.2996787548103609
100
AcDbArc
 50
121.0304651194
 51
200.0840102353
  0
ARC
  5
D3
330
1F
100
AcDbEntity
  8
0
  6
Continuous
 62
     7
370
    25
100
AcDbCircle
 10
199.6740473068
 20
126.0715923706
 30
0.0
 40
0.2996704932521516
100
AcDbArc
 50
215.9144902872
 51
294.9701984703
  0
ARC
  5
D4
330
1F
100
AcDbEntity
  8
0
  6
Continuous
 62
     7
370
    25
100
AcDbCircle
 10
214.9275610527
 20
115.5202829344
 30
0.0
 40
0.2999948955176582
100
AcDbArc
 50
300.9990495826
 51
28.0009527383
  0
LINE
  5
D5
330
1F
100
AcDbEntity
  8
0
  6
Continuous
 62
     7
370
    25
100
AcDbLine
 10
207.9482017143
 20
129.2855565798
 30
0.0
 11
215.1924384816
 21
115.6611264114
 31
0.0
  0
ARC
  5
D6
330
1F
100
AcDbEntity
  8
0
  6
Continuous
 62
     7
370
    25
100
AcDbCircle
 10
207.6833194763
 20
129.1447194882
 30
0.0
 40
0.2999961438668324
100
AcDbArc
 50
27.9994447571
 51
115.0007343237
  0
LINE
  5
D7
330
1F
100
AcDbEntity
  8
0
  6
Continuous
 62
     7
370
    25
100
AcDbLine
 10
180.4669065459
 20
75.5390965742
 30
0.0
 11
180.4669065459
 21
70.5390976172
 31
0.0
  0
LINE
  5
D8
330
1F
100
AcDbEntity
  8
0
  6
Continuous
 62
     7
370
    25
100
AcDbLine
 10
185.9669027908
 20
75.5390965742
 30
0.0
 11
184.7375942452
 21
75.5390965742
 31
0.0
  0
LINE
  5
D9
330
1F
100
AcDbEntity
  8
0
  6
Continuous
 62
     7
370
    25
100
AcDbLine
 10
181.6962150915
 20
75.5390965742
 30
0.0
 11
180.4669065459
 21
75.5390965742
 31
0.0
  0
LINE
  5
DA
330
1F
100
AcDbEntity
  8
0
  6
Continuous
 62
     7
370
    25
100
AcDbLine
 10
185.9669027908
 20
75.5390965742
 30
0.0
 11
185.9669027908
 21
70.5390976172
 31
0.0
  0
SPLINE
  5
DB
330
1F
100
AcDbEntity
  8
0
  6
Continuous
 62
     7
370
    25
100
AcDbSpline
210
0.0
220
0.0
230
1.0
 70
     8
 71
     3
 72
    10
 73
     6
 74
     0
 42
0.00000001
 43
0.00000001
 40
0.0
 40
0.0
 40
0.0
 40
0.0
 40
0.3409496609157376
 40
0.6770588424374303
 40
0.9999999999999999
 40
0.9999999999999999
 40
0.9999999999999999
 40
0.9999999999999999
 10
180.4669065458762
 20
70.53909761723715
 30
0.0
 10
181.0673899355038
 20
70.27683101580581
 30
0.0
 10
182.259831622034
 20
69.7560212250051
 30
0.0
 10
184.2423721737046
 20
69.78000709775174
 30
0.0
 10
185.3997676214534
 20
70.28946045449749
 30
0.0
 10
185.9669027907835
 20
70.53909761723716
 30
0.0
  0
LINE
  5
DC
330
1F
100
AcDbEntity
  8
0
  6
Continuous
 62
     7
370
    25
100
AcDbLine
 10
196.9669027312
 20
75.5390965742
 30
0.0
 11
194.50828564
 21
75.5390965742
 31
0.0
  0
LINE
  5
DD
330
1F
100
AcDbEntity
  8
0
  6
Continuous
 62
     7
370
    25
100
AcDbLine
 10
188.4255273325
 20
75.5390965742
 30
0.0
 11
185.9669027908
 21
75.5390965742
 31
0.0
  0
LINE
  5
DE
330
1F
100
AcDbEntity
  8
0
  6
Continuous
 62
     7
370
    25
100
AcDbLine
 10
196.9669027312
 20
75.5390965742
 30
0.0
 11
196.9669027312
 21
70.5390976172
 31
0.0
  0
SPLINE
  5
DF
330
1F
100
AcDbEntity
  8
0
  6
Continuous
 62
     7
370
    25
100
AcDbSpline
210
0.0
220
0.0
230
1.0
 70
     8
 71
     3
 72
    11
 73
     7
 74
     0
 42
0.00000001
 43
0.00000001
 40
0.0
 40
0.0
 40
0.0
 40
0.0
 40
0.1301169153708226
 40
0.4385232672532096
 40
0.7559111656744307
 40
1.0
 40
1.0
 40
1.0
 40
1.0
 10
185.9669027907835
 20
70.53909761723716
 30
0.0
 10
186.43624505949
 20
70.42846191761822
 30
0.0
 10
188.0180340570745
 20
70.05559472864837
 30
0.0
 10
190.8111635594855
 20
69.71063982294315
 30
0.0
 10
194.0515919379123
 20
69.88469614802494
 30
0.0
 10
196.0835546310219
 20
70.34081196758923
 30
0.0
 10
196.9669027311789
 20
70.53909761723716
 30
0.0
  0
SPLINE
  5
E0
330
1F
100
AcDbEntity
  8
0
  6
Continuous
 62
     7
370
    25
100
AcDbSpline
210
0.0
220
0.0
230
1.0
 70
     8
 71
     3
 72
    10
 73
     6
 74
     0
 42
0.00000001
 43
0.00000001
 40
0.0
 40
0.0
 40
0.0
 40
0.0
 40
0.3409504964571846
 40
0.6770579897644956
 40
1.0
 40
1.0
 40
1.0
 40
1.0
 10
196.9669027311789
 20
70.53909761723716
 30
0.0
 10
197.5673886234348
 20
70.27683079498004
 30
0.0
 10
198.7598308557158
 20
69.75602249786812
 30
0.0
 10
200.7423727341807
 20
69.78000857981975
 30
0.0
 10
201.8997687584119
 20
70.28946028712613
 30
0.0
 10
202.4669064266668
 20
70.53909761723716
 30
0.0
  0
LINE
  5
E1
330
1F
100
AcDbEntity
  8
0
  6
Continuous
 62
     7
370
    25
100
AcDbLine
 10
200.4669098241
 20
69.5390955907
 30
0.0
 11
182.4669031484
 21
69.5390955907
 31
0.0
  0
LINE
  5
E2
330
1F
100
AcDbEntity
  8
0
  6
Continuous
 62
     7
370
    25
100
AcDbLine
 10
202.4669064267
 20
75.5390965742
 30
0.0
 11
202.4669064267
 21
70.5390976172
 31
0.0
  0
LINE
  5
E3
330
1F
100
AcDbEntity
  8
0
  6
Continuous
 62
     7
370
    25
100
AcDbLine
 10
202.4669064267
 20
75.5390965742
 30
0.0
 11
201.2375978811
 21
75.5390965742
 31
0.0
  0
LINE
  5
E4
330
1F
100
AcDbEntity
  8
0
  6
Continuous
 62
     7
370
    25
100
AcDbLine
 10
198.1962187273
 20
75.5390965742
 30
0.0
 11
196.9669027312
 21
75.5390965742
 31
0.0
  0
LWPOLYLINE
  5
E5
330
1F
100
AcDbEntity
  8
0
  6
Continuous
 62
     7
370
    25
100
AcDbPolyline
 90
       16
 70
   128
 43
0.0
 10
217.0079959614
 20
119.701753686
 10
216.9916791899
 20
119.7324407649
 10
216.8717546446
 20
119.957985672
 10
216.6409580095
 20
120.3920555663
 10
216.3108600361
 20
121.0128845077
 10
215.8980084641
 20
121.7893402454
 10
215.4231084568
 20
122.6824897703
 10
214.9099795206
 20
123.6475457799
 10
214.38434851
 20
124.6361167532
 10
213.8725681288
 20
125.5986330461
 10
213.4003130777
 20
126.4868260723
 10
212.9912464006
 20
127.2561618489
 10
212.6658944471
 20
127.8680612695
 10
212.4405665381
 20
128.2918428433
 10
212.3265652044
 20
128.5062519264
 10
212.3132808192
 20
128.5312299978
  0
LWPOLYLINE
  5
E6
330
1F
100
AcDbEntity
  8
0
  6
Continuous
 62
     7
370
    25
100
AcDbPolyline
 90
       16
 70
   128
 43
0.0
 10
217.4494726641
 20
119.9364898157
 10
217.4331558926
 20
119.9671768945
 10
217.3132313473
 20
120.1927218017
 10
217.0824347122
 20
120.6267916959
 10
216.7523292882
 20
121.2476197061
 10
216.3394851668
 20
122.024076375
 10
215.8645851595
 20
122.9172259
 10
215.3514562232
 20
123.8822819096
 10
214.8258252127
 20
124.8708528828
 10
214.3140448315
 20
125.8333673131
 10
213.8417823298
 20
126.7215622019
 10
213.4327231033
 20
127.4908979785
 10
213.1073711498
 20
128.1027973991
 10
212.8820432408
 20
128.5265771103
 10
212.7680344565
 20
128.740988056
 10
212.7547575219
 20
128.7659661275
  0
SPLINE
  5
E7
330
1F
100
AcDbEntity
  8
0
  6
Continuous
 62
     7
370
    25
100
AcDbSpline
210
0.0
220
0.0
230
1.0
 70
     8
 71
     3
 72
     9
 73
     5
 74
     0
 42
0.00000001
 43
0.00000001
 40
0.0
 40
0.0
 40
0.0
 40
0.0
 40
0.001545575486157
 40
1.0
 40
1.0
 40
1.0
 40
1.0
 10
216.2944091541754
 20
126.1446302187129
 30
0.0
 10
216.2939671579347
 20
126.1452052207948
 30
0.0
 10
216.0079919696276
 20
126.51723627785
 30
0.0
 10
215.6321709085116
 20
126.806867329496
 30
0.0
 10
215.2569307072149
 20
127.0960507344885
 30
0.0
  0
LINE
  5
E8
330
1F
100
AcDbEntity
  8
0
  6
Continuous
 62
     7
370
    25
100
AcDbLine
 10
215.2569307072
 20
127.0960507345
 30
0.0
 11
215.7347662432
 21
126.1973691535
 31
0.0
  0
SPLINE
  5
E9
330
1F
100
AcDbEntity
  8
0
  6
Continuous
 62
     7
370
    25
100
AcDbSpline
210
0.0
220
0.0
230
1.0
 70
     8
 71
     3
 72
     9
 73
     5
 74
     0
 42
0.00000001
 43
0.00000001
 40
0.0
 40
0.0
 40
0.0
 40
0.0
 40
0.0015455768679686
 40
1.0
 40
1.0
 40
1.0
 40
1.0
 10
216.7722446901785
 20
125.2459505003377
 30
0.0
 10
216.7718026939382
 20
125.24652550242
 30
0.0
 10
216.4858277615836
 20
125.618556227162
 30
0.0
 10
216.1100065721324
 20
125.9081865132503
 30
0.0
 10
215.734766243218
 20
126.1973691534682
 30
0.0
  0
LINE
  5
EA
330
1F
100
AcDbEntity
  8
0
  6
Continuous
 62
     7
370
    25
100
AcDbLine
 10
216.9679714425
 20
123.6953291472
 30
0.0
 11
216.7722446902
 21
125.2459505003
 31
0.0
  0
LINE
  5
EB
330
1F
100
AcDbEntity
  8
0
  6
Continuous
 62
     7
370
    25
100
AcDbLine
 10
216.9679714425
 20
123.6953291472
 30
0.0
 11
217.451357661
 21
122.7862065088
 31
0.0
  0
LINE
  5
EC
330
1F
100
AcDbEntity
  8
0
  6
Continuous
 62
     7
370
    25
100
AcDbLine
 10
217.451357661
 20
122.7862065088
 30
0.0
 11
217.2556383593
 21
124.3368269306
 31
0.0
  0
SPLINE
  5
ED
330
1F
100
AcDbEntity
  8
0
  6
Continuous
 62
     7
370
    25
100
AcDbSpline
210
0.0
220
0.0
230
1.0
 70
     8
 71
     3
 72
    18
 73
    14
 74
     0
 42
0.00000001
 43
0.00000001
 40
0.0
 40
0.0
 40
0.0
 40
0.0
 40
0.0014402075168897
 40
0.0420074941765319
 40
0.1469159922357891
 40
0.3012654510529879
 40
0.4817973310897272
 40
0.6611648251617717
 40
0.8122024363037925
 40
0.9121748272923387
 40
0.9472004779538649
 40
0.9877675587431324
 40
1.0
 40
1.0
 40
1.0
 40
1.0
 10
215.3745902760016
 20
122.3506902706309
 30
0.0
 10
215.374869719936
 20
122.3487020114263
 30
0.0
 10
215.3830204477391
 20
122.2907091277764
 30
0.0
 10
215.1339996892787
 20
122.6244497599544
 30
0.0
 10
215.0144300970925
 20
122.8102052661611
 30
0.0
 10
214.6459602545087
 20
123.3836408306376
 30
0.0
 10
214.294373625706
 20
123.9512958770282
 30
0.0
 10
213.9378239697134
 20
124.5333905723771
 30
0.0
 10
213.5928356572215
 20
125.0522900247767
 30
0.0
 10
213.4444999154326
 20
125.3123090912821
 30
0.0
 10
213.1970515708284
 20
125.5828822954359
 30
0.0
 10
213.2547870386043
 20
125.3801654855465
 30
0.0
 10
213.2798557066271
 20
125.3183718803215
 30
0.0
 10
213.2856635434614
 20
125.3040557157679
 30
0.0
  0
SPLINE
  5
EE
330
1F
100
AcDbEntity
  8
0
  6
Continuous
 62
     7
370
    25
100
AcDbSpline
210
0.0
220
0.0
230
1.0
 70
     8
 71
     3
 72
    18
 73
    14
 74
     0
 42
0.00000001
 43
0.00000001
 40
0.0
 40
0.0
 40
0.0
 40
0.0
 40
0.0014402067695439
 40
0.0420074723781979
 40
0.146914867062164
 40
0.3012652367169529
 40
0.4817960502420141
 40
0.6611634512375107
 40
0.8122021712133101
 40
0.9121745103246469
 40
0.9471998388794209
 40
0.9877668986178071
 40
1.0
 40
1.0
 40
1.0
 40
1.0
 10
214.6682305319296
 20
121.975113021998
 30
0.0
 10
214.6685099759779
 20
121.9731247628322
 30
0.0
 10
214.6766607071022
 20
121.9151318803142
 30
0.0
 10
214.4276407218018
 20
122.2488697872668
 30
0.0
 10
214.3080811766461
 20
122.4346332000985
 30
0.0
 10
213.9395968353167
 20
123.0080579924929
 30
0.0
 10
213.5880230653369
 20
123.5757211879814
 30
0.0
 10
213.2314722941999
 20
124.1578158640101
 30
0.0
 10
212.8864758997244
 20
124.676711443536
 30
0.0
 10
212.7381397714139
 20
124.9367333213015
 30
0.0
 10
212.4906935348934
 20
125.2073040053836
 30
0.0
 10
212.5484212264851
 20
125.0045836046251
 30
0.0
 10
212.5735006728216
 20
124.9427934907524
 30
0.0
 10
212.5793112499701
 20
124.9284775358124
 30
0.0
  0
SPLINE
  5
EF
330
1F
100
AcDbEntity
  8
0
  6
Continuous
 62
     7
370
    25
100
AcDbSpline
210
0.0
220
0.0
230
1.0
 70
     8
 71
     3
 72
    18
 73
    14
 74
     0
 42
0.00000001
 43
0.00000001
 40
0.0
 40
0.0
 40
0.0
 40
0.0
 40
0.0014402069969264
 40
0.0420061618146307
 40
0.1469146219983984
 40
0.3012650160223127
 40
0.4817958580499167
 40
0.6611632873642745
 40
0.812201837631985
 40
0.9121741925271418
 40
0.9471998305432324
 40
0.987766896686422
 40
1.0
 40
1.0
 40
1.0
 40
1.0
 10
213.9618707878576
 20
121.5995357733651
 30
0.0
 10
213.9621502317908
 20
121.5975475114458
 30
0.0
 10
213.9703007039808
 20
121.5395563670549
 30
0.0
 10
213.7212908914491
 20
121.8733011365551
 30
0.0
 10
213.6017170303391
 20
122.0590496891405
 30
0.0
 10
213.2332390350379
 20
122.6324825366743
 30
0.0
 10
212.8816627713932
 20
123.2001434701686
 30
0.0
 10
212.5251127920063
 20
123.7822383543137
 30
0.0
 10
212.180116498983
 20
124.3011341189809
 30
0.0
 10
212.0317788739684
 20
124.5611541091729
 30
0.0
 10
211.7843341098539
 20
124.8317284646239
 30
0.0
 10
211.8420614481372
 20
124.6290072823591
 30
0.0
 10
211.8671409223021
 20
124.5672171725098
 30
0.0
 10
211.8729515058981
 20
124.5529012185021
 30
0.0
  0
SPLINE
  5
F0
330
1F
100
AcDbEntity
  8
0
  6
Continuous
 62
     7
370
    25
100
AcDbSpline
210
0.0
220
0.0
230
1.0
 70
     8
 71
     3
 72
    18
 73
    14
 74
     0
 42
0.00000001
 43
0.00000001
 40
0.0
 40
0.0
 40
0.0
 40
0.0
 40
0.0014404414457868
 40
0.0420076643503884
 40
0.1469159975367615
 40
0.3012652137802801
 40
0.4817968100953733
 40
0.6611640222757061
 40
0.8122025832571703
 40
0.9121748171303563
 40
0.9472001088149236
 40
0.987767125849474
 40
1.0
 40
1.0
 40
1.0
 40
1.0
 10
213.2555110437857
 20
121.2239585247322
 30
0.0
 10
213.2557930264407
 20
121.2219702520232
 30
0.0
 10
213.2640165004032
 20
121.1639861577435
 30
0.0
 10
213.014846535081
 20
121.4977067780199
 30
0.0
 10
212.8954027133582
 20
121.683479636628
 30
0.0
 10
212.5268722541427
 20
122.256906932797
 30
0.0
 10
212.1753058984545
 20
122.8245643082887
 30
0.0
 10
211.8187524223094
 20
123.4066616409895
 30
0.0
 10
211.4737565138017
 20
123.9255569331704
 30
0.0
 10
211.3254202052723
 20
124.1855787684971
 30
0.0
 10
211.0779741401374
 20
124.4561495810858
 30
0.0
 10
211.135701300458
 20
124.25342936646
 30
0.0
 10
211.1607811658224
 20
124.1916396418826
 30
0.0
 10
211.1665917618262
 20
124.1773239698692
 30
0.0
  0
SPLINE
  5
F1
330
1F
100
AcDbEntity
  8
0
  6
Continuous
 62
     7
370
    25
100
AcDbSpline
210
0.0
220
0.0
230
1.0
 70
     8
 71
     3
 72
    14
 73
    10
 74
     0
 42
0.00000001
 43
0.00000001
 40
0.0
 40
0.0
 40
0.0
 40
0.0
 40
0.0764847609240617
 40
0.3855982353807338
 40
0.6473102901558643
 40
0.8222030329448177
 40
0.885777010921532
 40
0.9521396222281056
 40
1.0
 40
1.0
 40
1.0
 40
1.0
 10
211.5681929571615
 20
122.6654819574638
 30
0.0
 10
211.6000475748571
 20
122.6144411353987
 30
0.0
 10
211.7606427604044
 20
122.357118621961
 30
0.0
 10
212.0183589185057
 20
121.9346837472208
 30
0.0
 10
212.3660972050062
 20
121.4076412154457
 30
0.0
 10
212.518577069634
 20
121.147776159993
 30
0.0
 10
212.7656362427841
 20
120.8661362386941
 30
0.0
 10
212.706304894517
 20
121.0917221069467
 30
0.0
 10
212.6749181367204
 20
121.1654305573271
 30
0.0
 10
212.6617668254362
 20
121.1963150080724
 30
0.0
  0
SPLINE
  5
F2
330
1F
100
AcDbEntity
  8
0
  6
Continuous
 62
     7
370
    25
100
AcDbSpline
210
0.0
220
0.0
230
1.0
 70
     8
 71
     3
 72
    18
 73
    14
 74
     0
 42
0.00000001
 43
0.00000001
 40
0.0
 40
0.0
 40
0.0
 40
0.0
 40
0.0001399878514057
 40
0.038267373081251
 40
0.1401745810289144
 40
0.2914902944057496
 40
0.4694197224622236
 40
0.6470129855449176
 40
0.797371177502307
 40
0.8978518400640408
 40
0.934376450003619
 40
0.9725031894288637
 40
1.0
 40
1.0
 40
1.0
 40
1.0
 10
211.2964777333723
 20
124.4796135824605
 30
0.0
 10
211.2966491520658
 20
124.4796990632377
 30
0.0
 10
211.3435085261513
 20
124.5030662680323
 30
0.0
 10
211.4697119699971
 20
124.2437801144828
 30
0.0
 10
211.6866616468736
 20
124.008443660993
 30
0.0
 10
212.0044581429386
 20
123.4650441153123
 30
0.0
 10
212.3719803526007
 20
122.8896090400569
 30
0.0
 10
212.7252115438621
 20
122.309198814315
 30
0.0
 10
213.0723656232508
 20
121.7833890638988
 30
0.0
 10
213.2249418634518
 20
121.5233429752897
 30
0.0
 10
213.471994926334
 20
121.2417154571036
 30
0.0
 10
213.4126648228053
 20
121.4672990134226
 30
0.0
 10
213.3812779351883
 20
121.541007704927
 30
0.0
 10
213.3681265695082
 20
121.5718922567054
 30
0.0
  0
SPLINE
  5
F3
330
1F
100
AcDbEntity
  8
0
  6
Continuous
 62
     7
370
    25
100
AcDbSpline
210
0.0
220
0.0
230
1.0
 70
     8
 71
     3
 72
    18
 73
    14
 74
     0
 42
0.00000001
 43
0.00000001
 40
0.0
 40
0.0
 40
0.0
 40
0.0
 40
0.0001416179233489
 40
0.0382686962923311
 40
0.140176103893691
 40
0.2914918370039761
 40
0.4694212882646591
 40
0.6470145745077219
 40
0.7973727860736886
 40
0.8978534617393497
 40
0.934376736504613
 40
0.9725031858429378
 40
1.0
 40
1.0
 40
1.0
 40
1.0
 10
212.0028300268637
 20
124.8551898997708
 30
0.0
 10
212.0030039313505
 20
124.8552753883881
 30
0.0
 10
212.0499972626401
 20
124.8783765457307
 30
0.0
 10
212.1759067845316
 20
124.6197012233053
 30
0.0
 10
212.3931127505385
 20
124.3838303165141
 30
0.0
 10
212.7107839696112
 20
123.840692304484
 30
0.0
 10
213.0783495251449
 20
123.2651656840165
 30
0.0
 10
213.4315702545008
 20
122.6847814848118
 30
0.0
 10
213.7787225866848
 20
122.1589633802897
 30
0.0
 10
213.9313064578133
 20
121.8989253509352
 30
0.0
 10
214.1783431620022
 20
121.6172929151055
 30
0.0
 10
214.1190262271919
 20
121.8428773284506
 30
0.0
 10
214.0876382111948
 20
121.9165851705883
 30
0.0
 10
214.0744863135801
 20
121.9474695053383
 30
0.0
  0
SPLINE
  5
F4
330
1F
100
AcDbEntity
  8
0
  6
Continuous
 62
     7
370
    25
100
AcDbSpline
210
0.0
220
0.0
230
1.0
 70
     8
 71
     3
 72
    18
 73
    14
 74
     0
 42
0.00000001
 43
0.00000001
 40
0.0
 40
0.0
 40
0.0
 40
0.0
 40
0.000143762185371
 40
0.0388471043887699
 40
0.1422975100706137
 40
0.2959051417619708
 40
0.4765286543104331
 40
0.656810911907294
 40
0.8094457237449387
 40
0.9114477950905324
 40
0.9485240752180382
 40
0.9872281033949954
 40
1.0
 40
1.0
 40
1.0
 40
1.0
 10
212.7091897709356
 20
125.2307680797263
 30
0.0
 10
212.7093636754365
 20
125.2308535683672
 30
0.0
 10
212.7563557706226
 20
125.2539541225876
 30
0.0
 10
212.8822543140556
 20
124.9952707460137
 30
0.0
 10
213.0994676905429
 20
124.7594049673233
 30
0.0
 10
213.4171425516089
 20
124.2162923147173
 30
0.0
 10
213.7847179374953
 20
123.640648475255
 30
0.0
 10
214.1378986291272
 20
123.0606852170803
 30
0.0
 10
214.4851664037748
 20
122.5336681968702
 30
0.0
 10
214.6375167980432
 20
122.2760526867896
 30
0.0
 10
214.8848901707983
 20
121.9909311209483
 30
0.0
 10
214.8335042152603
 20
122.1911474559351
 30
0.0
 10
214.8089717281018
 20
122.2511255643387
 30
0.0
 10
214.8028848750578
 20
122.2660069715663
 30
0.0
  0
LINE
  5
F5
330
1F
100
AcDbEntity
  8
0
  6
Continuous
 62
     7
370
    25
100
AcDbLine
 10
217.2556383593
 20
124.3368269306
 30
0.0
 11
216.9101847393
 21
124.1531468358
 31
0.0
  0
LINE
  5
F6
330
1F
100
AcDbEntity
  8
0
  6
Continuous
 62
     7
370
    25
100
AcDbLine
 10
216.2944091542
 20
126.1446302187
 30
0.0
 11
215.9766493423
 21
125.9756734025
 31
0.0
  0
SPLINE
  5
F7
330
1F
100
AcDbEntity
  8
0
  6
Continuous
 62
     7
370
    25
100
AcDbSpline
210
0.0
220
0.0
230
1.0
 70
     8
 71
     3
 72
    27
 73
    23
 74
     0
 42
0.00000001
 43
0.00000001
 40
0.0
 40
0.0
 40
0.0
 40
0.0
 40
0.0043869285969811
 40
0.0223808654092531
 40
0.0514064913646283
 40
0.0919183867006312
 40
0.1436093410250452
 40
0.2053556368299274
 40
0.2779313509571329
 40
0.3586657341580279
 40
0.4440850577611793
 40
0.5341837671491452
 40
0.617280311631577
 40
0.6999293913089735
 40
0.7698735307071277
 40
0.8348440868968673
 40
0.8889021021732019
 40
0.9344260305808355
 40
0.9685368749688493
 40
0.9907904158051922
 40
0.9993027719474004
 40
1.0
 40
1.0
 40
1.0
 40
1.0
 10
202.454002021073
 20
88.53835737225253
 30
0.0
 10
202.423609003711
 20
88.55178174701322
 30
0.0
 10
202.268552449696
 20
88.62026909940124
 30
0.0
 10
201.9118895123897
 20
88.7764115813052
 30
0.0
 10
201.3030006169436
 20
89.03863294032246
 30
0.0
 10
200.4562518303742
 20
89.39369908002894
 30
0.0
 10
199.3749908326476
 20
89.83015579959833
 30
0.0
 10
198.0592887598597
 20
90.33412608575418
 30
0.0
 10
196.5249802849225
 20
90.88137669682352
 30
0.0
 10
194.8044520350039
 20
91.43829005725627
 30
0.0
 10
192.9370691217818
 20
91.96893096578582
 30
0.0
 10
191.0308865845376
 20
92.42248219276611
 30
0.0
 10
189.1254282390041
 20
92.77960322706271
 30
0.0
 10
187.3561313935879
 20
93.01852699287222
 30
0.0
 10
185.7114926191172
 20
93.15474827226106
 30
0.0
 10
184.2865074258265
 20
93.20531461477819
 30
0.0
 10
183.0225178197566
 20
93.19188700133675
 30
0.0
 10
182.0595606638256
 20
93.15000971118916
 30
0.0
 10
181.1707333707894
 20
93.07695251956874
 30
0.0
 10
180.9119662337711
 20
93.05459717118798
 30
0.0
 10
180.4047553037155
 20
92.99765972567332
 30
0.0
 10
180.4797094481193
 20
93.00607556399623
 30
0.0
 10
180.4853839857565
 20
93.00671270009715
 30
0.0
  0
LINE
  5
F8
330
1F
100
AcDbEntity
  8
0
  6
Continuous
 62
     7
370
    25
100
AcDbLine
 10
203.4669084532
 20
88.5390949797
 30
0.0
 11
203.4669084532
 21
88.7223978889
 31
0.0
  0
LINE
  5
F9
330
1F
100
AcDbEntity
  8
0
  6
Continuous
 62
     7
370
    25
100
AcDbLine
 10
173.4669072611
 20
98.2764114988
 30
0.0
 11
173.4669072611
 21
128.8017792058
 31
0.0
  0
LINE
  5
FA
330
1F
100
AcDbEntity
  8
0
  6
Continuous
 62
     7
370
    25
100
AcDbLine
 10
152.7669070346
 20
100.0390959334
 30
0.0
 11
152.7669070346
 21
127.0390966338
 31
0.0
  0
LINE
  5
FB
330
1F
100
AcDbEntity
  8
0
  6
Continuous
 62
     7
370
    25
100
AcDbLine
 10
201.2375978811
 20
75.5390965742
 30
0.0
 11
198.1962187273
 21
75.5390965742
 31
0.0
  0
LINE
  5
FC
330
1F
100
AcDbEntity
  8
0
  6
Continuous
 62
     7
370
    25
100
AcDbLine
 10
194.50828564
 20
75.5390965742
 30
0.0
 11
188.4255273325
 21
75.5390965742
 31
0.0
  0
LINE
  5
FD
330
1F
100
AcDbEntity
  8
0
  6
Continuous
 62
     7
370
    25
100
AcDbLine
 10
184.7375942452
 20
75.5390965742
 30
0.0
 11
181.6962150915
 21
75.5390965742
 31
0.0
  0
LWPOLYLINE
  5
FE
330
1F
100
AcDbEntity
  8
0
  6
Continuous
 62
     8
370
    25
100
AcDbPolyline
 90
       34
 70
   128
 43
0.0
 10
211.3020284159
 20
90.8362579894
 10
211.2429155095
 20
90.947435553
 10
211.0661057813
 20
91.2799624157
 10
210.7732085569
 20
91.8308248174
 10
210.3668687923
 20
92.5950364571
 10
209.8507745249
 20
93.5656748143
 10
209.2295898182
 20
94.7339509976
 10
208.5089473112
 20
96.0892842513
 10
207.6953662617
 20
97.6194006753
 10
206.7962227447
 20
99.3104431209
 10
205.8196602447
 20
101.1470973853
 10
204.7745151503
 20
103.1127305132
 10
203.6702496989
 20
105.1895409719
 10
202.5168774707
 20
107.3587211676
 10
201.3248367293
 20
109.600626597
 10
200.1049233658
 20
111.8949543115
 10
198.8681791408
 20
114.220926388
 10
197.6258097274
 20
116.5574792203
 10
196.389072953
 20
118.8834508311
 10
195.1691521389
 20
121.1777788949
 10
193.9771113975
 20
123.4196846735
 10
192.8237391694
 20
125.588865335
 10
191.7194811685
 20
127.6656755608
 10
190.6743360741
 20
129.631308223
 10
189.6977661235
 20
131.4679620218
 10
188.7986226065
 20
133.1590053987
 10
187.9850490077
 20
134.68911996
 10
187.2644065006
 20
136.0444550764
 10
186.6432217939
 20
137.2127303284
 10
186.1271200759
 20
138.1833696168
 10
185.7207877619
 20
138.9475812566
 10
185.4278830869
 20
139.4984436583
 10
185.2510808094
 20
139.8309705209
 10
185.1919604523
 20
139.942146222
  0
SPLINE
  5
FF
330
1F
100
AcDbEntity
  8
0
  6
Continuous
 62
     8
370
    25
100
AcDbSpline
210
0.0
220
0.0
230
1.0
 70
     8
 71
     3
 72
     9
 73
     5
 74
     0
 42
0.00000001
 43
0.00000001
 40
0.0
 40
0.0
 40
0.0
 40
0.0
 40
0.1879835989444264
 40
1.0
 40
1.0
 40
1.0
 40
1.0
 10
207.6196460111128
 20
110.4958498280926
 30
0.0
 10
207.6201758827139
 20
110.5008386984423
 30
0.0
 10
207.6229945945804
 20
110.5273775580966
 30
0.0
 10
207.6137207645997
 20
110.5530064844014
 30
0.0
 10
207.6061902625547
 20
110.5738175929024
 30
0.0
  0
SPLINE
  5
100
330
1F
100
AcDbEntity
  8
0
  6
Continuous
 62
     8
370
    25
100
AcDbSpline
210
0.0
220
0.0
230
1.0
 70
     8
 71
     3
 72
     9
 73
     5
 74
     0
 42
0.00000001
 43
0.00000001
 40
0.0
 40
0.0
 40
0.0
 40
0.0
 40
0.5340506358742142
 40
1.0
 40
1.0
 40
1.0
 40
1.0
 10
199.4881568534361
 20
125.8408197563573
 30
0.0
 10
199.4793919653293
 20
125.8520204125164
 30
0.0
 10
199.4629798734449
 20
125.87299343531
 30
0.0
 10
199.4414008899994
 20
125.8885594957699
 30
0.0
 10
199.4313461763846
 20
125.8958124917432
 30
0.0
  0
LINE
  5
101
330
1F
100
AcDbEntity
  8
0
  6
Continuous
 62
     8
370
    25
100
AcDbLine
 10
180.4669065459
 20
76.5390948754
 30
0.0
 11
202.4669064267
 21
76.5390948754
 31
0.0
  0
LINE
  5
102
330
1F
100
AcDbEntity
  8
0
  6
Continuous
 62
     7
370
    25
100
AcDbLine
 10
49.4011173626
 20
111.1390959368
 30
0.0
 11
92.4786979934
 21
111.1390959368
 31
0.0
  0
LINE
  5
103
330
1F
100
AcDbEntity
  8
0
  6
Continuous
 62
     7
370
    25
100
AcDbLine
 10
91.3844312211
 20
115.9390959319
 30
0.0
 11
49.4011173626
 21
115.9390959319
 31
0.0
  0
LINE
  5
104
330
1F
100
AcDbEntity
  8
0
  6
Continuous
 62
     7
370
    25
100
AcDbLine
 10
49.4011173626
 20
115.9390959319
 30
0.0
 11
48.0154732844
 21
113.5390958179
 31
0.0
  0
LINE
  5
105
330
1F
100
AcDbEntity
  8
0
  6
Continuous
 62
     7
370
    25
100
AcDbLine
 10
48.0154732844
 20
113.5390958179
 30
0.0
 11
49.4011173626
 21
111.1390959368
 31
0.0
  0
LINE
  5
106
330
1F
100
AcDbEntity
  8
0
  6
Continuous
 62
     7
370
    25
100
AcDbLine
 10
49.4011173626
 20
113.5390958179
 30
0.0
 11
49.4011173626
 21
115.9390959319
 31
0.0
  0
LINE
  5
107
330
1F
100
AcDbEntity
  8
0
  6
Continuous
 62
     7
370
    25
100
AcDbLine
 10
49.4011173626
 20
111.1390959368
 30
0.0
 11
49.4011173626
 21
113.5390958179
 31
0.0
  0
POINT
  5
108
330
1F
100
AcDbEntity
  8
0
  6
Continuous
 62
     7
370
    18
100
AcDbPoint
 10
211.4884407416
 20
140.1806328432
 30
0.0
  0
DIMENSION
  5
109
330
1F
100
AcDbEntity
  8
0
  6
Continuous
 62
     7
370
    18
100
AcDbDimension
  2
_D
 10
260.766125022
 20
75.5390958437
 30
0.0
 11
260.766125022
 21
107.8598643435
 31
0.0
 70
   160
  1
(<>)
 71
     2
 42
-1.0
  3
SLDDIMSTYLE0
100
AcDbAlignedDimension
 13
186.3641570207
 23
140.1806328432
 33
0.0
 14
202.4669061803
 24
75.5390958437
 34
0.0
 50
90.0
100
AcDbRotatedDimension
  0
DIMENSION
  5
11C
330
1F
100
AcDbEntity
  8
0
  6
Continuous
 62
     7
370
    18
100
AcDbDimension
  2
_D_1
 10
77.9896058484
 20
115.9390958437
 30
0.0
 11
77.9896058484
 21
133.9108847056
 31
0.0
 70
   160
  1
%%c<>
 71
     2
 42
-1.0
  3
SLDDIMSTYLE1
100
AcDbAlignedDimension
 13
49.4011142682
 23
111.1390958437
 33
0.0
 14
49.4011142682
 24
115.9390958437
 34
0.0
 50
90.0
100
AcDbRotatedDimension
  0
DIMENSION
  5
12C
330
1F
100
AcDbEntity
  8
0
  6
Continuous
 62
     7
370
    18
100
AcDbDimension
  2
_D_2
 10
152.7669061803
 20
163.6373477533
 30
0.0
 11
182.6771774875
 21
163.6373477533
 31
0.0
 70
   160
  1
(<>)
 71
     2
 42
-1.0
  3
SLDDIMSTYLE2
100
AcDbAlignedDimension
 13
212.5874487946
 23
94.0432596623
 33
0.0
 14
152.7669061803
 24
127.0390958437
 34
0.0
100
AcDbRotatedDimension
  0
DIMENSION
  5
139
330
1F
100
AcDbEntity
  8
0
  6
Continuous
 62
     7
370
    18
100
AcDbDimension
  2
_D_3
 10
241.1507972809
 20
106.7071301754
 30
0.0
 11
228.0957650331
 21
131.2600748298
 31
0.0
 70
   160
  1
(%%c<>)
 71
     2
 42
-1.0
  3
SLDDIMSTYLE2
100
AcDbAlignedDimension
 13
185.1919636353
 23
139.9421474036
 33
0.0
 14
211.3020281309
 24
90.8362580948
 34
0.0
 50
-62.0
100
AcDbRotatedDimension
  0
DIMENSION
  5
146
330
1F
100
AcDbEntity
  8
0
  6
Continuous
 62
     7
370
    18
100
AcDbDimension
  2
_D_4
 10
248.634127261
 20
75.5390958437
 30
0.0
 11
248.634127261
 21
72.5390958437
 31
0.0
 70
   160
  1
(<>)
 71
     2
 42
-1.0
  3
SLDDIMSTYLE1
100
AcDbAlignedDimension
 13
200.4669061803
 23
69.5390958437
 33
0.0
 14
202.4669061803
 24
75.5390958437
 34
0.0
 50
90.0
100
AcDbRotatedDimension
  0
DIMENSION
  5
154
330
1F
100
AcDbEntity
  8
0
  6
Continuous
 62
     7
370
    18
100
AcDbDimension
  2
_D_5
 10
248.634127261
 20
75.5390958437
 30
0.0
 11
248.634127261
 21
94.5390958437
 31
0.0
 70
   160
  1
(<>)
 71
     2
 42
-1.0
  3
SLDDIMSTYLE3
100
AcDbAlignedDimension
 13
222.2109234511
 23
113.5390958437
 33
0.0
 14
202.4669061803
 24
75.5390958437
 34
0.0
 50
90.0
100
AcDbRotatedDimension
  0
DIMENSION
  5
161
330
1F
100
AcDbEntity
  8
0
  6
Continuous
 62
     7
370
    18
100
AcDbDimension
  2
_D_6
 10
147.7669061803
 20
163.6373477533
 30
0.0
 11
90.9159541876
 21
163.6373477533
 31
0.0
 70
   160
  1
L1=100～10000
 71
     2
 42
-1.0
  3
SLDDIMSTYLE3
100
AcDbAlignedDimension
 13
48.0154736221
 23
113.5390958437
 33
0.0
 14
147.7669061803
 24
122.0390958437
 34
0.0
 50
0.0
100
AcDbRotatedDimension
  0
INSERT
  5
170
330
1F
100
AcDbEntity
  8
0
  6
Continuous
 62
     7
370
    18
100
AcDbBlockReference
  2
SW_NOTE_0_1
 10
157.1018808777
 20
141.7700279075
 30
0.0
  0
LEADER
  5
172
330
1F
100
AcDbEntity
  8
0
  6
Continuous
 62
     7
370
    18
100
AcDbLeader
  3
SLDDIMSTYLE4
 76
     2
 10
164.1279956742
 20
128.0390958437
 30
0.0
 10
157.1018808777
 20
141.7700279075
 30
0.0
  0
INSERT
  5
178
330
1F
100
AcDbEntity
  8
0
  6
Continuous
 62
     7
370
    18
100
AcDbBlockReference
  2
SW_NOTE_0_2
 10
201.6159874608
 20
56.1900906034
 30
0.0
  0
LEADER
  5
179
330
1F
100
AcDbEntity
  8
0
  6
Continuous
 62
     7
370
    18
100
AcDbLeader
  3
SLDDIMSTYLE4
 76
     2
 10
196.681480076
 20
69.5721189274
 30
0.0
 10
201.6159874608
 20
56.1900906034
 30
0.0
  0
INSERT
  5
17F
330
1F
100
AcDbEntity
  8
0
  6
Continuous
 62
     7
370
    18
100
AcDbBlockReference
  2
SW_NOTE_0_3
 10
185.9443601563
 20
56.1900906034
 30
0.0
  0
LEADER
  5
180
330
1F
100
AcDbEntity
  8
0
  6
Continuous
 62
     7
370
    18
100
AcDbLeader
  3
SLDDIMSTYLE4
 76
     2
 10
190.4878490142
 20
69.5574827206
 30
0.0
 10
185.9443601563
 20
56.1900906034
 30
0.0
  0
INSERT
  5
186
330
1F
100
AcDbEntity
  8
0
  6
Continuous
 62
     7
370
    18
100
AcDbBlockReference
  2
SW_NOTE_0_4
 10
138.9745531415
 20
133.3060780642
 30
0.0
  0
LEADER
  5
187
330
1F
100
AcDbEntity
  8
0
  6
Continuous
 62
     7
370
    18
100
AcDbLeader
  3
SLDDIMSTYLE4
 76
     2
 10
147.7669061803
 20
116.0770288882
 30
0.0
 10
138.9745531415
 20
133.3060780642
 30
0.0
  0
INSERT
  5
18D
330
1F
100
AcDbEntity
  8
0
  6
Continuous
 62
     7
370
    18
100
AcDbBlockReference
  2
SW_NOTE_0_5
 10
114.6253918495
 20
89.7324103526
 30
0.0
  0
LEADER
  5
18E
330
1F
100
AcDbEntity
  8
0
  6
Continuous
 62
     7
370
    18
100
AcDbLeader
  3
SLDDIMSTYLE4
 76
     2
 10
106.9052702331
 20
111.1390958437
 30
0.0
 10
114.6253918495
 20
89.7324103526
 30
0.0
  0
INSERT
  5
194
330
1F
100
AcDbEntity
  8
0
  6
Continuous
 62
     7
370
    18
100
AcDbBlockReference
  2
SW_NOTE_0_6
 10
41.8981191223
 20
89.7324103526
 30
0.0
  0
LEADER
  5
195
330
1F
100
AcDbEntity
  8
0
  6
Continuous
 62
     7
370
    18
100
AcDbLeader
  3
SLDDIMSTYLE4
 76
     2
 10
48.5988877349
 20
112.5285929586
 30
0.0
 10
41.8981191223
 20
89.7324103526
 30
0.0
  0
MTEXT
  5
196
330
1F
100
AcDbEntity
  8
0
  6
Continuous
 62
     7
370
    18
100
AcDbMText
 10
115.7566905202
 20
88.4036074241
 30
0.0
 40
2.6458333333
 41
0.0
 71
     1
 72
     1
  1
(ﾅｲｸﾛﾍﾞﾙ)
  7
SLDTEXTSTYLE1
 73
     1
 44
1.0
  0
MTEXT
  5
197
330
1F
100
AcDbEntity
  8
0
  6
Continuous
 62
     7
370
    18
100
AcDbMText
 10
43.2954716609
 20
88.4036074241
 30
0.0
 40
2.6458333333
 41
0.0
 71
     1
 72
     1
  1
(ｱﾙｺﾞﾝ溶接)
  7
SLDTEXTSTYLE1
 73
     1
 44
1.0
  0
ARC
  5
198
330
1F
100
AcDbEntity
  8
0
  6
HIDDEN
 62
     7
370
    18
100
AcDbCircle
 10
98.6215661268
 20
116.3265958437
 30
0.0
 40
7.247500000000001
100
AcDbArc
 50
157.380135052
 51
202.619864948
  0
ARC
  5
199
330
1F
100
AcDbEntity
  8
0
  6
HIDDEN
 62
     7
370
    18
100
AcDbCircle
 10
85.2415661268
 20
110.7515958437
 30
0.0
 40
7.247500000000009
100
AcDbArc
 50
337.380135052
 51
22.619864948
  0
ARC
  5
19A
330
1F
100
AcDbEntity
  8
0
  6
HIDDEN
 62
     7
370
    18
100
AcDbCircle
 10
101.6215661268
 20
116.3265958437
 30
0.0
 40
7.247500000000001
100
AcDbArc
 50
157.380135052
 51
202.619864948
  0
ARC
  5
19B
330
1F
100
AcDbEntity
  8
0
  6
HIDDEN
 62
     7
370
    18
100
AcDbCircle
 10
88.2415661268
 20
110.7515958437
 30
0.0
 40
7.247500000000009
100
AcDbArc
 50
337.380135052
 51
22.619864948
  0
LINE
  5
19C
330
1F
100
AcDbEntity
  8
0
  6
CENTERX2
 62
     7
370
    18
100
AcDbLine
 10
91.9315646073
 20
113.5390958179
 30
0.0
 11
44.124206402
 21
113.5390958179
 31
0.0
  0
LINE
  5
19D
330
1F
100
AcDbEntity
  8
0
  6
CENTERX2
 62
     7
370
    18
100
AcDbLine
 10
222.2109226568
 20
113.5390958179
 30
0.0
 11
94.9315665348
 21
113.5390958179
 31
0.0
  0
LINE
  5
19E
330
1F
100
AcDbEntity
  8
0
  6
CENTERX2
 62
     7
370
    18
100
AcDbLine
 10
191.4669064863
 20
77.5390950393
 30
0.0
 11
191.4669064863
 21
68.5390972894
 31
0.0
  0
ENDSEC
  0
SECTION
  2
OBJECTS
  0
DICTIONARY
  5
C
330
0
100
AcDbDictionary
281
     1
  3
ACAD_GROUP
350
D
  3
ACAD_LAYOUT
350
1A
  3
ACAD_MLINESTYLE
350
17
  3
ACAD_PLOTSETTINGS
350
19
  3
ACAD_PLOTSTYLENAME
350
E
  3
ACAD_SCALELIST
350
47
  3
DWGPROPS
350
19F
  0
DICTIONARY
  5
D
102
{ACAD_REACTORS
330
C
102
}
330
C
100
AcDbDictionary
281
     1
  0
DICTIONARY
  5
1A
102
{ACAD_REACTORS
330
C
102
}
330
C
100
AcDbDictionary
281
     1
  3
Layout1
350
1E
  3
Layout2
350
26
  3
Model
350
22
  0
DICTIONARY
  5
17
102
{ACAD_REACTORS
330
C
102
}
330
C
100
AcDbDictionary
281
     1
  3
Standard
350
18
  0
DICTIONARY
  5
19
102
{ACAD_REACTORS
330
C
102
}
330
C
100
AcDbDictionary
281
     1
  0
ACDBDICTIONARYWDFLT
  5
E
102
{ACAD_REACTORS
330
C
102
}
330
C
100
AcDbDictionary
281
     1
  3
Normal
350
F
100
AcDbDictionaryWithDefault
340
F
  0
DICTIONARY
  5
47
102
{ACAD_REACTORS
330
C
102
}
330
C
100
AcDbDictionary
281
     1
  3
A0
350
48
  3
A1
350
49
  3
A2
350
4A
  3
A3
350
4B
  3
A4
350
4C
  3
A5
350
4D
  3
A6
350
4E
  3
A7
350
4F
  3
A8
350
50
  3
A9
350
51
  3
B0
350
52
  3
B1
350
53
  3
B2
350
54
  3
B3
350
55
  3
B4
350
56
  3
B5
350
57
  3
B6
350
58
  3
B7
350
59
  3
B8
350
5A
  3
B9
350
5B
  3
C0
350
5C
  3
C1
350
5D
  3
C2
350
5E
  3
C3
350
5F
  3
C4
350
60
  3
C5
350
61
  3
C6
350
62
  3
C7
350
63
  3
C8
350
64
  3
C9
350
65
  3
D0
350
66
  3
D1
350
67
  3
D2
350
68
  0
XRECORD
  5
19F
102
{ACAD_REACTORS
330
C
102
}
330
C
100
AcDbXrecord
280
     1
  1
DWGPROPS COOKIE
  2

  3

  4

  6

  7

  8
p870382
  9

300
=
301
=
302
=
303
=
304
=
305
=
306
=
307
=
308
=
309
=
 40
0.0
 41
2460656.265115614
 42
2460656.265117558
  1

 90
        0
  0
LAYOUT
  5
1E
102
{ACAD_REACTORS
330
1A
102
}
330
1A
100
AcDbPlotSettings
  1

  2
none_device
  4

  6

 40
0.0
 41
0.0
 42
0.0
 43
0.0
 44
0.0
 45
0.0
 46
0.0
 47
0.0
 48
0.0
 49
0.0
140
0.0
141
0.0
142
1.0
143
1.0
 70
   688
 72
     1
 73
     0
 74
     5
  7

 75
    16
147
1.0
148
0.0
149
0.0
100
AcDbLayout
  1
Layout1
 70
     1
 71
     1
 10
0.0
 20
0.0
 11
420.0
 21
297.0
 12
0.0
 22
0.0
 32
0.0
 14
1.0000000000E+20
 24
1.0000000000E+20
 34
1.0000000000E+20
 15
-1.0000000000E+20
 25
-1.0000000000E+20
 35
-1.0000000000E+20
146
0.0
 13
0.0
 23
0.0
 33
0.0
 16
1.0
 26
0.0
 36
0.0
 17
0.0
 27
1.0
 37
0.0
 76
     0
330
1B
  0
LAYOUT
  5
26
102
{ACAD_REACTORS
330
1A
102
}
330
1A
100
AcDbPlotSettings
  1

  2
none_device
  4

  6

 40
0.0
 41
0.0
 42
0.0
 43
0.0
 44
0.0
 45
0.0
 46
0.0
 47
0.0
 48
0.0
 49
0.0
140
0.0
141
0.0
142
1.0
143
1.0
 70
   688
 72
     1
 73
     0
 74
     5
  7

 75
    16
147
1.0
148
0.0
149
0.0
100
AcDbLayout
  1
Layout2
 70
     1
 71
     2
 10
0.0
 20
0.0
 11
0.0
 21
0.0
 12
0.0
 22
0.0
 32
0.0
 14
0.0
 24
0.0
 34
0.0
 15
0.0
 25
0.0
 35
0.0
146
0.0
 13
0.0
 23
0.0
 33
0.0
 16
1.0
 26
0.0
 36
0.0
 17
0.0
 27
1.0
 37
0.0
 76
     0
330
23
  0
LAYOUT
  5
22
102
{ACAD_REACTORS
330
1A
102
}
330
1A
100
AcDbPlotSettings
  1

  2
none_device
  4
Letter_(8.50_x_11.00_Inches)
  6

 40
6.35
 41
6.35
 42
6.35000508
 43
6.35000508
 44
215.9
 45
279.4
 46
0.0
 47
0.0
 48
0.0
 49
0.0
140
0.0
141
0.0
142
1.0
143
1.0
 70
  1712
 72
     1
 73
     0
 74
     0
  7

 75
     0
147
1.0
148
0.0
149
0.0
100
AcDbLayout
  1
Model
 70
     1
 71
     0
 10
0.0
 20
0.0
 11
297.0
 21
210.0
 12
0.0
 22
0.0
 32
0.0
 14
0.0
 24
0.0
 34
0.0
 15
297.0
 25
210.0
 35
0.0
146
0.0
 13
0.0
 23
0.0
 33
0.0
 16
1.0
 26
0.0
 36
0.0
 17
0.0
 27
1.0
 37
0.0
 76
     0
330
1F
331
29
  0
MLINESTYLE
  5
18
102
{ACAD_REACTORS
330
17
102
}
330
17
100
AcDbMlineStyle
  2
Standard
 70
     0
  3

 62
   256
 51
90.0
 52
90.0
 71
     2
 49
0.5
 62
   256
  6
BYLAYER
 49
-0.5
 62
   256
  6
BYLAYER
  0
ACDBPLACEHOLDER
  5
F
102
{ACAD_REACTORS
330
E
102
}
330
E
  0
SCALE
  5
48
102
{ACAD_REACTORS
330
47
102
}
330
47
100
AcDbScale
 70
     0
300
1:1
140
1.0
141
1.0
290
     1
  0
SCALE
  5
49
102
{ACAD_REACTORS
330
47
102
}
330
47
100
AcDbScale
 70
     0
300
1:2
140
1.0
141
2.0
290
     0
  0
SCALE
  5
4A
102
{ACAD_REACTORS
330
47
102
}
330
47
100
AcDbScale
 70
     0
300
1:4
140
1.0
141
4.0
290
     0
  0
SCALE
  5
4B
102
{ACAD_REACTORS
330
47
102
}
330
47
100
AcDbScale
 70
     0
300
1:5
140
1.0
141
5.0
290
     0
  0
SCALE
  5
4C
102
{ACAD_REACTORS
330
47
102
}
330
47
100
AcDbScale
 70
     0
300
1:8
140
1.0
141
8.0
290
     0
  0
SCALE
  5
4D
102
{ACAD_REACTORS
330
47
102
}
330
47
100
AcDbScale
 70
     0
300
1:10
140
1.0
141
10.0
290
     0
  0
SCALE
  5
4E
102
{ACAD_REACTORS
330
47
102
}
330
47
100
AcDbScale
 70
     0
300
1:16
140
1.0
141
16.0
290
     0
  0
SCALE
  5
4F
102
{ACAD_REACTORS
330
47
102
}
330
47
100
AcDbScale
 70
     0
300
1:20
140
1.0
141
20.0
290
     0
  0
SCALE
  5
50
102
{ACAD_REACTORS
330
47
102
}
330
47
100
AcDbScale
 70
     0
300
1:30
140
1.0
141
30.0
290
     0
  0
SCALE
  5
51
102
{ACAD_REACTORS
330
47
102
}
330
47
100
AcDbScale
 70
     0
300
1:40
140
1.0
141
40.0
290
     0
  0
SCALE
  5
52
102
{ACAD_REACTORS
330
47
102
}
330
47
100
AcDbScale
 70
     0
300
1:50
140
1.0
141
50.0
290
     0
  0
SCALE
  5
53
102
{ACAD_REACTORS
330
47
102
}
330
47
100
AcDbScale
 70
     0
300
1:100
140
1.0
141
100.0
290
     0
  0
SCALE
  5
54
102
{ACAD_REACTORS
330
47
102
}
330
47
100
AcDbScale
 70
     0
300
2:1
140
2.0
141
1.0
290
     0
  0
SCALE
  5
55
102
{ACAD_REACTORS
330
47
102
}
330
47
100
AcDbScale
 70
     0
300
4:1
140
4.0
141
1.0
290
     0
  0
SCALE
  5
56
102
{ACAD_REACTORS
330
47
102
}
330
47
100
AcDbScale
 70
     0
300
8:1
140
8.0
141
1.0
290
     0
  0
SCALE
  5
57
102
{ACAD_REACTORS
330
47
102
}
330
47
100
AcDbScale
 70
     0
300
10:1
140
10.0
141
1.0
290
     0
  0
SCALE
  5
58
102
{ACAD_REACTORS
330
47
102
}
330
47
100
AcDbScale
 70
     0
300
100:1
140
100.0
141
1.0
290
     0
  0
SCALE
  5
59
102
{ACAD_REACTORS
330
47
102
}
330
47
100
AcDbScale
 70
     0
300
1/128" = 1'-0"
140
0.0078125
141
12.0
290
     0
  0
SCALE
  5
5A
102
{ACAD_REACTORS
330
47
102
}
330
47
100
AcDbScale
 70
     0
300
1/64" = 1'-0"
140
0.015625
141
12.0
290
     0
  0
SCALE
  5
5B
102
{ACAD_REACTORS
330
47
102
}
330
47
100
AcDbScale
 70
     0
300
1/32" = 1'-0"
140
0.03125
141
12.0
290
     0
  0
SCALE
  5
5C
102
{ACAD_REACTORS
330
47
102
}
330
47
100
AcDbScale
 70
     0
300
1/16" = 1'-0"
140
0.0625
141
12.0
290
     0
  0
SCALE
  5
5D
102
{ACAD_REACTORS
330
47
102
}
330
47
100
AcDbScale
 70
     0
300
3/32" = 1'-0"
140
0.09375
141
12.0
290
     0
  0
SCALE
  5
5E
102
{ACAD_REACTORS
330
47
102
}
330
47
100
AcDbScale
 70
     0
300
1/8" = 1'-0"
140
0.125
141
12.0
290
     0
  0
SCALE
  5
5F
102
{ACAD_REACTORS
330
47
102
}
330
47
100
AcDbScale
 70
     0
300
3/16" = 1'-0"
140
0.1875
141
12.0
290
     0
  0
SCALE
  5
60
102
{ACAD_REACTORS
330
47
102
}
330
47
100
AcDbScale
 70
     0
300
1/4" = 1'-0"
140
0.25
141
12.0
290
     0
  0
SCALE
  5
61
102
{ACAD_REACTORS
330
47
102
}
330
47
100
AcDbScale
 70
     0
300
3/8" = 1'-0"
140
0.375
141
12.0
290
     0
  0
SCALE
  5
62
102
{ACAD_REACTORS
330
47
102
}
330
47
100
AcDbScale
 70
     0
300
1/2" = 1'-0"
140
0.5
141
12.0
290
     0
  0
SCALE
  5
63
102
{ACAD_REACTORS
330
47
102
}
330
47
100
AcDbScale
 70
     0
300
3/4" = 1'-0"
140
0.75
141
12.0
290
     0
  0
SCALE
  5
64
102
{ACAD_REACTORS
330
47
102
}
330
47
100
AcDbScale
 70
     0
300
1" = 1'-0"
140
1.0
141
12.0
290
     0
  0
SCALE
  5
65
102
{ACAD_REACTORS
330
47
102
}
330
47
100
AcDbScale
 70
     0
300
1-1/2" = 1'-0"
140
1.5
141
12.0
290
     0
  0
SCALE
  5
66
102
{ACAD_REACTORS
330
47
102
}
330
47
100
AcDbScale
 70
     0
300
3" = 1'-0"
140
3.0
141
12.0
290
     0
  0
SCALE
  5
67
102
{ACAD_REACTORS
330
47
102
}
330
47
100
AcDbScale
 70
     0
300
6" = 1'-0"
140
6.0
141
12.0
290
     0
  0
SCALE
  5
68
102
{ACAD_REACTORS
330
47
102
}
330
47
100
AcDbScale
 70
     0
300
1'-0" = 1'-0"
140
12.0
141
12.0
290
     0
  0
ENDSEC
  0
EOF
