  0
SECTION
  2
HEADER
  9
$ACADVER
  1
AC1015
  9
$ACADMAINTVER
 70
     6
  9
$DWGCODEPAGE
  3
DOS932
  9
$INSBASE
 10
0.0
 20
0.0
 30
0.0
  9
$EXTMIN
 10
0.0
 20
0.0
 30
0.0
  9
$EXTMAX
 10
297.0
 20
210.0
 30
0.0
  9
$LIMMIN
 10
0.0
 20
0.0
  9
$LIMMAX
 10
297.0
 20
210.0
  9
$ORTHOMODE
 70
     0
  9
$REGENMODE
 70
     1
  9
$FILLMODE
 70
     1
  9
$QTEXTMODE
 70
     0
  9
$MIRRTEXT
 70
     1
  9
$LTSCALE
 40
1.0
  9
$ATTMODE
 70
     1
  9
$TEXTSIZE
 40
3.5277777778
  9
$TRACEWID
 40
1.0
  9
$TEXTSTYLE
  7
STANDARD
  9
$CLAYER
  8
0
  9
$CELTYPE
  6
ByLayer
  9
$CECOLOR
 62
   256
  9
$CELTSCALE
 40
1.0
  9
$DISPSILH
 70
     0
  9
$DIMSCALE
 40
1.0
  9
$DIMASZ
 40
3.0
  9
$DIMEXO
 40
1.0
  9
$DIMDLI
 40
3.75
  9
$DIMRND
 40
0.0
  9
$DIMDLE
 40
0.0
  9
$DIMEXE
 40
1.0
  9
$DIMTP
 40
0.0
  9
$DIMTM
 40
0.0
  9
$DIMTXT
 40
3.5277777778
  9
$DIMCEN
 40
2.5
  9
$DIMTSZ
 40
0.0
  9
$DIMTOL
 70
     0
  9
$DIMLIM
 70
     0
  9
$DIMTIH
 70
     1
  9
$DIMTOH
 70
     1
  9
$DIMSE1
 70
     0
  9
$DIMSE2
 70
     0
  9
$DIMTAD
 70
     1
  9
$DIMZIN
 70
     0
  9
$DIMBLK
  1

  9
$DIMASO
 70
     1
  9
$DIMSHO
 70
     1
  9
$DIMPOST
  1

  9
$DIMAPOST
  1

  9
$DIMALT
 70
     0
  9
$DIMALTD
 70
     3
  9
$DIMALTF
 40
0.0393700787
  9
$DIMLFAC
 40
5.0
  9
$DIMTOFL
 70
     1
  9
$DIMTVP
 40
0.0
  9
$DIMTIX
 70
     0
  9
$DIMSOXD
 70
     0
  9
$DIMSAH
 70
     0
  9
$DIMBLK1
  1

  9
$DIMBLK2
  1

  9
$DIMSTYLE
  2
ISO-25
  9
$DIMCLRD
 70
     0
  9
$DIMCLRE
 70
     0
  9
$DIMCLRT
 70
     0
  9
$DIMTFAC
 40
1.0
  9
$DIMGAP
 40
1.524
  9
$DIMJUST
 70
     0
  9
$DIMSD1
 70
     0
  9
$DIMSD2
 70
     0
  9
$DIMTOLJ
 70
     0
  9
$DIMTZIN
 70
     0
  9
$DIMALTZ
 70
     0
  9
$DIMALTTZ
 70
     0
  9
$DIMUPT
 70
     0
  9
$DIMDEC
 70
     2
  9
$DIMTDEC
 70
     2
  9
$DIMALTU
 70
     2
  9
$DIMALTTD
 70
     3
  9
$DIMTXSTY
  7
STANDARD
  9
$DIMAUNIT
 70
     0
  9
$DIMADEC
 70
     2
  9
$DIMALTRND
 40
0.0
  9
$DIMAZIN
 70
     0
  9
$DIMDSEP
 70
    44
  9
$DIMATFIT
 70
     3
  9
$DIMFRAC
 70
     0
  9
$DIMLDRBLK
  1

  9
$DIMLUNIT
 70
     2
  9
$DIMLWD
 70
    -2
  9
$DIMLWE
 70
    -2
  9
$DIMTMOVE
 70
     0
  9
$LUNITS
 70
     2
  9
$LUPREC
 70
     2
  9
$SKETCHINC
 40
1.0
  9
$FILLETRAD
 40
10.0
  9
$AUNITS
 70
     0
  9
$AUPREC
 70
     2
  9
$MENU
  1
.
  9
$ELEVATION
 40
0.0
  9
$PELEVATION
 40
0.0
  9
$THICKNESS
 40
0.0
  9
$LIMCHECK
 70
     0
  9
$CHAMFERA
 40
0.0
  9
$CHAMFERB
 40
0.0
  9
$CHAMFERC
 40
0.0
  9
$CHAMFERD
 40
0.0
  9
$SKPOLY
 70
     0
  9
$TDCREATE
 40
2460697.49192831
  9
$TDUCREATE
 40
2460697.11692831
  9
$TDUPDATE
 40
2460697.491931562
  9
$TDUUPDATE
 40
2460697.116931562
  9
$TDINDWG
 40
0.0000000116
  9
$TDUSRTIMER
 40
0.0000000116
  9
$USRTIMER
 70
     1
  9
$ANGBASE
 50
0.0
  9
$ANGDIR
 70
     0
  9
$PDMODE
 70
     0
  9
$PDSIZE
 40
-1.0
  9
$PLINEWID
 40
0.0
  9
$SPLFRAME
 70
     0
  9
$SPLINETYPE
 70
     6
  9
$SPLINESEGS
 70
     8
  9
$HANDSEED
  5
1A0
  9
$SURFTAB1
 70
     6
  9
$SURFTAB2
 70
     6
  9
$SURFTYPE
 70
     6
  9
$SURFU
 70
     6
  9
$SURFV
 70
     6
  9
$UCSBASE
  2

  9
$UCSNAME
  2

  9
$UCSORG
 10
0.0
 20
0.0
 30
0.0
  9
$UCSXDIR
 10
1.0
 20
0.0
 30
0.0
  9
$UCSYDIR
 10
0.0
 20
1.0
 30
0.0
  9
$UCSORTHOREF
  2

  9
$UCSORTHOVIEW
 70
     0
  9
$UCSORGTOP
 10
0.0
 20
0.0
 30
0.0
  9
$UCSORGBOTTOM
 10
0.0
 20
0.0
 30
0.0
  9
$UCSORGLEFT
 10
0.0
 20
0.0
 30
0.0
  9
$UCSORGRIGHT
 10
0.0
 20
0.0
 30
0.0
  9
$UCSORGFRONT
 10
0.0
 20
0.0
 30
0.0
  9
$UCSORGBACK
 10
0.0
 20
0.0
 30
0.0
  9
$PUCSBASE
  2

  9
$PUCSNAME
  2

  9
$PUCSORG
 10
0.0
 20
0.0
 30
0.0
  9
$PUCSXDIR
 10
1.0
 20
0.0
 30
0.0
  9
$PUCSYDIR
 10
0.0
 20
1.0
 30
0.0
  9
$PUCSORTHOREF
  2

  9
$PUCSORTHOVIEW
 70
     0
  9
$PUCSORGTOP
 10
0.0
 20
0.0
 30
0.0
  9
$PUCSORGBOTTOM
 10
0.0
 20
0.0
 30
0.0
  9
$PUCSORGLEFT
 10
0.0
 20
0.0
 30
0.0
  9
$PUCSORGRIGHT
 10
0.0
 20
0.0
 30
0.0
  9
$PUCSORGFRONT
 10
0.0
 20
0.0
 30
0.0
  9
$PUCSORGBACK
 10
0.0
 20
0.0
 30
0.0
  9
$USERI1
 70
     0
  9
$USERI2
 70
     0
  9
$USERI3
 70
     0
  9
$USERI4
 70
     0
  9
$USERI5
 70
     0
  9
$USERR1
 40
0.0
  9
$USERR2
 40
0.0
  9
$USERR3
 40
0.0
  9
$USERR4
 40
0.0
  9
$USERR5
 40
0.0
  9
$WORLDVIEW
 70
     1
  9
$SHADEDGE
 70
     3
  9
$SHADEDIF
 70
    70
  9
$TILEMODE
 70
     1
  9
$MAXACTVP
 70
    64
  9
$PINSBASE
 10
0.0
 20
0.0
 30
0.0
  9
$PLIMCHECK
 70
     0
  9
$PEXTMIN
 10
1.0000000000E+20
 20
1.0000000000E+20
 30
1.0000000000E+20
  9
$PEXTMAX
 10
-1.0000000000E+20
 20
-1.0000000000E+20
 30
-1.0000000000E+20
  9
$PLIMMIN
 10
0.0
 20
0.0
  9
$PLIMMAX
 10
420.0
 20
297.0
  9
$UNITMODE
 70
     0
  9
$VISRETAIN
 70
     1
  9
$PLINEGEN
 70
     0
  9
$PSLTSCALE
 70
     1
  9
$TREEDEPTH
 70
  3020
  9
$CMLSTYLE
  2
Standard
  9
$CMLJUST
 70
     0
  9
$CMLSCALE
 40
20.0
  9
$PROXYGRAPHICS
 70
     1
  9
$MEASUREMENT
 70
     1
  9
$CELWEIGHT
370
    -1
  9
$ENDCAPS
280
     0
  9
$JOINSTYLE
280
     0
  9
$LWDISPLAY
290
     1
  9
$INSUNITS
 70
     4
  9
$HYPERLINKBASE
  1

  9
$STYLESHEET
  1

  9
$XEDIT
290
     1
  9
$CEPSNTYPE
380
     0
  9
$PSTYLEMODE
290
     1
  9
$FINGERPRINTGUID
  2
{21e7b449-da9e-4032-8889-c30df219a373}
  9
$VERSIONGUID
  2
{FAEB1C32-E019-11D5-929B-00C0DF256EC4}
  9
$EXTNAMES
290
     1
  9
$PSVPSCALE
 40
0.0
  9
$OLESTARTUP
290
     0
  0
ENDSEC
  0
SECTION
  2
CLASSES
  0
CLASS
  1
ACDBDICTIONARYWDFLT
  2
AcDbDictionaryWithDefault
  3
ObjectDBX Classes
 90
        0
280
     0
281
     0
  0
CLASS
  1
VISUALSTYLE
  2
AcDbVisualStyle
  3
ObjectDBX Classes
 90
     4095
280
     0
281
     0
  0
CLASS
  1
MATERIAL
  2
AcDbMaterial
  3
ObjectDBX Classes
 90
     1153
280
     0
281
     0
  0
CLASS
  1
SCALE
  2
AcDbScale
  3
ObjectDBX Classes
 90
     1153
280
     0
281
     0
  0
CLASS
  1
TABLESTYLE
  2
AcDbTableStyle
  3
ObjectDBX Classes
 90
     4095
280
     0
281
     0
  0
CLASS
  1
MLEADERSTYLE
  2
AcDbMLeaderStyle
  3
ACDB_MLEADERSTYLE_CLASS
 90
     4095
280
     0
281
     0
  0
CLASS
  1
SUN
  2
AcDbSun
  3
SCENEOE
 90
     1153
280
     0
281
     0
  0
CLASS
  1
ACDBPLACEHOLDER
  2
AcDbPlaceHolder
  3
ObjectDBX Classes
 90
        0
280
     0
281
     0
  0
CLASS
  1
LAYOUT
  2
AcDbLayout
  3
ObjectDBX Classes
 90
        0
280
     0
281
     0
  0
ENDSEC
  0
SECTION
  2
TABLES
  0
TABLE
  2
VPORT
  5
8
330
0
100
AcDbSymbolTable
 70
     1
  0
VPORT
  5
29
330
8
100
AcDbSymbolTableRecord
100
AcDbViewportTableRecord
  2
*Active
 70
     0
 10
0.0
 20
0.0
 11
1.0
 21
1.0
 12
148.5
 22
105.0
 13
0.0
 23
0.0
 14
10.0
 24
10.0
 15
10.0
 25
10.0
 16
0.0
 26
0.0
 36
1.0
 17
0.0
 27
0.0
 37
0.0
 40
210.0
 41
1.4142857143
 42
50.0
 43
0.0
 44
0.0
 50
0.0
 51
0.0
 71
     0
 72
  2000
 73
     1
 74
     3
 75
     0
 76
     0
 77
     0
 78
     0
281
     0
 65
     1
110
0.0
120
0.0
130
0.0
111
1.0
121
0.0
131
0.0
112
0.0
122
1.0
132
0.0
 79
     0
146
0.0
  0
ENDTAB
  0
TABLE
  2
LTYPE
  5
5
330
0
100
AcDbSymbolTable
 70
     6
  0
LTYPE
  5
14
330
5
100
AcDbSymbolTableRecord
100
AcDbLinetypeTableRecord
  2
ByBlock
 70
     0
  3

 72
    65
 73
     0
 40
0.0
  0
LTYPE
  5
15
330
5
100
AcDbSymbolTableRecord
100
AcDbLinetypeTableRecord
  2
ByLayer
 70
     0
  3

 72
    65
 73
     0
 40
0.0
  0
LTYPE
  5
16
330
5
100
AcDbSymbolTableRecord
100
AcDbLinetypeTableRecord
  2
Continuous
 70
     0
  3
Solid line
 72
    65
 73
     0
 40
0.0
  0
LTYPE
  5
6E
330
5
100
AcDbSymbolTableRecord
100
AcDbLinetypeTableRecord
  2
HIDDEN
 70
     0
  3
Hidden __ __ __ __ __ __ __ __ __ __ __ __ __ __
 72
    65
 73
     2
 40
1.905
 49
1.27
 74
     0
 49
-0.635
 74
     0
  0
LTYPE
  5
6F
330
5
100
AcDbSymbolTableRecord
100
AcDbLinetypeTableRecord
  2
PHANTOM
 70
     0
  3
Phantom ______  __  __  ______  __  __  ______
 72
    65
 73
     6
 40
12.7
 49
6.35
 74
     0
 49
-1.27
 74
     0
 49
1.27
 74
     0
 49
-1.27
 74
     0
 49
1.27
 74
     0
 49
-1.27
 74
     0
  0
LTYPE
  5
70
330
5
100
AcDbSymbolTableRecord
100
AcDbLinetypeTableRecord
  2
CENTER
 70
     0
  3
Center ____ _ ____ _ ____ _ ____ _ ____ _ ____
 72
    65
 73
     4
 40
10.16
 49
6.35
 74
     0
 49
-1.27
 74
     0
 49
1.27
 74
     0
 49
-1.27
 74
     0
  0
LTYPE
  5
71
330
5
100
AcDbSymbolTableRecord
100
AcDbLinetypeTableRecord
  2
CENTERX2
 70
     0
  3
Center (2x) ________  __  ________  __  _____
 72
    65
 73
     4
 40
20.32
 49
12.7
 74
     0
 49
-2.54
 74
     0
 49
2.54
 74
     0
 49
-2.54
 74
     0
  0
LTYPE
  5
72
330
5
100
AcDbSymbolTableRecord
100
AcDbLinetypeTableRecord
  2
DOT2
 70
     0
  3
Dot (.5x) ........................................
 72
    65
 73
     2
 40
0.635
 49
0.0
 74
     0
 49
-0.635
 74
     0
  0
ENDTAB
  0
TABLE
  2
LAYER
  5
2
330
0
100
AcDbSymbolTable
 70
     1
  0
LAYER
  5
10
330
2
100
AcDbSymbolTableRecord
100
AcDbLayerTableRecord
  2
0
 70
     0
 62
     7
  6
Continuous
370
    -3
390
F
  0
ENDTAB
  0
TABLE
  2
STYLE
  5
3
330
0
100
AcDbSymbolTable
 70
     3
  0
STYLE
  5
11
330
3
100
AcDbSymbolTableRecord
100
AcDbTextStyleTableRecord
  2
STANDARD
 70
     0
 40
0.0
 41
1.0
 50
0.0
 71
     0
 42
3.5277777778
  3
MSGOTHIC.TTC
  4

1001
ACAD
1000
MS UI GOTHIC
1071
    32818
  0
STYLE
  5
77
330
3
100
AcDbSymbolTableRecord
100
AcDbTextStyleTableRecord
  2
SLDTEXTSTYLE0
 70
     0
 40
0.0
 41
1.0
 50
0.0
 71
     0
 42
3.5277777778
  3
MSGOTHIC.TTC
  4

1001
ACAD
1000
MS UI Gothic
1071
      306
  0
STYLE
  5
7C
330
3
100
AcDbSymbolTableRecord
100
AcDbTextStyleTableRecord
  2
SLDTEXTSTYLE1
 70
     0
 40
0.0
 41
1.0
 50
0.0
 71
     0
 42
3.5277777778
  3
MSGOTHIC.TTC
  4
bigfont
1001
ACAD
1000
MS UI Gothic
1071
      306
  0
ENDTAB
  0
TABLE
  2
VIEW
  5
6
330
0
100
AcDbSymbolTable
 70
     0
  0
ENDTAB
  0
TABLE
  2
UCS
  5
7
330
0
100
AcDbSymbolTable
 70
     0
  0
ENDTAB
  0
TABLE
  2
APPID
  5
9
330
0
100
AcDbSymbolTable
 70
     1
  0
APPID
  5
12
330
9
100
AcDbSymbolTableRecord
100
AcDbRegAppTableRecord
  2
ACAD
 70
     0
  0
ENDTAB
  0
TABLE
  2
DIMSTYLE
  5
A
330
0
100
AcDbSymbolTable
 70
     6
100
AcDbDimStyleTable
  0
DIMSTYLE
105
27
330
A
100
AcDbSymbolTableRecord
100
AcDbDimStyleTableRecord
  2
ISO-25
 70
     0
 41
2.5
 42
0.625
 43
3.75
 44
1.25
 73
     0
 74
     0
 77
     1
 78
     8
140
2.5
141
2.5
143
0.0393700787
147
0.625
171
     3
172
     1
178
     0
271
     2
272
     2
274
     3
278
    44
283
     0
284
     8
340
11
  0
DIMSTYLE
105
10A
102
{ACAD_REACTORS
330
109
102
}
330
A
100
AcDbSymbolTableRecord
100
AcDbDimStyleTableRecord
  2
SLDDIMSTYLE0
 70
     0
 41
3.0
 44
0.0
 45
0.000000001
 73
     0
 74
     0
 77
     1
 78
    12
 79
     3
140
3.0316840278
147
0.7579210069
173
     1
178
     0
271
     0
272
     2
276
     2
284
    12
340
77
341
10B
343
10B
344
10B
  0
DIMSTYLE
105
11D
102
{ACAD_REACTORS
330
11C
330
146
102
}
330
A
100
AcDbSymbolTableRecord
100
AcDbDimStyleTableRecord
  2
SLDDIMSTYLE1
 70
     0
 41
3.0
 44
0.0
 45
0.000000001
 73
     0
 74
     0
 77
     1
 78
    12
 79
     3
140
3.0316840278
147
0.7579210069
172
     1
173
     1
178
     0
271
     2
272
     2
276
     2
284
    12
289
     0
340
77
341
10B
343
10B
344
10B
  0
DIMSTYLE
105
12D
102
{ACAD_REACTORS
330
12C
330
139
102
}
330
A
100
AcDbSymbolTableRecord
100
AcDbDimStyleTableRecord
  2
SLDDIMSTYLE2
 70
     0
 41
3.0
 44
0.0
 45
0.000000001
 73
     0
 74
     0
 77
     1
 78
    12
 79
     3
140
3.0316840278
147
0.7579210069
173
     1
178
     0
271
     0
272
     0
276
     2
284
    12
340
77
341
10B
343
10B
344
10B
  0
DIMSTYLE
105
155
102
{ACAD_REACTORS
330
154
330
161
102
}
330
A
100
AcDbSymbolTableRecord
100
AcDbDimStyleTableRecord
  2
SLDDIMSTYLE3
 70
     0
 41
3.0
 44
0.0
 45
0.000000001
 73
     0
 74
     0
 77
     1
 78
    12
 79
     3
140
3.0316840278
147
0.7579210069
173
     1
178
     0
271
     2
272
     2
276
     2
284
    12
340
77
341
10B
343
10B
344
10B
  0
DIMSTYLE
105
171
330
A
100
AcDbSymbolTableRecord
100
AcDbDimStyleTableRecord
  2
SLDDIMSTYLE4
 70
     0
 41
3.0
 44
0.0
 45
0.000000001
146
3.0
147
0.0
173
     1
178
     0
271
     0
272
     0
276
     2
340
11
341
10B
343
10B
344
10B
  0
ENDTAB
  0
TABLE
  2
BLOCK_RECORD
  5
1
330
0
100
AcDbSymbolTable
 70
    17
  0
BLOCK_RECORD
  5
1F
330
1
100
AcDbSymbolTableRecord
100
AcDbBlockTableRecord
  2
*Model_Space
340
22
  0
BLOCK_RECORD
  5
1B
330
1
100
AcDbSymbolTableRecord
100
AcDbBlockTableRecord
  2
*Paper_Space
340
1E
  0
BLOCK_RECORD
  5
23
330
1
100
AcDbSymbolTableRecord
100
AcDbBlockTableRecord
  2
*Paper_Space0
340
26
  0
BLOCK_RECORD
  5
79
330
1
100
AcDbSymbolTableRecord
100
AcDbBlockTableRecord
  2
SW_NOTE_0
340
0
102
{BLKREFS
331
7F
102
}
  0
BLOCK_RECORD
  5
80
330
1
100
AcDbSymbolTableRecord
100
AcDbBlockTableRecord
  2
SW_BROKEN_VIEW_0
340
0
102
{BLKREFS
331
83
102
}
  0
BLOCK_RECORD
  5
10B
330
1
100
AcDbSymbolTableRecord
100
AcDbBlockTableRecord
  2
_Open30
340
0
102
{BLKREFS
331
116
331
117
331
123
331
124
331
133
331
134
331
13F
331
140
331
14C
331
14D
331
15B
331
15C
331
165
331
166
102
}
  0
BLOCK_RECORD
  5
111
330
1
100
AcDbSymbolTableRecord
100
AcDbBlockTableRecord
  2
_D
340
0
  0
BLOCK_RECORD
  5
11E
330
1
100
AcDbSymbolTableRecord
100
AcDbBlockTableRecord
  2
_D_1
340
0
  0
BLOCK_RECORD
  5
12E
330
1
100
AcDbSymbolTableRecord
100
AcDbBlockTableRecord
  2
_D_2
340
0
  0
BLOCK_RECORD
  5
13A
330
1
100
AcDbSymbolTableRecord
100
AcDbBlockTableRecord
  2
_D_3
340
0
  0
BLOCK_RECORD
  5
147
330
1
100
AcDbSymbolTableRecord
100
AcDbBlockTableRecord
  2
_D_4
340
0
  0
BLOCK_RECORD
  5
156
330
1
100
AcDbSymbolTableRecord
100
AcDbBlockTableRecord
  2
_D_5
340
0
  0
BLOCK_RECORD
  5
162
330
1
100
AcDbSymbolTableRecord
100
AcDbBlockTableRecord
  2
_D_6
340
0
  0
BLOCK_RECORD
  5
16B
330
1
100
AcDbSymbolTableRecord
100
AcDbBlockTableRecord
  2
SW_NOTE_0_1
340
0
102
{BLKREFS
331
170
102
}
  0
BLOCK_RECORD
  5
173
330
1
100
AcDbSymbolTableRecord
100
AcDbBlockTableRecord
  2
SW_NOTE_0_2
340
0
102
{BLKREFS
331
178
102
}
  0
BLOCK_RECORD
  5
17A
330
1
100
AcDbSymbolTableRecord
100
AcDbBlockTableRecord
  2
SW_NOTE_0_3
340
0
102
{BLKREFS
331
17F
102
}
  0
BLOCK_RECORD
  5
181
330
1
100
AcDbSymbolTableRecord
100
AcDbBlockTableRecord
  2
SW_NOTE_0_4
340
0
102
{BLKREFS
331
186
102
}
  0
BLOCK_RECORD
  5
188
330
1
100
AcDbSymbolTableRecord
100
AcDbBlockTableRecord
  2
SW_NOTE_0_5
340
0
102
{BLKREFS
331
18D
102
}
  0
BLOCK_RECORD
  5
18F
330
1
100
AcDbSymbolTableRecord
100
AcDbBlockTableRecord
  2
SW_NOTE_0_6
340
0
102
{BLKREFS
331
194
102
}
  0
ENDTAB
  0
ENDSEC
  0
SECTION
  2
BLOCKS
  0
BLOCK
  5
20
330
1F
100
AcDbEntity
  8
0
100
AcDbBlockBegin
  2
*Model_Space
 70
     0
 10
0.0
 20
0.0
 30
0.0
  3
*Model_Space
  1

  0
ENDBLK
  5
21
330
1F
100
AcDbEntity
  8
0
100
AcDbBlockEnd
  0
BLOCK
  5
1C
330
1B
100
AcDbEntity
 67
     1
  8
0
100
AcDbBlockBegin
  2
*Paper_Space
 70
     0
 10
0.0
 20
0.0
 30
0.0
  3
*Paper_Space
  1

  0
ENDBLK
  5
1D
330
1B
100
AcDbEntity
 67
     1
  8
0
100
AcDbBlockEnd
  0
BLOCK
  5
24
330
23
100
AcDbEntity
  8
0
100
AcDbBlockBegin
  2
*Paper_Space0
 70
     0
 10
0.0
 20
0.0
 30
0.0
  3
*Paper_Space0
  1

  0
ENDBLK
  5
25
330
23
100
AcDbEntity
  8
0
100
AcDbBlockEnd
  0
BLOCK
  5
7A
330
79
100
AcDbEntity
  8
0
100
AcDbBlockBegin
  2
SW_NOTE_0
 70
     0
 10
0.0
 20
0.0
 30
0.0
  3
SW_NOTE_0
  1

  0
MTEXT
  5
7D
330
79
100
AcDbEntity
  8
0
  6
Continuous
 62
     0
370
    18
100
AcDbMText
 10
0.0
 20
5.5418181818
 30
0.0
 40
4.7625
 41
0.0
 71
     1
 72
     1
  1
MODEL：R-30S-ﾛ-ﾛ-ﾛ-ﾛ-ﾛ
  7
SLDTEXTSTYLE1
 73
     1
 44
1.0
  0
MTEXT
  5
7E
330
79
100
AcDbEntity
  8
0
  6
Continuous
 62
     0
370
    18
100
AcDbMText
 10
23.0099316686
 20
-2.8417495077
 30
0.0
 40
3.7041666667
 41
0.0
 71
     1
 72
     1
  1
(保護管径φ3.2、φ4.8、φ6.4、φ8.0 の時)
  7
SLDTEXTSTYLE1
 73
     1
 44
1.0
  0
ENDBLK
  5
7B
330
79
100
AcDbEntity
  8
0
100
AcDbBlockEnd
  0
BLOCK
  5
81
330
80
100
AcDbEntity
  8
0
100
AcDbBlockBegin
  2
SW_BROKEN_VIEW_0
 70
     0
 10
0.0
 20
0.0
 30
0.0
  3
SW_BROKEN_VIEW_0
  1

  0
ENDBLK
  5
82
330
80
100
AcDbEntity
  8
0
100
AcDbBlockEnd
  0
BLOCK
  5
10C
330
10B
100
AcDbEntity
  8
0
100
AcDbBlockBegin
  2
_Open30
 70
     0
 10
0.0
 20
0.0
 30
0.0
  3
_Open30
  1

  0
LINE
  5
10E
330
10B
100
AcDbEntity
  8
0
  6
ByBlock
 62
     0
370
    -2
100
AcDbLine
 10
-1.0
 20
0.267949
 30
0.0
 11
0.0
 21
0.0
 31
0.0
  0
LINE
  5
10F
330
10B
100
AcDbEntity
  8
0
  6
ByBlock
 62
     0
370
    -2
100
AcDbLine
 10
0.0
 20
0.0
 30
0.0
 11
-1.0
 21
-0.267949
 31
0.0
  0
LINE
  5
110
330
10B
100
AcDbEntity
  8
0
  6
ByBlock
 62
     0
370
    -2
100
AcDbLine
 10
0.0
 20
0.0
 30
0.0
 11
-1.0
 21
0.0
 31
0.0
  0
ENDBLK
  5
10D
330
10B
100
AcDbEntity
  8
0
100
AcDbBlockEnd
  0
BLOCK
  5
112
330
111
100
AcDbEntity
  8
0
100
AcDbBlockBegin
  2
_D
 70
     0
 10
0.0
 20
0.0
 30
0.0
  3
_D
  1

  0
ARC
  5
114
330
111
100
AcDbEntity
  8
0
  6
Continuous
 62
     7
370
    18
100
AcDbCircle
 10
258.5143237043
 20
113.7407966424
 30
0.0
 40
3.944175412646017
100
AcDbArc
 50
243.4349488229
 51
296.5650511771
  0
ARC
  5
115
330
111
100
AcDbEntity
  8
0
  6
Continuous
 62
     7
370
    18
100
AcDbCircle
 10
258.5143237043
 20
110.2130189072
 30
0.0
 40
3.944175412646017
100
AcDbArc
 50
63.4349488229
 51
116.5650511771
  0
INSERT
  5
116
330
111
100
AcDbEntity
  8
0
  6
Continuous
 62
     7
370
    18
100
AcDbBlockReference
  2
_Open30
 10
260.2782123391
 20
144.2976761872
 30
0.0
 41
3.0
 42
3.0
 50
90.0
  0
INSERT
  5
117
330
111
100
AcDbEntity
  8
0
  6
Continuous
 62
     7
370
    18
100
AcDbBlockReference
  2
_Open30
 10
260.2782123391
 20
79.6561391877
 30
0.0
 41
3.0
 42
3.0
 50
270.0
  0
LINE
  5
118
330
111
100
AcDbEntity
  8
0
  6
Continuous
 62
     7
370
    18
100
AcDbLine
 10
186.4157047149
 20
144.2976761872
 30
0.0
 11
261.2782123391
 21
144.2976761872
 31
0.0
  0
LINE
  5
119
330
111
100
AcDbEntity
  8
0
  6
Continuous
 62
     7
370
    18
100
AcDbLine
 10
202.5184538745
 20
79.6561391877
 30
0.0
 11
261.2782123391
 21
79.6561391877
 31
0.0
  0
LINE
  5
11A
330
111
100
AcDbEntity
  8
0
  6
Continuous
 62
     7
370
    18
100
AcDbLine
 10
260.2782123391
 20
144.2976761872
 30
0.0
 11
260.2782123391
 21
79.6561391877
 31
0.0
  0
MTEXT
  5
11B
330
111
100
AcDbEntity
  8
0
  6
Continuous
 62
     7
370
    18
100
AcDbMText
 10
257.1994248095
 20
110.2130189072
 30
0.0
 40
2.6458333333
 41
0.0
 71
     1
 72
     1
  1
65
  7
SLDTEXTSTYLE0
 11
-7.044195017643634E-15
 21
1.0
 31
0.0
 73
     1
 44
1.0
  0
ENDBLK
  5
113
330
111
100
AcDbEntity
  8
0
100
AcDbBlockEnd
  0
BLOCK
  5
11F
330
11E
100
AcDbEntity
  8
0
100
AcDbBlockBegin
  2
_D_1
 70
     0
 10
0.0
 20
0.0
 30
0.0
  3
_D_1
  1

  0
ARC
  5
121
330
11E
100
AcDbEntity
  8
0
  6
Continuous
 62
     7
370
    18
100
AcDbCircle
 10
68.7602479438
 20
132.4906514214
 30
0.0
 40
7.888350825291996
100
AcDbArc
 50
243.4349488229
 51
296.5650511771
  0
ARC
  5
122
330
11E
100
AcDbEntity
  8
0
  6
Continuous
 62
     7
370
    18
100
AcDbCircle
 10
68.7602479438
 20
138.6054677145
 30
0.0
 40
7.888350825292009
100
AcDbArc
 50
63.4349488229
 51
116.5650511771
  0
INSERT
  5
123
330
11E
100
AcDbEntity
  8
0
  6
Continuous
 62
     7
370
    18
100
AcDbBlockReference
  2
_Open30
 10
64.9724865844
 20
115.2561391877
 30
0.0
 41
3.0
 42
3.0
 50
90.0
  0
INSERT
  5
124
330
11E
100
AcDbEntity
  8
0
  6
Continuous
 62
     7
370
    18
100
AcDbBlockReference
  2
_Open30
 10
64.9724865844
 20
120.0561391877
 30
0.0
 41
3.0
 42
3.0
 50
270.0
  0
LINE
  5
125
330
11E
100
AcDbEntity
  8
0
  6
Continuous
 62
     7
370
    18
100
AcDbLine
 10
64.9724865844
 20
115.2561391877
 30
0.0
 11
64.9724865844
 21
111.7561391877
 31
0.0
  0
LINE
  5
126
330
11E
100
AcDbEntity
  8
0
  6
Continuous
 62
     7
370
    18
100
AcDbLine
 10
64.9724865844
 20
115.2561391877
 30
0.0
 11
64.9724865844
 21
120.0561391877
 31
0.0
  0
LINE
  5
127
330
11E
100
AcDbEntity
  8
0
  6
Continuous
 62
     7
370
    18
100
AcDbLine
 10
64.9724865844
 20
120.0561391877
 30
0.0
 11
64.9724865844
 21
146.4938181757
 31
0.0
  0
MTEXT
  5
128
330
11E
100
AcDbEntity
  8
0
  6
Continuous
 62
     7
370
    18
100
AcDbMText
 10
61.6232907476
 20
132.9977698928
 30
0.0
 40
2.6458333333
 41
0.0
 71
     1
 72
     1
  1
%%c
  7
SLDTEXTSTYLE0
 11
6.123233995736766E-17
 21
1.0
 31
0.0
 73
     1
 44
1.0
  0
MTEXT
  5
129
330
11E
100
AcDbEntity
  8
0
  6
Continuous
 62
     7
370
    18
100
AcDbMText
 10
61.6232907476
 20
136.3491588576
 30
0.0
 40
2.6458333333
 41
0.0
 71
     1
 72
     1
  1
d
  7
SLDTEXTSTYLE0
 11
6.123233995736766E-17
 21
1.0
 31
0.0
 73
     1
 44
1.0
  0
MTEXT
  5
12A
330
11E
100
AcDbEntity
  8
0
  6
Continuous
 62
     7
370
    18
100
AcDbMText
 10
65.6814601814
 20
125.4350959511
 30
0.0
 40
2.6458333333
 41
0.0
 71
     1
 72
     1
  1
φ3.2、φ4.8、
  7
SLDTEXTSTYLE1
 11
6.123233995736766E-17
 21
1.0
 31
0.0
 73
     1
 44
1.0
  0
MTEXT
  5
12B
330
11E
100
AcDbEntity
  8
0
  6
Continuous
 62
     7
370
    18
100
AcDbMText
 10
69.2092379166
 20
125.5330897124
 30
0.0
 40
2.6458333333
 41
0.0
 71
     1
 72
     1
  1
φ6.4、φ8.0  
  7
SLDTEXTSTYLE1
 11
6.123233995736766E-17
 21
1.0
 31
0.0
 73
     1
 44
1.0
  0
ENDBLK
  5
120
330
11E
100
AcDbEntity
  8
0
100
AcDbBlockEnd
  0
BLOCK
  5
12F
330
12E
100
AcDbEntity
  8
0
100
AcDbBlockBegin
  2
_D_2
 70
     0
 10
0.0
 20
0.0
 30
0.0
  3
_D_2
  1

  0
ARC
  5
131
330
12E
100
AcDbEntity
  8
0
  6
Continuous
 62
     7
370
    18
100
AcDbCircle
 10
183.4926141365
 20
169.518279732
 30
0.0
 40
3.944175412646017
100
AcDbArc
 50
153.4349488229
 51
206.5650511771
  0
ARC
  5
132
330
12E
100
AcDbEntity
  8
0
  6
Continuous
 62
     7
370
    18
100
AcDbCircle
 10
179.9648364014
 20
169.518279732
 30
0.0
 40
3.944175412646017
100
AcDbArc
 50
333.4349488229
 51
26.5650511771
  0
INSERT
  5
133
330
12E
100
AcDbEntity
  8
0
  6
Continuous
 62
     7
370
    18
100
AcDbBlockReference
  2
_Open30
 10
211.6389964888
 20
167.7543910973
 30
0.0
 41
3.0
 42
3.0
 50
0.0
  0
INSERT
  5
134
330
12E
100
AcDbEntity
  8
0
  6
Continuous
 62
     7
370
    18
100
AcDbBlockReference
  2
_Open30
 10
151.8184538745
 20
167.7543910973
 30
0.0
 41
3.0
 42
3.0
 50
180.0
  0
LINE
  5
135
330
12E
100
AcDbEntity
  8
0
  6
Continuous
 62
     7
370
    18
100
AcDbLine
 10
211.6389964888
 20
99.1603030063
 30
0.0
 11
211.6389964888
 21
168.7543910973
 31
0.0
  0
LINE
  5
136
330
12E
100
AcDbEntity
  8
0
  6
Continuous
 62
     7
370
    18
100
AcDbLine
 10
151.8184538745
 20
132.1561391877
 30
0.0
 11
151.8184538745
 21
168.7543910973
 31
0.0
  0
LINE
  5
137
330
12E
100
AcDbEntity
  8
0
  6
Continuous
 62
     7
370
    18
100
AcDbLine
 10
211.6389964888
 20
167.7543910973
 30
0.0
 11
151.8184538745
 21
167.7543910973
 31
0.0
  0
MTEXT
  5
138
330
12E
100
AcDbEntity
  8
0
  6
Continuous
 62
     7
370
    18
100
AcDbMText
 10
179.9648364014
 20
170.8331786268
 30
0.0
 40
2.6458333333
 41
0.0
 71
     1
 72
     1
  1
60
  7
SLDTEXTSTYLE0
 73
     1
 44
1.0
  0
ENDBLK
  5
130
330
12E
100
AcDbEntity
  8
0
100
AcDbBlockEnd
  0
BLOCK
  5
13B
330
13A
100
AcDbEntity
  8
0
100
AcDbBlockBegin
  2
_D_3
 70
     0
 10
0.0
 20
0.0
 30
0.0
  3
_D_3
  1

  0
ARC
  5
13D
330
13A
100
AcDbEntity
  8
0
  6
Continuous
 62
     7
370
    18
100
AcDbCircle
 10
231.6126816248
 20
137.0910370476
 30
0.0
 40
4.497455730162174
100
AcDbArc
 50
91.4349488229
 51
144.5650511771
  0
ARC
  5
13E
330
13A
100
AcDbEntity
  8
0
  6
Continuous
 62
     7
370
    18
100
AcDbCircle
 10
231.0652183049
 20
138.1206658022
 30
0.0
 40
4.497455730162186
100
AcDbArc
 50
271.4349488229
 51
324.5650511771
  0
INSERT
  5
13F
330
13A
100
AcDbEntity
  8
0
  6
Continuous
 62
     7
370
    18
100
AcDbBlockReference
  2
_Open30
 10
216.5080246907
 20
161.2145368098
 30
0.0
 41
3.0
 42
3.0
 50
118.0
  0
INSERT
  5
140
330
13A
100
AcDbEntity
  8
0
  6
Continuous
 62
     7
370
    18
100
AcDbBlockReference
  2
_Open30
 10
242.6180891864
 20
112.108647501
 30
0.0
 41
3.0
 42
3.0
 50
298.0
  0
LINE
  5
141
330
13A
100
AcDbEntity
  8
0
  6
Continuous
 62
     7
370
    18
100
AcDbLine
 10
185.1264589223
 20
144.5286623104
 30
0.0
 11
217.3909722836
 21
161.6840083726
 31
0.0
  0
LINE
  5
142
330
13A
100
AcDbEntity
  8
0
  6
Continuous
 62
     7
370
    18
100
AcDbLine
 10
211.2365234179
 20
95.4227730016
 30
0.0
 11
243.5010367792
 21
112.5781190638
 31
0.0
  0
LINE
  5
143
330
13A
100
AcDbEntity
  8
0
  6
Continuous
 62
     7
370
    18
100
AcDbLine
 10
216.5080246907
 20
161.2145368098
 30
0.0
 11
242.6180891864
 21
112.108647501
 31
0.0
  0
MTEXT
  5
144
330
13A
100
AcDbEntity
  8
0
  6
Continuous
 62
     7
370
    18
100
AcDbMText
 10
230.6666787352
 20
141.1439675604
 30
0.0
 40
2.6458333333
 41
0.0
 71
     1
 72
     1
  1
%%c
  7
SLDTEXTSTYLE0
 11
0.4694715627858982
 21
-0.882947592858923
 31
0.0
 73
     1
 44
1.0
  0
MTEXT
  5
145
330
13A
100
AcDbEntity
  8
0
  6
Continuous
 62
     7
370
    18
100
AcDbMText
 10
232.24006055
 20
138.1848667412
 30
0.0
 40
2.6458333333
 41
0.0
 71
     1
 72
     1
  1
56
  7
SLDTEXTSTYLE0
 11
0.4694715627858982
 21
-0.882947592858923
 31
0.0
 73
     1
 44
1.0
  0
ENDBLK
  5
13C
330
13A
100
AcDbEntity
  8
0
100
AcDbBlockEnd
  0
BLOCK
  5
148
330
147
100
AcDbEntity
  8
0
100
AcDbBlockBegin
  2
_D_4
 70
     0
 10
0.0
 20
0.0
 30
0.0
  3
_D_4
  1

  0
ARC
  5
14A
330
147
100
AcDbEntity
  8
0
  6
Continuous
 62
     7
370
    18
100
AcDbCircle
 10
246.7101545199
 20
79.30197246
 30
0.0
 40
3.944175412646004
100
AcDbArc
 50
243.4349488229
 51
296.5650511771
  0
ARC
  5
14B
330
147
100
AcDbEntity
  8
0
  6
Continuous
 62
     7
370
    18
100
AcDbCircle
 10
246.7101545199
 20
74.0103058573
 30
0.0
 40
3.944175412646004
100
AcDbArc
 50
63.4349488229
 51
116.5650511771
  0
INSERT
  5
14C
330
147
100
AcDbEntity
  8
0
  6
Continuous
 62
     7
370
    18
100
AcDbBlockReference
  2
_Open30
 10
248.4740431547
 20
73.6561391877
 30
0.0
 41
3.0
 42
3.0
 50
90.0
  0
INSERT
  5
14D
330
147
100
AcDbEntity
  8
0
  6
Continuous
 62
     7
370
    18
100
AcDbBlockReference
  2
_Open30
 10
248.4740431547
 20
79.6561391877
 30
0.0
 41
3.0
 42
3.0
 50
270.0
  0
LINE
  5
14E
330
147
100
AcDbEntity
  8
0
  6
Continuous
 62
     7
370
    18
100
AcDbLine
 10
200.5184538745
 20
73.6561391877
 30
0.0
 11
249.4740431547
 21
73.6561391877
 31
0.0
  0
LINE
  5
14F
330
147
100
AcDbEntity
  8
0
  6
Continuous
 62
     7
370
    18
100
AcDbLine
 10
202.5184538745
 20
79.6561391877
 30
0.0
 11
249.4740431547
 21
79.6561391877
 31
0.0
  0
LINE
  5
150
330
147
100
AcDbEntity
  8
0
  6
Continuous
 62
     7
370
    18
100
AcDbLine
 10
248.4740431547
 20
73.6561391877
 30
0.0
 11
248.4740431547
 21
70.1561391877
 31
0.0
  0
LINE
  5
151
330
147
100
AcDbEntity
  8
0
  6
Continuous
 62
     7
370
    18
100
AcDbLine
 10
248.4740431547
 20
73.6561391877
 30
0.0
 11
248.4740431547
 21
79.6561391877
 31
0.0
  0
LINE
  5
152
330
147
100
AcDbEntity
  8
0
  6
Continuous
 62
     7
370
    18
100
AcDbLine
 10
248.4740431547
 20
79.6561391877
 30
0.0
 11
248.4740431547
 21
83.1561391877
 31
0.0
  0
MTEXT
  5
153
330
147
100
AcDbEntity
  8
0
  6
Continuous
 62
     7
370
    18
100
AcDbMText
 10
245.3952556251
 20
75.7741947248
 30
0.0
 40
2.6458333333
 41
0.0
 71
     1
 72
     1
  1
6
  7
SLDTEXTSTYLE0
 11
6.123233995736766E-17
 21
1.0
 31
0.0
 73
     1
 44
1.0
  0
ENDBLK
  5
149
330
147
100
AcDbEntity
  8
0
100
AcDbBlockEnd
  0
BLOCK
  5
157
330
156
100
AcDbEntity
  8
0
100
AcDbBlockBegin
  2
_D_5
 70
     0
 10
0.0
 20
0.0
 30
0.0
  3
_D_5
  1

  0
ARC
  5
159
330
156
100
AcDbEntity
  8
0
  6
Continuous
 62
     7
370
    18
100
AcDbCircle
 10
246.7101545199
 20
100.4200281426
 30
0.0
 40
3.944175412646004
100
AcDbArc
 50
243.4349488229
 51
296.5650511771
  0
ARC
  5
15A
330
156
100
AcDbEntity
  8
0
  6
Continuous
 62
     7
370
    18
100
AcDbCircle
 10
246.7101545199
 20
96.8922504075
 30
0.0
 40
3.944175412646004
100
AcDbArc
 50
63.4349488229
 51
116.5650511771
  0
INSERT
  5
15B
330
156
100
AcDbEntity
  8
0
  6
Continuous
 62
     7
370
    18
100
AcDbBlockReference
  2
_Open30
 10
248.4740431547
 20
117.6561391877
 30
0.0
 41
3.0
 42
3.0
 50
90.0
  0
INSERT
  5
15C
330
156
100
AcDbEntity
  8
0
  6
Continuous
 62
     7
370
    18
100
AcDbBlockReference
  2
_Open30
 10
248.4740431547
 20
79.6561391877
 30
0.0
 41
3.0
 42
3.0
 50
270.0
  0
LINE
  5
15D
330
156
100
AcDbEntity
  8
0
  6
Continuous
 62
     7
370
    18
100
AcDbLine
 10
222.2624711453
 20
117.6561391877
 30
0.0
 11
249.4740431547
 21
117.6561391877
 31
0.0
  0
LINE
  5
15E
330
156
100
AcDbEntity
  8
0
  6
Continuous
 62
     7
370
    18
100
AcDbLine
 10
202.5184538745
 20
79.6561391877
 30
0.0
 11
249.4740431547
 21
79.6561391877
 31
0.0
  0
LINE
  5
15F
330
156
100
AcDbEntity
  8
0
  6
Continuous
 62
     7
370
    18
100
AcDbLine
 10
248.4740431547
 20
117.6561391877
 30
0.0
 11
248.4740431547
 21
79.6561391877
 31
0.0
  0
MTEXT
  5
160
330
156
100
AcDbEntity
  8
0
  6
Continuous
 62
     7
370
    18
100
AcDbMText
 10
245.3952556251
 20
96.8922504075
 30
0.0
 40
2.6458333333
 41
0.0
 71
     1
 72
     1
  1
38
  7
SLDTEXTSTYLE0
 11
-7.044195017643634E-15
 21
1.0
 31
0.0
 73
     1
 44
1.0
  0
ENDBLK
  5
158
330
156
100
AcDbEntity
  8
0
100
AcDbBlockEnd
  0
BLOCK
  5
163
330
162
100
AcDbEntity
  8
0
100
AcDbBlockBegin
  2
_D_6
 70
     0
 10
0.0
 20
0.0
 30
0.0
  3
_D_6
  1

  0
INSERT
  5
165
330
162
100
AcDbEntity
  8
0
  6
Continuous
 62
     7
370
    18
100
AcDbBlockReference
  2
_Open30
 10
45.6760263006
 20
167.7543910973
 30
0.0
 41
3.0
 42
3.0
 50
180.0
  0
INSERT
  5
166
330
162
100
AcDbEntity
  8
0
  6
Continuous
 62
     7
370
    18
100
AcDbBlockReference
  2
_Open30
 10
146.8184538745
 20
167.7543910973
 30
0.0
 41
3.0
 42
3.0
 50
0.0
  0
LINE
  5
167
330
162
100
AcDbEntity
  8
0
  6
Continuous
 62
     7
370
    18
100
AcDbLine
 10
45.6760263006
 20
118.6561391877
 30
0.0
 11
45.6760263006
 21
168.7543910973
 31
0.0
  0
LINE
  5
168
330
162
100
AcDbEntity
  8
0
  6
Continuous
 62
     7
370
    18
100
AcDbLine
 10
146.8184538745
 20
127.1561391877
 30
0.0
 11
146.8184538745
 21
168.7543910973
 31
0.0
  0
LINE
  5
169
330
162
100
AcDbEntity
  8
0
  6
Continuous
 62
     7
370
    18
100
AcDbLine
 10
45.6760263006
 20
167.7543910973
 30
0.0
 11
146.8184538745
 21
167.7543910973
 31
0.0
  0
MTEXT
  5
16A
330
162
100
AcDbEntity
  8
0
  6
Continuous
 62
     7
370
    18
100
AcDbMText
 10
79.7651411912
 20
170.8331788596
 30
0.0
 40
2.6458333333
 41
0.0
 71
     1
 72
     1
  1
L1=100～1000
  7
SLDTEXTSTYLE1
 73
     1
 44
1.0
  0
ENDBLK
  5
164
330
162
100
AcDbEntity
  8
0
100
AcDbBlockEnd
  0
BLOCK
  5
16C
330
16B
100
AcDbEntity
  8
0
100
AcDbBlockBegin
  2
SW_NOTE_0_1
 70
     0
 10
0.0
 20
0.0
 30
0.0
  3
SW_NOTE_0_1
  1

  0
LINE
  5
16E
330
16B
100
AcDbEntity
  8
0
  6
Continuous
 62
     0
370
    18
100
AcDbLine
 10
17.5294790197
 20
0.0
 30
0.0
 11
0.0
 21
0.0
 31
0.0
  0
MTEXT
  5
16F
330
16B
100
AcDbEntity
  8
0
  6
Continuous
 62
     0
370
    18
100
AcDbMText
 10
0.4237920954
 20
3.110241208
 30
0.0
 40
2.6458333333
 41
0.0
 71
     1
 72
     1
  1
30型端子箱
  7
SLDTEXTSTYLE1
 73
     1
 44
1.0
  0
ENDBLK
  5
16D
330
16B
100
AcDbEntity
  8
0
100
AcDbBlockEnd
  0
BLOCK
  5
174
330
173
100
AcDbEntity
  8
0
100
AcDbBlockBegin
  2
SW_NOTE_0_2
 70
     0
 10
0.0
 20
0.0
 30
0.0
  3
SW_NOTE_0_2
  1

  0
LINE
  5
176
330
173
100
AcDbEntity
  8
0
  6
Continuous
 62
     0
370
    18
100
AcDbLine
 10
13.8449108008
 20
0.0
 30
0.0
 11
0.0
 21
0.0
 31
0.0
  0
MTEXT
  5
177
330
173
100
AcDbEntity
  8
0
  6
Continuous
 62
     0
370
    18
100
AcDbMText
 10
0.486241324
 20
3.0745651533
 30
0.0
 40
2.6458333333
 41
0.0
 71
     1
 72
     1
  1
G(PF)3/8
  7
SLDTEXTSTYLE0
 73
     1
 44
1.0
  0
ENDBLK
  5
175
330
173
100
AcDbEntity
  8
0
100
AcDbBlockEnd
  0
BLOCK
  5
17B
330
17A
100
AcDbEntity
  8
0
100
AcDbBlockBegin
  2
SW_NOTE_0_3
 70
     0
 10
0.0
 20
0.0
 30
0.0
  3
SW_NOTE_0_3
  1

  0
LINE
  5
17D
330
17A
100
AcDbEntity
  8
0
  6
Continuous
 62
     0
370
    18
100
AcDbLine
 10
-20.2716376853
 20
0.0
 30
0.0
 11
0.0
 21
0.0
 31
0.0
  0
MTEXT
  5
17E
330
17A
100
AcDbEntity
  8
0
  6
Continuous
 62
     0
370
    18
100
AcDbMText
 10
-20.6886190576
 20
3.0745651533
 30
0.0
 40
2.6458333333
 41
0.0
 71
     1
 72
     1
  1
ｹｰﾌﾞﾙ取出口
  7
SLDTEXTSTYLE1
 73
     1
 44
1.0
  0
ENDBLK
  5
17C
330
17A
100
AcDbEntity
  8
0
100
AcDbBlockEnd
  0
BLOCK
  5
182
330
181
100
AcDbEntity
  8
0
100
AcDbBlockBegin
  2
SW_NOTE_0_4
 70
     0
 10
0.0
 20
0.0
 30
0.0
  3
SW_NOTE_0_4
  1

  0
LINE
  5
184
330
181
100
AcDbEntity
  8
0
  6
Continuous
 62
     0
370
    18
100
AcDbLine
 10
-16.3714841228
 20
0.0
 30
0.0
 11
0.0
 21
0.0
 31
0.0
  0
MTEXT
  5
185
330
181
100
AcDbEntity
  8
0
  6
Continuous
 62
     0
370
    18
100
AcDbMText
 10
-16.8394032578
 20
3.1326325969
 30
0.0
 40
2.6458333333
 41
0.0
 71
     1
 72
     1
  1
ｱﾙｺﾞﾝ溶接
  7
SLDTEXTSTYLE1
 73
     1
 44
1.0
  0
ENDBLK
  5
183
330
181
100
AcDbEntity
  8
0
100
AcDbBlockEnd
  0
BLOCK
  5
189
330
188
100
AcDbEntity
  8
0
100
AcDbBlockBegin
  2
SW_NOTE_0_5
 70
     0
 10
0.0
 20
0.0
 30
0.0
  3
SW_NOTE_0_5
  1

  0
LINE
  5
18B
330
188
100
AcDbEntity
  8
0
  6
Continuous
 62
     0
370
    18
100
AcDbLine
 10
24.1146635044
 20
0.0
 30
0.0
 11
0.0
 21
0.0
 31
0.0
  0
MTEXT
  5
18C
330
188
100
AcDbEntity
  8
0
  6
Continuous
 62
     0
370
    18
100
AcDbMText
 10
0.4215708066
 20
3.0680416276
 30
0.0
 40
2.6458333333
 41
0.0
 71
     1
 72
     1
  1
ｼｰｽ測温抵抗体
  7
SLDTEXTSTYLE1
 73
     1
 44
1.0
  0
ENDBLK
  5
18A
330
188
100
AcDbEntity
  8
0
100
AcDbBlockEnd
  0
BLOCK
  5
190
330
18F
100
AcDbEntity
  8
0
100
AcDbBlockBegin
  2
SW_NOTE_0_6
 70
     0
 10
0.0
 20
0.0
 30
0.0
  3
SW_NOTE_0_6
  1

  0
LINE
  5
192
330
18F
100
AcDbEntity
  8
0
  6
Continuous
 62
     0
370
    18
100
AcDbLine
 10
20.3663993407
 20
0.0
 30
0.0
 11
0.0
 21
0.0
 31
0.0
  0
MTEXT
  5
193
330
18F
100
AcDbEntity
  8
0
  6
Continuous
 62
     0
370
    18
100
AcDbMText
 10
0.4416391938
 20
3.0680416276
 30
0.0
 40
2.6458333333
 41
0.0
 71
     1
 72
     1
  1
 先端120°形
  7
SLDTEXTSTYLE1
 73
     1
 44
1.0
  0
ENDBLK
  5
191
330
18F
100
AcDbEntity
  8
0
100
AcDbBlockEnd
  0
ENDSEC
  0
SECTION
  2
ENTITIES
  0
LINE
  5
73
330
1F
100
AcDbEntity
  8
0
  6
Continuous
 62
     7
370
    25
100
AcDbLine
 10
12.8700158558
 20
190.0085404097
 30
0.0
 11
12.8700749558
 21
18.0082352097
 31
0.0
  0
LINE
  5
74
330
1F
100
AcDbEntity
  8
0
  6
Continuous
 62
     7
370
    25
100
AcDbLine
 10
12.8700749558
 20
18.0082352097
 30
0.0
 11
282.5707921135
 21
18.0082352097
 31
0.0
  0
LINE
  5
75
330
1F
100
AcDbEntity
  8
0
  6
Continuous
 62
     7
370
    25
100
AcDbLine
 10
12.8700158558
 20
190.0085404097
 30
0.0
 11
282.5707921135
 21
190.0085404097
 31
0.0
  0
LINE
  5
76
330
1F
100
AcDbEntity
  8
0
  6
Continuous
 62
     7
370
    25
100
AcDbLine
 10
282.5707921135
 20
18.0082352097
 30
0.0
 11
282.5707921135
 21
190.0085404097
 31
0.0
  0
MTEXT
  5
78
330
1F
100
AcDbEntity
  8
0
  6
Continuous
 62
     7
370
    18
100
AcDbMText
 10
34.4101419944
 20
35.3897861465
 30
0.0
 40
4.7625
 41
0.0
 71
     1
 72
     1
  1
RKC INSTRUMENT INC.
  7
SLDTEXTSTYLE0
 73
     1
 44
1.0
  0
INSERT
  5
7F
330
1F
100
AcDbEntity
  8
0
  6
Continuous
 62
     7
370
    18
100
AcDbBlockReference
  2
SW_NOTE_0
 10
34.4101419944
 20
47.3290927317
 30
0.0
  0
INSERT
  5
83
330
1F
100
AcDbEntity
  8
0
  6
Continuous
 62
     7
100
AcDbBlockReference
  2
SW_BROKEN_VIEW_0
 10
0.0
 20
0.0
 30
0.0
  0
LINE
  5
84
330
1F
100
AcDbEntity
  8
0
  6
Continuous
 62
     7
370
    25
100
AcDbLine
 10
147.5690086348
 20
127.4561388125
 30
0.0
 11
146.8184520466
 21
126.1561391582
 31
0.0
  0
LINE
  5
85
330
1F
100
AcDbEntity
  8
0
  6
Continuous
 62
     7
370
    25
100
AcDbLine
 10
146.8184520466
 20
109.1561391656
 30
0.0
 11
147.5690086348
 21
107.8561390457
 31
0.0
  0
LINE
  5
86
330
1F
100
AcDbEntity
  8
0
  6
Continuous
 62
     7
370
    25
100
AcDbLine
 10
203.6940162046
 20
90.6285317321
 30
0.0
 11
210.3535761101
 21
94.9533013334
 31
0.0
  0
LINE
  5
87
330
1F
100
AcDbEntity
  8
0
  6
Continuous
 62
     7
370
    25
100
AcDbLine
 10
184.2435081465
 20
144.059189566
 30
0.0
 11
176.9341384036
 21
140.956544288
 31
0.0
  0
ARC
  5
88
330
1F
100
AcDbEntity
  8
0
  6
Continuous
 62
     7
370
    25
100
AcDbCircle
 10
208.7196609096
 20
97.4693106969
 30
0.0
 40
2.999996999960139
100
AcDbArc
 50
302.999993838
 51
13.3165630685
  0
ARC
  5
89
330
1F
100
AcDbEntity
  8
0
  6
Continuous
 62
     7
370
    25
100
AcDbCircle
 10
185.4157044414
 20
141.2976702805
 30
0.0
 40
3.00000548628723
100
AcDbArc
 50
42.6835820162
 51
113.0000158889
  0
ARC
  5
8A
330
1F
100
AcDbEntity
  8
0
  6
Continuous
 62
     7
370
    25
100
AcDbCircle
 10
61.197678828
 20
62.5518549998
 30
0.0
 40
154.598030989979
100
AcDbArc
 50
13.3164567019
 51
19.7808087146
  0
ARC
  5
8B
330
1F
100
AcDbEntity
  8
0
  6
Continuous
 62
     7
370
    25
100
AcDbCircle
 10
73.9732357458
 20
38.5209317384
 30
0.0
 40
154.5997476178132
100
AcDbArc
 50
36.218022721
 51
42.6834997413
  0
SPLINE
  5
8C
330
1F
100
AcDbEntity
  8
0
  6
Continuous
 62
     7
370
    25
100
AcDbSpline
210
0.0
220
0.0
230
1.0
 70
     8
 71
     3
 72
    14
 73
    10
 74
     0
 42
0.00000001
 43
0.00000001
 40
0.0
 40
0.0
 40
0.0
 40
0.0
 40
0.0085497173350197
 40
0.0565170057086755
 40
0.1457277206114494
 40
0.3541248954415632
 40
0.6228773128082822
 40
0.9314690761638857
 40
1.0
 40
1.0
 40
1.0
 40
1.0
 10
206.6567544801034
 20
114.6892313552139
 30
0.0
 10
206.6566149481658
 20
114.690168551663
 30
0.0
 10
206.6556925869921
 20
114.696363790054
 30
0.0
 10
206.6543073828165
 20
114.7124775111698
 30
0.0
 10
206.6543729160502
 20
114.750806899876
 30
0.0
 10
206.6656335389297
 20
114.8135236901384
 30
0.0
 10
206.7051399884014
 20
114.8912399315093
 30
0.0
 10
206.7531793223285
 20
114.9493342200384
 30
0.0
 10
206.7916394433508
 20
114.9660593748159
 30
0.0
 10
206.79862843583
 20
114.9690986783294
 30
0.0
  0
SPLINE
  5
8D
330
1F
100
AcDbEntity
  8
0
  6
Continuous
 62
     7
370
    25
100
AcDbSpline
210
0.0
220
0.0
230
1.0
 70
     8
 71
     3
 72
    14
 73
    10
 74
     0
 42
0.00000001
 43
0.00000001
 40
0.0
 40
0.0
 40
0.0
 40
0.0
 40
0.3266846321041844
 40
0.603950728773022
 40
0.8078513429805545
 40
0.9196311249792456
 40
0.9751238822405807
 40
0.997940625903437
 40
1.0
 40
1.0
 40
1.0
 40
1.0
 10
198.7556000215806
 20
129.8908246387777
 30
0.0
 10
198.7298193341813
 20
129.8899802546817
 30
0.0
 10
198.6821578790255
 20
129.8884192189304
 30
0.0
 10
198.6195524317386
 20
129.9074662067119
 30
0.0
 10
198.5796042905882
 20
129.9265822149893
 30
0.0
 10
198.5522615887539
 20
129.9465138009656
 30
0.0
 10
198.5453145421864
 20
129.9513337552348
 30
0.0
 10
198.5355604543438
 20
129.9607209975131
 30
0.0
 10
198.5370344260351
 20
129.9591808333727
 30
0.0
 10
198.5371564490594
 20
129.9590533305941
 30
0.0
  0
SPLINE
  5
8E
330
1F
100
AcDbEntity
  8
0
  6
Continuous
 62
     7
370
    25
100
AcDbSpline
210
0.0
220
0.0
230
1.0
 70
     8
 71
     3
 72
     9
 73
     5
 74
     0
 42
0.00000001
 43
0.00000001
 40
0.0
 40
0.0
 40
0.0
 40
0.0
 40
0.9749782546853347
 40
1.0
 40
1.0
 40
1.0
 40
1.0
 10
198.849991427163
 20
129.9167638351259
 30
0.0
 10
198.819925309153
 20
129.9034573060214
 30
0.0
 10
198.7890875772698
 20
129.8898092794724
 30
0.0
 10
198.7564174843257
 20
129.8907998529017
 30
0.0
 10
198.7556000215806
 20
129.8908246387777
 30
0.0
  0
LINE
  5
8F
330
1F
100
AcDbEntity
  8
0
  6
Continuous
 62
     7
370
    25
100
AcDbLine
 10
179.5184542401
 20
74.6561409612
 30
0.0
 11
181.5184508426
 21
73.6561389347
 31
0.0
  0
LINE
  5
90
330
1F
100
AcDbEntity
  8
0
  6
Continuous
 62
     7
370
    25
100
AcDbLine
 10
199.5184575183
 20
73.6561389347
 30
0.0
 11
201.5184541209
 21
74.6561409612
 31
0.0
  0
LINE
  5
91
330
1F
100
AcDbEntity
  8
0
  6
Continuous
 62
     7
370
    25
100
AcDbLine
 10
216.0595436556
 20
123.81879703
 30
0.0
 11
216.5010203583
 21
124.0535331597
 31
0.0
  0
LINE
  5
92
330
1F
100
AcDbEntity
  8
0
  6
Continuous
 62
     7
370
    25
100
AcDbLine
 10
211.8063052161
 20
132.8830094715
 30
0.0
 11
211.3648285134
 21
132.6482733418
 31
0.0
  0
ARC
  5
93
330
1F
100
AcDbEntity
  8
0
  6
Continuous
 62
     7
370
    25
100
AcDbCircle
 10
208.9835331847
 20
125.3708325677
 30
0.0
 40
8.025013630816655
100
AcDbArc
 50
37.5388778773
 51
69.4058118725
  0
ARC
  5
94
330
1F
100
AcDbEntity
  8
0
  6
Continuous
 62
     7
370
    25
100
AcDbCircle
 10
208.6946665029
 20
125.9141005064
 30
0.0
 40
8.025015349942704
100
AcDbArc
 50
346.5942247769
 51
18.3962306715
  0
SPLINE
  5
95
330
1F
100
AcDbEntity
  8
0
  6
Continuous
 62
     7
370
    25
100
AcDbSpline
210
0.0
220
0.0
230
1.0
 70
     8
 71
     3
 72
    19
 73
    15
 74
     0
 42
0.00000001
 43
0.00000001
 40
0.0
 40
0.0
 40
0.0
 40
0.0
 40
0.0273096760361662
 40
0.0625193715252684
 40
0.118670391230925
 40
0.2139965279703288
 40
0.354160244605478
 40
0.5402170089517225
 40
0.7098181599658631
 40
0.8279413561883071
 40
0.8741631908063655
 40
0.9150637085423238
 40
0.9760455418360275
 40
1.0
 40
1.0
 40
1.0
 40
1.0
 10
210.2015470130242
 20
128.3193854321775
 30
0.0
 10
210.2002111738185
 20
128.3150702349994
 30
0.0
 10
210.1971530698889
 20
128.3051915599381
 30
0.0
 10
210.1944523526385
 20
128.2857199042277
 30
0.0
 10
210.1859255142115
 20
128.256005528208
 30
0.0
 10
210.1673357758102
 20
128.2113666388717
 30
0.0
 10
210.127292726481
 20
128.15354202982
 30
0.0
 10
210.0629652337552
 20
128.1005845407045
 30
0.0
 10
209.9893362014381
 20
128.0709291262735
 30
0.0
 10
209.9344819039143
 20
128.0628644391876
 30
0.0
 10
209.9003549323761
 20
128.063209419708
 30
0.0
 10
209.8764972838927
 20
128.0630831584121
 30
0.0
 10
209.8533295497133
 20
128.0709063327511
 30
0.0
 10
209.8428220053335
 20
128.0607334956674
 30
0.0
 10
209.8398585779466
 20
128.0578644652901
 30
0.0
  0
SPLINE
  5
96
330
1F
100
AcDbEntity
  8
0
  6
Continuous
 62
     7
370
    25
100
AcDbSpline
210
0.0
220
0.0
230
1.0
 70
     8
 71
     3
 72
    19
 73
    15
 74
     0
 42
0.00000001
 43
0.00000001
 40
0.0
 40
0.0
 40
0.0
 40
0.0
 40
0.0273098328766299
 40
0.0625178836303777
 40
0.1186674117667483
 40
0.2140016701758153
 40
0.354159203774443
 40
0.5402146500155853
 40
0.7098314154692751
 40
0.8279404033641744
 40
0.874162489946772
 40
0.9150631518451663
 40
0.9760454042647022
 40
1.0
 40
1.0
 40
1.0
 40
1.0
 10
210.9079067570962
 20
128.6949617494879
 30
0.0
 10
210.9065709325056
 20
128.6906465479134
 30
0.0
 10
210.9035129523751
 20
128.680768154622
 30
0.0
 10
210.9008118541161
 20
128.6612972329859
 30
0.0
 10
210.8922860291752
 20
128.6315816505741
 30
0.0
 10
210.873684386101
 20
128.5869483974454
 30
0.0
 10
210.8336564999888
 20
128.5291150942188
 30
0.0
 10
210.7693213991338
 20
128.4761611658095
 30
0.0
 10
210.6956932128456
 20
128.446509165757
 30
0.0
 10
210.6408391886639
 20
128.4384402201127
 30
0.0
 10
210.60671470402
 20
128.4387883097608
 30
0.0
 10
210.5828569685838
 20
128.4386595303457
 30
0.0
 10
210.55968930922
 20
128.4464846984335
 30
0.0
 10
210.5491817509257
 20
128.4363117146648
 30
0.0
 10
210.5462183220185
 20
128.4334426452455
 30
0.0
  0
SPLINE
  5
97
330
1F
100
AcDbEntity
  8
0
  6
Continuous
 62
     7
370
    25
100
AcDbSpline
210
0.0
220
0.0
230
1.0
 70
     8
 71
     3
 72
    19
 73
    15
 74
     0
 42
0.00000001
 43
0.00000001
 40
0.0
 40
0.0
 40
0.0
 40
0.0
 40
0.0273097640148768
 40
0.0625214198774794
 40
0.1186708064327952
 40
0.2140013609245847
 40
0.3541585411159426
 40
0.540215904848068
 40
0.7098322426130246
 40
0.8279558193718941
 40
0.8741777894054843
 40
0.915078529720008
 40
0.9760454646662237
 40
1.0
 40
1.0
 40
1.0
 40
1.0
 10
211.6142665011681
 20
129.0705399294434
 30
0.0
 10
211.6129306575643
 20
129.0662247310663
 30
0.0
 10
211.6098724532239
 20
129.0563457614262
 30
0.0
 10
211.6071719390678
 20
129.0368741095982
 30
0.0
 10
211.5986459681768
 20
129.0071584825012
 30
0.0
 10
211.5800435419284
 20
128.9625261963261
 30
0.0
 10
211.5400158717349
 20
128.9046931656093
 30
0.0
 10
211.4756817702817
 20
128.8517375490694
 30
0.0
 10
211.4020506243528
 20
128.8220838526555
 30
0.0
 10
211.3471939715612
 20
128.8140173346795
 30
0.0
 10
211.3130669242856
 20
128.8143637974229
 30
0.0
 10
211.2892118314841
 20
128.8142391087125
 30
0.0
 10
211.2660470678811
 20
128.8220591938135
 30
0.0
 10
211.2555414709058
 20
128.8118880307097
 30
0.0
 10
211.2525780660905
 20
128.8090189625559
 30
0.0
  0
SPLINE
  5
98
330
1F
100
AcDbEntity
  8
0
  6
Continuous
 62
     7
370
    25
100
AcDbSpline
210
0.0
220
0.0
230
1.0
 70
     8
 71
     3
 72
    19
 73
    15
 74
     0
 42
0.00000001
 43
0.00000001
 40
0.0
 40
0.0
 40
0.0
 40
0.0
 40
0.0273095207950343
 40
0.0625199591500288
 40
0.118664913713272
 40
0.2139980826954057
 40
0.3541540146516168
 40
0.5402189516162466
 40
0.709819844811385
 40
0.8279423695656412
 40
0.8741639279479162
 40
0.9150641224562724
 40
0.976045678004512
 40
1.0
 40
1.0
 40
1.0
 40
1.0
 10
212.3206262452401
 20
129.4461162467537
 30
0.0
 10
212.3192910072485
 20
129.4418009289027
 30
0.0
 10
212.3162342335571
 20
129.4319218285775
 30
0.0
 10
212.3135183431294
 20
129.4124540269026
 30
0.0
 10
212.305012460509
 20
129.38273377884
 30
0.0
 10
212.2864002290555
 20
129.3381039279358
 30
0.0
 10
212.2463771911135
 20
129.2802664946306
 30
0.0
 10
212.1820351245232
 20
129.2273204693491
 30
0.0
 10
212.1084087342854
 20
129.1976608968538
 30
0.0
 10
212.0535536289464
 20
129.1895949738574
 30
0.0
 10
212.0194267516518
 20
129.1899427679223
 30
0.0
 10
211.9955690020805
 20
129.1898140434056
 30
0.0
 10
211.9724013471845
 20
129.1976391941413
 30
0.0
 10
211.9618937885773
 20
129.1874662115878
 30
0.0
 10
211.9589303595818
 20
129.1845971425114
 30
0.0
  0
SPLINE
  5
99
330
1F
100
AcDbEntity
  8
0
  6
Continuous
 62
     7
370
    25
100
AcDbSpline
210
0.0
220
0.0
230
1.0
 70
     8
 71
     3
 72
    19
 73
    15
 74
     0
 42
0.00000001
 43
0.00000001
 40
0.0
 40
0.0
 40
0.0
 40
0.0
 40
0.0120403361921644
 40
0.0554691417011151
 40
0.0953396615771346
 40
0.1535691046452546
 40
0.2309123686767056
 40
0.3278669415191541
 40
0.544563100251528
 40
0.7152277539345248
 40
0.8338866863548917
 40
0.9215177376111888
 40
0.9806890487591415
 40
1.0
 40
1.0
 40
1.0
 40
1.0
 10
211.7454488737382
 20
125.2517532263932
 30
0.0
 10
211.7470611156558
 20
125.2497540131639
 30
0.0
 10
211.7544886221601
 20
125.2405437519106
 30
0.0
 10
211.754976866123
 20
125.2731575027308
 30
0.0
 10
211.7632336053549
 20
125.2918785043235
 30
0.0
 10
211.7738502968986
 20
125.3236902111018
 30
0.0
 10
211.7936201127516
 20
125.3598136174548
 30
0.0
 10
211.8359755958436
 20
125.4165587023803
 30
0.0
 10
211.9082693219439
 20
125.4691200606569
 30
0.0
 10
211.9972503000981
 20
125.4947170199753
 30
0.0
 10
212.0653037943287
 20
125.4934750646223
 30
0.0
 10
212.112735139441
 20
125.4881339168995
 30
0.0
 10
212.1403373792787
 20
125.4719118842999
 30
0.0
 10
212.1544005486967
 20
125.4745221938676
 30
0.0
 10
212.1578608615197
 20
125.4751644735274
 30
0.0
  0
SPLINE
  5
9A
330
1F
100
AcDbEntity
  8
0
  6
Continuous
 62
     7
370
    25
100
AcDbSpline
210
0.0
220
0.0
230
1.0
 70
     8
 71
     3
 72
    19
 73
    15
 74
     0
 42
0.00000001
 43
0.00000001
 40
0.0
 40
0.0
 40
0.0
 40
0.0
 40
0.0120403300014278
 40
0.0554691131807447
 40
0.0953396125566813
 40
0.1535690256851766
 40
0.2309122499493178
 40
0.3278667729409798
 40
0.5445628202554638
 40
0.7152140677315322
 40
0.8338867717647807
 40
0.9215177779641333
 40
0.9806890586881842
 40
1.0
 40
1.0
 40
1.0
 40
1.0
 10
212.4518086178101
 20
125.6273304750261
 30
0.0
 10
212.4534208597279
 20
125.6253312617961
 30
0.0
 10
212.4608483662331
 20
125.6161210005393
 30
0.0
 10
212.4613366101757
 20
125.648734751436
 30
0.0
 10
212.4695933495024
 20
125.6674557526724
 30
0.0
 10
212.4802100404786
 20
125.6992674615839
 30
0.0
 10
212.4999798595781
 20
125.7353908557325
 30
0.0
 10
212.542335319867
 20
125.7921360263805
 30
0.0
 10
212.6146272408009
 20
125.8446952517537
 30
0.0
 10
212.7036072858354
 20
125.8702953547663
 30
0.0
 10
212.7716610908726
 20
125.8690523902908
 30
0.0
 10
212.8190948797781
 20
125.8637111968299
 30
0.0
 10
212.846697123558
 20
125.8474891311952
 30
0.0
 10
212.8607602928096
 20
125.8500994421574
 30
0.0
 10
212.8642206055917
 20
125.8507417221604
 30
0.0
  0
SPLINE
  5
9B
330
1F
100
AcDbEntity
  8
0
  6
Continuous
 62
     7
370
    25
100
AcDbSpline
210
0.0
220
0.0
230
1.0
 70
     8
 71
     3
 72
    19
 73
    15
 74
     0
 42
0.00000001
 43
0.00000001
 40
0.0
 40
0.0
 40
0.0
 40
0.0
 40
0.0120308062513692
 40
0.0554635441618462
 40
0.095334278616982
 40
0.1535640350700913
 40
0.2309077153551881
 40
0.3278628099973683
 40
0.5445601349666114
 40
0.7152123886141407
 40
0.8338857923497925
 40
0.9215173152275686
 40
0.9806889448295496
 40
1.0
 40
1.0
 40
1.0
 40
1.0
 10
213.1581683618821
 20
126.002907723659
 30
0.0
 10
213.1597777009836
 20
126.000909033113
 30
0.0
 10
213.1671969585511
 20
125.9916948159567
 30
0.0
 10
213.1677000189588
 20
126.0243129230089
 30
0.0
 10
213.1759515767313
 20
126.0430324492962
 30
0.0
 10
213.1865704197574
 20
126.0748449413811
 30
0.0
 10
213.2063393651941
 20
126.1109680175866
 30
0.0
 10
213.2486952335709
 20
126.1677133367459
 30
0.0
 10
213.3209869383747
 20
126.220272483465
 30
0.0
 10
213.4099670374484
 20
126.2458726061435
 30
0.0
 10
213.478020833712
 20
126.2446296384752
 30
0.0
 10
213.5254546240417
 20
126.2392884455326
 30
0.0
 10
213.5530568676193
 20
126.2230663798242
 30
0.0
 10
213.5671200368794
 20
126.2256766907896
 30
0.0
 10
213.5705803496636
 20
126.2263189707933
 30
0.0
  0
SPLINE
  5
9C
330
1F
100
AcDbEntity
  8
0
  6
Continuous
 62
     7
370
    25
100
AcDbSpline
210
0.0
220
0.0
230
1.0
 70
     8
 71
     3
 72
    19
 73
    15
 74
     0
 42
0.00000001
 43
0.00000001
 40
0.0
 40
0.0
 40
0.0
 40
0.0
 40
0.0120401960832957
 40
0.055472194836683
 40
0.0953383896700529
 40
0.1535671551440209
 40
0.2309095191609665
 40
0.327862963779477
 40
0.5445677569328562
 40
0.7152171063466385
 40
0.8338884904470575
 40
0.9215049274493267
 40
0.9806755500429624
 40
1.0
 40
1.0
 40
1.0
 40
1.0
 10
213.8645206553735
 20
126.378484972292
 30
0.0
 10
213.8661327638629
 20
126.3764858190589
 30
0.0
 10
213.8735601508923
 20
126.3672752200883
 30
0.0
 10
213.8740611218927
 20
126.3998860543137
 30
0.0
 10
213.8823008358731
 20
126.4186123724723
 30
0.0
 10
213.8929240737908
 20
126.4504213739587
 30
0.0
 10
213.9126911929315
 20
126.4865455122862
 30
0.0
 10
213.9550487502488
 20
126.5432924537294
 30
0.0
 10
214.0273455615795
 20
126.5958481723576
 30
0.0
 10
214.1163265825117
 20
126.6214494846947
 30
0.0
 10
214.1843782951247
 20
126.620208173005
 30
0.0
 10
214.2318091637566
 20
126.6148633404939
 30
0.0
 10
214.2594114163806
 20
126.5986439484568
 30
0.0
 10
214.2734772670965
 20
126.6012537265374
 30
0.0
 10
214.2769400937356
 20
126.6018962194262
 30
0.0
  0
LINE
  5
9D
330
1F
100
AcDbEntity
  8
0
  6
Continuous
 62
     7
370
    25
100
AcDbLine
 10
210.348017977
 20
128.5966587891
 30
0.0
 11
210.1725717051
 21
128.5033719321
 31
0.0
  0
LINE
  5
9E
330
1F
100
AcDbEntity
  8
0
  6
Continuous
 62
     7
370
    25
100
AcDbLine
 10
211.0543777211
 20
128.972236969
 30
0.0
 11
210.8789314492
 21
128.8789482494
 31
0.0
  0
LINE
  5
9F
330
1F
100
AcDbEntity
  8
0
  6
Continuous
 62
     7
370
    25
100
AcDbLine
 10
211.7607374651
 20
129.3478132864
 30
0.0
 11
211.5852837426
 21
129.2545264293
 31
0.0
  0
LINE
  5
A0
330
1F
100
AcDbEntity
  8
0
  6
Continuous
 62
     7
370
    25
100
AcDbLine
 10
212.8201876743
 20
129.9111349215
 30
0.0
 11
212.2916434867
 21
129.6301027467
 31
0.0
  0
LINE
  5
A1
330
1F
100
AcDbEntity
  8
0
  6
Continuous
 62
     7
370
    25
100
AcDbLine
 10
214.4288127286
 20
126.4626905029
 30
0.0
 11
214.6041844947
 21
126.555934519
 31
0.0
  0
LINE
  5
A2
330
1F
100
AcDbEntity
  8
0
  6
Continuous
 62
     7
370
    25
100
AcDbLine
 10
213.7224604351
 20
126.0871132542
 30
0.0
 11
213.8978843553
 21
126.180390798
 31
0.0
  0
LINE
  5
A3
330
1F
100
AcDbEntity
  8
0
  6
Continuous
 62
     7
370
    25
100
AcDbLine
 10
213.0161006911
 20
125.7115360056
 30
0.0
 11
213.1915320618
 21
125.8048135494
 31
0.0
  0
LINE
  5
A4
330
1F
100
AcDbEntity
  8
0
  6
Continuous
 62
     7
370
    25
100
AcDbLine
 10
212.309740947
 20
125.335958757
 30
0.0
 11
212.4851723177
 21
125.4292363008
 31
0.0
  0
LINE
  5
A5
330
1F
100
AcDbEntity
  8
0
  6
Continuous
 62
     7
370
    25
100
AcDbLine
 10
211.6033812029
 20
124.9603815083
 30
0.0
 11
211.7788125737
 21
125.0536590521
 31
0.0
  0
ARC
  5
A6
330
1F
100
AcDbEntity
  8
0
  6
Continuous
 62
     7
370
    25
100
AcDbCircle
 10
201.6511788566
 20
85.6578277597
 30
0.0
 40
57.00482367001567
100
AcDbArc
 50
113.8321170128
 51
118.9401725327
  0
ARC
  5
A7
330
1F
100
AcDbEntity
  8
0
  6
Continuous
 62
     7
370
    25
100
AcDbCircle
 10
201.6515178029
 20
149.660169936
 30
0.0
 40
57.01062359019254
100
AcDbArc
 50
269.8527774974
 51
270.8713081821
  0
ARC
  5
A8
330
1F
100
AcDbEntity
  8
0
  6
Continuous
 62
     7
370
    25
100
AcDbCircle
 10
201.6515769771
 20
149.655285373
 30
0.0
 40
57.00574769656606
100
AcDbArc
 50
241.0598837584
 51
247.1694761295
  0
ARC
  5
A9
330
1F
100
AcDbEntity
  8
0
  6
Continuous
 62
     7
370
    25
100
AcDbCircle
 10
175.5184480681
 20
102.3934498015
 30
0.0
 40
2.999993112815845
100
AcDbArc
 50
179.9999037197
 51
241.0599241374
  0
ARC
  5
AA
330
1F
100
AcDbEntity
  8
0
  6
Continuous
 62
     7
370
    25
100
AcDbCircle
 10
175.5184451287
 20
132.9188293245
 30
0.0
 40
2.99999017338844
100
AcDbArc
 50
118.9400427546
 51
180.0000938144
  0
ARC
  5
AB
330
1F
100
AcDbEntity
  8
0
  6
Continuous
 62
     7
370
    25
100
AcDbCircle
 10
172.2184549862
 20
102.8561391443
 30
0.0
 40
0.2999999691552319
100
AcDbArc
 50
0.0000914387
 51
90.0002642998
  0
ARC
  5
AC
330
1F
100
AcDbEntity
  8
0
  6
Continuous
 62
     7
370
    25
100
AcDbCircle
 10
172.2184533963
 20
132.456139838
 30
0.0
 40
0.3000015590182127
100
AcDbArc
 50
270.0000393415
 51
359.9999606585
  0
LINE
  5
AD
330
1F
100
AcDbEntity
  8
0
  6
Continuous
 62
     7
370
    25
100
AcDbLine
 10
172.2184536023
 20
132.156138279
 30
0.0
 11
152.8184530301
 21
132.156138279
 31
0.0
  0
LINE
  5
AE
330
1F
100
AcDbEntity
  8
0
  6
Continuous
 62
     7
370
    25
100
AcDbLine
 10
152.8184530301
 20
103.1561391135
 30
0.0
 11
172.2184536023
 21
103.1561391135
 31
0.0
  0
ARC
  5
AF
330
1F
100
AcDbEntity
  8
0
  6
Continuous
 62
     7
370
    25
100
AcDbCircle
 10
152.8184525062
 20
131.1561405017
 30
0.0
 40
0.9999977773451811
100
AcDbArc
 50
89.9999699814
 51
180.0000300186
  0
ARC
  5
B0
330
1F
100
AcDbEntity
  8
0
  6
Continuous
 62
     7
370
    25
100
AcDbCircle
 10
152.8184556859
 20
104.1561400706
 30
0.0
 40
1.00000095708751
100
AcDbArc
 50
180.0000454453
 51
269.9998478329
  0
ARC
  5
B1
330
1F
100
AcDbEntity
  8
0
  6
Continuous
 62
     7
370
    25
100
AcDbCircle
 10
200.5184595232
 20
80.6561345158
 30
0.0
 40
0.9999945976630583
100
AcDbArc
 50
269.999574353
 51
0.0002122036
  0
ARC
  5
B2
330
1F
100
AcDbEntity
  8
0
  6
Continuous
 62
     7
370
    25
100
AcDbCircle
 10
180.5184488377
 20
80.6561345158
 30
0.0
 40
0.9999945976630702
100
AcDbArc
 50
179.9997877964
 51
270.000425647
  0
LINE
  5
B3
330
1F
100
AcDbEntity
  8
0
  6
Continuous
 62
     7
370
    25
100
AcDbLine
 10
201.5184541209
 20
80.6561382194
 30
0.0
 11
201.5184541209
 21
92.6552982708
 31
0.0
  0
LINE
  5
B4
330
1F
100
AcDbEntity
  8
0
  6
Continuous
 62
     7
370
    25
100
AcDbLine
 10
179.5184542401
 20
97.1237243791
 30
0.0
 11
179.5184542401
 21
80.6561382194
 31
0.0
  0
LINE
  5
B5
330
1F
100
AcDbEntity
  8
0
  6
Continuous
 62
     7
370
    25
100
AcDbLine
 10
101.9548992602
 20
115.2561392807
 30
0.0
 11
146.8184520466
 21
115.2561392807
 31
0.0
  0
LINE
  5
B6
330
1F
100
AcDbEntity
  8
0
  6
Continuous
 62
     7
370
    25
100
AcDbLine
 10
146.8184520466
 20
120.0561392759
 30
0.0
 11
100.8606315566
 21
120.0561392759
 31
0.0
  0
LINE
  5
B7
330
1F
100
AcDbEntity
  8
0
  6
Continuous
 62
     7
370
    25
100
AcDbLine
 10
147.5690086348
 20
122.5561387544
 30
0.0
 11
151.8184547288
 21
122.5561387544
 31
0.0
  0
LINE
  5
B8
330
1F
100
AcDbEntity
  8
0
  6
Continuous
 62
     7
370
    25
100
AcDbLine
 10
147.5690086348
 20
112.7561391875
 30
0.0
 11
151.8184547288
 21
112.7561391875
 31
0.0
  0
SPLINE
  5
B9
330
1F
100
AcDbEntity
  8
0
  6
Continuous
 62
     7
370
    25
100
AcDbSpline
210
0.0
220
0.0
230
1.0
 70
     8
 71
     3
 72
     9
 73
     5
 74
     0
 42
0.00000001
 43
0.00000001
 40
0.0
 40
0.0
 40
0.0
 40
0.0
 40
0.4662246768838912
 40
1.0
 40
1.0
 40
1.0
 40
1.0
 10
146.8184520466126
 20
117.1870976393161
 30
0.0
 10
146.868195473133
 20
116.4874522761638
 30
0.0
 10
146.9748895821896
 20
114.9867909044223
 30
0.0
 10
147.3622468721667
 20
113.5324372690913
 30
0.0
 10
147.5690086347855
 20
112.7561391874674
 30
0.0
  0
LINE
  5
BA
330
1F
100
AcDbEntity
  8
0
  6
Continuous
 62
     7
370
    25
100
AcDbLine
 10
146.8184520466
 20
117.1870976393
 30
0.0
 11
146.8184520466
 21
118.1251806845
 31
0.0
  0
SPLINE
  5
BB
330
1F
100
AcDbEntity
  8
0
  6
Continuous
 62
     7
370
    25
100
AcDbSpline
210
0.0
220
0.0
230
1.0
 70
     8
 71
     3
 72
    10
 73
     6
 74
     0
 42
0.00000001
 43
0.00000001
 40
0.0
 40
0.0
 40
0.0
 40
0.0
 40
0.3911899603237357
 40
0.6945532245637408
 40
1.0
 40
1.0
 40
1.0
 40
1.0
 10
147.5690086347855
 20
122.5561387543616
 30
0.0
 10
147.417734250258
 20
121.9883479451604
 30
0.0
 10
147.1491483400251
 20
120.9802419674866
 30
0.0
 10
146.9003162124097
 20
119.4962667945149
 30
0.0
 10
146.845802288966
 20
118.5832509162197
 30
0.0
 10
146.8184520466126
 20
118.1251806845007
 30
0.0
  0
LINE
  5
BC
330
1F
100
AcDbEntity
  8
0
  6
Continuous
 62
     7
370
    25
100
AcDbLine
 10
146.8184520466
 20
117.1870976393
 30
0.0
 11
146.8184520466
 21
110.5406600689
 31
0.0
  0
SPLINE
  5
BD
330
1F
100
AcDbEntity
  8
0
  6
Continuous
 62
     7
370
    25
100
AcDbSpline
210
0.0
220
0.0
230
1.0
 70
     8
 71
     3
 72
    10
 73
     6
 74
     0
 42
0.00000001
 43
0.00000001
 40
0.0
 40
0.0
 40
0.0
 40
0.0
 40
0.2210337304004046
 40
0.6166053340942175
 40
1.0
 40
1.0
 40
1.0
 40
1.0
 10
147.5690086347855
 20
112.7561391874674
 30
0.0
 10
147.4852349291486
 20
112.6041536147018
 30
0.0
 10
147.2515361463473
 20
112.1801680324883
 30
0.0
 10
146.9432637103797
 20
111.4487649766259
 30
0.0
 10
146.8596200906078
 20
110.8401905908244
 30
0.0
 10
146.8184520466126
 20
110.5406600688634
 30
0.0
  0
LINE
  5
BE
330
1F
100
AcDbEntity
  8
0
  6
Continuous
 62
     7
370
    25
100
AcDbLine
 10
147.5690086348
 20
107.8561390457
 30
0.0
 11
151.8184547288
 21
107.8561390457
 31
0.0
  0
SPLINE
  5
BF
330
1F
100
AcDbEntity
  8
0
  6
Continuous
 62
     7
370
    25
100
AcDbSpline
210
0.0
220
0.0
230
1.0
 70
     8
 71
     3
 72
    10
 73
     6
 74
     0
 42
0.00000001
 43
0.00000001
 40
0.0
 40
0.0
 40
0.0
 40
0.0
 40
0.2659286451328657
 40
0.623461199459028
 40
1.0
 40
1.0
 40
1.0
 40
1.0
 10
146.8184520466126
 20
110.0716183134405
 30
0.0
 10
146.8424722585488
 20
109.8636207825872
 30
0.0
 10
146.898786876846
 20
109.3759772269054
 30
0.0
 10
147.1559002254717
 20
108.625453010935
 30
0.0
 10
147.4289492771622
 20
108.1169655438941
 30
0.0
 10
147.5690086347855
 20
107.8561390456793
 30
0.0
  0
LINE
  5
C0
330
1F
100
AcDbEntity
  8
0
  6
Continuous
 62
     7
370
    25
100
AcDbLine
 10
146.8184520466
 20
110.0716183134
 30
0.0
 11
146.8184520466
 21
110.5406600689
 31
0.0
  0
LINE
  5
C1
330
1F
100
AcDbEntity
  8
0
  6
Continuous
 62
     7
370
    25
100
AcDbLine
 10
146.8184520466
 20
124.771618255
 30
0.0
 11
146.8184520466
 21
118.1251806845
 31
0.0
  0
SPLINE
  5
C2
330
1F
100
AcDbEntity
  8
0
  6
Continuous
 62
     7
370
    25
100
AcDbSpline
210
0.0
220
0.0
230
1.0
 70
     8
 71
     3
 72
    10
 73
     6
 74
     0
 42
0.00000001
 43
0.00000001
 40
0.0
 40
0.0
 40
0.0
 40
0.0
 40
0.2659288135315837
 40
0.6234612376881502
 40
1.0
 40
1.0
 40
1.0
 40
1.0
 10
146.8184520466126
 20
124.7716182549534
 30
0.0
 10
146.842472240393
 20
124.5636205649443
 30
0.0
 10
146.8987867839167
 20
124.0759769150247
 30
0.0
 10
147.1559002862535
 20
123.3254526618268
 30
0.0
 10
147.4289492859316
 20
122.8169652550286
 30
0.0
 10
147.5690086347855
 20
122.5561387543616
 30
0.0
  0
LINE
  5
C3
330
1F
100
AcDbEntity
  8
0
  6
Continuous
 62
     7
370
    25
100
AcDbLine
 10
147.5690086348
 20
127.4561388125
 30
0.0
 11
151.8184547288
 21
127.4561388125
 31
0.0
  0
SPLINE
  5
C4
330
1F
100
AcDbEntity
  8
0
  6
Continuous
 62
     7
370
    25
100
AcDbSpline
210
0.0
220
0.0
230
1.0
 70
     8
 71
     3
 72
    10
 73
     6
 74
     0
 42
0.00000001
 43
0.00000001
 40
0.0
 40
0.0
 40
0.0
 40
0.0
 40
0.2210336572822045
 40
0.6166051583556904
 40
1.0
 40
1.0
 40
1.0
 40
1.0
 10
147.5690086347855
 20
127.4561388124762
 30
0.0
 10
147.4852349288075
 20
127.3041533463
 30
0.0
 10
147.2515361343532
 20
126.8801680420181
 30
0.0
 10
146.9432636110205
 20
126.1487651832378
 30
0.0
 10
146.8596200678915
 20
125.5401908489804
 30
0.0
 10
146.8184520466126
 20
125.240660243207
 30
0.0
  0
LINE
  5
C5
330
1F
100
AcDbEntity
  8
0
  6
Continuous
 62
     7
370
    25
100
AcDbLine
 10
146.8184520466
 20
124.771618255
 30
0.0
 11
146.8184520466
 21
125.2406602432
 31
0.0
  0
LINE
  5
C6
330
1F
100
AcDbEntity
  8
0
  6
Continuous
 62
     7
370
    25
100
AcDbLine
 10
146.8184520466
 20
126.1561391582
 30
0.0
 11
146.8184520466
 21
125.2406602432
 31
0.0
  0
LINE
  5
C7
330
1F
100
AcDbEntity
  8
0
  6
Continuous
 62
     7
370
    25
100
AcDbLine
 10
146.8184520466
 20
110.0716183134
 30
0.0
 11
146.8184520466
 21
109.1561391656
 31
0.0
  0
LWPOLYLINE
  5
C8
330
1F
100
AcDbEntity
  8
0
  6
Continuous
 62
     7
370
    25
100
AcDbPolyline
 90
       35
 70
   128
 43
0.0
 10
176.9341384036
 20
140.956544288
 10
176.9488458497
 20
140.9288877328
 10
177.0662968023
 20
140.7079873313
 10
177.3001705272
 20
140.2681311299
 10
177.6484181149
 20
139.6131822546
 10
178.1079624755
 20
138.7488962789
 10
178.6747802956
 20
137.6828690697
 10
179.3438871367
 20
136.4244678696
 10
180.1093970401
 20
134.9847530653
 10
180.9645821316
 20
133.3763776054
 10
181.9019322259
 20
131.6134733786
 10
182.9132144315
 20
129.7115338673
 10
183.9895327551
 20
127.6872753804
 10
185.12143241
 20
125.5584843163
 10
186.2989594204
 20
123.3438700144
 10
187.5117798312
 20
121.0628952538
 10
188.7492244108
 20
118.7356030275
 10
190.0004153116
 20
116.3824477405
 10
191.2543703778
 20
114.0241082464
 10
192.5000552995
 20
111.6813097321
 10
193.7265326245
 20
109.3746409458
 10
194.9230213625
 20
107.1243728218
 10
196.0790087445
 20
104.9502808307
 10
197.1843321783
 20
102.8714710553
 10
198.2292761071
 20
100.9062118535
 10
199.2046614153
 20
99.0717746024
 10
200.1019199354
 20
97.3842795645
 10
200.9131615026
 20
95.8585580518
 10
201.6312559111
 20
94.5080155213
 10
202.2498999698
 20
93.3445235421
 10
202.7636473043
 20
92.3783043106
 10
203.1679828627
 20
91.6178496261
 10
203.4593676193
 20
91.0698445221
 10
203.6352236731
 20
90.7391039361
 10
203.6940162046
 20
90.6285317321
  0
SPLINE
  5
C9
330
1F
100
AcDbEntity
  8
0
  6
Continuous
 62
     7
370
    25
100
AcDbSpline
210
0.0
220
0.0
230
1.0
 70
     8
 71
     3
 72
    11
 73
     7
 74
     0
 42
0.00000001
 43
0.00000001
 40
0.0
 40
0.0
 40
0.0
 40
0.0
 40
0.2500442320914927
 40
0.5008380708742625
 40
0.6082209192051642
 40
1.0
 40
1.0
 40
1.0
 40
1.0
 10
205.9815828664102
 20
114.8868524176118
 30
0.0
 10
205.4663471046499
 20
116.14843693184
 30
0.0
 10
204.4343309577189
 20
118.6753880599095
 30
0.0
 10
202.9686238843812
 20
121.6510395300336
 30
0.0
 10
201.002982557058
 20
125.2346187452062
 30
0.0
 10
199.5022602612067
 20
127.5055488899967
 30
0.0
 10
198.3243827683724
 20
129.2879422833261
 30
0.0
  0
SPLINE
  5
CA
330
1F
100
AcDbEntity
  8
0
  6
Continuous
 62
     7
370
    25
100
AcDbSpline
210
0.0
220
0.0
230
1.0
 70
     8
 71
     3
 72
    12
 73
     8
 74
     0
 42
0.00000001
 43
0.00000001
 40
0.0
 40
0.0
 40
0.0
 40
0.0
 40
0.2404570026265449
 40
0.5381651548346725
 40
0.7797431189397905
 40
0.9382208154582562
 40
1.0
 40
1.0
 40
1.0
 40
1.0
 10
205.9815828664102
 20
114.8868524176118
 30
0.0
 10
205.999792958371
 20
114.842079375803
 30
0.0
 10
206.040548839267
 20
114.7418731405331
 30
0.0
 10
206.1040147022211
 20
114.5969981756087
 30
0.0
 10
206.1723630226007
 20
114.4775447634293
 30
0.0
 10
206.2135299791151
 20
114.3875678781007
 30
0.0
 10
206.2539548699395
 20
114.3677104801896
 30
0.0
 10
206.2652935249604
 20
114.3621407388759
 30
0.0
  0
SPLINE
  5
CB
330
1F
100
AcDbEntity
  8
0
  6
Continuous
 62
     7
370
    25
100
AcDbSpline
210
0.0
220
0.0
230
1.0
 70
     8
 71
     3
 72
     9
 73
     5
 74
     0
 42
0.00000001
 43
0.00000001
 40
0.0
 40
0.0
 40
0.0
 40
0.0
 40
0.4127234987535119
 40
1.0
 40
1.0
 40
1.0
 40
1.0
 10
206.6711937053002
 20
114.6128931720791
 30
0.0
 10
206.6154688645969
 20
114.5782073257403
 30
0.0
 10
206.4804514961369
 20
114.494165960411
 30
0.0
 10
206.3448998320081
 20
114.4109887562935
 30
0.0
 10
206.2652935249604
 20
114.3621407388759
 30
0.0
  0
SPLINE
  5
CC
330
1F
100
AcDbEntity
  8
0
  6
Continuous
 62
     7
370
    25
100
AcDbSpline
210
0.0
220
0.0
230
1.0
 70
     8
 71
     3
 72
     9
 73
     5
 74
     0
 42
0.00000001
 43
0.00000001
 40
0.0
 40
0.0
 40
0.0
 40
0.0
 40
0.5872715536535432
 40
1.0
 40
1.0
 40
1.0
 40
1.0
 10
198.0480258328713
 20
129.816562839323
 30
0.0
 10
198.1330384289953
 20
129.8552457278299
 30
0.0
 10
198.2777970088977
 20
129.9211145550636
 30
0.0
 10
198.4229748470057
 20
129.9860536315742
 30
0.0
 10
198.482893870572
 20
130.0128558357296
 30
0.0
  0
SPLINE
  5
CD
330
1F
100
AcDbEntity
  8
0
  6
Continuous
 62
     7
370
    25
100
AcDbSpline
210
0.0
220
0.0
230
1.0
 70
     8
 71
     3
 72
    12
 73
     8
 74
     0
 42
0.00000001
 43
0.00000001
 40
0.0
 40
0.0
 40
0.0
 40
0.0
 40
0.0379079369156253
 40
0.1661565642192624
 40
0.384426920016154
 40
0.6744678592969492
 40
1.0
 40
1.0
 40
1.0
 40
1.0
 10
198.0480258328713
 20
129.816562839323
 30
0.0
 10
198.0455863519652
 20
129.8091597319191
 30
0.0
 10
198.0348937161
 20
129.7767107254345
 30
0.0
 10
198.0787962463598
 20
129.7028390729081
 30
0.0
 10
198.1298022981171
 20
129.59013115342
 30
0.0
 10
198.2195514047211
 20
129.4453971668936
 30
0.0
 10
198.2881211713989
 20
129.3424065708311
 30
0.0
 10
198.3243827683724
 20
129.2879422833261
 30
0.0
  0
ARC
  5
CE
330
1F
100
AcDbEntity
  8
0
  6
Continuous
 62
     7
370
    25
100
AcDbCircle
 10
206.5431389851
 20
114.4711576874
 30
0.0
 40
0.2984674099386342
100
AcDbArc
 50
121.1595811588
 51
201.4233250717
  0
ARC
  5
CF
330
1F
100
AcDbEntity
  8
0
  6
Continuous
 62
     7
370
    25
100
AcDbCircle
 10
198.2937767385
 20
129.9859591402
 30
0.0
 40
0.2984771588218917
100
AcDbArc
 50
214.5785275695
 51
294.8397611823
  0
LINE
  5
D0
330
1F
100
AcDbEntity
  8
0
  6
Continuous
 62
     7
370
    25
100
AcDbLine
 10
214.1336132748
 20
119.3801779007
 30
0.0
 11
206.388704942
 21
114.7265650504
 31
0.0
  0
LINE
  5
D1
330
1F
100
AcDbEntity
  8
0
  6
Continuous
 62
     7
370
    25
100
AcDbLine
 10
198.4191616041
 20
129.7150952448
 30
0.0
 11
206.6080798371
 21
133.5336500485
 31
0.0
  0
ARC
  5
D2
330
1F
100
AcDbEntity
  8
0
  6
Continuous
 62
     7
370
    25
100
AcDbCircle
 10
206.9526490316
 20
114.7158021386
 30
0.0
 40
0.2996787548103419
100
AcDbArc
 50
121.0304651194
 51
200.0840102353
  0
ARC
  5
D3
330
1F
100
AcDbEntity
  8
0
  6
Continuous
 62
     7
370
    25
100
AcDbCircle
 10
198.725595001
 20
130.1886357146
 30
0.0
 40
0.2996704932521645
100
AcDbArc
 50
215.9144902873
 51
294.9701984703
  0
ARC
  5
D4
330
1F
100
AcDbEntity
  8
0
  6
Continuous
 62
     7
370
    25
100
AcDbCircle
 10
213.9791087469
 20
119.6373262784
 30
0.0
 40
0.2999948955176582
100
AcDbArc
 50
300.9990495826
 51
28.0009527383
  0
LINE
  5
D5
330
1F
100
AcDbEntity
  8
0
  6
Continuous
 62
     7
370
    25
100
AcDbLine
 10
206.9997494085
 20
133.4025999238
 30
0.0
 11
214.2439861758
 21
119.7781697554
 31
0.0
  0
ARC
  5
D6
330
1F
100
AcDbEntity
  8
0
  6
Continuous
 62
     7
370
    25
100
AcDbCircle
 10
206.7348671705
 20
133.2617628322
 30
0.0
 40
0.2999961438668324
100
AcDbArc
 50
27.9994447571
 51
115.0007343237
  0
LINE
  5
D7
330
1F
100
AcDbEntity
  8
0
  6
Continuous
 62
     7
370
    25
100
AcDbLine
 10
179.5184542401
 20
79.6561399181
 30
0.0
 11
179.5184542401
 21
74.6561409612
 31
0.0
  0
LINE
  5
D8
330
1F
100
AcDbEntity
  8
0
  6
Continuous
 62
     7
370
    25
100
AcDbLine
 10
185.018450485
 20
79.6561399181
 30
0.0
 11
183.7891419394
 21
79.6561399181
 31
0.0
  0
LINE
  5
D9
330
1F
100
AcDbEntity
  8
0
  6
Continuous
 62
     7
370
    25
100
AcDbLine
 10
180.7477627857
 20
79.6561399181
 30
0.0
 11
179.5184542401
 21
79.6561399181
 31
0.0
  0
LINE
  5
DA
330
1F
100
AcDbEntity
  8
0
  6
Continuous
 62
     7
370
    25
100
AcDbLine
 10
185.018450485
 20
79.6561399181
 30
0.0
 11
185.018450485
 21
74.6561409612
 31
0.0
  0
SPLINE
  5
DB
330
1F
100
AcDbEntity
  8
0
  6
Continuous
 62
     7
370
    25
100
AcDbSpline
210
0.0
220
0.0
230
1.0
 70
     8
 71
     3
 72
    10
 73
     6
 74
     0
 42
0.00000001
 43
0.00000001
 40
0.0
 40
0.0
 40
0.0
 40
0.0
 40
0.3409496609157376
 40
0.6770588424374303
 40
0.9999999999999999
 40
0.9999999999999999
 40
0.9999999999999999
 40
0.9999999999999999
 10
179.5184542400636
 20
74.65614096122361
 30
0.0
 10
180.1189376296913
 20
74.39387435979228
 30
0.0
 10
181.3113793162214
 20
73.87306456899154
 30
0.0
 10
183.2939198678921
 20
73.89705044173816
 30
0.0
 10
184.4513153156408
 20
74.40650379848394
 30
0.0
 10
185.0184504849709
 20
74.65614096122361
 30
0.0
  0
LINE
  5
DC
330
1F
100
AcDbEntity
  8
0
  6
Continuous
 62
     7
370
    25
100
AcDbLine
 10
196.0184504254
 20
79.6561399181
 30
0.0
 11
193.5598333342
 21
79.6561399181
 31
0.0
  0
LINE
  5
DD
330
1F
100
AcDbEntity
  8
0
  6
Continuous
 62
     7
370
    25
100
AcDbLine
 10
187.4770750267
 20
79.6561399181
 30
0.0
 11
185.018450485
 21
79.6561399181
 31
0.0
  0
LINE
  5
DE
330
1F
100
AcDbEntity
  8
0
  6
Continuous
 62
     7
370
    25
100
AcDbLine
 10
196.0184504254
 20
79.6561399181
 30
0.0
 11
196.0184504254
 21
74.6561409612
 31
0.0
  0
SPLINE
  5
DF
330
1F
100
AcDbEntity
  8
0
  6
Continuous
 62
     7
370
    25
100
AcDbSpline
210
0.0
220
0.0
230
1.0
 70
     8
 71
     3
 72
    11
 73
     7
 74
     0
 42
0.00000001
 43
0.00000001
 40
0.0
 40
0.0
 40
0.0
 40
0.0
 40
0.1301169153708226
 40
0.4385232672532096
 40
0.7559111656744307
 40
1.0
 40
1.0
 40
1.0
 40
1.0
 10
185.0184504849709
 20
74.65614096122361
 30
0.0
 10
185.4877927536774
 20
74.54550526160466
 30
0.0
 10
187.0695817512619
 20
74.17263807263483
 30
0.0
 10
189.8627112536729
 20
73.82768316692959
 30
0.0
 10
193.1031396320997
 20
74.00173949201141
 30
0.0
 10
195.1351023252094
 20
74.45785531157568
 30
0.0
 10
196.0184504253663
 20
74.65614096122361
 30
0.0
  0
SPLINE
  5
E0
330
1F
100
AcDbEntity
  8
0
  6
Continuous
 62
     7
370
    25
100
AcDbSpline
210
0.0
220
0.0
230
1.0
 70
     8
 71
     3
 72
    10
 73
     6
 74
     0
 42
0.00000001
 43
0.00000001
 40
0.0
 40
0.0
 40
0.0
 40
0.0
 40
0.3409504964571834
 40
0.6770579897644956
 40
1.0
 40
1.0
 40
1.0
 40
1.0
 10
196.0184504253663
 20
74.65614096122361
 30
0.0
 10
196.6189363176222
 20
74.3938741389665
 30
0.0
 10
197.8113785499033
 20
73.87306584185457
 30
0.0
 10
199.7939204283681
 20
73.89705192380622
 30
0.0
 10
200.9513164525994
 20
74.40650363111259
 30
0.0
 10
201.5184541208543
 20
74.65614096122361
 30
0.0
  0
LINE
  5
E1
330
1F
100
AcDbEntity
  8
0
  6
Continuous
 62
     7
370
    25
100
AcDbLine
 10
199.5184575183
 20
73.6561389347
 30
0.0
 11
181.5184508426
 21
73.6561389347
 31
0.0
  0
LINE
  5
E2
330
1F
100
AcDbEntity
  8
0
  6
Continuous
 62
     7
370
    25
100
AcDbLine
 10
201.5184541209
 20
79.6561399181
 30
0.0
 11
201.5184541209
 21
74.6561409612
 31
0.0
  0
LINE
  5
E3
330
1F
100
AcDbEntity
  8
0
  6
Continuous
 62
     7
370
    25
100
AcDbLine
 10
201.5184541209
 20
79.6561399181
 30
0.0
 11
200.2891455753
 21
79.6561399181
 31
0.0
  0
LINE
  5
E4
330
1F
100
AcDbEntity
  8
0
  6
Continuous
 62
     7
370
    25
100
AcDbLine
 10
197.2477664215
 20
79.6561399181
 30
0.0
 11
196.0184504254
 21
79.6561399181
 31
0.0
  0
LWPOLYLINE
  5
E5
330
1F
100
AcDbEntity
  8
0
  6
Continuous
 62
     7
370
    25
100
AcDbPolyline
 90
       16
 70
   128
 43
0.0
 10
216.0595436556
 20
123.81879703
 10
216.0432268841
 20
123.8494841089
 10
215.9233023388
 20
124.075029016
 10
215.6925057037
 20
124.5090989103
 10
215.3624077303
 20
125.1299278517
 10
214.9495561583
 20
125.9063835894
 10
214.474656151
 20
126.7995331143
 10
213.9615272147
 20
127.7645891239
 10
213.4358962042
 20
128.7531600972
 10
212.924115823
 20
129.7156763901
 10
212.4518607719
 20
130.6038694163
 10
212.0427940948
 20
131.3732051929
 10
211.7174421413
 20
131.9851046135
 10
211.4921142323
 20
132.4088861872
 10
211.3781128986
 20
132.6232952704
 10
211.3648285134
 20
132.6482733418
  0
LWPOLYLINE
  5
E6
330
1F
100
AcDbEntity
  8
0
  6
Continuous
 62
     7
370
    25
100
AcDbPolyline
 90
       16
 70
   128
 43
0.0
 10
216.5010203583
 20
124.0535331597
 10
216.4847035868
 20
124.0842202385
 10
216.3647790415
 20
124.3097651457
 10
216.1339824064
 20
124.7438350399
 10
215.8038769824
 20
125.36466305
 10
215.391032861
 20
126.141119719
 10
214.9161328537
 20
127.0342692439
 10
214.4030039174
 20
127.9993252535
 10
213.8773729069
 20
128.9878962268
 10
213.3655925257
 20
129.9504106571
 10
212.893330024
 20
130.8386055459
 10
212.4842707975
 20
131.6079413225
 10
212.158918844
 20
132.2198407431
 10
211.933590935
 20
132.6436204542
 10
211.8195821507
 20
132.8580314
 10
211.8063052161
 20
132.8830094715
  0
SPLINE
  5
E7
330
1F
100
AcDbEntity
  8
0
  6
Continuous
 62
     7
370
    25
100
AcDbSpline
210
0.0
220
0.0
230
1.0
 70
     8
 71
     3
 72
     9
 73
     5
 74
     0
 42
0.00000001
 43
0.00000001
 40
0.0
 40
0.0
 40
0.0
 40
0.0
 40
0.001545575486157
 40
1.0
 40
1.0
 40
1.0
 40
1.0
 10
215.3459568483628
 20
130.2616735626993
 30
0.0
 10
215.3455148521221
 20
130.2622485647812
 30
0.0
 10
215.0595396638154
 20
130.6342796218365
 30
0.0
 10
214.6837186026993
 20
130.9239106734825
 30
0.0
 10
214.3084784014024
 20
131.213094078475
 30
0.0
  0
LINE
  5
E8
330
1F
100
AcDbEntity
  8
0
  6
Continuous
 62
     7
370
    25
100
AcDbLine
 10
214.3084784014
 20
131.2130940785
 30
0.0
 11
214.7863139374
 21
130.3144124975
 31
0.0
  0
SPLINE
  5
E9
330
1F
100
AcDbEntity
  8
0
  6
Continuous
 62
     7
370
    25
100
AcDbSpline
210
0.0
220
0.0
230
1.0
 70
     8
 71
     3
 72
     9
 73
     5
 74
     0
 42
0.00000001
 43
0.00000001
 40
0.0
 40
0.0
 40
0.0
 40
0.0
 40
0.0015455768679686
 40
1.0
 40
1.0
 40
1.0
 40
1.0
 10
215.8237923843659
 20
129.3629938443241
 30
0.0
 10
215.8233503881257
 20
129.3635688464065
 30
0.0
 10
215.537375455772
 20
129.7355995711484
 30
0.0
 10
215.1615542663203
 20
130.0252298572368
 30
0.0
 10
214.7863139374055
 20
130.3144124974546
 30
0.0
  0
LINE
  5
EA
330
1F
100
AcDbEntity
  8
0
  6
Continuous
 62
     7
370
    25
100
AcDbLine
 10
216.0195191366
 20
127.8123724912
 30
0.0
 11
215.8237923844
 21
129.3629938443
 31
0.0
  0
LINE
  5
EB
330
1F
100
AcDbEntity
  8
0
  6
Continuous
 62
     7
370
    25
100
AcDbLine
 10
216.0195191366
 20
127.8123724912
 30
0.0
 11
216.5029053552
 21
126.9032498528
 31
0.0
  0
LINE
  5
EC
330
1F
100
AcDbEntity
  8
0
  6
Continuous
 62
     7
370
    25
100
AcDbLine
 10
216.5029053552
 20
126.9032498528
 30
0.0
 11
216.3071860535
 21
128.4538702746
 31
0.0
  0
SPLINE
  5
ED
330
1F
100
AcDbEntity
  8
0
  6
Continuous
 62
     7
370
    25
100
AcDbSpline
210
0.0
220
0.0
230
1.0
 70
     8
 71
     3
 72
    18
 73
    14
 74
     0
 42
0.00000001
 43
0.00000001
 40
0.0
 40
0.0
 40
0.0
 40
0.0
 40
0.0014402075168897
 40
0.0420074941765319
 40
0.1469159922357891
 40
0.3012654510529879
 40
0.4817973310897272
 40
0.6611648251617717
 40
0.8122024363037925
 40
0.9121748272923387
 40
0.9472004779538649
 40
0.9877675587431324
 40
1.0
 40
1.0
 40
1.0
 40
1.0
 10
214.426137970189
 20
126.4677336146174
 30
0.0
 10
214.4264174141235
 20
126.4657453554127
 30
0.0
 10
214.4345681419265
 20
126.4077524717629
 30
0.0
 10
214.1855473834662
 20
126.7414931039409
 30
0.0
 10
214.0659777912799
 20
126.9272486101476
 30
0.0
 10
213.6975079486961
 20
127.5006841746241
 30
0.0
 10
213.3459213198935
 20
128.0683392210147
 30
0.0
 10
212.9893716639009
 20
128.6504339163636
 30
0.0
 10
212.6443833514089
 20
129.1693333687631
 30
0.0
 10
212.4960476096201
 20
129.4293524352686
 30
0.0
 10
212.2485992650158
 20
129.6999256394223
 30
0.0
 10
212.3063347327918
 20
129.497208829533
 30
0.0
 10
212.3314034008145
 20
129.435415224308
 30
0.0
 10
212.3372112376489
 20
129.4210990597544
 30
0.0
  0
SPLINE
  5
EE
330
1F
100
AcDbEntity
  8
0
  6
Continuous
 62
     7
370
    25
100
AcDbSpline
210
0.0
220
0.0
230
1.0
 70
     8
 71
     3
 72
    18
 73
    14
 74
     0
 42
0.00000001
 43
0.00000001
 40
0.0
 40
0.0
 40
0.0
 40
0.0
 40
0.0014402067695439
 40
0.0420074723781979
 40
0.146914867062164
 40
0.3012652367169529
 40
0.4817960502420141
 40
0.6611634512375107
 40
0.8122021712133101
 40
0.9121745103246469
 40
0.9471998388794209
 40
0.9877668986178071
 40
1.0
 40
1.0
 40
1.0
 40
1.0
 10
213.719778226117
 20
126.0921563659845
 30
0.0
 10
213.7200576701654
 20
126.0901681068187
 30
0.0
 10
213.7282084012896
 20
126.0321752243006
 30
0.0
 10
213.4791884159893
 20
126.3659131312533
 30
0.0
 10
213.3596288708335
 20
126.5516765440849
 30
0.0
 10
212.9911445295042
 20
127.1251013364794
 30
0.0
 10
212.6395707595243
 20
127.6927645319678
 30
0.0
 10
212.2830199883874
 20
128.2748592079965
 30
0.0
 10
211.9380235939119
 20
128.7937547875224
 30
0.0
 10
211.7896874656013
 20
129.053776665288
 30
0.0
 10
211.5422412290808
 20
129.3243473493701
 30
0.0
 10
211.5999689206725
 20
129.1216269486116
 30
0.0
 10
211.625048367009
 20
129.0598368347388
 30
0.0
 10
211.6308589441575
 20
129.0455208797989
 30
0.0
  0
SPLINE
  5
EF
330
1F
100
AcDbEntity
  8
0
  6
Continuous
 62
     7
370
    25
100
AcDbSpline
210
0.0
220
0.0
230
1.0
 70
     8
 71
     3
 72
    18
 73
    14
 74
     0
 42
0.00000001
 43
0.00000001
 40
0.0
 40
0.0
 40
0.0
 40
0.0
 40
0.0014402069969264
 40
0.0420061618146307
 40
0.1469146219983984
 40
0.3012650160223127
 40
0.4817958580499167
 40
0.6611632873642745
 40
0.812201837631985
 40
0.9121741925271418
 40
0.9471998305432324
 40
0.987766896686422
 40
1.0
 40
1.0
 40
1.0
 40
1.0
 10
213.0134184820451
 20
125.7165791173515
 30
0.0
 10
213.0136979259783
 20
125.7145908554322
 30
0.0
 10
213.0218483981681
 20
125.6565997110413
 30
0.0
 10
212.7728385856367
 20
125.9903444805415
 30
0.0
 10
212.6532647245265
 20
126.176093033127
 30
0.0
 10
212.2847867292253
 20
126.7495258806608
 30
0.0
 10
211.9332104655806
 20
127.3171868141551
 30
0.0
 10
211.5766604861937
 20
127.8992816983002
 30
0.0
 10
211.2316641931705
 20
128.4181774629673
 30
0.0
 10
211.0833265681559
 20
128.6781974531593
 30
0.0
 10
210.8358818040414
 20
128.9487718086104
 30
0.0
 10
210.8936091423246
 20
128.7460506263455
 30
0.0
 10
210.9186886164896
 20
128.6842605164963
 30
0.0
 10
210.9244992000855
 20
128.6699445624886
 30
0.0
  0
SPLINE
  5
F0
330
1F
100
AcDbEntity
  8
0
  6
Continuous
 62
     7
370
    25
100
AcDbSpline
210
0.0
220
0.0
230
1.0
 70
     8
 71
     3
 72
    18
 73
    14
 74
     0
 42
0.00000001
 43
0.00000001
 40
0.0
 40
0.0
 40
0.0
 40
0.0
 40
0.0014404414457868
 40
0.0420076643503884
 40
0.1469159975367615
 40
0.3012652137802801
 40
0.4817968100953733
 40
0.6611640222757061
 40
0.8122025832571703
 40
0.9121748171303563
 40
0.9472001088149236
 40
0.987767125849474
 40
1.0
 40
1.0
 40
1.0
 40
1.0
 10
212.3070587379731
 20
125.3410018687186
 30
0.0
 10
212.3073407206281
 20
125.3390135960096
 30
0.0
 10
212.3155641945906
 20
125.2810295017299
 30
0.0
 10
212.0663942292684
 20
125.6147501220063
 30
0.0
 10
211.9469504075456
 20
125.8005229806145
 30
0.0
 10
211.5784199483302
 20
126.3739502767834
 30
0.0
 10
211.2268535926419
 20
126.9416076522752
 30
0.0
 10
210.8703001164968
 20
127.523704984976
 30
0.0
 10
210.5253042079891
 20
128.0426002771568
 30
0.0
 10
210.3769678994598
 20
128.3026221124835
 30
0.0
 10
210.1295218343248
 20
128.5731929250723
 30
0.0
 10
210.1872489946454
 20
128.3704727104464
 30
0.0
 10
210.2123288600099
 20
128.3086829858691
 30
0.0
 10
210.2181394560136
 20
128.2943673138556
 30
0.0
  0
SPLINE
  5
F1
330
1F
100
AcDbEntity
  8
0
  6
Continuous
 62
     7
370
    25
100
AcDbSpline
210
0.0
220
0.0
230
1.0
 70
     8
 71
     3
 72
    13
 73
     9
 74
     0
 42
0.00000001
 43
0.00000001
 40
0.0
 40
0.0
 40
0.0
 40
0.0
 40
0.0803293541603483
 40
0.4049807679239248
 40
0.6798480758957295
 40
0.8635320007172659
 40
0.930301596785482
 40
1.0
 40
1.0
 40
1.0
 40
1.0
 10
210.619740651349
 20
126.7825253014503
 30
0.0
 10
210.6515944064544
 20
126.7314936074832
 30
0.0
 10
210.81218524325
 20
126.4742171133891
 30
0.0
 10
211.0700045148559
 20
126.0506910713214
 30
0.0
 10
211.417391803585
 20
125.5273628667976
 30
0.0
 10
211.5705734903075
 20
125.2600709923041
 30
0.0
 10
211.816622773559
 20
124.9891179239621
 30
0.0
 10
211.7751376925911
 20
125.1341363961884
 30
0.0
 10
211.7539499861993
 20
125.2082017888365
 30
0.0
  0
SPLINE
  5
F2
330
1F
100
AcDbEntity
  8
0
  6
Continuous
 62
     7
370
    25
100
AcDbSpline
210
0.0
220
0.0
230
1.0
 70
     8
 71
     3
 72
    17
 73
    13
 74
     0
 42
0.00000001
 43
0.00000001
 40
0.0
 40
0.0
 40
0.0
 40
0.0
 40
0.0001439459046791
 40
0.0393493548373089
 40
0.1441379139447726
 40
0.2997319675392914
 40
0.4826922189714427
 40
0.6653068006130637
 40
0.8199162595760647
 40
0.9232379387787257
 40
0.9607952551316197
 40
1.0
 40
1.0
 40
1.0
 40
1.0
 10
210.3480254275597
 20
128.5966569264469
 30
0.0
 10
210.3481968462531
 20
128.5967424072252
 30
0.0
 10
210.3950562203098
 20
128.6201096123198
 30
0.0
 10
210.5212597492917
 20
128.3608225577516
 30
0.0
 10
210.7382083017118
 20
128.1254980048273
 30
0.0
 10
211.0560120556545
 20
127.5820216461171
 30
0.0
 10
211.4235007404978
 20
127.006941377473
 30
0.0
 10
211.7768537219296
 20
126.4252421974814
 30
0.0
 10
212.1236608189635
 20
125.9031047005738
 30
0.0
 10
212.2769381877235
 20
125.6356382870553
 30
0.0
 10
212.5229815407693
 20
125.3646969332738
 30
0.0
 10
212.4814971064168
 20
125.5097142400516
 30
0.0
 10
212.4603097302712
 20
125.5837790374694
 30
0.0
  0
SPLINE
  5
F3
330
1F
100
AcDbEntity
  8
0
  6
Continuous
 62
     7
370
    25
100
AcDbSpline
210
0.0
220
0.0
230
1.0
 70
     8
 71
     3
 72
    18
 73
    14
 74
     0
 42
0.00000001
 43
0.00000001
 40
0.0
 40
0.0
 40
0.0
 40
0.0
 40
0.0001437621005379
 40
0.0388481064665726
 40
0.1422984511030422
 40
0.2959051918457057
 40
0.4765285978094734
 40
0.6568107490230116
 40
0.8094454707919018
 40
0.9114474819467734
 40
0.9485237401958208
 40
0.9872274460073105
 40
1.0
 40
1.0
 40
1.0
 40
1.0
 10
211.0543777210511
 20
128.9722332437572
 30
0.0
 10
211.0545516255379
 20
128.9723187323741
 30
0.0
 10
211.1015449568384
 20
128.9954198896176
 30
0.0
 10
211.2274544510788
 20
128.7367448615529
 30
0.0
 10
211.4446607822603
 20
128.5008700668225
 30
0.0
 10
211.7623296443068
 20
127.9577571497622
 30
0.0
 10
212.1299060871582
 20
127.3821146132931
 30
0.0
 10
212.4830872646749
 20
126.8021515179249
 30
0.0
 10
212.8303522807495
 20
126.2751336811053
 30
0.0
 10
212.9827084586702
 20
126.0175198748938
 30
0.0
 10
213.2300730624922
 20
125.7323963297475
 30
0.0
 10
213.1787057103692
 20
125.9326174759249
 30
0.0
 10
213.1541625902132
 20
125.9925919038113
 30
0.0
 10
213.1480728251733
 20
126.0074730669198
 30
0.0
  0
SPLINE
  5
F4
330
1F
100
AcDbEntity
  8
0
  6
Continuous
 62
     7
370
    25
100
AcDbSpline
210
0.0
220
0.0
230
1.0
 70
     8
 71
     3
 72
    17
 73
    13
 74
     0
 42
0.00000001
 43
0.00000001
 40
0.0
 40
0.0
 40
0.0
 40
0.0
 40
0.0001456220552034
 40
0.0393496743611511
 40
0.1441384312108461
 40
0.2997333045365884
 40
0.4826935666354014
 40
0.6653081589235312
 40
0.8199176269003304
 40
0.92323931212669
 40
0.960795252845966
 40
1.0
 40
1.0
 40
1.0
 40
1.0
 10
211.7607374651231
 20
129.3478114237127
 30
0.0
 10
211.7609113696238
 20
129.3478969123552
 30
0.0
 10
211.8079034647722
 20
129.3709974669786
 30
0.0
 10
211.9338021213212
 20
129.1123128951579
 30
0.0
 10
212.1510140037097
 20
128.8764629038259
 30
0.0
 10
212.4686985085852
 20
128.3332483501867
 30
0.0
 10
212.8362293490173
 20
127.7580751989571
 30
0.0
 10
213.1895718668259
 20
127.1764020092567
 30
0.0
 10
213.5363785958064
 20
126.6542566144934
 30
0.0
 10
213.6896605958856
 20
126.3867973190832
 30
0.0
 10
213.9356923663978
 20
126.1158517537812
 30
0.0
 10
213.8942089859922
 20
126.2608679666085
 30
0.0
 10
213.8730217678346
 20
126.3349335347352
 30
0.0
  0
LINE
  5
F5
330
1F
100
AcDbEntity
  8
0
  6
Continuous
 62
     7
370
    25
100
AcDbLine
 10
216.3071860535
 20
128.4538702746
 30
0.0
 11
215.9617324335
 21
128.2701901798
 31
0.0
  0
LINE
  5
F6
330
1F
100
AcDbEntity
  8
0
  6
Continuous
 62
     7
370
    25
100
AcDbLine
 10
215.3459568484
 20
130.2616735627
 30
0.0
 11
215.0281970365
 21
130.0927167465
 31
0.0
  0
SPLINE
  5
F7
330
1F
100
AcDbEntity
  8
0
  6
Continuous
 62
     7
370
    25
100
AcDbSpline
210
0.0
220
0.0
230
1.0
 70
     8
 71
     3
 72
    27
 73
    23
 74
     0
 42
0.00000001
 43
0.00000001
 40
0.0
 40
0.0
 40
0.0
 40
0.0
 40
0.0043869285969811
 40
0.0223808654092531
 40
0.0514064913646283
 40
0.0919183867006312
 40
0.1436093410250452
 40
0.2053556368299274
 40
0.2779313509571329
 40
0.3586657341580279
 40
0.4440850577611793
 40
0.5341837671491452
 40
0.617280311631577
 40
0.6999293913089735
 40
0.7698735307071277
 40
0.8348440868968673
 40
0.8889021021732019
 40
0.9344260305808355
 40
0.9685368749688493
 40
0.9907904158051922
 40
0.9993027719474004
 40
1.0
 40
1.0
 40
1.0
 40
1.0
 10
201.5055497152604
 20
92.65540071623899
 30
0.0
 10
201.4751566978985
 20
92.66882509099968
 30
0.0
 10
201.3201001438834
 20
92.7373124433877
 30
0.0
 10
200.9634372065772
 20
92.89345492529165
 30
0.0
 10
200.354548311131
 20
93.1556762843089
 30
0.0
 10
199.5077995245616
 20
93.51074242401539
 30
0.0
 10
198.426538526835
 20
93.94719914358477
 30
0.0
 10
197.1108364540472
 20
94.45116942974063
 30
0.0
 10
195.57652797911
 20
94.99842004080998
 30
0.0
 10
193.8559997291914
 20
95.5553334012427
 30
0.0
 10
191.9886168159692
 20
96.08597430977227
 30
0.0
 10
190.082434278725
 20
96.53952553675256
 30
0.0
 10
188.1769759331916
 20
96.89664657104916
 30
0.0
 10
186.4076790877753
 20
97.13557033685868
 30
0.0
 10
184.7630403133047
 20
97.2717916162475
 30
0.0
 10
183.338055120014
 20
97.32235795876466
 30
0.0
 10
182.074065513944
 20
97.3089303453232
 30
0.0
 10
181.1111083580131
 20
97.26705305517561
 30
0.0
 10
180.2222810649768
 20
97.19399586355519
 30
0.0
 10
179.9635139279586
 20
97.17164051517443
 30
0.0
 10
179.456302997903
 20
97.11470306965975
 30
0.0
 10
179.5312571423067
 20
97.1231189079827
 30
0.0
 10
179.5369316799439
 20
97.1237560440836
 30
0.0
  0
LINE
  5
F8
330
1F
100
AcDbEntity
  8
0
  6
Continuous
 62
     7
370
    25
100
AcDbLine
 10
202.5184561474
 20
92.6561383237
 30
0.0
 11
202.5184561474
 21
92.8394412329
 31
0.0
  0
LINE
  5
F9
330
1F
100
AcDbEntity
  8
0
  6
Continuous
 62
     7
370
    25
100
AcDbLine
 10
172.5184549553
 20
102.3934548427
 30
0.0
 11
172.5184549553
 21
132.9188225498
 31
0.0
  0
LINE
  5
FA
330
1F
100
AcDbEntity
  8
0
  6
Continuous
 62
     7
370
    25
100
AcDbLine
 10
151.8184547288
 20
104.1561392774
 30
0.0
 11
151.8184547288
 21
131.1561399777
 31
0.0
  0
LINE
  5
FB
330
1F
100
AcDbEntity
  8
0
  6
Continuous
 62
     7
370
    25
100
AcDbLine
 10
200.2891455753
 20
79.6561399181
 30
0.0
 11
197.2477664215
 21
79.6561399181
 31
0.0
  0
LINE
  5
FC
330
1F
100
AcDbEntity
  8
0
  6
Continuous
 62
     7
370
    25
100
AcDbLine
 10
193.5598333342
 20
79.6561399181
 30
0.0
 11
187.4770750267
 21
79.6561399181
 31
0.0
  0
LINE
  5
FD
330
1F
100
AcDbEntity
  8
0
  6
Continuous
 62
     7
370
    25
100
AcDbLine
 10
183.7891419394
 20
79.6561399181
 30
0.0
 11
180.7477627857
 21
79.6561399181
 31
0.0
  0
LWPOLYLINE
  5
FE
330
1F
100
AcDbEntity
  8
0
  6
Continuous
 62
     8
370
    25
100
AcDbPolyline
 90
       34
 70
   128
 43
0.0
 10
210.3535761101
 20
94.9533013334
 10
210.2944632036
 20
95.064478897
 10
210.1176534755
 20
95.3970057597
 10
209.8247562511
 20
95.9478681614
 10
209.4184164865
 20
96.7120798011
 10
208.9023222191
 20
97.6827181582
 10
208.2811375124
 20
98.8509943415
 10
207.5604950053
 20
100.2063275953
 10
206.7469139559
 20
101.7364440193
 10
205.8477704389
 20
103.4274864649
 10
204.8712079389
 20
105.2641407293
 10
203.8260628445
 20
107.2297738572
 10
202.7217973931
 20
109.3065843158
 10
201.5684251649
 20
111.4757645116
 10
200.3763844235
 20
113.717669941
 10
199.15647106
 20
116.0119976555
 10
197.919726835
 20
118.337969732
 10
196.6773574216
 20
120.6745225643
 10
195.4406206472
 20
123.0004941751
 10
194.2206998331
 20
125.2948222389
 10
193.0286590917
 20
127.5367280175
 10
191.8752868635
 20
129.7059086789
 10
190.7710288627
 20
131.7827189048
 10
189.7258837683
 20
133.748351567
 10
188.7493138177
 20
135.5850053658
 10
187.8501703007
 20
137.2760487427
 10
187.0365967018
 20
138.806163304
 10
186.3159541948
 20
140.1614984204
 10
185.6947694881
 20
141.3297736724
 10
185.1786677701
 20
142.3004129608
 10
184.7723354561
 20
143.0646246006
 10
184.4794307811
 20
143.6154870023
 10
184.3026285035
 20
143.9480138649
 10
184.2435081465
 20
144.059189566
  0
SPLINE
  5
FF
330
1F
100
AcDbEntity
  8
0
  6
Continuous
 62
     8
370
    25
100
AcDbSpline
210
0.0
220
0.0
230
1.0
 70
     8
 71
     3
 72
     9
 73
     5
 74
     0
 42
0.00000001
 43
0.00000001
 40
0.0
 40
0.0
 40
0.0
 40
0.0
 40
0.1879835989444264
 40
1.0
 40
1.0
 40
1.0
 40
1.0
 10
206.6711937053002
 20
114.6128931720791
 30
0.0
 10
206.6717235769013
 20
114.6178820424288
 30
0.0
 10
206.6745422887678
 20
114.644420902083
 30
0.0
 10
206.6652684587871
 20
114.6700498283879
 30
0.0
 10
206.6577379567422
 20
114.6908609368888
 30
0.0
  0
SPLINE
  5
100
330
1F
100
AcDbEntity
  8
0
  6
Continuous
 62
     8
370
    25
100
AcDbSpline
210
0.0
220
0.0
230
1.0
 70
     8
 71
     3
 72
     9
 73
     5
 74
     0
 42
0.00000001
 43
0.00000001
 40
0.0
 40
0.0
 40
0.0
 40
0.0
 40
0.5340506358742142
 40
1.0
 40
1.0
 40
1.0
 40
1.0
 10
198.5397045476235
 20
129.9578631003437
 30
0.0
 10
198.5309396595167
 20
129.9690637565029
 30
0.0
 10
198.5145275676324
 20
129.9900367792964
 30
0.0
 10
198.4929485841869
 20
130.0056028397564
 30
0.0
 10
198.482893870572
 20
130.0128558357296
 30
0.0
  0
LINE
  5
101
330
1F
100
AcDbEntity
  8
0
  6
Continuous
 62
     8
370
    25
100
AcDbLine
 10
179.5184542401
 20
80.6561382194
 30
0.0
 11
201.5184541209
 21
80.6561382194
 31
0.0
  0
LINE
  5
102
330
1F
100
AcDbEntity
  8
0
  6
Continuous
 62
     7
370
    25
100
AcDbLine
 10
47.0616700411
 20
115.2561392807
 30
0.0
 11
98.9549005687
 21
115.2561392807
 31
0.0
  0
LINE
  5
103
330
1F
100
AcDbEntity
  8
0
  6
Continuous
 62
     7
370
    25
100
AcDbLine
 10
97.8606337964
 20
120.0561392759
 30
0.0
 11
47.0616700411
 21
120.0561392759
 31
0.0
  0
LINE
  5
104
330
1F
100
AcDbEntity
  8
0
  6
Continuous
 62
     7
370
    25
100
AcDbLine
 10
47.0616700411
 20
120.0561392759
 30
0.0
 11
45.6760259628
 21
117.6561391619
 31
0.0
  0
LINE
  5
105
330
1F
100
AcDbEntity
  8
0
  6
Continuous
 62
     7
370
    25
100
AcDbLine
 10
45.6760259628
 20
117.6561391619
 30
0.0
 11
47.0616700411
 21
115.2561392807
 31
0.0
  0
LINE
  5
106
330
1F
100
AcDbEntity
  8
0
  6
Continuous
 62
     7
370
    25
100
AcDbLine
 10
47.0616700411
 20
117.6561391619
 30
0.0
 11
47.0616700411
 21
120.0561392759
 31
0.0
  0
LINE
  5
107
330
1F
100
AcDbEntity
  8
0
  6
Continuous
 62
     7
370
    25
100
AcDbLine
 10
47.0616700411
 20
115.2561392807
 30
0.0
 11
47.0616700411
 21
117.6561391619
 31
0.0
  0
POINT
  5
108
330
1F
100
AcDbEntity
  8
0
  6
Continuous
 62
     7
370
    18
100
AcDbPoint
 10
209.844490928
 20
144.2976761872
 30
0.0
  0
DIMENSION
  5
109
330
1F
100
AcDbEntity
  8
0
  6
Continuous
 62
     7
370
    18
100
AcDbDimension
  2
_D
 10
260.2782123391
 20
79.6561391877
 30
0.0
 11
260.2782123391
 21
111.9769076875
 31
0.0
 70
   160
  1
(<>)
 71
     2
 42
-1.0
  3
SLDDIMSTYLE0
100
AcDbAlignedDimension
 13
185.4157047149
 23
144.2976761872
 33
0.0
 14
201.5184538745
 24
79.6561391877
 34
0.0
 50
90.0
100
AcDbRotatedDimension
  0
DIMENSION
  5
11C
330
1F
100
AcDbEntity
  8
0
  6
Continuous
 62
     7
370
    18
100
AcDbDimension
  2
_D_1
 10
72.2880252133
 20
120.0561391877
 30
0.0
 11
72.2880252133
 21
135.5480593933
 31
0.0
 70
   160
  1
%%c<>
 71
     2
 42
-1.0
  3
SLDDIMSTYLE1
100
AcDbAlignedDimension
 13
47.0616669466
 23
115.2561391877
 33
0.0
 14
47.0616669466
 24
120.0561391877
 34
0.0
 50
90.0
100
AcDbRotatedDimension
  0
DIMENSION
  5
12C
330
1F
100
AcDbEntity
  8
0
  6
Continuous
 62
     7
370
    18
100
AcDbDimension
  2
_D_2
 10
151.8184538745
 20
167.7543910973
 30
0.0
 11
181.7287251816
 21
167.7543910973
 31
0.0
 70
   160
  1
(<>)
 71
     2
 42
-1.0
  3
SLDDIMSTYLE2
100
AcDbAlignedDimension
 13
211.6389964888
 23
98.1603030063
 33
0.0
 14
151.8184538745
 24
131.1561391877
 34
0.0
100
AcDbRotatedDimension
  0
DIMENSION
  5
139
330
1F
100
AcDbEntity
  8
0
  6
Continuous
 62
     7
370
    18
100
AcDbDimension
  2
_D_3
 10
242.6180891864
 20
112.108647501
 30
0.0
 11
229.5630569385
 21
136.6615921554
 31
0.0
 70
   160
  1
(%%c<>)
 71
     2
 42
-1.0
  3
SLDDIMSTYLE2
100
AcDbAlignedDimension
 13
184.2435113294
 23
144.0591907476
 33
0.0
 14
210.353575825
 24
94.9533014388
 34
0.0
 50
-62.0
100
AcDbRotatedDimension
  0
DIMENSION
  5
146
330
1F
100
AcDbEntity
  8
0
  6
Continuous
 62
     7
370
    18
100
AcDbDimension
  2
_D_4
 10
248.4740431547
 20
79.6561391877
 30
0.0
 11
248.4740431547
 21
76.6561391877
 31
0.0
 70
   160
  1
(<>)
 71
     2
 42
-1.0
  3
SLDDIMSTYLE1
100
AcDbAlignedDimension
 13
199.5184538745
 23
73.6561391877
 33
0.0
 14
201.5184538745
 24
79.6561391877
 34
0.0
 50
90.0
100
AcDbRotatedDimension
  0
DIMENSION
  5
154
330
1F
100
AcDbEntity
  8
0
  6
Continuous
 62
     7
370
    18
100
AcDbDimension
  2
_D_5
 10
248.4740431547
 20
79.6561391877
 30
0.0
 11
248.4740431547
 21
98.6561391877
 31
0.0
 70
   160
  1
(<>)
 71
     2
 42
-1.0
  3
SLDDIMSTYLE3
100
AcDbAlignedDimension
 13
221.2624711453
 23
117.6561391877
 33
0.0
 14
201.5184538745
 24
79.6561391877
 34
0.0
 50
90.0
100
AcDbRotatedDimension
  0
DIMENSION
  5
161
330
1F
100
AcDbEntity
  8
0
  6
Continuous
 62
     7
370
    18
100
AcDbDimension
  2
_D_6
 10
146.8184538745
 20
167.7543910973
 30
0.0
 11
90.4170714265
 21
167.7543910973
 31
0.0
 70
   160
  1
L1=100～1000
 71
     2
 42
-1.0
  3
SLDDIMSTYLE3
100
AcDbAlignedDimension
 13
45.6760263006
 23
117.6561391877
 33
0.0
 14
146.8184538745
 24
126.1561391877
 34
0.0
 50
0.0
100
AcDbRotatedDimension
  0
INSERT
  5
170
330
1F
100
AcDbEntity
  8
0
  6
Continuous
 62
     7
370
    18
100
AcDbBlockReference
  2
SW_NOTE_0_1
 10
156.1739606127
 20
145.925176313
 30
0.0
  0
LEADER
  5
172
330
1F
100
AcDbEntity
  8
0
  6
Continuous
 62
     7
370
    18
100
AcDbLeader
  3
SLDDIMSTYLE4
 76
     2
 10
163.1795433684
 20
132.1561391877
 30
0.0
 10
156.1739606127
 20
145.925176313
 30
0.0
  0
INSERT
  5
178
330
1F
100
AcDbEntity
  8
0
  6
Continuous
 62
     7
370
    18
100
AcDbBlockReference
  2
SW_NOTE_0_2
 10
200.8129102845
 20
60.2577802517
 30
0.0
  0
LEADER
  5
179
330
1F
100
AcDbEntity
  8
0
  6
Continuous
 62
     7
370
    18
100
AcDbLeader
  3
SLDDIMSTYLE4
 76
     2
 10
195.7330277702
 20
73.6891622714
 30
0.0
 10
200.8129102845
 20
60.2577802517
 30
0.0
  0
INSERT
  5
17F
330
1F
100
AcDbEntity
  8
0
  6
Continuous
 62
     7
370
    18
100
AcDbBlockReference
  2
SW_NOTE_0_3
 10
184.8854232432
 20
60.2577802517
 30
0.0
  0
LEADER
  5
180
330
1F
100
AcDbEntity
  8
0
  6
Continuous
 62
     7
370
    18
100
AcDbLeader
  3
SLDDIMSTYLE4
 76
     2
 10
190.1021727031
 20
73.4941048082
 30
0.0
 10
184.8854232432
 20
60.2577802517
 30
0.0
  0
INSERT
  5
186
330
1F
100
AcDbEntity
  8
0
  6
Continuous
 62
     7
370
    18
100
AcDbBlockReference
  2
SW_NOTE_0_4
 10
137.9874578646
 20
134.4372113239
 30
0.0
  0
LEADER
  5
187
330
1F
100
AcDbEntity
  8
0
  6
Continuous
 62
     7
370
    18
100
AcDbLeader
  3
SLDDIMSTYLE4
 76
     2
 10
146.8184538745
 20
120.1940722321
 30
0.0
 10
137.9874578646
 20
134.4372113239
 30
0.0
  0
INSERT
  5
18D
330
1F
100
AcDbEntity
  8
0
  6
Continuous
 62
     7
370
    18
100
AcDbBlockReference
  2
SW_NOTE_0_5
 10
99.6094091904
 20
93.7369925056
 30
0.0
  0
LEADER
  5
18E
330
1F
100
AcDbEntity
  8
0
  6
Continuous
 62
     7
370
    18
100
AcDbLeader
  3
SLDDIMSTYLE4
 76
     2
 10
91.4100320408
 20
115.2561391877
 30
0.0
 10
99.6094091904
 20
93.7369925056
 30
0.0
  0
INSERT
  5
194
330
1F
100
AcDbEntity
  8
0
  6
Continuous
 62
     7
370
    18
100
AcDbBlockReference
  2
SW_NOTE_0_6
 10
37.9026258206
 20
93.7369925056
 30
0.0
  0
LEADER
  5
195
330
1F
100
AcDbEntity
  8
0
  6
Continuous
 62
     7
370
    18
100
AcDbLeader
  3
SLDDIMSTYLE4
 76
     2
 10
46.2594404133
 20
116.6456363026
 30
0.0
 10
37.9026258206
 20
93.7369925056
 30
0.0
  0
MTEXT
  5
196
330
1F
100
AcDbEntity
  8
0
  6
Continuous
 62
     7
370
    18
100
AcDbMText
 10
105.1732054152
 20
92.7620423389
 30
0.0
 40
2.6458333333
 41
0.0
 71
     1
 72
     1
  1
(SUS316)
  7
SLDTEXTSTYLE0
 73
     1
 44
1.0
  0
MTEXT
  5
197
330
1F
100
AcDbEntity
  8
0
  6
Continuous
 62
     7
370
    18
100
AcDbMText
 10
39.3780991961
 20
92.7620423389
 30
0.0
 40
2.6458333333
 41
0.0
 71
     1
 72
     1
  1
(ｱﾙｺﾞﾝ溶接)
  7
SLDTEXTSTYLE1
 73
     1
 44
1.0
  0
ARC
  5
198
330
1F
100
AcDbEntity
  8
0
  6
HIDDEN
 62
     7
370
    18
100
AcDbCircle
 10
105.0977653929
 20
120.4436391877
 30
0.0
 40
7.247500000000001
100
AcDbArc
 50
157.380135052
 51
202.619864948
  0
ARC
  5
199
330
1F
100
AcDbEntity
  8
0
  6
HIDDEN
 62
     7
370
    18
100
AcDbCircle
 10
91.7177653929
 20
114.8686391877
 30
0.0
 40
7.247500000000001
100
AcDbArc
 50
337.380135052
 51
22.619864948
  0
ARC
  5
19A
330
1F
100
AcDbEntity
  8
0
  6
HIDDEN
 62
     7
370
    18
100
AcDbCircle
 10
108.0977653929
 20
120.4436391877
 30
0.0
 40
7.247500000000001
100
AcDbArc
 50
157.380135052
 51
202.619864948
  0
ARC
  5
19B
330
1F
100
AcDbEntity
  8
0
  6
HIDDEN
 62
     7
370
    18
100
AcDbCircle
 10
94.7177653929
 20
114.8686391877
 30
0.0
 40
7.247499999999988
100
AcDbArc
 50
337.380135052
 51
22.619864948
  0
LINE
  5
19C
330
1F
100
AcDbEntity
  8
0
  6
CENTERX2
 62
     7
370
    18
100
AcDbLine
 10
98.4077671826
 20
117.6561391619
 30
0.0
 11
41.7847590804
 21
117.6561391619
 31
0.0
  0
LINE
  5
19D
330
1F
100
AcDbEntity
  8
0
  6
CENTERX2
 62
     7
370
    18
100
AcDbLine
 10
221.262470351
 20
117.6561391619
 30
0.0
 11
101.4077649427
 21
117.6561391619
 31
0.0
  0
LINE
  5
19E
330
1F
100
AcDbEntity
  8
0
  6
CENTERX2
 62
     7
370
    18
100
AcDbLine
 10
190.5184541805
 20
81.6561383833
 30
0.0
 11
190.5184541805
 21
72.6561406334
 31
0.0
  0
ENDSEC
  0
SECTION
  2
OBJECTS
  0
DICTIONARY
  5
C
330
0
100
AcDbDictionary
281
     1
  3
ACAD_GROUP
350
D
  3
ACAD_LAYOUT
350
1A
  3
ACAD_MLINESTYLE
350
17
  3
ACAD_PLOTSETTINGS
350
19
  3
ACAD_PLOTSTYLENAME
350
E
  3
ACAD_SCALELIST
350
47
  3
DWGPROPS
350
19F
  0
DICTIONARY
  5
D
102
{ACAD_REACTORS
330
C
102
}
330
C
100
AcDbDictionary
281
     1
  0
DICTIONARY
  5
1A
102
{ACAD_REACTORS
330
C
102
}
330
C
100
AcDbDictionary
281
     1
  3
Layout1
350
1E
  3
Layout2
350
26
  3
Model
350
22
  0
DICTIONARY
  5
17
102
{ACAD_REACTORS
330
C
102
}
330
C
100
AcDbDictionary
281
     1
  3
Standard
350
18
  0
DICTIONARY
  5
19
102
{ACAD_REACTORS
330
C
102
}
330
C
100
AcDbDictionary
281
     1
  0
ACDBDICTIONARYWDFLT
  5
E
102
{ACAD_REACTORS
330
C
102
}
330
C
100
AcDbDictionary
281
     1
  3
Normal
350
F
100
AcDbDictionaryWithDefault
340
F
  0
DICTIONARY
  5
47
102
{ACAD_REACTORS
330
C
102
}
330
C
100
AcDbDictionary
281
     1
  3
A0
350
48
  3
A1
350
49
  3
A2
350
4A
  3
A3
350
4B
  3
A4
350
4C
  3
A5
350
4D
  3
A6
350
4E
  3
A7
350
4F
  3
A8
350
50
  3
A9
350
51
  3
B0
350
52
  3
B1
350
53
  3
B2
350
54
  3
B3
350
55
  3
B4
350
56
  3
B5
350
57
  3
B6
350
58
  3
B7
350
59
  3
B8
350
5A
  3
B9
350
5B
  3
C0
350
5C
  3
C1
350
5D
  3
C2
350
5E
  3
C3
350
5F
  3
C4
350
60
  3
C5
350
61
  3
C6
350
62
  3
C7
350
63
  3
C8
350
64
  3
C9
350
65
  3
D0
350
66
  3
D1
350
67
  3
D2
350
68
  0
XRECORD
  5
19F
102
{ACAD_REACTORS
330
C
102
}
330
C
100
AcDbXrecord
280
     1
  1
DWGPROPS COOKIE
  2

  3

  4

  6

  7

  8
p870382
  9

300
=
301
=
302
=
303
=
304
=
305
=
306
=
307
=
308
=
309
=
 40
0.0
 41
2460697.11692831
 42
2460697.116931562
  1

 90
        0
  0
LAYOUT
  5
1E
102
{ACAD_REACTORS
330
1A
102
}
330
1A
100
AcDbPlotSettings
  1

  2
none_device
  4

  6

 40
0.0
 41
0.0
 42
0.0
 43
0.0
 44
0.0
 45
0.0
 46
0.0
 47
0.0
 48
0.0
 49
0.0
140
0.0
141
0.0
142
1.0
143
1.0
 70
   688
 72
     1
 73
     0
 74
     5
  7

 75
    16
147
1.0
148
0.0
149
0.0
100
AcDbLayout
  1
Layout1
 70
     1
 71
     1
 10
0.0
 20
0.0
 11
420.0
 21
297.0
 12
0.0
 22
0.0
 32
0.0
 14
1.0000000000E+20
 24
1.0000000000E+20
 34
1.0000000000E+20
 15
-1.0000000000E+20
 25
-1.0000000000E+20
 35
-1.0000000000E+20
146
0.0
 13
0.0
 23
0.0
 33
0.0
 16
1.0
 26
0.0
 36
0.0
 17
0.0
 27
1.0
 37
0.0
 76
     0
330
1B
  0
LAYOUT
  5
26
102
{ACAD_REACTORS
330
1A
102
}
330
1A
100
AcDbPlotSettings
  1

  2
none_device
  4

  6

 40
0.0
 41
0.0
 42
0.0
 43
0.0
 44
0.0
 45
0.0
 46
0.0
 47
0.0
 48
0.0
 49
0.0
140
0.0
141
0.0
142
1.0
143
1.0
 70
   688
 72
     1
 73
     0
 74
     5
  7

 75
    16
147
1.0
148
0.0
149
0.0
100
AcDbLayout
  1
Layout2
 70
     1
 71
     2
 10
0.0
 20
0.0
 11
0.0
 21
0.0
 12
0.0
 22
0.0
 32
0.0
 14
0.0
 24
0.0
 34
0.0
 15
0.0
 25
0.0
 35
0.0
146
0.0
 13
0.0
 23
0.0
 33
0.0
 16
1.0
 26
0.0
 36
0.0
 17
0.0
 27
1.0
 37
0.0
 76
     0
330
23
  0
LAYOUT
  5
22
102
{ACAD_REACTORS
330
1A
102
}
330
1A
100
AcDbPlotSettings
  1

  2
none_device
  4
Letter_(8.50_x_11.00_Inches)
  6

 40
6.35
 41
6.35
 42
6.35000508
 43
6.35000508
 44
215.9
 45
279.4
 46
0.0
 47
0.0
 48
0.0
 49
0.0
140
0.0
141
0.0
142
1.0
143
1.0
 70
  1712
 72
     1
 73
     0
 74
     0
  7

 75
     0
147
1.0
148
0.0
149
0.0
100
AcDbLayout
  1
Model
 70
     1
 71
     0
 10
0.0
 20
0.0
 11
297.0
 21
210.0
 12
0.0
 22
0.0
 32
0.0
 14
0.0
 24
0.0
 34
0.0
 15
297.0
 25
210.0
 35
0.0
146
0.0
 13
0.0
 23
0.0
 33
0.0
 16
1.0
 26
0.0
 36
0.0
 17
0.0
 27
1.0
 37
0.0
 76
     0
330
1F
331
29
  0
MLINESTYLE
  5
18
102
{ACAD_REACTORS
330
17
102
}
330
17
100
AcDbMlineStyle
  2
Standard
 70
     0
  3

 62
   256
 51
90.0
 52
90.0
 71
     2
 49
0.5
 62
   256
  6
BYLAYER
 49
-0.5
 62
   256
  6
BYLAYER
  0
ACDBPLACEHOLDER
  5
F
102
{ACAD_REACTORS
330
E
102
}
330
E
  0
SCALE
  5
48
102
{ACAD_REACTORS
330
47
102
}
330
47
100
AcDbScale
 70
     0
300
1:1
140
1.0
141
1.0
290
     1
  0
SCALE
  5
49
102
{ACAD_REACTORS
330
47
102
}
330
47
100
AcDbScale
 70
     0
300
1:2
140
1.0
141
2.0
290
     0
  0
SCALE
  5
4A
102
{ACAD_REACTORS
330
47
102
}
330
47
100
AcDbScale
 70
     0
300
1:4
140
1.0
141
4.0
290
     0
  0
SCALE
  5
4B
102
{ACAD_REACTORS
330
47
102
}
330
47
100
AcDbScale
 70
     0
300
1:5
140
1.0
141
5.0
290
     0
  0
SCALE
  5
4C
102
{ACAD_REACTORS
330
47
102
}
330
47
100
AcDbScale
 70
     0
300
1:8
140
1.0
141
8.0
290
     0
  0
SCALE
  5
4D
102
{ACAD_REACTORS
330
47
102
}
330
47
100
AcDbScale
 70
     0
300
1:10
140
1.0
141
10.0
290
     0
  0
SCALE
  5
4E
102
{ACAD_REACTORS
330
47
102
}
330
47
100
AcDbScale
 70
     0
300
1:16
140
1.0
141
16.0
290
     0
  0
SCALE
  5
4F
102
{ACAD_REACTORS
330
47
102
}
330
47
100
AcDbScale
 70
     0
300
1:20
140
1.0
141
20.0
290
     0
  0
SCALE
  5
50
102
{ACAD_REACTORS
330
47
102
}
330
47
100
AcDbScale
 70
     0
300
1:30
140
1.0
141
30.0
290
     0
  0
SCALE
  5
51
102
{ACAD_REACTORS
330
47
102
}
330
47
100
AcDbScale
 70
     0
300
1:40
140
1.0
141
40.0
290
     0
  0
SCALE
  5
52
102
{ACAD_REACTORS
330
47
102
}
330
47
100
AcDbScale
 70
     0
300
1:50
140
1.0
141
50.0
290
     0
  0
SCALE
  5
53
102
{ACAD_REACTORS
330
47
102
}
330
47
100
AcDbScale
 70
     0
300
1:100
140
1.0
141
100.0
290
     0
  0
SCALE
  5
54
102
{ACAD_REACTORS
330
47
102
}
330
47
100
AcDbScale
 70
     0
300
2:1
140
2.0
141
1.0
290
     0
  0
SCALE
  5
55
102
{ACAD_REACTORS
330
47
102
}
330
47
100
AcDbScale
 70
     0
300
4:1
140
4.0
141
1.0
290
     0
  0
SCALE
  5
56
102
{ACAD_REACTORS
330
47
102
}
330
47
100
AcDbScale
 70
     0
300
8:1
140
8.0
141
1.0
290
     0
  0
SCALE
  5
57
102
{ACAD_REACTORS
330
47
102
}
330
47
100
AcDbScale
 70
     0
300
10:1
140
10.0
141
1.0
290
     0
  0
SCALE
  5
58
102
{ACAD_REACTORS
330
47
102
}
330
47
100
AcDbScale
 70
     0
300
100:1
140
100.0
141
1.0
290
     0
  0
SCALE
  5
59
102
{ACAD_REACTORS
330
47
102
}
330
47
100
AcDbScale
 70
     0
300
1/128" = 1'-0"
140
0.0078125
141
12.0
290
     0
  0
SCALE
  5
5A
102
{ACAD_REACTORS
330
47
102
}
330
47
100
AcDbScale
 70
     0
300
1/64" = 1'-0"
140
0.015625
141
12.0
290
     0
  0
SCALE
  5
5B
102
{ACAD_REACTORS
330
47
102
}
330
47
100
AcDbScale
 70
     0
300
1/32" = 1'-0"
140
0.03125
141
12.0
290
     0
  0
SCALE
  5
5C
102
{ACAD_REACTORS
330
47
102
}
330
47
100
AcDbScale
 70
     0
300
1/16" = 1'-0"
140
0.0625
141
12.0
290
     0
  0
SCALE
  5
5D
102
{ACAD_REACTORS
330
47
102
}
330
47
100
AcDbScale
 70
     0
300
3/32" = 1'-0"
140
0.09375
141
12.0
290
     0
  0
SCALE
  5
5E
102
{ACAD_REACTORS
330
47
102
}
330
47
100
AcDbScale
 70
     0
300
1/8" = 1'-0"
140
0.125
141
12.0
290
     0
  0
SCALE
  5
5F
102
{ACAD_REACTORS
330
47
102
}
330
47
100
AcDbScale
 70
     0
300
3/16" = 1'-0"
140
0.1875
141
12.0
290
     0
  0
SCALE
  5
60
102
{ACAD_REACTORS
330
47
102
}
330
47
100
AcDbScale
 70
     0
300
1/4" = 1'-0"
140
0.25
141
12.0
290
     0
  0
SCALE
  5
61
102
{ACAD_REACTORS
330
47
102
}
330
47
100
AcDbScale
 70
     0
300
3/8" = 1'-0"
140
0.375
141
12.0
290
     0
  0
SCALE
  5
62
102
{ACAD_REACTORS
330
47
102
}
330
47
100
AcDbScale
 70
     0
300
1/2" = 1'-0"
140
0.5
141
12.0
290
     0
  0
SCALE
  5
63
102
{ACAD_REACTORS
330
47
102
}
330
47
100
AcDbScale
 70
     0
300
3/4" = 1'-0"
140
0.75
141
12.0
290
     0
  0
SCALE
  5
64
102
{ACAD_REACTORS
330
47
102
}
330
47
100
AcDbScale
 70
     0
300
1" = 1'-0"
140
1.0
141
12.0
290
     0
  0
SCALE
  5
65
102
{ACAD_REACTORS
330
47
102
}
330
47
100
AcDbScale
 70
     0
300
1-1/2" = 1'-0"
140
1.5
141
12.0
290
     0
  0
SCALE
  5
66
102
{ACAD_REACTORS
330
47
102
}
330
47
100
AcDbScale
 70
     0
300
3" = 1'-0"
140
3.0
141
12.0
290
     0
  0
SCALE
  5
67
102
{ACAD_REACTORS
330
47
102
}
330
47
100
AcDbScale
 70
     0
300
6" = 1'-0"
140
6.0
141
12.0
290
     0
  0
SCALE
  5
68
102
{ACAD_REACTORS
330
47
102
}
330
47
100
AcDbScale
 70
     0
300
1'-0" = 1'-0"
140
12.0
141
12.0
290
     0
  0
ENDSEC
  0
EOF
