  0
SECTION
  2
HEADER
  9
$ACADVER
  1
AC1015
  9
$ACADMAINTVER
 70
     6
  9
$DWGCODEPAGE
  3
DOS932
  9
$INSBASE
 10
0.0
 20
0.0
 30
0.0
  9
$EXTMIN
 10
0.0
 20
0.0
 30
0.0
  9
$EXTMAX
 10
297.0
 20
210.0
 30
0.0
  9
$LIMMIN
 10
0.0
 20
0.0
  9
$LIMMAX
 10
297.0
 20
210.0
  9
$ORTHOMODE
 70
     0
  9
$REGENMODE
 70
     1
  9
$FILLMODE
 70
     1
  9
$QTEXTMODE
 70
     0
  9
$MIRRTEXT
 70
     1
  9
$LTSCALE
 40
1.0
  9
$ATTMODE
 70
     1
  9
$TEXTSIZE
 40
3.5277777778
  9
$TRACEWID
 40
1.0
  9
$TEXTSTYLE
  7
STANDARD
  9
$CLAYER
  8
0
  9
$CELTYPE
  6
ByLayer
  9
$CECOLOR
 62
   256
  9
$CELTSCALE
 40
1.0
  9
$DISPSILH
 70
     0
  9
$DIMSCALE
 40
1.0
  9
$DIMASZ
 40
3.0
  9
$DIMEXO
 40
1.0
  9
$DIMDLI
 40
3.75
  9
$DIMRND
 40
0.0
  9
$DIMDLE
 40
0.0
  9
$DIMEXE
 40
1.0
  9
$DIMTP
 40
0.0
  9
$DIMTM
 40
0.0
  9
$DIMTXT
 40
3.5277777778
  9
$DIMCEN
 40
2.5
  9
$DIMTSZ
 40
0.0
  9
$DIMTOL
 70
     0
  9
$DIMLIM
 70
     0
  9
$DIMTIH
 70
     1
  9
$DIMTOH
 70
     1
  9
$DIMSE1
 70
     0
  9
$DIMSE2
 70
     0
  9
$DIMTAD
 70
     1
  9
$DIMZIN
 70
     0
  9
$DIMBLK
  1

  9
$DIMASO
 70
     1
  9
$DIMSHO
 70
     1
  9
$DIMPOST
  1

  9
$DIMAPOST
  1

  9
$DIMALT
 70
     0
  9
$DIMALTD
 70
     3
  9
$DIMALTF
 40
0.0393700787
  9
$DIMLFAC
 40
5.0
  9
$DIMTOFL
 70
     1
  9
$DIMTVP
 40
0.0
  9
$DIMTIX
 70
     0
  9
$DIMSOXD
 70
     0
  9
$DIMSAH
 70
     0
  9
$DIMBLK1
  1

  9
$DIMBLK2
  1

  9
$DIMSTYLE
  2
ISO-25
  9
$DIMCLRD
 70
     0
  9
$DIMCLRE
 70
     0
  9
$DIMCLRT
 70
     0
  9
$DIMTFAC
 40
1.0
  9
$DIMGAP
 40
1.524
  9
$DIMJUST
 70
     0
  9
$DIMSD1
 70
     0
  9
$DIMSD2
 70
     0
  9
$DIMTOLJ
 70
     0
  9
$DIMTZIN
 70
     0
  9
$DIMALTZ
 70
     0
  9
$DIMALTTZ
 70
     0
  9
$DIMUPT
 70
     0
  9
$DIMDEC
 70
     2
  9
$DIMTDEC
 70
     2
  9
$DIMALTU
 70
     2
  9
$DIMALTTD
 70
     3
  9
$DIMTXSTY
  7
STANDARD
  9
$DIMAUNIT
 70
     0
  9
$DIMADEC
 70
     2
  9
$DIMALTRND
 40
0.0
  9
$DIMAZIN
 70
     0
  9
$DIMDSEP
 70
    44
  9
$DIMATFIT
 70
     3
  9
$DIMFRAC
 70
     0
  9
$DIMLDRBLK
  1

  9
$DIMLUNIT
 70
     2
  9
$DIMLWD
 70
    -2
  9
$DIMLWE
 70
    -2
  9
$DIMTMOVE
 70
     0
  9
$LUNITS
 70
     2
  9
$LUPREC
 70
     2
  9
$SKETCHINC
 40
1.0
  9
$FILLETRAD
 40
10.0
  9
$AUNITS
 70
     0
  9
$AUPREC
 70
     2
  9
$MENU
  1
.
  9
$ELEVATION
 40
0.0
  9
$PELEVATION
 40
0.0
  9
$THICKNESS
 40
0.0
  9
$LIMCHECK
 70
     0
  9
$CHAMFERA
 40
0.0
  9
$CHAMFERB
 40
0.0
  9
$CHAMFERC
 40
0.0
  9
$CHAMFERD
 40
0.0
  9
$SKPOLY
 70
     0
  9
$TDCREATE
 40
2460791.652938634
  9
$TDUCREATE
 40
2460791.277938634
  9
$TDUPDATE
 40
2460791.652942245
  9
$TDUUPDATE
 40
2460791.277942245
  9
$TDINDWG
 40
0.0000000116
  9
$TDUSRTIMER
 40
0.0000000116
  9
$USRTIMER
 70
     1
  9
$ANGBASE
 50
0.0
  9
$ANGDIR
 70
     0
  9
$PDMODE
 70
     0
  9
$PDSIZE
 40
-1.0
  9
$PLINEWID
 40
0.0
  9
$SPLFRAME
 70
     0
  9
$SPLINETYPE
 70
     6
  9
$SPLINESEGS
 70
     8
  9
$HANDSEED
  5
2EA
  9
$SURFTAB1
 70
     6
  9
$SURFTAB2
 70
     6
  9
$SURFTYPE
 70
     6
  9
$SURFU
 70
     6
  9
$SURFV
 70
     6
  9
$UCSBASE
  2

  9
$UCSNAME
  2

  9
$UCSORG
 10
0.0
 20
0.0
 30
0.0
  9
$UCSXDIR
 10
1.0
 20
0.0
 30
0.0
  9
$UCSYDIR
 10
0.0
 20
1.0
 30
0.0
  9
$UCSORTHOREF
  2

  9
$UCSORTHOVIEW
 70
     0
  9
$UCSORGTOP
 10
0.0
 20
0.0
 30
0.0
  9
$UCSORGBOTTOM
 10
0.0
 20
0.0
 30
0.0
  9
$UCSORGLEFT
 10
0.0
 20
0.0
 30
0.0
  9
$UCSORGRIGHT
 10
0.0
 20
0.0
 30
0.0
  9
$UCSORGFRONT
 10
0.0
 20
0.0
 30
0.0
  9
$UCSORGBACK
 10
0.0
 20
0.0
 30
0.0
  9
$PUCSBASE
  2

  9
$PUCSNAME
  2

  9
$PUCSORG
 10
0.0
 20
0.0
 30
0.0
  9
$PUCSXDIR
 10
1.0
 20
0.0
 30
0.0
  9
$PUCSYDIR
 10
0.0
 20
1.0
 30
0.0
  9
$PUCSORTHOREF
  2

  9
$PUCSORTHOVIEW
 70
     0
  9
$PUCSORGTOP
 10
0.0
 20
0.0
 30
0.0
  9
$PUCSORGBOTTOM
 10
0.0
 20
0.0
 30
0.0
  9
$PUCSORGLEFT
 10
0.0
 20
0.0
 30
0.0
  9
$PUCSORGRIGHT
 10
0.0
 20
0.0
 30
0.0
  9
$PUCSORGFRONT
 10
0.0
 20
0.0
 30
0.0
  9
$PUCSORGBACK
 10
0.0
 20
0.0
 30
0.0
  9
$USERI1
 70
     0
  9
$USERI2
 70
     0
  9
$USERI3
 70
     0
  9
$USERI4
 70
     0
  9
$USERI5
 70
     0
  9
$USERR1
 40
0.0
  9
$USERR2
 40
0.0
  9
$USERR3
 40
0.0
  9
$USERR4
 40
0.0
  9
$USERR5
 40
0.0
  9
$WORLDVIEW
 70
     1
  9
$SHADEDGE
 70
     3
  9
$SHADEDIF
 70
    70
  9
$TILEMODE
 70
     1
  9
$MAXACTVP
 70
    64
  9
$PINSBASE
 10
0.0
 20
0.0
 30
0.0
  9
$PLIMCHECK
 70
     0
  9
$PEXTMIN
 10
1.0000000000E+20
 20
1.0000000000E+20
 30
1.0000000000E+20
  9
$PEXTMAX
 10
-1.0000000000E+20
 20
-1.0000000000E+20
 30
-1.0000000000E+20
  9
$PLIMMIN
 10
0.0
 20
0.0
  9
$PLIMMAX
 10
420.0
 20
297.0
  9
$UNITMODE
 70
     0
  9
$VISRETAIN
 70
     1
  9
$PLINEGEN
 70
     0
  9
$PSLTSCALE
 70
     1
  9
$TREEDEPTH
 70
  3020
  9
$CMLSTYLE
  2
Standard
  9
$CMLJUST
 70
     0
  9
$CMLSCALE
 40
20.0
  9
$PROXYGRAPHICS
 70
     1
  9
$MEASUREMENT
 70
     1
  9
$CELWEIGHT
370
    -1
  9
$ENDCAPS
280
     0
  9
$JOINSTYLE
280
     0
  9
$LWDISPLAY
290
     1
  9
$INSUNITS
 70
     4
  9
$HYPERLINKBASE
  1

  9
$STYLESHEET
  1

  9
$XEDIT
290
     1
  9
$CEPSNTYPE
380
     0
  9
$PSTYLEMODE
290
     1
  9
$FINGERPRINTGUID
  2
{553c20a8-c7d6-4040-86d6-2d143f17e999}
  9
$VERSIONGUID
  2
{FAEB1C32-E019-11D5-929B-00C0DF256EC4}
  9
$EXTNAMES
290
     1
  9
$PSVPSCALE
 40
0.0
  9
$OLESTARTUP
290
     0
  0
ENDSEC
  0
SECTION
  2
CLASSES
  0
CLASS
  1
ACDBDICTIONARYWDFLT
  2
AcDbDictionaryWithDefault
  3
ObjectDBX Classes
 90
        0
280
     0
281
     0
  0
CLASS
  1
VISUALSTYLE
  2
AcDbVisualStyle
  3
ObjectDBX Classes
 90
     4095
280
     0
281
     0
  0
CLASS
  1
MATERIAL
  2
AcDbMaterial
  3
ObjectDBX Classes
 90
     1153
280
     0
281
     0
  0
CLASS
  1
SCALE
  2
AcDbScale
  3
ObjectDBX Classes
 90
     1153
280
     0
281
     0
  0
CLASS
  1
TABLESTYLE
  2
AcDbTableStyle
  3
ObjectDBX Classes
 90
     4095
280
     0
281
     0
  0
CLASS
  1
MLEADERSTYLE
  2
AcDbMLeaderStyle
  3
ACDB_MLEADERSTYLE_CLASS
 90
     4095
280
     0
281
     0
  0
CLASS
  1
SUN
  2
AcDbSun
  3
SCENEOE
 90
     1153
280
     0
281
     0
  0
CLASS
  1
ACDBPLACEHOLDER
  2
AcDbPlaceHolder
  3
ObjectDBX Classes
 90
        0
280
     0
281
     0
  0
CLASS
  1
LAYOUT
  2
AcDbLayout
  3
ObjectDBX Classes
 90
        0
280
     0
281
     0
  0
ENDSEC
  0
SECTION
  2
TABLES
  0
TABLE
  2
VPORT
  5
8
330
0
100
AcDbSymbolTable
 70
     1
  0
VPORT
  5
29
330
8
100
AcDbSymbolTableRecord
100
AcDbViewportTableRecord
  2
*Active
 70
     0
 10
0.0
 20
0.0
 11
1.0
 21
1.0
 12
148.5
 22
105.0
 13
0.0
 23
0.0
 14
10.0
 24
10.0
 15
10.0
 25
10.0
 16
0.0
 26
0.0
 36
1.0
 17
0.0
 27
0.0
 37
0.0
 40
210.0
 41
1.4142857143
 42
50.0
 43
0.0
 44
0.0
 50
0.0
 51
0.0
 71
     0
 72
  2000
 73
     1
 74
     3
 75
     0
 76
     0
 77
     0
 78
     0
281
     0
 65
     1
110
0.0
120
0.0
130
0.0
111
1.0
121
0.0
131
0.0
112
0.0
122
1.0
132
0.0
 79
     0
146
0.0
  0
ENDTAB
  0
TABLE
  2
LTYPE
  5
5
330
0
100
AcDbSymbolTable
 70
     6
  0
LTYPE
  5
14
330
5
100
AcDbSymbolTableRecord
100
AcDbLinetypeTableRecord
  2
ByBlock
 70
     0
  3

 72
    65
 73
     0
 40
0.0
  0
LTYPE
  5
15
330
5
100
AcDbSymbolTableRecord
100
AcDbLinetypeTableRecord
  2
ByLayer
 70
     0
  3

 72
    65
 73
     0
 40
0.0
  0
LTYPE
  5
16
330
5
100
AcDbSymbolTableRecord
100
AcDbLinetypeTableRecord
  2
Continuous
 70
     0
  3
Solid line
 72
    65
 73
     0
 40
0.0
  0
LTYPE
  5
6E
330
5
100
AcDbSymbolTableRecord
100
AcDbLinetypeTableRecord
  2
HIDDEN
 70
     0
  3
Hidden __ __ __ __ __ __ __ __ __ __ __ __ __ __
 72
    65
 73
     2
 40
1.905
 49
1.27
 74
     0
 49
-0.635
 74
     0
  0
LTYPE
  5
6F
330
5
100
AcDbSymbolTableRecord
100
AcDbLinetypeTableRecord
  2
PHANTOM
 70
     0
  3
Phantom ______  __  __  ______  __  __  ______
 72
    65
 73
     6
 40
12.7
 49
6.35
 74
     0
 49
-1.27
 74
     0
 49
1.27
 74
     0
 49
-1.27
 74
     0
 49
1.27
 74
     0
 49
-1.27
 74
     0
  0
LTYPE
  5
70
330
5
100
AcDbSymbolTableRecord
100
AcDbLinetypeTableRecord
  2
CENTER
 70
     0
  3
Center ____ _ ____ _ ____ _ ____ _ ____ _ ____
 72
    65
 73
     4
 40
10.16
 49
6.35
 74
     0
 49
-1.27
 74
     0
 49
1.27
 74
     0
 49
-1.27
 74
     0
  0
LTYPE
  5
71
330
5
100
AcDbSymbolTableRecord
100
AcDbLinetypeTableRecord
  2
CENTERX2
 70
     0
  3
Center (2x) ________  __  ________  __  _____
 72
    65
 73
     4
 40
20.32
 49
12.7
 74
     0
 49
-2.54
 74
     0
 49
2.54
 74
     0
 49
-2.54
 74
     0
  0
LTYPE
  5
72
330
5
100
AcDbSymbolTableRecord
100
AcDbLinetypeTableRecord
  2
DOT2
 70
     0
  3
Dot (.5x) ........................................
 72
    65
 73
     2
 40
0.635
 49
0.0
 74
     0
 49
-0.635
 74
     0
  0
ENDTAB
  0
TABLE
  2
LAYER
  5
2
330
0
100
AcDbSymbolTable
 70
     1
  0
LAYER
  5
10
330
2
100
AcDbSymbolTableRecord
100
AcDbLayerTableRecord
  2
0
 70
     0
 62
     7
  6
Continuous
370
    -3
390
F
  0
ENDTAB
  0
TABLE
  2
STYLE
  5
3
330
0
100
AcDbSymbolTable
 70
     3
  0
STYLE
  5
11
330
3
100
AcDbSymbolTableRecord
100
AcDbTextStyleTableRecord
  2
STANDARD
 70
     0
 40
0.0
 41
1.0
 50
0.0
 71
     0
 42
3.5277777778
  3
MSGOTHIC.TTC
  4

1001
ACAD
1000
MS UI GOTHIC
1071
    32818
  0
STYLE
  5
77
330
3
100
AcDbSymbolTableRecord
100
AcDbTextStyleTableRecord
  2
SLDTEXTSTYLE0
 70
     0
 40
0.0
 41
1.0
 50
0.0
 71
     0
 42
3.5277777778
  3
MSGOTHIC.TTC
  4

1001
ACAD
1000
MS UI Gothic
1071
      306
  0
STYLE
  5
79
330
3
100
AcDbSymbolTableRecord
100
AcDbTextStyleTableRecord
  2
SLDTEXTSTYLE1
 70
     0
 40
0.0
 41
1.0
 50
0.0
 71
     0
 42
3.5277777778
  3
MSGOTHIC.TTC
  4
bigfont
1001
ACAD
1000
MS UI Gothic
1071
      306
  0
ENDTAB
  0
TABLE
  2
VIEW
  5
6
330
0
100
AcDbSymbolTable
 70
     0
  0
ENDTAB
  0
TABLE
  2
UCS
  5
7
330
0
100
AcDbSymbolTable
 70
     0
  0
ENDTAB
  0
TABLE
  2
APPID
  5
9
330
0
100
AcDbSymbolTable
 70
     1
  0
APPID
  5
12
330
9
100
AcDbSymbolTableRecord
100
AcDbRegAppTableRecord
  2
ACAD
 70
     0
  0
ENDTAB
  0
TABLE
  2
DIMSTYLE
  5
A
330
0
100
AcDbSymbolTable
 70
     5
100
AcDbDimStyleTable
  0
DIMSTYLE
105
27
330
A
100
AcDbSymbolTableRecord
100
AcDbDimStyleTableRecord
  2
ISO-25
 70
     0
 41
2.5
 42
0.625
 43
3.75
 44
1.25
 73
     0
 74
     0
 77
     1
 78
     8
140
2.5
141
2.5
143
0.0393700787
147
0.625
171
     3
172
     1
178
     0
271
     2
272
     2
274
     3
278
    44
283
     0
284
     8
340
11
  0
DIMSTYLE
105
1D7
102
{ACAD_REACTORS
330
1D6
102
}
330
A
100
AcDbSymbolTableRecord
100
AcDbDimStyleTableRecord
  2
SLDDIMSTYLE0
 70
     0
 41
3.0
 44
0.0
 45
0.000000001
 73
     0
 74
     0
 77
     1
 78
    12
 79
     3
140
3.0316840278
147
0.7579210069
173
     1
178
     0
271
     1
272
     2
276
     2
284
    12
340
77
341
1D8
343
1D8
344
1D8
  0
DIMSTYLE
105
1EA
102
{ACAD_REACTORS
330
1E9
330
201
330
20D
330
222
330
22E
330
23A
330
246
330
250
330
25A
330
265
102
}
330
A
100
AcDbSymbolTableRecord
100
AcDbDimStyleTableRecord
  2
SLDDIMSTYLE1
 70
     0
 41
3.0
 44
0.0
 45
0.000000001
 73
     0
 74
     0
 77
     1
 78
    12
 79
     3
140
3.0316840278
147
0.7579210069
173
     1
178
     0
271
     2
272
     2
276
     2
284
    12
340
77
341
1D8
343
1D8
344
1D8
  0
DIMSTYLE
105
1F5
102
{ACAD_REACTORS
330
1F4
330
217
102
}
330
A
100
AcDbSymbolTableRecord
100
AcDbDimStyleTableRecord
  2
SLDDIMSTYLE2
 70
     0
 41
3.0
 44
0.0
 45
0.000000001
 73
     0
 74
     0
 77
     1
 78
    12
 79
     3
140
3.0316840278
147
0.7579210069
172
     1
173
     1
178
     0
271
     2
272
     2
276
     2
284
    12
289
     0
340
77
341
1D8
343
1D8
344
1D8
  0
DIMSTYLE
105
275
330
A
100
AcDbSymbolTableRecord
100
AcDbDimStyleTableRecord
  2
SLDDIMSTYLE3
 70
     0
 41
3.0
 44
0.0
 45
0.000000001
146
3.0
147
0.0
173
     1
178
     0
271
     0
272
     0
276
     2
340
11
341
1D8
343
1D8
344
1D8
  0
ENDTAB
  0
TABLE
  2
BLOCK_RECORD
  5
1
330
0
100
AcDbSymbolTable
 70
    27
  0
BLOCK_RECORD
  5
1F
330
1
100
AcDbSymbolTableRecord
100
AcDbBlockTableRecord
  2
*Model_Space
340
22
  0
BLOCK_RECORD
  5
1B
330
1
100
AcDbSymbolTableRecord
100
AcDbBlockTableRecord
  2
*Paper_Space
340
1E
  0
BLOCK_RECORD
  5
23
330
1
100
AcDbSymbolTableRecord
100
AcDbBlockTableRecord
  2
*Paper_Space0
340
26
  0
BLOCK_RECORD
  5
7B
330
1
100
AcDbSymbolTableRecord
100
AcDbBlockTableRecord
  2
SW_BROKEN_VIEW_0
340
0
102
{BLKREFS
331
81
102
}
  0
BLOCK_RECORD
  5
1D8
330
1
100
AcDbSymbolTableRecord
100
AcDbBlockTableRecord
  2
_Open30
340
0
102
{BLKREFS
331
1E1
331
1E2
331
1EE
331
1EF
331
1F9
331
1FA
331
205
331
206
331
211
331
212
331
21B
331
21C
331
228
331
229
331
232
331
233
331
240
331
241
331
24A
331
24B
331
254
331
255
331
25E
331
25F
331
269
331
26A
102
}
  0
BLOCK_RECORD
  5
1DE
330
1
100
AcDbSymbolTableRecord
100
AcDbBlockTableRecord
  2
_D
340
0
  0
BLOCK_RECORD
  5
1EB
330
1
100
AcDbSymbolTableRecord
100
AcDbBlockTableRecord
  2
_D_1
340
0
  0
BLOCK_RECORD
  5
1F6
330
1
100
AcDbSymbolTableRecord
100
AcDbBlockTableRecord
  2
_D_2
340
0
  0
BLOCK_RECORD
  5
202
330
1
100
AcDbSymbolTableRecord
100
AcDbBlockTableRecord
  2
_D_3
340
0
  0
BLOCK_RECORD
  5
20E
330
1
100
AcDbSymbolTableRecord
100
AcDbBlockTableRecord
  2
_D_4
340
0
  0
BLOCK_RECORD
  5
218
330
1
100
AcDbSymbolTableRecord
100
AcDbBlockTableRecord
  2
_D_5
340
0
  0
BLOCK_RECORD
  5
223
330
1
100
AcDbSymbolTableRecord
100
AcDbBlockTableRecord
  2
_D_6
340
0
  0
BLOCK_RECORD
  5
22F
330
1
100
AcDbSymbolTableRecord
100
AcDbBlockTableRecord
  2
_D_7
340
0
  0
BLOCK_RECORD
  5
23B
330
1
100
AcDbSymbolTableRecord
100
AcDbBlockTableRecord
  2
_D_8
340
0
  0
BLOCK_RECORD
  5
247
330
1
100
AcDbSymbolTableRecord
100
AcDbBlockTableRecord
  2
_D_9
340
0
  0
BLOCK_RECORD
  5
251
330
1
100
AcDbSymbolTableRecord
100
AcDbBlockTableRecord
  2
_D_10
340
0
  0
BLOCK_RECORD
  5
25B
330
1
100
AcDbSymbolTableRecord
100
AcDbBlockTableRecord
  2
_D_11
340
0
  0
BLOCK_RECORD
  5
266
330
1
100
AcDbSymbolTableRecord
100
AcDbBlockTableRecord
  2
_D_12
340
0
  0
BLOCK_RECORD
  5
26F
330
1
100
AcDbSymbolTableRecord
100
AcDbBlockTableRecord
  2
SW_NOTE_0
340
0
102
{BLKREFS
331
274
102
}
  0
BLOCK_RECORD
  5
277
330
1
100
AcDbSymbolTableRecord
100
AcDbBlockTableRecord
  2
SW_NOTE_0_1
340
0
102
{BLKREFS
331
27C
102
}
  0
BLOCK_RECORD
  5
27E
330
1
100
AcDbSymbolTableRecord
100
AcDbBlockTableRecord
  2
SW_NOTE_0_2
340
0
102
{BLKREFS
331
283
102
}
  0
BLOCK_RECORD
  5
285
330
1
100
AcDbSymbolTableRecord
100
AcDbBlockTableRecord
  2
SW_NOTE_0_3
340
0
102
{BLKREFS
331
28A
102
}
  0
BLOCK_RECORD
  5
28C
330
1
100
AcDbSymbolTableRecord
100
AcDbBlockTableRecord
  2
SW_NOTE_0_4
340
0
102
{BLKREFS
331
291
102
}
  0
BLOCK_RECORD
  5
293
330
1
100
AcDbSymbolTableRecord
100
AcDbBlockTableRecord
  2
SW_NOTE_0_5
340
0
102
{BLKREFS
331
298
102
}
  0
BLOCK_RECORD
  5
29A
330
1
100
AcDbSymbolTableRecord
100
AcDbBlockTableRecord
  2
SW_NOTE_0_6
340
0
102
{BLKREFS
331
29F
102
}
  0
BLOCK_RECORD
  5
2A8
330
1
100
AcDbSymbolTableRecord
100
AcDbBlockTableRecord
  2
SW_NOTE_0_7
340
0
102
{BLKREFS
331
2AD
102
}
  0
BLOCK_RECORD
  5
2AF
330
1
100
AcDbSymbolTableRecord
100
AcDbBlockTableRecord
  2
SW_NOTE_0_8
340
0
102
{BLKREFS
331
2B4
102
}
  0
BLOCK_RECORD
  5
2B7
330
1
100
AcDbSymbolTableRecord
100
AcDbBlockTableRecord
  2
SW_CENTERMARKSYMBOL_0
340
0
102
{BLKREFS
331
2C2
102
}
  0
BLOCK_RECORD
  5
2C3
330
1
100
AcDbSymbolTableRecord
100
AcDbBlockTableRecord
  2
SW_CENTERMARKSYMBOL_1
340
0
102
{BLKREFS
331
2CE
102
}
  0
ENDTAB
  0
ENDSEC
  0
SECTION
  2
BLOCKS
  0
BLOCK
  5
20
330
1F
100
AcDbEntity
  8
0
100
AcDbBlockBegin
  2
*Model_Space
 70
     0
 10
0.0
 20
0.0
 30
0.0
  3
*Model_Space
  1

  0
ENDBLK
  5
21
330
1F
100
AcDbEntity
  8
0
100
AcDbBlockEnd
  0
BLOCK
  5
1C
330
1B
100
AcDbEntity
 67
     1
  8
0
100
AcDbBlockBegin
  2
*Paper_Space
 70
     0
 10
0.0
 20
0.0
 30
0.0
  3
*Paper_Space
  1

  0
ENDBLK
  5
1D
330
1B
100
AcDbEntity
 67
     1
  8
0
100
AcDbBlockEnd
  0
BLOCK
  5
24
330
23
100
AcDbEntity
  8
0
100
AcDbBlockBegin
  2
*Paper_Space0
 70
     0
 10
0.0
 20
0.0
 30
0.0
  3
*Paper_Space0
  1

  0
ENDBLK
  5
25
330
23
100
AcDbEntity
  8
0
100
AcDbBlockEnd
  0
BLOCK
  5
7C
330
7B
100
AcDbEntity
  8
0
100
AcDbBlockBegin
  2
SW_BROKEN_VIEW_0
 70
     0
 10
0.0
 20
0.0
 30
0.0
  3
SW_BROKEN_VIEW_0
  1

  0
LINE
  5
7E
330
7B
100
AcDbEntity
  8
0
  6
HIDDEN
 62
     0
100
AcDbLine
 10
0.0
 20
0.0
 30
0.0
 11
-12.000001967
 21
0.0
 31
0.0
  0
LINE
  5
7F
330
7B
100
AcDbEntity
  8
0
  6
HIDDEN
 62
     0
100
AcDbLine
 10
0.0
 20
-12.7999996766
 30
0.0
 11
-12.000001967
 21
-12.7999996766
 31
0.0
  0
LINE
  5
80
330
7B
100
AcDbEntity
  8
0
  6
HIDDEN
 62
     0
100
AcDbLine
 10
0.0
 20
0.0
 30
0.0
 11
0.0
 21
-12.7999996766
 31
0.0
  0
ENDBLK
  5
7D
330
7B
100
AcDbEntity
  8
0
100
AcDbBlockEnd
  0
BLOCK
  5
1D9
330
1D8
100
AcDbEntity
  8
0
100
AcDbBlockBegin
  2
_Open30
 70
     0
 10
0.0
 20
0.0
 30
0.0
  3
_Open30
  1

  0
LINE
  5
1DB
330
1D8
100
AcDbEntity
  8
0
  6
ByBlock
 62
     0
370
    -2
100
AcDbLine
 10
-1.0
 20
0.267949
 30
0.0
 11
0.0
 21
0.0
 31
0.0
  0
LINE
  5
1DC
330
1D8
100
AcDbEntity
  8
0
  6
ByBlock
 62
     0
370
    -2
100
AcDbLine
 10
0.0
 20
0.0
 30
0.0
 11
-1.0
 21
-0.267949
 31
0.0
  0
LINE
  5
1DD
330
1D8
100
AcDbEntity
  8
0
  6
ByBlock
 62
     0
370
    -2
100
AcDbLine
 10
0.0
 20
0.0
 30
0.0
 11
-1.0
 21
0.0
 31
0.0
  0
ENDBLK
  5
1DA
330
1D8
100
AcDbEntity
  8
0
100
AcDbBlockEnd
  0
BLOCK
  5
1DF
330
1DE
100
AcDbEntity
  8
0
100
AcDbBlockBegin
  2
_D
 70
     0
 10
0.0
 20
0.0
 30
0.0
  3
_D
  1

  0
INSERT
  5
1E1
330
1DE
100
AcDbEntity
  8
0
  6
Continuous
 62
     7
370
    18
100
AcDbBlockReference
  2
_Open30
 10
79.7649939464
 20
105.9327415528
 30
0.0
 41
3.0
 42
3.0
 50
270.0
  0
INSERT
  5
1E2
330
1DE
100
AcDbEntity
  8
0
  6
Continuous
 62
     7
370
    18
100
AcDbBlockReference
  2
_Open30
 10
79.7649939464
 20
118.7327415528
 30
0.0
 41
3.0
 42
3.0
 50
90.0
  0
LINE
  5
1E3
330
1DE
100
AcDbEntity
  8
0
  6
Continuous
 62
     7
370
    18
100
AcDbLine
 10
82.9062727837
 20
105.9327415528
 30
0.0
 11
78.7649939464
 21
105.9327415528
 31
0.0
  0
LINE
  5
1E4
330
1DE
100
AcDbEntity
  8
0
  6
Continuous
 62
     7
370
    18
100
AcDbLine
 10
82.9062727837
 20
118.7327415528
 30
0.0
 11
78.7649939464
 21
118.7327415528
 31
0.0
  0
LINE
  5
1E5
330
1DE
100
AcDbEntity
  8
0
  6
Continuous
 62
     7
370
    18
100
AcDbLine
 10
79.7649939464
 20
105.9327415528
 30
0.0
 11
79.7649939464
 21
118.7327415528
 31
0.0
  0
LINE
  5
1E6
330
1DE
100
AcDbEntity
  8
0
  6
Continuous
 62
     7
370
    18
100
AcDbLine
 10
79.7649939464
 20
118.7327415528
 30
0.0
 11
79.7649939464
 21
130.7051624372
 31
0.0
  0
MTEXT
  5
1E7
330
1DE
100
AcDbEntity
  8
0
  6
Continuous
 62
     7
370
    18
100
AcDbMText
 10
76.6862059512
 20
121.3467517137
 30
0.0
 40
2.6458333333
 41
0.0
 71
     1
 72
     1
  1
%%c
  7
SLDTEXTSTYLE0
 11
6.123233995736766E-17
 21
1.0
 31
0.0
 73
     1
 44
1.0
  0
MTEXT
  5
1E8
330
1DE
100
AcDbEntity
  8
0
  6
Continuous
 62
     7
370
    18
100
AcDbMText
 10
76.6862059512
 20
124.6981406785
 30
0.0
 40
2.6458333333
 41
0.0
 71
     1
 72
     1
  1
12.8
  7
SLDTEXTSTYLE0
 11
6.123233995736766E-17
 21
1.0
 31
0.0
 73
     1
 44
1.0
  0
ENDBLK
  5
1E0
330
1DE
100
AcDbEntity
  8
0
100
AcDbBlockEnd
  0
BLOCK
  5
1EC
330
1EB
100
AcDbEntity
  8
0
100
AcDbBlockBegin
  2
_D_1
 70
     0
 10
0.0
 20
0.0
 30
0.0
  3
_D_1
  1

  0
INSERT
  5
1EE
330
1EB
100
AcDbEntity
  8
0
  6
Continuous
 62
     7
370
    18
100
AcDbBlockReference
  2
_Open30
 10
27.0198356615
 20
148.134993001
 30
0.0
 41
3.0
 42
3.0
 50
180.0
  0
INSERT
  5
1EF
330
1EB
100
AcDbEntity
  8
0
  6
Continuous
 62
     7
370
    18
100
AcDbBlockReference
  2
_Open30
 10
58.3180404225
 20
148.134993001
 30
0.0
 41
3.0
 42
3.0
 50
0.0
  0
LINE
  5
1F0
330
1EB
100
AcDbEntity
  8
0
  6
Continuous
 62
     7
370
    18
100
AcDbLine
 10
27.0198356615
 20
113.3327415528
 30
0.0
 11
27.0198356615
 21
149.134993001
 31
0.0
  0
LINE
  5
1F1
330
1EB
100
AcDbEntity
  8
0
  6
Continuous
 62
     7
370
    18
100
AcDbLine
 10
58.3180404225
 20
116.8327415528
 30
0.0
 11
58.3180404225
 21
149.134993001
 31
0.0
  0
LINE
  5
1F2
330
1EB
100
AcDbEntity
  8
0
  6
Continuous
 62
     7
370
    18
100
AcDbLine
 10
27.0198356615
 20
148.134993001
 30
0.0
 11
58.3180404225
 21
148.134993001
 31
0.0
  0
MTEXT
  5
1F3
330
1EB
100
AcDbEntity
  8
0
  6
Continuous
 62
     7
370
    18
100
AcDbMText
 10
32.898953521
 20
151.2137807634
 30
0.0
 40
2.6458333333
 41
0.0
 71
     1
 72
     1
  1
L1=50～1000
  7
SLDTEXTSTYLE1
 73
     1
 44
1.0
  0
ENDBLK
  5
1ED
330
1EB
100
AcDbEntity
  8
0
100
AcDbBlockEnd
  0
BLOCK
  5
1F7
330
1F6
100
AcDbEntity
  8
0
100
AcDbBlockBegin
  2
_D_2
 70
     0
 10
0.0
 20
0.0
 30
0.0
  3
_D_2
  1

  0
INSERT
  5
1F9
330
1F6
100
AcDbEntity
  8
0
  6
Continuous
 62
     7
370
    18
100
AcDbBlockReference
  2
_Open30
 10
60.3180404225
 20
122.638428189
 30
0.0
 41
3.0
 42
3.0
 50
180.0
  0
INSERT
  5
1FA
330
1F6
100
AcDbEntity
  8
0
  6
Continuous
 62
     7
370
    18
100
AcDbBlockReference
  2
_Open30
 10
58.3180404225
 20
122.638428189
 30
0.0
 41
3.0
 42
3.0
 50
0.0
  0
LINE
  5
1FB
330
1F6
100
AcDbEntity
  8
0
  6
Continuous
 62
     7
370
    18
100
AcDbLine
 10
60.3180404225
 20
116.8327415528
 30
0.0
 11
60.3180404225
 21
123.638428189
 31
0.0
  0
LINE
  5
1FC
330
1F6
100
AcDbEntity
  8
0
  6
Continuous
 62
     7
370
    18
100
AcDbLine
 10
58.3180404225
 20
116.8327415528
 30
0.0
 11
58.3180404225
 21
123.638428189
 31
0.0
  0
LINE
  5
1FD
330
1F6
100
AcDbEntity
  8
0
  6
Continuous
 62
     7
370
    18
100
AcDbLine
 10
60.3180404225
 20
122.638428189
 30
0.0
 11
63.8180404225
 21
122.638428189
 31
0.0
  0
LINE
  5
1FE
330
1F6
100
AcDbEntity
  8
0
  6
Continuous
 62
     7
370
    18
100
AcDbLine
 10
60.3180404225
 20
122.638428189
 30
0.0
 11
58.3180404225
 21
122.638428189
 31
0.0
  0
LINE
  5
1FF
330
1F6
100
AcDbEntity
  8
0
  6
Continuous
 62
     7
370
    18
100
AcDbLine
 10
58.3180404225
 20
122.638428189
 30
0.0
 11
52.3719433477
 21
122.638428189
 31
0.0
  0
MTEXT
  5
200
330
1F6
100
AcDbEntity
  8
0
  6
Continuous
 62
     7
370
    18
100
AcDbMText
 10
52.3719433477
 20
125.7172159513
 30
0.0
 40
2.6458333333
 41
0.0
 71
     1
 72
     1
  1
2
  7
SLDTEXTSTYLE0
 73
     1
 44
1.0
  0
ENDBLK
  5
1F8
330
1F6
100
AcDbEntity
  8
0
100
AcDbBlockEnd
  0
BLOCK
  5
203
330
202
100
AcDbEntity
  8
0
100
AcDbBlockBegin
  2
_D_3
 70
     0
 10
0.0
 20
0.0
 30
0.0
  3
_D_3
  1

  0
INSERT
  5
205
330
202
100
AcDbEntity
  8
0
  6
Continuous
 62
     7
370
    18
100
AcDbBlockReference
  2
_Open30
 10
53.2538877815
 20
115.8327415528
 30
0.0
 41
3.0
 42
3.0
 50
90.0
  0
INSERT
  5
206
330
202
100
AcDbEntity
  8
0
  6
Continuous
 62
     7
370
    18
100
AcDbBlockReference
  2
_Open30
 10
53.2538877815
 20
108.8327415528
 30
0.0
 41
3.0
 42
3.0
 50
270.0
  0
LINE
  5
207
330
202
100
AcDbEntity
  8
0
  6
Continuous
 62
     7
370
    18
100
AcDbLine
 10
57.3180404225
 20
115.8327415528
 30
0.0
 11
52.2538877815
 21
115.8327415528
 31
0.0
  0
LINE
  5
208
330
202
100
AcDbEntity
  8
0
  6
Continuous
 62
     7
370
    18
100
AcDbLine
 10
57.3180404225
 20
108.8327415528
 30
0.0
 11
52.2538877815
 21
108.8327415528
 31
0.0
  0
LINE
  5
209
330
202
100
AcDbEntity
  8
0
  6
Continuous
 62
     7
370
    18
100
AcDbLine
 10
53.2538877815
 20
115.8327415528
 30
0.0
 11
53.2538877815
 21
108.8327415528
 31
0.0
  0
LINE
  5
20A
330
202
100
AcDbEntity
  8
0
  6
Continuous
 62
     7
370
    18
100
AcDbLine
 10
53.2538877815
 20
108.8327415528
 30
0.0
 11
53.2538877815
 21
101.1829659657
 31
0.0
  0
MTEXT
  5
20B
330
202
100
AcDbEntity
  8
0
  6
Continuous
 62
     7
370
    18
100
AcDbMText
 10
50.1750997863
 20
101.1829659657
 30
0.0
 40
2.6458333333
 41
0.0
 71
     1
 72
     1
  1
%%c
  7
SLDTEXTSTYLE0
 11
-7.044195017643634E-15
 21
1.0
 31
0.0
 73
     1
 44
1.0
  0
MTEXT
  5
20C
330
202
100
AcDbEntity
  8
0
  6
Continuous
 62
     7
370
    18
100
AcDbMText
 10
50.1750997863
 20
104.5343549305
 30
0.0
 40
2.6458333333
 41
0.0
 71
     1
 72
     1
  1
7
  7
SLDTEXTSTYLE0
 11
-7.044195017643634E-15
 21
1.0
 31
0.0
 73
     1
 44
1.0
  0
ENDBLK
  5
204
330
202
100
AcDbEntity
  8
0
100
AcDbBlockEnd
  0
BLOCK
  5
20F
330
20E
100
AcDbEntity
  8
0
100
AcDbBlockBegin
  2
_D_4
 70
     0
 10
0.0
 20
0.0
 30
0.0
  3
_D_4
  1

  0
INSERT
  5
211
330
20E
100
AcDbEntity
  8
0
  6
Continuous
 62
     7
370
    18
100
AcDbBlockReference
  2
_Open30
 10
58.3180404225
 20
148.134993001
 30
0.0
 41
3.0
 42
3.0
 50
180.0
  0
INSERT
  5
212
330
20E
100
AcDbEntity
  8
0
  6
Continuous
 62
     7
370
    18
100
AcDbBlockReference
  2
_Open30
 10
99.9062727837
 20
148.134993001
 30
0.0
 41
3.0
 42
3.0
 50
0.0
  0
LINE
  5
213
330
20E
100
AcDbEntity
  8
0
  6
Continuous
 62
     7
370
    18
100
AcDbLine
 10
58.3180404225
 20
116.8327415528
 30
0.0
 11
58.3180404225
 21
149.134993001
 31
0.0
  0
LINE
  5
214
330
20E
100
AcDbEntity
  8
0
  6
Continuous
 62
     7
370
    18
100
AcDbLine
 10
99.9062727837
 20
118.3327415528
 30
0.0
 11
99.9062727837
 21
149.134993001
 31
0.0
  0
LINE
  5
215
330
20E
100
AcDbEntity
  8
0
  6
Continuous
 62
     7
370
    18
100
AcDbLine
 10
58.3180404225
 20
148.134993001
 30
0.0
 11
99.9062727837
 21
148.134993001
 31
0.0
  0
MTEXT
  5
216
330
20E
100
AcDbEntity
  8
0
  6
Continuous
 62
     7
370
    18
100
AcDbMText
 10
77.3482677355
 20
151.2137807634
 30
0.0
 40
2.6458333333
 41
0.0
 71
     1
 72
     1
  1
50
  7
SLDTEXTSTYLE0
 73
     1
 44
1.0
  0
ENDBLK
  5
210
330
20E
100
AcDbEntity
  8
0
100
AcDbBlockEnd
  0
BLOCK
  5
219
330
218
100
AcDbEntity
  8
0
100
AcDbBlockBegin
  2
_D_5
 70
     0
 10
0.0
 20
0.0
 30
0.0
  3
_D_5
  1

  0
INSERT
  5
21B
330
218
100
AcDbEntity
  8
0
  6
Continuous
 62
     7
370
    18
100
AcDbBlockReference
  2
_Open30
 10
35.7299397361
 20
114.8327415528
 30
0.0
 41
3.0
 42
3.0
 50
270.0
  0
INSERT
  5
21C
330
218
100
AcDbEntity
  8
0
  6
Continuous
 62
     7
370
    18
100
AcDbBlockReference
  2
_Open30
 10
35.7299397361
 20
109.8327415528
 30
0.0
 41
3.0
 42
3.0
 50
90.0
  0
LINE
  5
21D
330
218
100
AcDbEntity
  8
0
  6
Continuous
 62
     7
370
    18
100
AcDbLine
 10
35.7299397361
 20
114.8327415528
 30
0.0
 11
35.7299397361
 21
125.1960672216
 31
0.0
  0
LINE
  5
21E
330
218
100
AcDbEntity
  8
0
  6
Continuous
 62
     7
370
    18
100
AcDbLine
 10
35.7299397361
 20
114.8327415528
 30
0.0
 11
35.7299397361
 21
109.8327415528
 31
0.0
  0
LINE
  5
21F
330
218
100
AcDbEntity
  8
0
  6
Continuous
 62
     7
370
    18
100
AcDbLine
 10
35.7299397361
 20
109.8327415528
 30
0.0
 11
35.7299397361
 21
106.3327415528
 31
0.0
  0
MTEXT
  5
220
330
218
100
AcDbEntity
  8
0
  6
Continuous
 62
     7
370
    18
100
AcDbMText
 10
32.6511517409
 20
120.0807891563
 30
0.0
 40
2.6458333333
 41
0.0
 71
     1
 72
     1
  1
%%c
  7
SLDTEXTSTYLE0
 11
-7.044195017643634E-15
 21
1.0
 31
0.0
 73
     1
 44
1.0
  0
MTEXT
  5
221
330
218
100
AcDbEntity
  8
0
  6
Continuous
 62
     7
370
    18
100
AcDbMText
 10
32.6511517409
 20
123.4321781212
 30
0.0
 40
2.6458333333
 41
0.0
 71
     1
 72
     1
  1
5
  7
SLDTEXTSTYLE0
 11
-7.044195017643634E-15
 21
1.0
 31
0.0
 73
     1
 44
1.0
  0
ENDBLK
  5
21A
330
218
100
AcDbEntity
  8
0
100
AcDbBlockEnd
  0
BLOCK
  5
224
330
223
100
AcDbEntity
  8
0
100
AcDbBlockBegin
  2
_D_6
 70
     0
 10
0.0
 20
0.0
 30
0.0
  3
_D_6
  1

  0
ARC
  5
226
330
223
100
AcDbEntity
  8
0
  6
Continuous
 62
     7
370
    18
100
AcDbCircle
 10
93.6701617386
 20
132.9500828275
 30
0.0
 40
3.944175412646004
100
AcDbArc
 50
153.4349488229
 51
206.5650511771
  0
ARC
  5
227
330
223
100
AcDbEntity
  8
0
  6
Continuous
 62
     7
370
    18
100
AcDbCircle
 10
90.1423840035
 20
132.9500828275
 30
0.0
 40
3.944175412646004
100
AcDbArc
 50
333.4349488229
 51
26.5650511771
  0
INSERT
  5
228
330
223
100
AcDbEntity
  8
0
  6
Continuous
 62
     7
370
    18
100
AcDbBlockReference
  2
_Open30
 10
83.9062727837
 20
131.1861941927
 30
0.0
 41
3.0
 42
3.0
 50
180.0
  0
INSERT
  5
229
330
223
100
AcDbEntity
  8
0
  6
Continuous
 62
     7
370
    18
100
AcDbBlockReference
  2
_Open30
 10
99.9062727837
 20
131.1861941927
 30
0.0
 41
3.0
 42
3.0
 50
0.0
  0
LINE
  5
22A
330
223
100
AcDbEntity
  8
0
  6
Continuous
 62
     7
370
    18
100
AcDbLine
 10
83.9062727837
 20
120.3327415528
 30
0.0
 11
83.9062727837
 21
132.1861941927
 31
0.0
  0
LINE
  5
22B
330
223
100
AcDbEntity
  8
0
  6
Continuous
 62
     7
370
    18
100
AcDbLine
 10
99.9062727837
 20
118.3327415528
 30
0.0
 11
99.9062727837
 21
132.1861941927
 31
0.0
  0
LINE
  5
22C
330
223
100
AcDbEntity
  8
0
  6
Continuous
 62
     7
370
    18
100
AcDbLine
 10
83.9062727837
 20
131.1861941927
 30
0.0
 11
99.9062727837
 21
131.1861941927
 31
0.0
  0
MTEXT
  5
22D
330
223
100
AcDbEntity
  8
0
  6
Continuous
 62
     7
370
    18
100
AcDbMText
 10
90.1423840035
 20
134.2649817223
 30
0.0
 40
2.6458333333
 41
0.0
 71
     1
 72
     1
  1
16
  7
SLDTEXTSTYLE0
 73
     1
 44
1.0
  0
ENDBLK
  5
225
330
223
100
AcDbEntity
  8
0
100
AcDbBlockEnd
  0
BLOCK
  5
230
330
22F
100
AcDbEntity
  8
0
100
AcDbBlockBegin
  2
_D_7
 70
     0
 10
0.0
 20
0.0
 30
0.0
  3
_D_7
  1

  0
INSERT
  5
232
330
22F
100
AcDbEntity
  8
0
  6
Continuous
 62
     7
370
    18
100
AcDbBlockReference
  2
_Open30
 10
75.2233223758
 20
105.3327415528
 30
0.0
 41
3.0
 42
3.0
 50
270.0
  0
INSERT
  5
233
330
22F
100
AcDbEntity
  8
0
  6
Continuous
 62
     7
370
    18
100
AcDbBlockReference
  2
_Open30
 10
75.2233223758
 20
119.3327415528
 30
0.0
 41
3.0
 42
3.0
 50
90.0
  0
LINE
  5
234
330
22F
100
AcDbEntity
  8
0
  6
Continuous
 62
     7
370
    18
100
AcDbLine
 10
82.9062727837
 20
105.3327415528
 30
0.0
 11
74.2233223758
 21
105.3327415528
 31
0.0
  0
LINE
  5
235
330
22F
100
AcDbEntity
  8
0
  6
Continuous
 62
     7
370
    18
100
AcDbLine
 10
82.9062727837
 20
119.3327415528
 30
0.0
 11
74.2233223758
 21
119.3327415528
 31
0.0
  0
LINE
  5
236
330
22F
100
AcDbEntity
  8
0
  6
Continuous
 62
     7
370
    18
100
AcDbLine
 10
75.2233223758
 20
105.3327415528
 30
0.0
 11
75.2233223758
 21
119.3327415528
 31
0.0
  0
LINE
  5
237
330
22F
100
AcDbEntity
  8
0
  6
Continuous
 62
     7
370
    18
100
AcDbLine
 10
75.2233223758
 20
119.3327415528
 30
0.0
 11
75.2233223758
 21
128.2310882944
 31
0.0
  0
MTEXT
  5
238
330
22F
100
AcDbEntity
  8
0
  6
Continuous
 62
     7
370
    18
100
AcDbMText
 10
72.1445343805
 20
121.3519215945
 30
0.0
 40
2.6458333333
 41
0.0
 71
     1
 72
     1
  1
%%c
  7
SLDTEXTSTYLE0
 11
6.123233995736766E-17
 21
1.0
 31
0.0
 73
     1
 44
1.0
  0
MTEXT
  5
239
330
22F
100
AcDbEntity
  8
0
  6
Continuous
 62
     7
370
    18
100
AcDbMText
 10
72.1445343805
 20
124.7033105593
 30
0.0
 40
2.6458333333
 41
0.0
 71
     1
 72
     1
  1
14
  7
SLDTEXTSTYLE0
 11
6.123233995736766E-17
 21
1.0
 31
0.0
 73
     1
 44
1.0
  0
ENDBLK
  5
231
330
22F
100
AcDbEntity
  8
0
100
AcDbBlockEnd
  0
BLOCK
  5
23C
330
23B
100
AcDbEntity
  8
0
100
AcDbBlockBegin
  2
_D_8
 70
     0
 10
0.0
 20
0.0
 30
0.0
  3
_D_8
  1

  0
ARC
  5
23E
330
23B
100
AcDbEntity
  8
0
  6
Continuous
 62
     7
370
    18
100
AcDbCircle
 10
232.286391401
 20
132.9500828275
 30
0.0
 40
3.944175412646004
100
AcDbArc
 50
153.4349488229
 51
206.5650511771
  0
ARC
  5
23F
330
23B
100
AcDbEntity
  8
0
  6
Continuous
 62
     7
370
    18
100
AcDbCircle
 10
228.7586136659
 20
132.9500828275
 30
0.0
 40
3.944175412646004
100
AcDbArc
 50
333.4349488229
 51
26.5650511771
  0
INSERT
  5
240
330
23B
100
AcDbEntity
  8
0
  6
Continuous
 62
     7
370
    18
100
AcDbBlockReference
  2
_Open30
 10
197.9129891182
 20
131.1861941927
 30
0.0
 41
3.0
 42
3.0
 50
180.0
  0
INSERT
  5
241
330
23B
100
AcDbEntity
  8
0
  6
Continuous
 62
     7
370
    18
100
AcDbBlockReference
  2
_Open30
 10
263.1320157742
 20
131.1861941927
 30
0.0
 41
3.0
 42
3.0
 50
0.0
  0
LINE
  5
242
330
23B
100
AcDbEntity
  8
0
  6
Continuous
 62
     7
370
    18
100
AcDbLine
 10
197.9129891182
 20
115.8327415528
 30
0.0
 11
197.9129891182
 21
132.1861941927
 31
0.0
  0
LINE
  5
243
330
23B
100
AcDbEntity
  8
0
  6
Continuous
 62
     7
370
    18
100
AcDbLine
 10
263.1320157742
 20
124.9598964843
 30
0.0
 11
263.1320157742
 21
132.1861941927
 31
0.0
  0
LINE
  5
244
330
23B
100
AcDbEntity
  8
0
  6
Continuous
 62
     7
370
    18
100
AcDbLine
 10
197.9129891182
 20
131.1861941927
 30
0.0
 11
263.1320157742
 21
131.1861941927
 31
0.0
  0
MTEXT
  5
245
330
23B
100
AcDbEntity
  8
0
  6
Continuous
 62
     7
370
    18
100
AcDbMText
 10
228.7586136659
 20
134.2649817223
 30
0.0
 40
2.6458333333
 41
0.0
 71
     1
 72
     1
  1
80
  7
SLDTEXTSTYLE0
 73
     1
 44
1.0
  0
ENDBLK
  5
23D
330
23B
100
AcDbEntity
  8
0
100
AcDbBlockEnd
  0
BLOCK
  5
248
330
247
100
AcDbEntity
  8
0
100
AcDbBlockBegin
  2
_D_9
 70
     0
 10
0.0
 20
0.0
 30
0.0
  3
_D_9
  1

  0
INSERT
  5
24A
330
247
100
AcDbEntity
  8
0
  6
Continuous
 62
     7
370
    18
100
AcDbBlockReference
  2
_Open30
 10
114.7710879915
 20
107.3327415528
 30
0.0
 41
3.0
 42
3.0
 50
270.0
  0
INSERT
  5
24B
330
247
100
AcDbEntity
  8
0
  6
Continuous
 62
     7
370
    18
100
AcDbBlockReference
  2
_Open30
 10
114.7710879915
 20
117.3327415528
 30
0.0
 41
3.0
 42
3.0
 50
90.0
  0
LINE
  5
24C
330
247
100
AcDbEntity
  8
0
  6
Continuous
 62
     7
370
    18
100
AcDbLine
 10
114.7710879915
 20
107.3327415528
 30
0.0
 11
114.7710879915
 21
117.3327415528
 31
0.0
  0
LINE
  5
24D
330
247
100
AcDbEntity
  8
0
  6
Continuous
 62
     7
370
    18
100
AcDbLine
 10
114.7710879915
 20
117.3327415528
 30
0.0
 11
114.7710879915
 21
126.0780115389
 31
0.0
  0
MTEXT
  5
24E
330
247
100
AcDbEntity
  8
0
  6
Continuous
 62
     7
370
    18
100
AcDbMText
 10
111.6922999963
 20
119.198844839
 30
0.0
 40
2.6458333333
 41
0.0
 71
     1
 72
     1
  1
%%c
  7
SLDTEXTSTYLE0
 11
6.123233995736766E-17
 21
1.0
 31
0.0
 73
     1
 44
1.0
  0
MTEXT
  5
24F
330
247
100
AcDbEntity
  8
0
  6
Continuous
 62
     7
370
    18
100
AcDbMText
 10
111.6922999963
 20
122.5502338038
 30
0.0
 40
2.6458333333
 41
0.0
 71
     1
 72
     1
  1
10
  7
SLDTEXTSTYLE0
 11
6.123233995736766E-17
 21
1.0
 31
0.0
 73
     1
 44
1.0
  0
ENDBLK
  5
249
330
247
100
AcDbEntity
  8
0
100
AcDbBlockEnd
  0
BLOCK
  5
252
330
251
100
AcDbEntity
  8
0
100
AcDbBlockBegin
  2
_D_10
 70
     0
 10
0.0
 20
0.0
 30
0.0
  3
_D_10
  1

  0
INSERT
  5
254
330
251
100
AcDbEntity
  8
0
  6
Continuous
 62
     7
370
    18
100
AcDbBlockReference
  2
_Open30
 10
99.9062727837
 20
148.134993001
 30
0.0
 41
3.0
 42
3.0
 50
180.0
  0
INSERT
  5
255
330
251
100
AcDbEntity
  8
0
  6
Continuous
 62
     7
370
    18
100
AcDbBlockReference
  2
_Open30
 10
119.9062727837
 20
148.134993001
 30
0.0
 41
3.0
 42
3.0
 50
0.0
  0
LINE
  5
256
330
251
100
AcDbEntity
  8
0
  6
Continuous
 62
     7
370
    18
100
AcDbLine
 10
99.9062727837
 20
118.3327415528
 30
0.0
 11
99.9062727837
 21
149.134993001
 31
0.0
  0
LINE
  5
257
330
251
100
AcDbEntity
  8
0
  6
Continuous
 62
     7
370
    18
100
AcDbLine
 10
119.9062727837
 20
118.5327415528
 30
0.0
 11
119.9062727837
 21
149.134993001
 31
0.0
  0
LINE
  5
258
330
251
100
AcDbEntity
  8
0
  6
Continuous
 62
     7
370
    18
100
AcDbLine
 10
99.9062727837
 20
148.134993001
 30
0.0
 11
119.9062727837
 21
148.134993001
 31
0.0
  0
MTEXT
  5
259
330
251
100
AcDbEntity
  8
0
  6
Continuous
 62
     7
370
    18
100
AcDbMText
 10
108.1423839162
 20
151.2137807634
 30
0.0
 40
2.6458333333
 41
0.0
 71
     1
 72
     1
  1
20
  7
SLDTEXTSTYLE0
 73
     1
 44
1.0
  0
ENDBLK
  5
253
330
251
100
AcDbEntity
  8
0
100
AcDbBlockEnd
  0
BLOCK
  5
25C
330
25B
100
AcDbEntity
  8
0
100
AcDbBlockBegin
  2
_D_11
 70
     0
 10
0.0
 20
0.0
 30
0.0
  3
_D_11
  1

  0
INSERT
  5
25E
330
25B
100
AcDbEntity
  8
0
  6
Continuous
 62
     7
370
    18
100
AcDbBlockReference
  2
_Open30
 10
119.9062727837
 20
131.1861941927
 30
0.0
 41
3.0
 42
3.0
 50
180.0
  0
INSERT
  5
25F
330
25B
100
AcDbEntity
  8
0
  6
Continuous
 62
     7
370
    18
100
AcDbBlockReference
  2
_Open30
 10
149.9385906845
 20
131.1861941927
 30
0.0
 41
3.0
 42
3.0
 50
0.0
  0
LINE
  5
260
330
25B
100
AcDbEntity
  8
0
  6
Continuous
 62
     7
370
    18
100
AcDbLine
 10
119.9062727837
 20
118.5327415528
 30
0.0
 11
119.9062727837
 21
132.1861941927
 31
0.0
  0
LINE
  5
261
330
25B
100
AcDbEntity
  8
0
  6
Continuous
 62
     7
370
    18
100
AcDbLine
 10
149.9385906845
 20
118.5327415528
 30
0.0
 11
149.9385906845
 21
132.1861941927
 31
0.0
  0
LINE
  5
262
330
25B
100
AcDbEntity
  8
0
  6
Continuous
 62
     7
370
    18
100
AcDbLine
 10
119.9062727837
 20
131.1861941927
 30
0.0
 11
149.9385906845
 21
131.1861941927
 31
0.0
  0
MTEXT
  5
263
330
25B
100
AcDbEntity
  8
0
  6
Continuous
 62
     7
370
    18
100
AcDbMText
 10
129.7924550704
 20
137.7927596903
 30
0.0
 40
2.6458333333
 41
0.0
 71
     1
 72
     1
  1
 K :180
  7
SLDTEXTSTYLE0
 73
     1
 44
1.0
  0
MTEXT
  5
264
330
25B
100
AcDbEntity
  8
0
  6
Continuous
 62
     7
370
    18
100
AcDbMText
 10
129.5621697313
 20
134.2649819551
 30
0.0
 40
2.6458333333
 41
0.0
 71
     1
 72
     1
  1
T,J:150
  7
SLDTEXTSTYLE0
 73
     1
 44
1.0
  0
ENDBLK
  5
25D
330
25B
100
AcDbEntity
  8
0
100
AcDbBlockEnd
  0
BLOCK
  5
267
330
266
100
AcDbEntity
  8
0
100
AcDbBlockBegin
  2
_D_12
 70
     0
 10
0.0
 20
0.0
 30
0.0
  3
_D_12
  1

  0
INSERT
  5
269
330
266
100
AcDbEntity
  8
0
  6
Continuous
 62
     7
370
    18
100
AcDbBlockReference
  2
_Open30
 10
119.9062727837
 20
148.134993001
 30
0.0
 41
3.0
 42
3.0
 50
180.0
  0
INSERT
  5
26A
330
266
100
AcDbEntity
  8
0
  6
Continuous
 62
     7
370
    18
100
AcDbBlockReference
  2
_Open30
 10
263.1320157742
 20
148.134993001
 30
0.0
 41
3.0
 42
3.0
 50
0.0
  0
LINE
  5
26B
330
266
100
AcDbEntity
  8
0
  6
Continuous
 62
     7
370
    18
100
AcDbLine
 10
119.9062727837
 20
118.5327415528
 30
0.0
 11
119.9062727837
 21
149.134993001
 31
0.0
  0
LINE
  5
26C
330
266
100
AcDbEntity
  8
0
  6
Continuous
 62
     7
370
    18
100
AcDbLine
 10
263.1320157742
 20
124.9598964843
 30
0.0
 11
263.1320157742
 21
149.134993001
 31
0.0
  0
LINE
  5
26D
330
266
100
AcDbEntity
  8
0
  6
Continuous
 62
     7
370
    18
100
AcDbLine
 10
119.9062727837
 20
148.134993001
 30
0.0
 11
263.1320157742
 21
148.134993001
 31
0.0
  0
MTEXT
  5
26E
330
266
100
AcDbEntity
  8
0
  6
Continuous
 62
     7
370
    18
100
AcDbMText
 10
180.8672149749
 20
151.2137807634
 30
0.0
 40
2.6458333333
 41
0.0
 71
     1
 72
     1
  1
L=100～10000
  7
SLDTEXTSTYLE1
 73
     1
 44
1.0
  0
ENDBLK
  5
268
330
266
100
AcDbEntity
  8
0
100
AcDbBlockEnd
  0
BLOCK
  5
270
330
26F
100
AcDbEntity
  8
0
100
AcDbBlockBegin
  2
SW_NOTE_0
 70
     0
 10
0.0
 20
0.0
 30
0.0
  3
SW_NOTE_0
  1

  0
LINE
  5
272
330
26F
100
AcDbEntity
  8
0
  6
Continuous
 62
     0
370
    18
100
AcDbLine
 10
20.3663993407
 20
0.0
 30
0.0
 11
0.0
 21
0.0
 31
0.0
  0
MTEXT
  5
273
330
26F
100
AcDbEntity
  8
0
  6
Continuous
 62
     0
370
    18
100
AcDbMText
 10
0.4311985446
 20
3.0050788373
 30
0.0
 40
2.6458333333
 41
0.0
 71
     1
 72
     1
  1
 先端120°形
  7
SLDTEXTSTYLE1
 73
     1
 44
1.0
  0
ENDBLK
  5
271
330
26F
100
AcDbEntity
  8
0
100
AcDbBlockEnd
  0
BLOCK
  5
278
330
277
100
AcDbEntity
  8
0
100
AcDbBlockBegin
  2
SW_NOTE_0_1
 70
     0
 10
0.0
 20
0.0
 30
0.0
  3
SW_NOTE_0_1
  1

  0
LINE
  5
27A
330
277
100
AcDbEntity
  8
0
  6
Continuous
 62
     0
370
    18
100
AcDbLine
 10
12.6199878532
 20
0.0
 30
0.0
 11
0.0
 21
0.0
 31
0.0
  0
MTEXT
  5
27B
330
277
100
AcDbEntity
  8
0
  6
Continuous
 62
     0
370
    18
100
AcDbMText
 10
0.484783957
 20
3.0050788373
 30
0.0
 40
2.6458333333
 41
0.0
 71
     1
 72
     1
  1
 保護管 
  7
SLDTEXTSTYLE1
 73
     1
 44
1.0
  0
ENDBLK
  5
279
330
277
100
AcDbEntity
  8
0
100
AcDbBlockEnd
  0
BLOCK
  5
27F
330
27E
100
AcDbEntity
  8
0
100
AcDbBlockBegin
  2
SW_NOTE_0_2
 70
     0
 10
0.0
 20
0.0
 30
0.0
  3
SW_NOTE_0_2
  1

  0
LINE
  5
281
330
27E
100
AcDbEntity
  8
0
  6
Continuous
 62
     0
370
    18
100
AcDbLine
 10
21.1846500415
 20
0.0
 30
0.0
 11
0.0
 21
0.0
 31
0.0
  0
MTEXT
  5
282
330
27E
100
AcDbEntity
  8
0
  6
Continuous
 62
     0
370
    18
100
AcDbMText
 10
0.4608294633
 20
3.0050788373
 30
0.0
 40
2.6458333333
 41
0.0
 71
     1
 72
     1
  1
ﾊﾞｲﾖﾈｯﾄｷｬｯﾌﾟ
  7
SLDTEXTSTYLE1
 73
     1
 44
1.0
  0
ENDBLK
  5
280
330
27E
100
AcDbEntity
  8
0
100
AcDbBlockEnd
  0
BLOCK
  5
286
330
285
100
AcDbEntity
  8
0
100
AcDbBlockBegin
  2
SW_NOTE_0_3
 70
     0
 10
0.0
 20
0.0
 30
0.0
  3
SW_NOTE_0_3
  1

  0
LINE
  5
288
330
285
100
AcDbEntity
  8
0
  6
Continuous
 62
     0
370
    18
100
AcDbLine
 10
9.0089168179
 20
0.0
 30
0.0
 11
0.0
 21
0.0
 31
0.0
  0
MTEXT
  5
289
330
285
100
AcDbEntity
  8
0
  6
Continuous
 62
     0
370
    18
100
AcDbMText
 10
0.4551056245
 20
3.066602997
 30
0.0
 40
2.6458333333
 41
0.0
 71
     1
 72
     1
  1
ｽﾘｰﾌﾞ
  7
SLDTEXTSTYLE1
 73
     1
 44
1.0
  0
ENDBLK
  5
287
330
285
100
AcDbEntity
  8
0
100
AcDbBlockEnd
  0
BLOCK
  5
28D
330
28C
100
AcDbEntity
  8
0
100
AcDbBlockBegin
  2
SW_NOTE_0_4
 70
     0
 10
0.0
 20
0.0
 30
0.0
  3
SW_NOTE_0_4
  1

  0
LINE
  5
28F
330
28C
100
AcDbEntity
  8
0
  6
Continuous
 62
     0
370
    18
100
AcDbLine
 10
14.2809849012
 20
0.0
 30
0.0
 11
0.0
 21
0.0
 31
0.0
  0
MTEXT
  5
290
330
28C
100
AcDbEntity
  8
0
  6
Continuous
 62
     0
370
    18
100
AcDbMText
 10
0.4960942795
 20
3.0050788373
 30
0.0
 40
2.6458333333
 41
0.0
 71
     1
 72
     1
  1
  ﾘｰﾄﾞ線  
  7
SLDTEXTSTYLE1
 73
     1
 44
1.0
  0
ENDBLK
  5
28E
330
28C
100
AcDbEntity
  8
0
100
AcDbBlockEnd
  0
BLOCK
  5
294
330
293
100
AcDbEntity
  8
0
100
AcDbBlockBegin
  2
SW_NOTE_0_5
 70
     0
 10
0.0
 20
0.0
 30
0.0
  3
SW_NOTE_0_5
  1

  0
LINE
  5
296
330
293
100
AcDbEntity
  8
0
  6
Continuous
 62
     0
370
    18
100
AcDbLine
 10
19.4452579844
 20
0.0
 30
0.0
 11
0.0
 21
0.0
 31
0.0
  0
MTEXT
  5
297
330
293
100
AcDbEntity
  8
0
  6
Continuous
 62
     0
370
    18
100
AcDbMText
 10
0.4716653379
 20
3.066602997
 30
0.0
 40
2.6458333333
 41
0.0
 71
     1
 72
     1
  1
熱収縮ﾁｭｰﾌﾞ
  7
SLDTEXTSTYLE1
 73
     1
 44
1.0
  0
ENDBLK
  5
295
330
293
100
AcDbEntity
  8
0
100
AcDbBlockEnd
  0
BLOCK
  5
29B
330
29A
100
AcDbEntity
  8
0
100
AcDbBlockBegin
  2
SW_NOTE_0_6
 70
     0
 10
0.0
 20
0.0
 30
0.0
  3
SW_NOTE_0_6
  1

  0
LINE
  5
29D
330
29A
100
AcDbEntity
  8
0
  6
Continuous
 62
     0
370
    18
100
AcDbLine
 10
-13.470867857
 20
0.0
 30
0.0
 11
0.0
 21
0.0
 31
0.0
  0
MTEXT
  5
29E
330
29A
100
AcDbEntity
  8
0
  6
Continuous
 62
     0
370
    18
100
AcDbMText
 10
-13.9155922725
 20
3.0050788373
 30
0.0
 40
2.6458333333
 41
0.0
 71
     1
 72
     1
  1
Yﾗｸﾞ(M3)
  7
SLDTEXTSTYLE1
 73
     1
 44
1.0
  0
ENDBLK
  5
29C
330
29A
100
AcDbEntity
  8
0
100
AcDbBlockEnd
  0
BLOCK
  5
2A9
330
2A8
100
AcDbEntity
  8
0
100
AcDbBlockBegin
  2
SW_NOTE_0_7
 70
     0
 10
0.0
 20
0.0
 30
0.0
  3
SW_NOTE_0_7
  1

  0
LINE
  5
2AB
330
2A8
100
AcDbEntity
  8
0
  6
Continuous
 62
     0
370
    18
100
AcDbLine
 10
13.5950267095
 20
0.0
 30
0.0
 11
0.0
 21
0.0
 31
0.0
  0
MTEXT
  5
2AC
330
2A8
100
AcDbEntity
  8
0
  6
Continuous
 62
     0
370
    18
100
AcDbMText
 10
0.4866102877
 20
3.066602997
 30
0.0
 40
2.6458333333
 41
0.0
 71
     1
 72
     1
  1
 ｽﾌﾟﾘﾝｸﾞ 
  7
SLDTEXTSTYLE1
 73
     1
 44
1.0
  0
ENDBLK
  5
2AA
330
2A8
100
AcDbEntity
  8
0
100
AcDbBlockEnd
  0
BLOCK
  5
2B0
330
2AF
100
AcDbEntity
  8
0
100
AcDbBlockBegin
  2
SW_NOTE_0_8
 70
     0
 10
0.0
 20
0.0
 30
0.0
  3
SW_NOTE_0_8
  1

  0
LINE
  5
2B2
330
2AF
100
AcDbEntity
  8
0
  6
Continuous
 62
     0
370
    18
100
AcDbLine
 10
13.5950267095
 20
0.0
 30
0.0
 11
0.0
 21
0.0
 31
0.0
  0
MTEXT
  5
2B3
330
2AF
100
AcDbEntity
  8
0
  6
Continuous
 62
     0
370
    18
100
AcDbMText
 10
0.4635068
 20
3.0050788373
 30
0.0
 40
2.6458333333
 41
0.0
 71
     1
 72
     1
  1
 ｽﾌﾟﾘﾝｸﾞ 
  7
SLDTEXTSTYLE1
 73
     1
 44
1.0
  0
ENDBLK
  5
2B1
330
2AF
100
AcDbEntity
  8
0
100
AcDbBlockEnd
  0
BLOCK
  5
2B8
330
2B7
100
AcDbEntity
  8
0
100
AcDbBlockBegin
  2
SW_CENTERMARKSYMBOL_0
 70
     0
 10
0.0
 20
0.0
 30
0.0
  3
SW_CENTERMARKSYMBOL_0
  1

  0
LINE
  5
2BA
330
2B7
100
AcDbEntity
  8
0
  6
Continuous
 62
     0
370
    18
100
AcDbLine
 10
0.0
 20
0.0
 30
0.0
 11
0.0
 21
2.4999999441
 31
0.0
  0
LINE
  5
2BB
330
2B7
100
AcDbEntity
  8
0
  6
Continuous
 62
     0
370
    18
100
AcDbLine
 10
0.0
 20
0.0
 30
0.0
 11
-2.4999976158
 21
0.0
 31
0.0
  0
LINE
  5
2BC
330
2B7
100
AcDbEntity
  8
0
  6
Continuous
 62
     0
370
    18
100
AcDbLine
 10
0.0
 20
0.0
 30
0.0
 11
0.0
 21
-2.4999999441
 31
0.0
  0
LINE
  5
2BD
330
2B7
100
AcDbEntity
  8
0
  6
Continuous
 62
     0
370
    18
100
AcDbLine
 10
0.0
 20
0.0
 30
0.0
 11
2.4999976158
 21
0.0
 31
0.0
  0
LINE
  5
2BE
330
2B7
100
AcDbEntity
  8
0
  6
Continuous
 62
     0
370
    18
100
AcDbLine
 10
0.0
 20
2.4999999441
 30
0.0
 11
0.0
 21
4.1001136415
 31
0.0
  0
LINE
  5
2BF
330
2B7
100
AcDbEntity
  8
0
  6
Continuous
 62
     0
370
    18
100
AcDbLine
 10
-2.4999976158
 20
0.0
 30
0.0
 11
-15.218436718
 21
0.0
 31
0.0
  0
LINE
  5
2C0
330
2B7
100
AcDbEntity
  8
0
  6
Continuous
 62
     0
370
    18
100
AcDbLine
 10
0.0
 20
-2.4999999441
 30
0.0
 11
0.0
 21
-4.1001131758
 31
0.0
  0
LINE
  5
2C1
330
2B7
100
AcDbEntity
  8
0
  6
Continuous
 62
     0
370
    18
100
AcDbLine
 10
2.4999976158
 20
0.0
 30
0.0
 11
4.9100518227
 21
0.0
 31
0.0
  0
ENDBLK
  5
2B9
330
2B7
100
AcDbEntity
  8
0
100
AcDbBlockEnd
  0
BLOCK
  5
2C4
330
2C3
100
AcDbEntity
  8
0
100
AcDbBlockBegin
  2
SW_CENTERMARKSYMBOL_1
 70
     0
 10
0.0
 20
0.0
 30
0.0
  3
SW_CENTERMARKSYMBOL_1
  1

  0
LINE
  5
2C6
330
2C3
100
AcDbEntity
  8
0
  6
Continuous
 62
     0
370
    18
100
AcDbLine
 10
0.0
 20
0.0
 30
0.0
 11
0.0
 21
2.4999999441
 31
0.0
  0
LINE
  5
2C7
330
2C3
100
AcDbEntity
  8
0
  6
Continuous
 62
     0
370
    18
100
AcDbLine
 10
0.0
 20
0.0
 30
0.0
 11
-2.4999976158
 21
0.0
 31
0.0
  0
LINE
  5
2C8
330
2C3
100
AcDbEntity
  8
0
  6
Continuous
 62
     0
370
    18
100
AcDbLine
 10
0.0
 20
0.0
 30
0.0
 11
0.0
 21
-2.4999999441
 31
0.0
  0
LINE
  5
2C9
330
2C3
100
AcDbEntity
  8
0
  6
Continuous
 62
     0
370
    18
100
AcDbLine
 10
0.0
 20
0.0
 30
0.0
 11
2.4999976158
 21
0.0
 31
0.0
  0
LINE
  5
2CA
330
2C3
100
AcDbEntity
  8
0
  6
Continuous
 62
     0
370
    18
100
AcDbLine
 10
0.0
 20
2.4999999441
 30
0.0
 11
0.0
 21
4.1001131758
 31
0.0
  0
LINE
  5
2CB
330
2C3
100
AcDbEntity
  8
0
  6
Continuous
 62
     0
370
    18
100
AcDbLine
 10
-2.4999976158
 20
0.0
 30
0.0
 11
-15.2788758278
 21
0.0
 31
0.0
  0
LINE
  5
2CC
330
2C3
100
AcDbEntity
  8
0
  6
Continuous
 62
     0
370
    18
100
AcDbLine
 10
0.0
 20
-2.4999999441
 30
0.0
 11
0.0
 21
-4.1001136415
 31
0.0
  0
LINE
  5
2CD
330
2C3
100
AcDbEntity
  8
0
  6
Continuous
 62
     0
370
    18
100
AcDbLine
 10
2.4999976158
 20
0.0
 30
0.0
 11
4.9704909325
 21
0.0
 31
0.0
  0
ENDBLK
  5
2C5
330
2C3
100
AcDbEntity
  8
0
100
AcDbBlockEnd
  0
ENDSEC
  0
SECTION
  2
ENTITIES
  0
LINE
  5
73
330
1F
100
AcDbEntity
  8
0
  6
Continuous
 62
     7
370
    25
100
AcDbLine
 10
12.8700158558
 20
190.0085404097
 30
0.0
 11
12.8700749558
 21
18.0082352097
 31
0.0
  0
LINE
  5
74
330
1F
100
AcDbEntity
  8
0
  6
Continuous
 62
     7
370
    25
100
AcDbLine
 10
12.8700749558
 20
18.0082352097
 30
0.0
 11
282.5707921135
 21
18.0082352097
 31
0.0
  0
LINE
  5
75
330
1F
100
AcDbEntity
  8
0
  6
Continuous
 62
     7
370
    25
100
AcDbLine
 10
12.8700158558
 20
190.0085404097
 30
0.0
 11
282.5707921135
 21
190.0085404097
 31
0.0
  0
LINE
  5
76
330
1F
100
AcDbEntity
  8
0
  6
Continuous
 62
     7
370
    25
100
AcDbLine
 10
282.5707921135
 20
18.0082352097
 30
0.0
 11
282.5707921135
 21
190.0085404097
 31
0.0
  0
MTEXT
  5
78
330
1F
100
AcDbEntity
  8
0
  6
Continuous
 62
     7
370
    18
100
AcDbMText
 10
161.3643284109
 20
34.2512032074
 30
0.0
 40
4.7625
 41
0.0
 71
     1
 72
     1
  1
RKC INSTRUMENT INC.
  7
SLDTEXTSTYLE0
 73
     1
 44
1.0
  0
MTEXT
  5
7A
330
1F
100
AcDbEntity
  8
0
  6
Continuous
 62
     7
370
    18
100
AcDbMText
 10
161.3643284109
 20
42.2304589054
 30
0.0
 40
4.7625
 41
0.0
 71
     1
 72
     1
  1
MODEL：T-200-5-ﾛ-ﾛ-ﾛ-Y-ﾛ-ﾛ-ﾛ
  7
SLDTEXTSTYLE1
 73
     1
 44
1.0
  0
INSERT
  5
81
330
1F
100
AcDbEntity
  8
0
  6
Continuous
 62
     7
100
AcDbBlockReference
  2
SW_BROKEN_VIEW_0
 10
95.9062757808
 20
118.7327413911
 30
0.0
  0
LINE
  5
82
330
1F
100
AcDbEntity
  8
0
  6
Continuous
 62
     7
370
    25
100
AcDbLine
 10
256.8510418101
 20
107.0556997413
 30
0.0
 11
247.8510533734
 21
107.0556997413
 31
0.0
  0
LINE
  5
83
330
1F
100
AcDbEntity
  8
0
  6
Continuous
 62
     7
370
    25
100
AcDbLine
 10
247.8510533734
 20
102.5556994694
 30
0.0
 11
256.8510418101
 21
102.5556994694
 31
0.0
  0
LINE
  5
84
330
1F
100
AcDbEntity
  8
0
  6
Continuous
 62
     7
370
    25
100
AcDbLine
 10
256.8510418101
 20
122.1097836362
 30
0.0
 11
247.8510533734
 21
122.1097836362
 31
0.0
  0
LINE
  5
85
330
1F
100
AcDbEntity
  8
0
  6
Continuous
 62
     7
370
    25
100
AcDbLine
 10
247.8510533734
 20
117.6097833643
 30
0.0
 11
256.8510418101
 21
117.6097833643
 31
0.0
  0
LINE
  5
86
330
1F
100
AcDbEntity
  8
0
  6
Continuous
 62
     7
370
    25
100
AcDbLine
 10
233.5188781186
 20
117.4705273563
 30
0.0
 11
247.8510533734
 21
119.4847834388
 31
0.0
  0
LINE
  5
87
330
1F
100
AcDbEntity
  8
0
  6
Continuous
 62
     7
370
    25
100
AcDbLine
 10
247.8507553502
 20
120.2347416522
 30
0.0
 11
233.5775886937
 21
118.2287789973
 31
0.0
  0
LINE
  5
88
330
1F
100
AcDbEntity
  8
0
  6
Continuous
 62
     7
370
    25
100
AcDbLine
 10
247.8510533734
 20
105.1806996668
 30
0.0
 11
235.3180741235
 21
106.9420956167
 31
0.0
  0
LINE
  5
89
330
1F
100
AcDbEntity
  8
0
  6
Continuous
 62
     7
370
    25
100
AcDbLine
 10
235.2455203696
 20
106.202290682
 30
0.0
 11
247.8507553502
 21
104.4307414534
 31
0.0
  0
LINE
  5
8A
330
1F
100
AcDbEntity
  8
0
  6
Continuous
 62
     7
370
    25
100
AcDbLine
 10
256.8510418101
 20
104.8056998382
 30
0.0
 11
256.8510418101
 21
107.0556997413
 31
0.0
  0
LINE
  5
8B
330
1F
100
AcDbEntity
  8
0
  6
Continuous
 62
     7
370
    25
100
AcDbLine
 10
256.8510418101
 20
102.5556994694
 30
0.0
 11
256.8510418101
 21
104.8056998382
 31
0.0
  0
LINE
  5
8C
330
1F
100
AcDbEntity
  8
0
  6
Continuous
 62
     7
370
    25
100
AcDbLine
 10
247.8510533734
 20
104.8056998382
 30
0.0
 11
247.8510533734
 21
107.0556997413
 31
0.0
  0
LINE
  5
8D
330
1F
100
AcDbEntity
  8
0
  6
Continuous
 62
     7
370
    25
100
AcDbLine
 10
247.8510533734
 20
102.5556994694
 30
0.0
 11
247.8510533734
 21
104.8056998382
 31
0.0
  0
LINE
  5
8E
330
1F
100
AcDbEntity
  8
0
  6
Continuous
 62
     7
370
    25
100
AcDbLine
 10
256.8510418101
 20
119.8597832674
 30
0.0
 11
256.8510418101
 21
122.1097836362
 31
0.0
  0
LINE
  5
8F
330
1F
100
AcDbEntity
  8
0
  6
Continuous
 62
     7
370
    25
100
AcDbLine
 10
256.8510418101
 20
117.6097833643
 30
0.0
 11
256.8510418101
 21
119.8597832674
 31
0.0
  0
LINE
  5
90
330
1F
100
AcDbEntity
  8
0
  6
Continuous
 62
     7
370
    25
100
AcDbLine
 10
247.8510533734
 20
119.8597832674
 30
0.0
 11
247.8510533734
 21
122.1097836362
 31
0.0
  0
LINE
  5
91
330
1F
100
AcDbEntity
  8
0
  6
Continuous
 62
     7
370
    25
100
AcDbLine
 10
247.8510533734
 20
117.6097833643
 30
0.0
 11
247.8510533734
 21
119.8597832674
 31
0.0
  0
LINE
  5
92
330
1F
100
AcDbEntity
  8
0
  6
Continuous
 62
     7
370
    25
100
AcDbLine
 10
267.8510492011
 20
102.9056998061
 30
0.0
 11
267.8510492011
 21
102.2057000639
 31
0.0
  0
LINE
  5
93
330
1F
100
AcDbEntity
  8
0
  6
Continuous
 62
     7
370
    25
100
AcDbLine
 10
258.353958027
 20
102.2288126962
 30
0.0
 11
256.8510418101
 21
103.2057002278
 31
0.0
  0
ARC
  5
94
330
1F
100
AcDbEntity
  8
0
  6
Continuous
 62
     7
370
    25
100
AcDbCircle
 10
267.5510412825
 20
102.2057075608
 30
0.0
 40
0.300007918641249
100
AcDbArc
 50
270.00054243
 51
359.9985682306
  0
ARC
  5
95
330
1F
100
AcDbEntity
  8
0
  6
Continuous
 62
     7
370
    25
100
AcDbCircle
 10
267.5510420775
 20
106.7057070378
 30
0.0
 40
0.3000071236754873
100
AcDbArc
 50
270.0003906093
 51
359.9986311166
  0
LINE
  5
96
330
1F
100
AcDbEntity
  8
0
  6
Continuous
 62
     7
370
    25
100
AcDbLine
 10
267.5510441228
 20
101.9056996422
 30
0.0
 11
259.4439332648
 21
101.9056996422
 31
0.0
  0
LINE
  5
97
330
1F
100
AcDbEntity
  8
0
  6
Continuous
 62
     7
370
    25
100
AcDbLine
 10
263.1510441466
 20
106.4056999142
 30
0.0
 11
267.5510441228
 21
106.4056999142
 31
0.0
  0
ARC
  5
98
330
1F
100
AcDbEntity
  8
0
  6
Continuous
 62
     7
370
    25
100
AcDbCircle
 10
267.5510420775
 20
107.4056929105
 30
0.0
 40
0.3000071236571059
100
AcDbArc
 50
0.0012799473
 51
89.9996093921
  0
ARC
  5
99
330
1F
100
AcDbEntity
  8
0
  6
Continuous
 62
     7
370
    25
100
AcDbCircle
 10
259.4439255257
 20
105.705732565
 30
0.0
 40
1.999967469129852
100
AcDbArc
 50
89.999778286
 51
123.0241588922
  0
ARC
  5
9A
330
1F
100
AcDbEntity
  8
0
  6
Continuous
 62
     7
370
    25
100
AcDbCircle
 10
259.4439224489
 20
103.9056567322
 30
0.0
 40
1.999957090001005
100
AcDbArc
 50
236.9757529609
 51
270.0003098608
  0
LINE
  5
9B
330
1F
100
AcDbEntity
  8
0
  6
Continuous
 62
     7
370
    25
100
AcDbLine
 10
267.5510441228
 20
103.2057002278
 30
0.0
 11
263.1510441466
 21
103.2057002278
 31
0.0
  0
ARC
  5
9C
330
1F
100
AcDbEntity
  8
0
  6
Continuous
 62
     7
370
    25
100
AcDbCircle
 10
267.5510412825
 20
102.9056923092
 30
0.0
 40
0.300007918641249
100
AcDbArc
 50
0.0014317694
 51
89.99945757
  0
LINE
  5
9D
330
1F
100
AcDbEntity
  8
0
  6
Continuous
 62
     7
370
    25
100
AcDbLine
 10
259.4439332648
 20
107.7057000341
 30
0.0
 11
267.5510441228
 21
107.7057000341
 31
0.0
  0
LINE
  5
9E
330
1F
100
AcDbEntity
  8
0
  6
Continuous
 62
     7
370
    25
100
AcDbLine
 10
256.8510418101
 20
106.4056999142
 30
0.0
 11
258.353958027
 21
107.3825869801
 31
0.0
  0
LINE
  5
9F
330
1F
100
AcDbEntity
  8
0
  6
Continuous
 62
     7
370
    25
100
AcDbLine
 10
267.8510492011
 20
107.4056996124
 30
0.0
 11
267.8510492011
 21
106.7056998702
 31
0.0
  0
ARC
  5
A0
330
1F
100
AcDbEntity
  8
0
  6
Continuous
 62
     7
370
    25
100
AcDbCircle
 10
263.1320119073
 20
104.805700071
 30
0.0
 40
1.600113034839278
100
AcDbArc
 50
89.3184902079
 51
270.6815097921
  0
ARC
  5
A1
330
1F
100
AcDbEntity
  8
0
  6
Continuous
 62
     7
370
    25
100
AcDbCircle
 10
259.4439255257
 20
118.9597505406
 30
0.0
 40
1.999967469129852
100
AcDbArc
 50
236.9758411078
 51
270.000221714
  0
LINE
  5
A2
330
1F
100
AcDbEntity
  8
0
  6
Continuous
 62
     7
370
    25
100
AcDbLine
 10
256.8510418101
 20
121.4597828778
 30
0.0
 11
258.353958027
 21
122.4366704093
 31
0.0
  0
ARC
  5
A3
330
1F
100
AcDbEntity
  8
0
  6
Continuous
 62
     7
370
    25
100
AcDbCircle
 10
259.4439224489
 20
120.7598263734
 30
0.0
 40
1.999957090001319
100
AcDbArc
 50
89.9996901392
 51
123.0242470391
  0
LINE
  5
A4
330
1F
100
AcDbEntity
  8
0
  6
Continuous
 62
     7
370
    25
100
AcDbLine
 10
259.4439332648
 20
122.7597834634
 30
0.0
 11
267.5510441228
 21
122.7597834634
 31
0.0
  0
ARC
  5
A5
330
1F
100
AcDbEntity
  8
0
  6
Continuous
 62
     7
370
    25
100
AcDbCircle
 10
267.5510412825
 20
122.4597755448
 30
0.0
 40
0.300007918641249
100
AcDbArc
 50
0.0014317694
 51
89.99945757
  0
LINE
  5
A6
330
1F
100
AcDbEntity
  8
0
  6
Continuous
 62
     7
370
    25
100
AcDbLine
 10
267.8510492011
 20
122.4597830417
 30
0.0
 11
267.8510492011
 21
121.7597832995
 31
0.0
  0
ARC
  5
A7
330
1F
100
AcDbEntity
  8
0
  6
Continuous
 62
     7
370
    25
100
AcDbCircle
 10
267.5510412825
 20
121.7597907964
 30
0.0
 40
0.3000079186411922
100
AcDbArc
 50
270.00054243
 51
359.9985682306
  0
LINE
  5
A8
330
1F
100
AcDbEntity
  8
0
  6
Continuous
 62
     7
370
    25
100
AcDbLine
 10
263.1510441466
 20
121.4597828778
 30
0.0
 11
267.5510441228
 21
121.4597828778
 31
0.0
  0
ARC
  5
A9
330
1F
100
AcDbEntity
  8
0
  6
Continuous
 62
     7
370
    25
100
AcDbCircle
 10
263.1320119073
 20
119.8597830346
 30
0.0
 40
1.600113034839278
100
AcDbArc
 50
89.3184902079
 51
270.6815097921
  0
LINE
  5
AA
330
1F
100
AcDbEntity
  8
0
  6
Continuous
 62
     7
370
    25
100
AcDbLine
 10
267.5510441228
 20
118.2597831914
 30
0.0
 11
263.1510441466
 21
118.2597831914
 31
0.0
  0
ARC
  5
AB
330
1F
100
AcDbEntity
  8
0
  6
Continuous
 62
     7
370
    25
100
AcDbCircle
 10
267.5510420775
 20
117.9597760678
 30
0.0
 40
0.3000071236754873
100
AcDbArc
 50
0.0013688834
 51
89.9996093907
  0
LINE
  5
AC
330
1F
100
AcDbEntity
  8
0
  6
Continuous
 62
     7
370
    25
100
AcDbLine
 10
258.353958027
 20
117.2828961255
 30
0.0
 11
256.8510418101
 21
118.2597831914
 31
0.0
  0
LINE
  5
AD
330
1F
100
AcDbEntity
  8
0
  6
Continuous
 62
     7
370
    25
100
AcDbLine
 10
267.5510441228
 20
116.9597830715
 30
0.0
 11
259.4439332648
 21
116.9597830715
 31
0.0
  0
LINE
  5
AE
330
1F
100
AcDbEntity
  8
0
  6
Continuous
 62
     7
370
    25
100
AcDbLine
 10
267.8510492011
 20
117.9597832354
 30
0.0
 11
267.8510492011
 21
117.2597834932
 31
0.0
  0
ARC
  5
AF
330
1F
100
AcDbEntity
  8
0
  6
Continuous
 62
     7
370
    25
100
AcDbCircle
 10
267.5510420775
 20
117.2597901951
 30
0.0
 40
0.3000071236571059
100
AcDbArc
 50
270.0003906079
 51
359.9987200528
  0
LINE
  5
B0
330
1F
100
AcDbEntity
  8
0
  6
Continuous
 62
     7
370
    25
100
AcDbLine
 10
187.9129883602
 20
114.7327416668
 30
0.0
 11
166.0350960448
 21
114.7327416668
 31
0.0
  0
LINE
  5
B1
330
1F
100
AcDbEntity
  8
0
  6
Continuous
 62
     7
370
    25
100
AcDbLine
 10
167.129362817
 20
109.9327414388
 30
0.0
 11
187.9129883602
 21
109.9327414388
 31
0.0
  0
LINE
  5
B2
330
1F
100
AcDbEntity
  8
0
  6
Continuous
 62
     7
370
    25
100
AcDbLine
 10
187.9129883602
 20
109.8327416087
 30
0.0
 11
197.9129937246
 21
109.8327416087
 31
0.0
  0
LINE
  5
B3
330
1F
100
AcDbEntity
  8
0
  6
Continuous
 62
     7
370
    25
100
AcDbLine
 10
197.9129937246
 20
114.8327414969
 30
0.0
 11
187.9129883602
 21
114.8327414969
 31
0.0
  0
LINE
  5
B4
330
1F
100
AcDbEntity
  8
0
  6
Continuous
 62
     7
370
    25
100
AcDbLine
 10
197.9129937246
 20
109.8327416087
 30
0.0
 11
198.9129957511
 21
110.7527415127
 31
0.0
  0
LINE
  5
B5
330
1F
100
AcDbEntity
  8
0
  6
Continuous
 62
     7
370
    25
100
AcDbLine
 10
198.9129957511
 20
113.9127415929
 30
0.0
 11
197.9129937246
 21
114.8327414969
 31
0.0
  0
LINE
  5
B6
330
1F
100
AcDbEntity
  8
0
  6
Continuous
 62
     7
370
    25
100
AcDbLine
 10
198.9129957511
 20
110.7527415127
 30
0.0
 11
206.9129821613
 21
110.7527415127
 31
0.0
  0
LINE
  5
B7
330
1F
100
AcDbEntity
  8
0
  6
Continuous
 62
     7
370
    25
100
AcDbLine
 10
206.9129821613
 20
113.9127415929
 30
0.0
 11
198.9129957511
 21
113.9127415929
 31
0.0
  0
LINE
  5
B8
330
1F
100
AcDbEntity
  8
0
  6
Continuous
 62
     7
370
    25
100
AcDbLine
 10
206.9137421205
 20
112.4578465071
 30
0.0
 11
230.6801554515
 21
115.7979979737
 31
0.0
  0
LINE
  5
B9
330
1F
100
AcDbEntity
  8
0
  6
Continuous
 62
     7
370
    25
100
AcDbLine
 10
230.6873527124
 20
116.5490102114
 30
0.0
 11
206.9129821613
 21
113.2077415798
 31
0.0
  0
LINE
  5
BA
330
1F
100
AcDbEntity
  8
0
  6
Continuous
 62
     7
370
    25
100
AcDbLine
 10
232.1748015239
 20
108.6574262565
 30
0.0
 11
206.9137421205
 21
112.2076365984
 31
0.0
  0
LINE
  5
BB
330
1F
100
AcDbEntity
  8
0
  6
Continuous
 62
     7
370
    25
100
AcDbLine
 10
206.9129821613
 20
111.4577415258
 30
0.0
 11
232.1516898229
 21
107.9106734226
 31
0.0
  0
LINE
  5
BC
330
1F
100
AcDbEntity
  8
0
  6
Continuous
 62
     7
370
    25
100
AcDbLine
 10
187.9129883602
 20
112.3327415528
 30
0.0
 11
187.9129883602
 21
114.8327414969
 31
0.0
  0
LINE
  5
BD
330
1F
100
AcDbEntity
  8
0
  6
Continuous
 62
     7
370
    25
100
AcDbLine
 10
187.9129883602
 20
109.8327416087
 30
0.0
 11
187.9129883602
 21
112.3327415528
 31
0.0
  0
LINE
  5
BE
330
1F
100
AcDbEntity
  8
0
  6
Continuous
 62
     7
370
    25
100
AcDbLine
 10
206.9129821613
 20
112.3327415528
 30
0.0
 11
206.9129821613
 21
113.9127415929
 31
0.0
  0
LINE
  5
BF
330
1F
100
AcDbEntity
  8
0
  6
Continuous
 62
     7
370
    25
100
AcDbLine
 10
206.9129821613
 20
110.7527415127
 30
0.0
 11
206.9129821613
 21
112.3327415528
 31
0.0
  0
SPLINE
  5
C0
330
1F
100
AcDbEntity
  8
0
  6
Continuous
 62
     7
370
    25
100
AcDbSpline
210
0.0
220
0.0
230
1.0
 70
     8
 71
     3
 72
    12
 73
     8
 74
     0
 42
0.00000001
 43
0.00000001
 40
0.0
 40
0.0
 40
0.0
 40
0.0
 40
0.0939829595930242
 40
0.3255040673336926
 40
0.6301284336760291
 40
0.9384755324049837
 40
1.0
 40
1.0
 40
1.0
 40
1.0
 10
149.3813524876582
 20
106.8893822932799
 30
0.0
 10
149.4348576077019
 20
106.9716807851878
 30
0.0
 10
149.6201692245399
 20
107.2567164338572
 30
0.0
 10
149.6673304921281
 20
107.9304020316301
 30
0.0
 10
149.7940619206788
 20
108.7864144361128
 30
0.0
 10
149.8378019468294
 20
109.4864902807397
 30
0.0
 10
149.8515250680109
 20
109.8690983759207
 30
0.0
 10
149.8538077731477
 20
109.932741438802
 30
0.0
  0
SPLINE
  5
C1
330
1F
100
AcDbEntity
  8
0
  6
Continuous
 62
     7
370
    25
100
AcDbSpline
210
0.0
220
0.0
230
1.0
 70
     8
 71
     3
 72
    11
 73
     7
 74
     0
 42
0.00000001
 43
0.00000001
 40
0.0
 40
0.0
 40
0.0
 40
0.0
 40
0.4251382835103525
 40
0.6809029265234746
 40
0.8876158687681759
 40
0.9999999999999999
 40
0.9999999999999999
 40
0.9999999999999999
 40
0.9999999999999999
 10
150.016172688161
 20
114.7327416667897
 30
0.0
 10
150.0290875650064
 20
115.0706796306907
 30
0.0
 10
150.0497720758602
 20
115.6119222275786
 30
0.0
 10
150.0626357552659
 20
116.3133590376123
 30
0.0
 10
150.098391040919
 20
116.7774762350424
 30
0.0
 10
150.0174855502229
 20
117.019541923855
 30
0.0
 10
149.9889911074983
 20
117.1047960499484
 30
0.0
  0
SPLINE
  5
C2
330
1F
100
AcDbEntity
  8
0
  6
Continuous
 62
     7
370
    25
100
AcDbSpline
210
0.0
220
0.0
230
1.0
 70
     8
 71
     3
 72
    13
 73
     9
 74
     0
 42
0.00000001
 43
0.00000001
 40
0.0
 40
0.0
 40
0.0
 40
0.0
 40
0.0821244511980204
 40
0.3925385951257858
 40
0.6748065143916738
 40
0.8284075497833832
 40
0.9702693915506814
 40
1.0
 40
1.0
 40
1.0
 40
1.0
 10
137.4311329719471
 20
112.5654709296717
 30
0.0
 10
137.4269610558569
 20
112.6974672244065
 30
0.0
 10
137.4070201240497
 20
113.3283833442854
 30
0.0
 10
137.3658517707092
 20
114.411509600275
 30
0.0
 10
137.3494313421903
 20
115.6155754082009
 30
0.0
 10
137.2564065171599
 20
116.533767886123
 30
0.0
 10
137.1702357211236
 20
117.0647716153574
 30
0.0
 10
137.0270787807247
 20
117.301459023303
 30
0.0
 10
137.0022749916511
 20
117.3424681740064
 30
0.0
  0
SPLINE
  5
C3
330
1F
100
AcDbEntity
  8
0
  6
Continuous
 62
     7
370
    25
100
AcDbSpline
210
0.0
220
0.0
230
1.0
 70
     8
 71
     3
 72
    20
 73
    16
 74
     0
 42
0.00000001
 43
0.00000001
 40
0.0
 40
0.0
 40
0.0
 40
0.0
 40
0.021645766378189
 40
0.0808474826331062
 40
0.1602387786339555
 40
0.2430746887523519
 40
0.3949810752208648
 40
0.5348397452263937
 40
0.6732696769864329
 40
0.7991477323727166
 40
0.8676464845706354
 40
0.9309101184714361
 40
0.9719947944036692
 40
0.9839238627712185
 40
1.0
 40
1.0
 40
1.0
 40
1.0
 10
138.6830381971644
 20
107.1852918805737
 30
0.0
 10
138.6666834996144
 20
107.2616958392194
 30
0.0
 10
138.6055982923251
 20
107.5470665492133
 30
0.0
 10
138.5937152385872
 20
108.1276322869545
 30
0.0
 10
138.5464914090887
 20
108.9235234054734
 30
0.0
 10
138.5122420793445
 20
110.0561092541492
 30
0.0
 10
138.4680046573211
 20
111.4061803768568
 30
0.0
 10
138.4189682615277
 20
112.9552929107303
 30
0.0
 10
138.3708091387519
 20
114.4163403344454
 30
0.0
 10
138.3364897045604
 20
115.6025571547492
 30
0.0
 10
138.2802645497345
 20
116.5578024506505
 30
0.0
 10
138.0828142417103
 20
117.0952370225392
 30
0.0
 10
137.9993256366038
 20
117.6202932700217
 30
0.0
 10
137.6760197643066
 20
117.6099681256681
 30
0.0
 10
137.7026916734741
 20
117.4861635041787
 30
0.0
 10
137.7180024438398
 20
117.4150945710201
 30
0.0
  0
SPLINE
  5
C4
330
1F
100
AcDbEntity
  8
0
  6
Continuous
 62
     7
370
    25
100
AcDbSpline
210
0.0
220
0.0
230
1.0
 70
     8
 71
     3
 72
    20
 73
    16
 74
     0
 42
0.00000001
 43
0.00000001
 40
0.0
 40
0.0
 40
0.0
 40
0.0
 40
0.0216457750597675
 40
0.0808474892644489
 40
0.16023878870951
 40
0.2430746987812107
 40
0.3949810879630248
 40
0.5348397618457759
 40
0.6732696960784044
 40
0.7991477537130799
 40
0.8676465027784467
 40
0.9309101378092414
 40
0.9719948359312205
 40
0.9839238617363281
 40
1.0
 40
1.0
 40
1.0
 40
1.0
 10
139.6830383610772
 20
107.1852918805737
 30
0.0
 10
139.6666834731934
 20
107.2616958339702
 30
0.0
 10
139.6055975744923
 20
107.54706643331
 30
0.0
 10
139.5937159935418
 20
108.127632366487
 30
0.0
 10
139.546490644448
 20
108.9235233622197
 30
0.0
 10
139.5122427140078
 20
110.0561092838494
 30
0.0
 10
139.4680048687876
 20
111.4061803812534
 30
0.0
 10
139.4189678013116
 20
112.9552928990915
 30
0.0
 10
139.3708089724427
 20
114.4163403467473
 30
0.0
 10
139.336489117219
 20
115.6025571079614
 30
0.0
 10
139.2802647714302
 20
116.5578024757003
 30
0.0
 10
139.0828146061852
 20
117.0952370981799
 30
0.0
 10
138.9993253902533
 20
117.6202932552174
 30
0.0
 10
138.6760199586616
 20
117.6099679832442
 30
0.0
 10
138.7026916855201
 20
117.486163522096
 30
0.0
 10
138.718002374922
 20
117.4150945710201
 30
0.0
  0
SPLINE
  5
C5
330
1F
100
AcDbEntity
  8
0
  6
Continuous
 62
     7
370
    25
100
AcDbSpline
210
0.0
220
0.0
230
1.0
 70
     8
 71
     3
 72
    20
 73
    16
 74
     0
 42
0.00000001
 43
0.00000001
 40
0.0
 40
0.0
 40
0.0
 40
0.0
 40
0.0216457741662505
 40
0.0808474859271415
 40
0.1602387820950053
 40
0.2430746887473185
 40
0.3949810730366886
 40
0.5348397397670935
 40
0.6732696682854661
 40
0.7991477207240152
 40
0.8676464669618188
 40
0.9309100993811509
 40
0.9719947958071927
 40
0.9839238638953944
 40
1.0
 40
1.0
 40
1.0
 40
1.0
 10
140.68303852499
 20
107.1852918805737
 30
0.0
 10
140.6666836370444
 20
107.2616958339681
 30
0.0
 10
140.6055977381125
 20
107.5470664333004
 30
0.0
 10
140.5937161618306
 20
108.127632366631
 30
0.0
 10
140.5464907860223
 20
108.923523361485
 30
0.0
 10
140.5122429947844
 20
110.0561092926669
 30
0.0
 10
140.4680042088293
 20
111.4061803591219
 30
0.0
 10
140.4189681757402
 20
112.9552929131856
 30
0.0
 10
140.3708090876581
 20
114.416340336798
 30
0.0
 10
140.3364892793654
 20
115.6025571307064
 30
0.0
 10
140.2802649499176
 20
116.5578024340542
 30
0.0
 10
140.0828147232806
 20
117.0952372218304
 30
0.0
 10
139.9993256011489
 20
117.6202932440609
 30
0.0
 10
139.6760195931896
 20
117.6099681327694
 30
0.0
 10
139.7026916716127
 20
117.486163505874
 30
0.0
 10
139.7180025388347
 20
117.4150945710201
 30
0.0
  0
SPLINE
  5
C6
330
1F
100
AcDbEntity
  8
0
  6
Continuous
 62
     7
370
    25
100
AcDbSpline
210
0.0
220
0.0
230
1.0
 70
     8
 71
     3
 72
    20
 73
    16
 74
     0
 42
0.00000001
 43
0.00000001
 40
0.0
 40
0.0
 40
0.0
 40
0.0
 40
0.0216457745446699
 40
0.0808474873405469
 40
0.1602387828702077
 40
0.2430746924969717
 40
0.3949810780639178
 40
0.5348397472393833
 40
0.6732696781778387
 40
0.7991477328170342
 40
0.8676464846084118
 40
0.9309101181337419
 40
0.9719947938221368
 40
0.9839238621188868
 40
1.0
 40
1.0
 40
1.0
 40
1.0
 10
141.6830382232415
 20
107.1852918805737
 30
0.0
 10
141.666683337552
 20
107.2616958340687
 30
0.0
 10
141.6055974470468
 20
107.5470664337767
 30
0.0
 10
141.5937157004739
 20
108.1276323521671
 30
0.0
 10
141.5464913005079
 20
108.9235233888011
 30
0.0
 10
141.5122421774253
 20
110.0561092630611
 30
0.0
 10
141.4680046614249
 20
111.4061803741599
 30
0.0
 10
141.4189682936676
 20
112.9552929114019
 30
0.0
 10
141.3708091618338
 20
114.4163403343555
 30
0.0
 10
141.3364897352233
 20
115.6025571545534
 30
0.0
 10
141.2802645676415
 20
116.5578024510492
 30
0.0
 10
141.0828142919738
 20
117.0952370213429
 30
0.0
 10
140.9993256227236
 20
117.6202932719995
 30
0.0
 10
140.6760198304181
 20
117.6099681234015
 30
0.0
 10
140.7026915660396
 20
117.4861635042467
 30
0.0
 10
140.7180022370862
 20
117.4150945710201
 30
0.0
  0
SPLINE
  5
C7
330
1F
100
AcDbEntity
  8
0
  6
Continuous
 62
     7
370
    25
100
AcDbSpline
210
0.0
220
0.0
230
1.0
 70
     8
 71
     3
 72
    20
 73
    16
 74
     0
 42
0.00000001
 43
0.00000001
 40
0.0
 40
0.0
 40
0.0
 40
0.0
 40
0.0216457662347478
 40
0.0808474789896728
 40
0.1602387785167407
 40
0.2430746880862041
 40
0.3949810735480709
 40
0.534839741247691
 40
0.6732696720903892
 40
0.7991477282007945
 40
0.8676464755887352
 40
0.930910098221088
 40
0.9719947953369678
 40
0.9839238636254661
 40
1.0
 40
1.0
 40
1.0
 40
1.0
 10
142.6830383871543
 20
107.1852918805737
 30
0.0
 10
142.6666836758077
 20
107.261695838309
 30
0.0
 10
142.605598419336
 20
107.5470665339333
 30
0.0
 10
142.5937164036038
 20
108.1276323432968
 30
0.0
 10
142.5464906855153
 20
108.9235233677923
 30
0.0
 10
142.5122420646752
 20
110.0561092672475
 30
0.0
 10
142.4680041426788
 20
111.4061803621745
 30
0.0
 10
142.418968560897
 20
112.95529292171
 30
0.0
 10
142.3708095572907
 20
114.4163403397672
 30
0.0
 10
142.33648915461
 20
115.602557147135
 30
0.0
 10
142.2802646506338
 20
116.5578023477519
 30
0.0
 10
142.082815143647
 20
117.0952372948869
 30
0.0
 10
141.9993259236392
 20
117.6202932427811
 30
0.0
 10
141.6760199219639
 20
117.609968132997
 30
0.0
 10
141.7026919997842
 20
117.486163505957
 30
0.0
 10
141.7180028666603
 20
117.4150945710201
 30
0.0
  0
SPLINE
  5
C8
330
1F
100
AcDbEntity
  8
0
  6
Continuous
 62
     7
370
    25
100
AcDbSpline
210
0.0
220
0.0
230
1.0
 70
     8
 71
     3
 72
    20
 73
    16
 74
     0
 42
0.00000001
 43
0.00000001
 40
0.0
 40
0.0
 40
0.0
 40
0.0
 40
0.0216457838784929
 40
0.0808474995154887
 40
0.1602387988551762
 40
0.2430747124572757
 40
0.3949811053142828
 40
0.5348397825807469
 40
0.6732697201625217
 40
0.7991477792843967
 40
0.8676465300070086
 40
0.9309101774176346
 40
0.9719948765336088
 40
0.9839238598518112
 40
1.0
 40
1.0
 40
1.0
 40
1.0
 10
143.683038551067
 20
107.1852918805737
 30
0.0
 10
143.6666834874572
 20
107.2616958296602
 30
0.0
 10
143.6055969495569
 20
107.5470663328226
 30
0.0
 10
143.593715742106
 20
108.127632387632
 30
0.0
 10
143.5464911120153
 20
108.923523378062
 30
0.0
 10
143.512242043091
 20
110.0561092677906
 30
0.0
 10
143.4680046992434
 20
111.4061803852832
 30
0.0
 10
143.4189675427517
 20
112.9552928954028
 30
0.0
 10
143.3708085337447
 20
114.4163403515319
 30
0.0
 10
143.3364893050665
 20
115.6025570690756
 30
0.0
 10
143.280265106608
 20
116.5578026035963
 30
0.0
 10
143.0828142850725
 20
117.0952369014808
 30
0.0
 10
142.9993250729191
 20
117.6202932676542
 30
0.0
 10
142.6760202114277
 20
117.6099678334912
 30
0.0
 10
142.7026915873236
 20
117.4861635382351
 30
0.0
 10
142.7180020992505
 20
117.4150945710201
 30
0.0
  0
SPLINE
  5
C9
330
1F
100
AcDbEntity
  8
0
  6
Continuous
 62
     7
370
    25
100
AcDbSpline
210
0.0
220
0.0
230
1.0
 70
     8
 71
     3
 72
    20
 73
    16
 74
     0
 42
0.00000001
 43
0.00000001
 40
0.0
 40
0.0
 40
0.0
 40
0.0
 40
0.0216457820914172
 40
0.08084749284072
 40
0.1602387856258626
 40
0.2430746923890299
 40
0.3949810727046468
 40
0.5348397384243799
 40
0.6732696645773805
 40
0.7991477133067643
 40
0.86764645837412
 40
0.9309101005616999
 40
0.9719947962857216
 40
0.9839238641700897
 40
0.9999999999999999
 40
0.9999999999999999
 40
0.9999999999999999
 40
0.9999999999999999
 10
144.6830387149798
 20
107.1852918805737
 30
0.0
 10
144.66668365137
 20
107.2616958296601
 30
0.0
 10
144.6055971134699
 20
107.5470663328221
 30
0.0
 10
144.593715906016
 20
108.1276323876395
 30
0.0
 10
144.5464912759425
 20
108.923523378024
 30
0.0
 10
144.512242206928
 20
110.0561092679898
 30
0.0
 10
144.4680048636895
 20
111.4061803838811
 30
0.0
 10
144.41896770489
 20
112.9552929000684
 30
0.0
 10
144.3708087039625
 20
114.4163403349544
 30
0.0
 10
144.3364894518433
 20
115.60255711413
 30
0.0
 10
144.2802653021697
 20
116.5578025203839
 30
0.0
 10
144.082814354932
 20
117.0952371487692
 30
0.0
 10
143.9993253308199
 20
117.6202932453409
 30
0.0
 10
143.6760193165682
 20
117.6099681325418
 30
0.0
 10
143.7026913955948
 20
117.486163505791
 30
0.0
 10
143.7180022631632
 20
117.4150945710201
 30
0.0
  0
SPLINE
  5
CA
330
1F
100
AcDbEntity
  8
0
  6
Continuous
 62
     7
370
    25
100
AcDbSpline
210
0.0
220
0.0
230
1.0
 70
     8
 71
     3
 72
    20
 73
    16
 74
     0
 42
0.00000001
 43
0.00000001
 40
0.0
 40
0.0
 40
0.0
 40
0.0
 40
0.0216457661416393
 40
0.0808474786419099
 40
0.1602387737751536
 40
0.2430746829883008
 40
0.3949810677967471
 40
0.5348397376529826
 40
0.6732696679002288
 40
0.79914772035262
 40
0.8676464761580498
 40
0.930910098518276
 40
0.9719947954574313
 40
0.9839238636946172
 40
1.0
 40
1.0
 40
1.0
 40
1.0
 10
145.68303794757
 20
107.1852918805737
 30
0.0
 10
145.6666832398267
 20
107.2616958384781
 30
0.0
 10
145.6055979968133
 20
107.5470665347337
 30
0.0
 10
145.5937157091691
 20
108.127632316645
 30
0.0
 10
145.5464915504786
 20
108.9235233998334
 30
0.0
 10
145.512242315073
 20
110.0561092567952
 30
0.0
 10
145.4680050192396
 20
111.4061803837929
 30
0.0
 10
145.4189679520751
 20
112.9552929112717
 30
0.0
 10
145.3708085566622
 20
114.4163402921301
 30
0.0
 10
145.3364904636126
 20
115.6025572621488
 30
0.0
 10
145.2802638988468
 20
116.5578022888654
 30
0.0
 10
145.0828147579957
 20
117.0952373002103
 30
0.0
 10
144.999325481187
 20
117.6202932424981
 30
0.0
 10
144.6760194828896
 20
117.6099681330473
 30
0.0
 10
144.702691560386
 20
117.4861635059754
 30
0.0
 10
144.718002427076
 20
117.4150945710201
 30
0.0
  0
SPLINE
  5
CB
330
1F
100
AcDbEntity
  8
0
  6
Continuous
 62
     7
370
    25
100
AcDbSpline
210
0.0
220
0.0
230
1.0
 70
     8
 71
     3
 72
    20
 73
    16
 74
     0
 42
0.00000001
 43
0.00000001
 40
0.0
 40
0.0
 40
0.0
 40
0.0
 40
0.0216457662411189
 40
0.0808474790134687
 40
0.1602387785639038
 40
0.2430746851052046
 40
0.3949810706117821
 40
0.5348397411107801
 40
0.6732696719942225
 40
0.7991477281416776
 40
0.8676464755497795
 40
0.9309100982007527
 40
0.971994795328725
 40
0.9839238636207344
 40
1.0
 40
1.0
 40
1.0
 40
1.0
 10
146.6830381114828
 20
107.1852918805737
 30
0.0
 10
146.666683399325
 20
107.2616958382801
 30
0.0
 10
146.6055981398235
 20
107.5470665337965
 30
0.0
 10
146.5937161853726
 20
108.1276323453425
 30
0.0
 10
146.5464901172762
 20
108.9235233463773
 30
0.0
 10
146.5122433253198
 20
110.056109299908
 30
0.0
 10
146.4680049787272
 20
111.4061803772237
 30
0.0
 10
146.4189680002668
 20
112.9552929027801
 30
0.0
 10
146.3708093515361
 20
114.4163403419629
 30
0.0
 10
146.3364888697669
 20
115.602557146847
 30
0.0
 10
146.2802643766477
 20
116.5578023478048
 30
0.0
 10
146.0828148676933
 20
117.095237294878
 30
0.0
 10
145.9993256479828
 20
117.6202932427816
 30
0.0
 10
145.6760196462898
 20
117.6099681329969
 30
0.0
 10
145.7026917241118
 20
117.486163505957
 30
0.0
 10
145.7180025909888
 20
117.4150945710201
 30
0.0
  0
SPLINE
  5
CC
330
1F
100
AcDbEntity
  8
0
  6
Continuous
 62
     7
370
    25
100
AcDbSpline
210
0.0
220
0.0
230
1.0
 70
     8
 71
     3
 72
    20
 73
    16
 74
     0
 42
0.00000001
 43
0.00000001
 40
0.0
 40
0.0
 40
0.0
 40
0.0
 40
0.0216457662411619
 40
0.0808474790136293
 40
0.1602387785642222
 40
0.2430746851056875
 40
0.3949810733687936
 40
0.5348397411098562
 40
0.6732696719935736
 40
0.7991477281412784
 40
0.8676464755495165
 40
0.9309100982006154
 40
0.9719947953286693
 40
0.9839238636207024
 40
1.0
 40
1.0
 40
1.0
 40
1.0
 10
147.6830382753955
 20
107.1852918805737
 30
0.0
 10
147.6666835631141
 20
107.2616958382762
 30
0.0
 10
147.6055983031509
 20
107.5470665337778
 30
0.0
 10
147.5937163580403
 20
108.127632345623
 30
0.0
 10
147.5464902364976
 20
108.9235233449458
 30
0.0
 10
147.5122437230361
 20
110.056109317344
 30
0.0
 10
147.4680034943645
 20
111.4061803343628
 30
0.0
 10
147.4189685869858
 20
112.9552929263026
 30
0.0
 10
147.370809411749
 20
114.4163403386417
 30
0.0
 10
147.336489047283
 20
115.6025571472826
 30
0.0
 10
147.2802645380607
 20
116.5578023477247
 30
0.0
 10
147.0828150320246
 20
117.0952372948914
 30
0.0
 10
146.9993258118733
 20
117.6202932427809
 30
0.0
 10
146.6760198102065
 20
117.609968132997
 30
0.0
 10
146.702691888026
 20
117.4861635059571
 30
0.0
 10
146.7180027549016
 20
117.4150945710201
 30
0.0
  0
SPLINE
  5
CD
330
1F
100
AcDbEntity
  8
0
  6
Continuous
 62
     7
370
    25
100
AcDbSpline
210
0.0
220
0.0
230
1.0
 70
     8
 71
     3
 72
    20
 73
    16
 74
     0
 42
0.00000001
 43
0.00000001
 40
0.0
 40
0.0
 40
0.0
 40
0.0
 40
0.0216457665823621
 40
0.080847486503406
 40
0.1602387832531115
 40
0.2430746941528554
 40
0.3949810820542209
 40
0.5348397519998628
 40
0.6732696850656384
 40
0.7991477431975477
 40
0.8676464916855251
 40
0.9309101370323013
 40
0.9719947918961932
 40
0.9839238603762631
 40
1.0
 40
1.0
 40
1.0
 40
1.0
 10
148.6830384393083
 20
107.1852918805737
 30
0.0
 10
148.6666837519516
 20
107.2616958399607
 30
0.0
 10
148.6055985803862
 20
107.547066563693
 30
0.0
 10
148.5937147605563
 20
108.1276322572637
 30
0.0
 10
148.5464912602407
 20
108.9235234111137
 30
0.0
 10
148.5122418362044
 20
110.0561092515012
 30
0.0
 10
148.4680042876779
 20
111.4061803699344
 30
0.0
 10
148.4189685644421
 20
112.9552929101436
 30
0.0
 10
148.370809710149
 20
114.4163403769212
 30
0.0
 10
148.3364889468689
 20
115.6025570469135
 30
0.0
 10
148.280265176898
 20
116.5578026132412
 30
0.0
 10
148.082813766336
 20
117.095236742474
 30
0.0
 10
147.9993257046563
 20
117.6202933015012
 30
0.0
 10
147.6760201183414
 20
117.6099681137553
 30
0.0
 10
147.7026915120884
 20
117.486163502518
 30
0.0
 10
147.7180019874918
 20
117.4150945710201
 30
0.0
  0
SPLINE
  5
CE
330
1F
100
AcDbEntity
  8
0
  6
Continuous
 62
     7
370
    25
100
AcDbSpline
210
0.0
220
0.0
230
1.0
 70
     8
 71
     3
 72
    20
 73
    16
 74
     0
 42
0.00000001
 43
0.00000001
 40
0.0
 40
0.0
 40
0.0
 40
0.0
 40
0.0216457674914369
 40
0.0808474898988235
 40
0.1602387940351149
 40
0.2430747053612418
 40
0.3949810996423431
 40
0.5348397782199562
 40
0.673269717099486
 40
0.7991477774014445
 40
0.8676465287662194
 40
0.9309101767699303
 40
0.9719948762710658
 40
0.9839238597011003
 40
0.9999999999999999
 40
0.9999999999999999
 40
0.9999999999999999
 40
0.9999999999999999
 10
149.6830386032211
 20
107.1852918805737
 30
0.0
 10
149.6666839114715
 20
107.2616958397634
 30
0.0
 10
149.6055987234992
 20
107.5470665627584
 30
0.0
 10
149.5937152352243
 20
108.1276322859214
 30
0.0
 10
149.5464898348767
 20
108.923523357861
 30
0.0
 10
149.5122428053922
 20
110.0561092935485
 30
0.0
 10
149.4680045358678
 20
111.4061803808069
 30
0.0
 10
149.4189676502455
 20
112.9552928965521
 30
0.0
 10
149.3708085723363
 20
114.4163403512502
 30
0.0
 10
149.3364893589996
 20
115.6025570691126
 30
0.0
 10
149.2802651584352
 20
116.5578026035895
 30
0.0
 10
149.0828143372813
 20
117.095236901482
 30
0.0
 10
148.9993251250702
 20
117.6202932676541
 30
0.0
 10
148.6760202635822
 20
117.6099678334912
 30
0.0
 10
148.7026916394778
 20
117.4861635382351
 30
0.0
 10
148.7180021514045
 20
117.4150945710201
 30
0.0
  0
SPLINE
  5
CF
330
1F
100
AcDbEntity
  8
0
  6
Continuous
 62
     7
370
    25
100
AcDbSpline
210
0.0
220
0.0
230
1.0
 70
     8
 71
     3
 72
     9
 73
     5
 74
     0
 42
0.00000001
 43
0.00000001
 40
0.0
 40
0.0
 40
0.0
 40
0.0
 40
0.6501028894102308
 40
1.0
 40
1.0
 40
1.0
 40
1.0
 10
137.9385906194197
 20
117.7827416079302
 30
0.0
 10
137.8820029745491
 20
117.7303219561577
 30
0.0
 10
137.7949588377018
 20
117.6496891015338
 30
0.0
 10
137.7733446091667
 20
117.5353685043348
 30
0.0
 10
137.7657818530547
 20
117.4953680576939
 30
0.0
  0
SPLINE
  5
D0
330
1F
100
AcDbEntity
  8
0
  6
Continuous
 62
     7
370
    25
100
AcDbSpline
210
0.0
220
0.0
230
1.0
 70
     8
 71
     3
 72
     9
 73
     5
 74
     0
 42
0.00000001
 43
0.00000001
 40
0.0
 40
0.0
 40
0.0
 40
0.0
 40
0.5543072400794429
 40
1.0
 40
1.0
 40
1.0
 40
1.0
 10
137.6722274736362
 20
117.1422324234803
 30
0.0
 10
137.6262629037087
 20
116.6980934379261
 30
0.0
 10
137.5433403535345
 20
115.8968428796789
 30
0.0
 10
137.5246640383982
 20
115.0916225416085
 30
0.0
 10
137.51634013996
 20
114.7327416667897
 30
0.0
  0
SPLINE
  5
D1
330
1F
100
AcDbEntity
  8
0
  6
Continuous
 62
     7
370
    25
100
AcDbSpline
210
0.0
220
0.0
230
1.0
 70
     8
 71
     3
 72
    11
 73
     7
 74
     0
 42
0.00000001
 43
0.00000001
 40
0.0
 40
0.0
 40
0.0
 40
0.0
 40
0.0713109668497179
 40
0.2266573630122344
 40
0.655326784308282
 40
1.0
 40
1.0
 40
1.0
 40
1.0
 10
138.9385907833325
 20
117.7827416079302
 30
0.0
 10
138.8868001154788
 20
117.7279436789192
 30
0.0
 10
138.7221867786675
 20
117.5537719541923
 30
0.0
 10
138.6335992941829
 20
116.8427317802354
 30
0.0
 10
138.5458189003695
 20
115.9011810611711
 30
0.0
 10
138.5254279411442
 20
115.0929599610448
 30
0.0
 10
138.5163398382115
 20
114.7327416667897
 30
0.0
  0
SPLINE
  5
D2
330
1F
100
AcDbEntity
  8
0
  6
Continuous
 62
     7
370
    25
100
AcDbSpline
210
0.0
220
0.0
230
1.0
 70
     8
 71
     3
 72
     9
 73
     5
 74
     0
 42
0.00000001
 43
0.00000001
 40
0.0
 40
0.0
 40
0.0
 40
0.0
 40
0.6501028894102308
 40
1.0
 40
1.0
 40
1.0
 40
1.0
 10
139.938590481584
 20
117.7827416079302
 30
0.0
 10
139.8820028367134
 20
117.7303219561577
 30
0.0
 10
139.794958699866
 20
117.6496891015338
 30
0.0
 10
139.773344471331
 20
117.5353685043348
 30
0.0
 10
139.7657817152189
 20
117.4953680576939
 30
0.0
  0
SPLINE
  5
D3
330
1F
100
AcDbEntity
  8
0
  6
Continuous
 62
     7
370
    25
100
AcDbSpline
210
0.0
220
0.0
230
1.0
 70
     8
 71
     3
 72
     9
 73
     5
 74
     0
 42
0.00000001
 43
0.00000001
 40
0.0
 40
0.0
 40
0.0
 40
0.0
 40
0.5543072382065352
 40
1.0
 40
1.0
 40
1.0
 40
1.0
 10
139.6722275686311
 20
117.1422324234803
 30
0.0
 10
139.6262630254449
 20
116.6980934369876
 30
0.0
 10
139.5433405232331
 20
115.89684287434
 30
0.0
 10
139.5246639953965
 20
115.0916225410058
 30
0.0
 10
139.5163400021242
 20
114.7327416667897
 30
0.0
  0
SPLINE
  5
D4
330
1F
100
AcDbEntity
  8
0
  6
Continuous
 62
     7
370
    25
100
AcDbSpline
210
0.0
220
0.0
230
1.0
 70
     8
 71
     3
 72
    11
 73
     7
 74
     0
 42
0.00000001
 43
0.00000001
 40
0.0
 40
0.0
 40
0.0
 40
0.0
 40
0.0713108761541561
 40
0.2266573201564558
 40
0.6553267681045614
 40
1.0
 40
1.0
 40
1.0
 40
1.0
 10
140.9385906454968
 20
117.7827416079302
 30
0.0
 10
140.8868001711363
 20
117.7279436572875
 30
0.0
 10
140.7221872710957
 20
117.55377167522
 30
0.0
 10
140.633598519961
 20
116.8427320866176
 30
0.0
 10
140.5458187742009
 20
115.901181000914
 30
0.0
 10
140.525428128955
 20
115.092959940374
 30
0.0
 10
140.516340166037
 20
114.7327416667897
 30
0.0
  0
SPLINE
  5
D5
330
1F
100
AcDbEntity
  8
0
  6
Continuous
 62
     7
370
    25
100
AcDbSpline
210
0.0
220
0.0
230
1.0
 70
     8
 71
     3
 72
     9
 73
     5
 74
     0
 42
0.00000001
 43
0.00000001
 40
0.0
 40
0.0
 40
0.0
 40
0.0
 40
0.650102359676595
 40
1.0
 40
1.0
 40
1.0
 40
1.0
 10
141.9385903437482
 20
117.7827416079302
 30
0.0
 10
141.8820029914149
 20
117.7303218979651
 30
0.0
 10
141.7949592336265
 20
117.6496888881246
 30
0.0
 10
141.773344516057
 20
117.5353684938807
 30
0.0
 10
141.7657815773832
 20
117.4953680576939
 30
0.0
  0
SPLINE
  5
D6
330
1F
100
AcDbEntity
  8
0
  6
Continuous
 62
     7
370
    25
100
AcDbSpline
210
0.0
220
0.0
230
1.0
 70
     8
 71
     3
 72
     9
 73
     5
 74
     0
 42
0.00000001
 43
0.00000001
 40
0.0
 40
0.0
 40
0.0
 40
0.0
 40
0.5543072382065352
 40
1.0
 40
1.0
 40
1.0
 40
1.0
 10
141.6722274307953
 20
117.1422324234803
 30
0.0
 10
141.6262628876092
 20
116.6980934369876
 30
0.0
 10
141.5433403853974
 20
115.89684287434
 30
0.0
 10
141.5246638575607
 20
115.0916225410058
 30
0.0
 10
141.5163398642885
 20
114.7327416667897
 30
0.0
  0
SPLINE
  5
D7
330
1F
100
AcDbEntity
  8
0
  6
Continuous
 62
     7
370
    25
100
AcDbSpline
210
0.0
220
0.0
230
1.0
 70
     8
 71
     3
 72
    11
 73
     7
 74
     0
 42
0.00000001
 43
0.00000001
 40
0.0
 40
0.0
 40
0.0
 40
0.0
 40
0.0713109690068547
 40
0.2266573316874021
 40
0.6553267791079775
 40
0.9999999999999999
 40
0.9999999999999999
 40
0.9999999999999999
 40
0.9999999999999999
 10
142.938590507661
 20
117.7827416079302
 30
0.0
 10
142.886799825384
 20
117.7279436827286
 30
0.0
 10
142.722186470459
 20
117.5537719994492
 30
0.0
 10
142.6336000554227
 20
116.8427315887974
 30
0.0
 10
142.5458181905448
 20
115.9011811335286
 30
0.0
 10
142.5254278535703
 20
115.0929599770186
 30
0.0
 10
142.5163400282013
 20
114.7327416667897
 30
0.0
  0
SPLINE
  5
D8
330
1F
100
AcDbEntity
  8
0
  6
Continuous
 62
     7
370
    25
100
AcDbSpline
210
0.0
220
0.0
230
1.0
 70
     8
 71
     3
 72
     9
 73
     5
 74
     0
 42
0.00000001
 43
0.00000001
 40
0.0
 40
0.0
 40
0.0
 40
0.0
 40
0.6501034191406987
 40
1.0
 40
1.0
 40
1.0
 40
1.0
 10
143.9385906715738
 20
117.7827416079302
 30
0.0
 10
143.8820027341652
 20
117.7303220143503
 30
0.0
 10
143.7949582182582
 20
117.6496893149421
 30
0.0
 10
143.7733444787591
 20
117.5353685147887
 30
0.0
 10
143.7657819052087
 20
117.4953680576939
 30
0.0
  0
SPLINE
  5
D9
330
1F
100
AcDbEntity
  8
0
  6
Continuous
 62
     7
370
    25
100
AcDbSpline
210
0.0
220
0.0
230
1.0
 70
     8
 71
     3
 72
     9
 73
     5
 74
     0
 42
0.00000001
 43
0.00000001
 40
0.0
 40
0.0
 40
0.0
 40
0.0
 40
0.5543072495352089
 40
1.0
 40
1.0
 40
1.0
 40
1.0
 10
143.6722277586209
 20
117.1422324234803
 30
0.0
 10
143.626262963755
 20
116.6980934426643
 30
0.0
 10
143.5433400091941
 20
115.8968429066334
 30
0.0
 10
143.5246639681948
 20
115.0916225446517
 30
0.0
 10
143.516340192114
 20
114.7327416667897
 30
0.0
  0
SPLINE
  5
DA
330
1F
100
AcDbEntity
  8
0
  6
Continuous
 62
     7
370
    25
100
AcDbSpline
210
0.0
220
0.0
230
1.0
 70
     8
 71
     3
 72
     9
 73
     5
 74
     0
 42
0.00000001
 43
0.00000001
 40
0.0
 40
0.0
 40
0.0
 40
0.0
 40
0.6501034191406987
 40
1.0
 40
1.0
 40
1.0
 40
1.0
 10
144.9385908354866
 20
117.7827416079302
 30
0.0
 10
144.882002898078
 20
117.7303220143503
 30
0.0
 10
144.794958382171
 20
117.6496893149421
 30
0.0
 10
144.7733446426718
 20
117.5353685147887
 30
0.0
 10
144.7657820691215
 20
117.4953680576939
 30
0.0
  0
SPLINE
  5
DB
330
1F
100
AcDbEntity
  8
0
  6
Continuous
 62
     7
370
    25
100
AcDbSpline
210
0.0
220
0.0
230
1.0
 70
     8
 71
     3
 72
     9
 73
     5
 74
     0
 42
0.00000001
 43
0.00000001
 40
0.0
 40
0.0
 40
0.0
 40
0.0
 40
0.5543072343694981
 40
1.0
 40
1.0
 40
1.0
 40
1.0
 10
144.6722269912111
 20
117.1422324234803
 30
0.0
 10
144.6262625927397
 20
116.6980934350649
 30
0.0
 10
144.5433403510271
 20
115.8968428634022
 30
0.0
 10
144.5246641871545
 20
115.0916225397709
 30
0.0
 10
144.5163403560268
 20
114.7327416667897
 30
0.0
  0
SPLINE
  5
DC
330
1F
100
AcDbEntity
  8
0
  6
Continuous
 62
     7
370
    25
100
AcDbSpline
210
0.0
220
0.0
230
1.0
 70
     8
 71
     3
 72
     9
 73
     5
 74
     0
 42
0.00000001
 43
0.00000001
 40
0.0
 40
0.0
 40
0.0
 40
0.0
 40
0.6501034191406987
 40
1.0
 40
1.0
 40
1.0
 40
1.0
 10
145.9385909993993
 20
117.7827416079302
 30
0.0
 10
145.8820030619908
 20
117.7303220143503
 30
0.0
 10
145.7949585460837
 20
117.6496893149421
 30
0.0
 10
145.7733448065846
 20
117.5353685147887
 30
0.0
 10
145.7657822330343
 20
117.4953680576939
 30
0.0
  0
SPLINE
  5
DD
330
1F
100
AcDbEntity
  8
0
  6
Continuous
 62
     7
370
    25
100
AcDbSpline
210
0.0
220
0.0
230
1.0
 70
     8
 71
     3
 72
     9
 73
     5
 74
     0
 42
0.00000001
 43
0.00000001
 40
0.0
 40
0.0
 40
0.0
 40
0.0
 40
0.5543072343694981
 40
1.0
 40
1.0
 40
1.0
 40
1.0
 10
145.6722271551239
 20
117.1422324234803
 30
0.0
 10
145.6262627566525
 20
116.6980934350649
 30
0.0
 10
145.5433405149399
 20
115.8968428634022
 30
0.0
 10
145.5246643510673
 20
115.0916225397709
 30
0.0
 10
145.5163405199396
 20
114.7327416667897
 30
0.0
  0
SPLINE
  5
DE
330
1F
100
AcDbEntity
  8
0
  6
Continuous
 62
     7
370
    25
100
AcDbSpline
210
0.0
220
0.0
230
1.0
 70
     8
 71
     3
 72
     9
 73
     5
 74
     0
 42
0.00000001
 43
0.00000001
 40
0.0
 40
0.0
 40
0.0
 40
0.0
 40
0.650102359676595
 40
1.0
 40
1.0
 40
1.0
 40
1.0
 10
146.9385902319895
 20
117.7827416079302
 30
0.0
 10
146.8820028796562
 20
117.7303218979651
 30
0.0
 10
146.7949591218678
 20
117.6496888881246
 30
0.0
 10
146.7733444042983
 20
117.5353684938807
 30
0.0
 10
146.7657814656245
 20
117.4953680576939
 30
0.0
  0
SPLINE
  5
DF
330
1F
100
AcDbEntity
  8
0
  6
Continuous
 62
     7
370
    25
100
AcDbSpline
210
0.0
220
0.0
230
1.0
 70
     8
 71
     3
 72
     9
 73
     5
 74
     0
 42
0.00000001
 43
0.00000001
 40
0.0
 40
0.0
 40
0.0
 40
0.0
 40
0.5543072268778448
 40
0.9999999999999999
 40
0.9999999999999999
 40
0.9999999999999999
 40
0.9999999999999999
 10
146.6722273190366
 20
117.1422324234803
 30
0.0
 10
146.6262630275302
 20
116.6980934313109
 30
0.0
 10
146.5433409776675
 20
115.8968428420466
 30
0.0
 10
146.5246639629935
 20
115.0916225373599
 30
0.0
 10
146.5163397525298
 20
114.7327416667897
 30
0.0
  0
SPLINE
  5
E0
330
1F
100
AcDbEntity
  8
0
  6
Continuous
 62
     7
370
    25
100
AcDbSpline
210
0.0
220
0.0
230
1.0
 70
     8
 71
     3
 72
    11
 73
     7
 74
     0
 42
0.00000001
 43
0.00000001
 40
0.0
 40
0.0
 40
0.0
 40
0.0
 40
0.0713107868705604
 40
0.2266572436068672
 40
0.6553267398511217
 40
1.0
 40
1.0
 40
1.0
 40
1.0
 10
147.9385903959023
 20
117.7827416079302
 30
0.0
 10
147.8868001010484
 20
117.7279436394498
 30
0.0
 10
147.7221876210531
 20
117.5537714414404
 30
0.0
 10
147.6335986384742
 20
116.8427322027079
 30
0.0
 10
147.5458184277768
 20
115.901180990867
 30
0.0
 10
147.525427849402
 20
115.0929599330374
 30
0.0
 10
147.5163399164425
 20
114.7327416667897
 30
0.0
  0
SPLINE
  5
E1
330
1F
100
AcDbEntity
  8
0
  6
Continuous
 62
     7
370
    25
100
AcDbSpline
210
0.0
220
0.0
230
1.0
 70
     8
 71
     3
 72
    11
 73
     7
 74
     0
 42
0.00000001
 43
0.00000001
 40
0.0
 40
0.0
 40
0.0
 40
0.0
 40
0.0713109690068547
 40
0.2266573316874021
 40
0.6553267791079775
 40
0.9999999999999999
 40
0.9999999999999999
 40
0.9999999999999999
 40
0.9999999999999999
 10
148.9385905598151
 20
117.7827416079302
 30
0.0
 10
148.8867998775381
 20
117.7279436827286
 30
0.0
 10
148.722186522613
 20
117.5537719994492
 30
0.0
 10
148.6336001075768
 20
116.8427315887974
 30
0.0
 10
148.5458182426989
 20
115.9011811335286
 30
0.0
 10
148.5254279057244
 20
115.0929599770186
 30
0.0
 10
148.5163400803553
 20
114.7327416667897
 30
0.0
  0
SPLINE
  5
E2
330
1F
100
AcDbEntity
  8
0
  6
Continuous
 62
     7
370
    25
100
AcDbSpline
210
0.0
220
0.0
230
1.0
 70
     8
 71
     3
 72
     9
 73
     5
 74
     0
 42
0.00000001
 43
0.00000001
 40
0.0
 40
0.0
 40
0.0
 40
0.0
 40
0.5543072193860071
 40
1.0
 40
1.0
 40
1.0
 40
1.0
 10
149.672227810775
 20
117.1422324234803
 30
0.0
 10
149.6262636262335
 20
116.6980934275568
 30
0.0
 10
149.5433417682206
 20
115.8968428206905
 30
0.0
 10
149.5246639027452
 20
115.0916225349488
 30
0.0
 10
149.5163393129455
 20
114.7327416667897
 30
0.0
  0
SPLINE
  5
E3
330
1F
100
AcDbEntity
  8
0
  6
Continuous
 62
     7
370
    25
100
AcDbSpline
210
0.0
220
0.0
230
1.0
 70
     8
 71
     3
 72
     9
 73
     5
 74
     0
 42
0.00000001
 43
0.00000001
 40
0.0
 40
0.0
 40
0.0
 40
0.0
 40
0.4431346950522602
 40
0.9999999999999999
 40
0.9999999999999999
 40
0.9999999999999999
 40
0.9999999999999999
 10
137.0269105692255
 20
116.2824237810631
 30
0.0
 10
137.0001271251871
 20
116.06005429701
 30
0.0
 10
136.9396862607335
 20
115.5582441554527
 30
0.0
 10
136.9273735167349
 20
115.0528698326004
 30
0.0
 10
136.9205169767933
 20
114.7714444061924
 30
0.0
  0
SPLINE
  5
E4
330
1F
100
AcDbEntity
  8
0
  6
Continuous
 62
     7
370
    25
100
AcDbSpline
210
0.0
220
0.0
230
1.0
 70
     8
 71
     3
 72
    12
 73
     8
 74
     0
 42
0.00000001
 43
0.00000001
 40
0.0
 40
0.0
 40
0.0
 40
0.0
 40
0.1273630996657994
 40
0.3642101209987151
 40
0.6394986525565249
 40
0.9239830617857654
 40
1.0
 40
1.0
 40
1.0
 40
1.0
 10
138.0269107331382
 20
116.2824237810631
 30
0.0
 10
138.0011029224526
 20
116.0600117241105
 30
0.0
 10
137.9273023799312
 20
115.4239976636266
 30
0.0
 10
137.8913892755964
 20
114.2990363631965
 30
0.0
 10
137.9189307945577
 20
112.8992138803198
 30
0.0
 10
137.956300597629
 20
111.7823347200009
 30
0.0
 10
137.9765474437631
 20
111.1490414839531
 30
0.0
 10
137.9808167849528
 20
111.0155024191547
 30
0.0
  0
LINE
  5
E5
330
1F
100
AcDbEntity
  8
0
  6
Continuous
 62
     7
370
    25
100
AcDbLine
 10
138.1908710037
 20
107.0971012207
 30
0.0
 11
138.1936565895
 21
107.0826685148
 31
0.0
  0
SPLINE
  5
E6
330
1F
100
AcDbEntity
  8
0
  6
Continuous
 62
     7
370
    25
100
AcDbSpline
210
0.0
220
0.0
230
1.0
 70
     8
 71
     3
 72
    16
 73
    12
 74
     0
 42
0.00000001
 43
0.00000001
 40
0.0
 40
0.0
 40
0.0
 40
0.0
 40
0.0728813669300641
 40
0.2084130574095483
 40
0.3659422482277677
 40
0.5287336233366619
 40
0.7073259631557397
 40
0.805297254675594
 40
0.8998102349697814
 40
0.9714311153113971
 40
1.0
 40
1.0
 40
1.0
 40
1.0
 10
139.0269104313897
 20
116.2824237810631
 30
0.0
 10
139.0011033706455
 20
116.0600118071577
 30
0.0
 10
138.9273049684061
 20
115.4239979473929
 30
0.0
 10
138.891370014983
 20
114.2990334117589
 30
0.0
 10
138.9190126474608
 20
112.8992269609605
 30
0.0
 10
138.9698506368026
 20
111.3675648791544
 30
0.0
 10
139.013071706912
 20
110.0190026675189
 30
0.0
 10
139.0486810581773
 20
108.879347294143
 30
0.0
 10
139.0962668417473
 20
108.0705721763383
 30
0.0
 10
139.1119286309542
 20
107.4700567996458
 30
0.0
 10
139.1755229712772
 20
107.1686219731429
 30
0.0
 10
139.1936567534553
 20
107.0826685147543
 30
0.0
  0
SPLINE
  5
E7
330
1F
100
AcDbEntity
  8
0
  6
Continuous
 62
     7
370
    25
100
AcDbSpline
210
0.0
220
0.0
230
1.0
 70
     8
 71
     3
 72
    16
 73
    12
 74
     0
 42
0.00000001
 43
0.00000001
 40
0.0
 40
0.0
 40
0.0
 40
0.0
 40
0.0728813725532905
 40
0.2084130614427425
 40
0.3659422522425846
 40
0.5287336295469655
 40
0.7073259684514723
 40
0.8052972621770619
 40
0.89981024041812
 40
0.9714311247751812
 40
1.0
 40
1.0
 40
1.0
 40
1.0
 10
140.0269105953025
 20
116.2824237810631
 30
0.0
 10
140.0011033241543
 20
116.0600118110065
 30
0.0
 10
139.9273043245054
 20
115.4239979990123
 30
0.0
 10
139.8913706886266
 20
114.2990333918436
 30
0.0
 10
139.9190118320869
 20
112.8992269493578
 30
0.0
 10
139.969851389917
 20
111.3675649064424
 30
0.0
 10
140.0130707861524
 20
110.019002629022
 30
0.0
 10
140.0486817045217
 20
108.8793473370274
 30
0.0
 10
140.0962659686266
 20
108.070572100855
 30
0.0
 10
140.1119291855731
 20
107.4700569083979
 30
0.0
 10
140.1755228634458
 20
107.1686219787543
 30
0.0
 10
140.1936564517068
 20
107.0826685147543
 30
0.0
  0
SPLINE
  5
E8
330
1F
100
AcDbEntity
  8
0
  6
Continuous
 62
     7
370
    25
100
AcDbSpline
210
0.0
220
0.0
230
1.0
 70
     8
 71
     3
 72
    16
 73
    12
 74
     0
 42
0.00000001
 43
0.00000001
 40
0.0
 40
0.0
 40
0.0
 40
0.0
 40
0.072881367131669
 40
0.2084130558605838
 40
0.3659422464738328
 40
0.5287336220330416
 40
0.7073259623461429
 40
0.8052972541370059
 40
0.8998102346926359
 40
0.9714311152323698
 40
1.0
 40
1.0
 40
1.0
 40
1.0
 10
141.026910293554
 20
116.2824237810631
 30
0.0
 10
141.0011032086963
 20
116.0600118079383
 30
0.0
 10
140.9273047382542
 20
115.4239979568924
 30
0.0
 10
140.8913707017603
 20
114.299033400138
 30
0.0
 10
140.9190122666423
 20
112.8992269593351
 30
0.0
 10
140.9698505734974
 20
111.3675648790497
 30
0.0
 10
141.0130715583774
 20
110.019002667534
 30
0.0
 10
141.0486809224048
 20
108.8793472941401
 30
0.0
 10
141.0962667035002
 20
108.0705721763388
 30
0.0
 10
141.1119284931492
 20
107.4700567996457
 30
0.0
 10
141.1755228334483
 20
107.1686219731429
 30
0.0
 10
141.1936566156196
 20
107.0826685147543
 30
0.0
  0
SPLINE
  5
E9
330
1F
100
AcDbEntity
  8
0
  6
Continuous
 62
     7
370
    25
100
AcDbSpline
210
0.0
220
0.0
230
1.0
 70
     8
 71
     3
 72
    16
 73
    12
 74
     0
 42
0.00000001
 43
0.00000001
 40
0.0
 40
0.0
 40
0.0
 40
0.0
 40
0.072881372678499
 40
0.2084130618007911
 40
0.3659422535119933
 40
0.5287336295437001
 40
0.707325970375161
 40
0.8052972642690628
 40
0.8998102402459963
 40
0.9714311247261005
 40
1.0
 40
1.0
 40
1.0
 40
1.0
 10
142.0269104574668
 20
116.2824237810631
 30
0.0
 10
142.0011031919336
 20
116.0600118111011
 30
0.0
 10
141.9273042083415
 20
115.4239979993773
 30
0.0
 10
141.8913703587263
 20
114.2990333866396
 30
0.0
 10
141.9190125390888
 20
112.8992269644216
 30
0.0
 10
141.9698508660029
 20
111.3675648861022
 30
0.0
 10
142.0130711444526
 20
110.0190026332573
 30
0.0
 10
142.0486821884157
 20
108.8793473524197
 30
0.0
 10
142.0962657072212
 20
108.0705720873449
 30
0.0
 10
142.1119290569756
 20
107.4700569088477
 30
0.0
 10
142.1755227276598
 20
107.1686219788541
 30
0.0
 10
142.1936563138711
 20
107.0826685147543
 30
0.0
  0
SPLINE
  5
EA
330
1F
100
AcDbEntity
  8
0
  6
Continuous
 62
     7
370
    25
100
AcDbSpline
210
0.0
220
0.0
230
1.0
 70
     8
 71
     3
 72
    16
 73
    12
 74
     0
 42
0.00000001
 43
0.00000001
 40
0.0
 40
0.0
 40
0.0
 40
0.0
 40
0.0728813725898982
 40
0.2084130615474265
 40
0.3659422530671229
 40
0.5287336289009266
 40
0.7073259695152755
 40
0.805297259652742
 40
0.8998102403677956
 40
0.9714311247608313
 40
1.0
 40
1.0
 40
1.0
 40
1.0
 10
143.0269106213795
 20
116.2824237810631
 30
0.0
 10
143.0011033562674
 20
116.0600118111174
 30
0.0
 10
142.9273043738792
 20
115.4239979994403
 30
0.0
 10
142.8913705082428
 20
114.2990333860819
 30
0.0
 10
142.9190127663444
 20
112.8992269668754
 30
0.0
 10
142.9698507761907
 20
111.3675648762733
 30
0.0
 10
143.0130721542455
 20
110.0190026772038
 30
0.0
 10
143.0486807550507
 20
108.879347297992
 30
0.0
 10
143.0962661889523
 20
108.0705721168584
 30
0.0
 10
143.1119291971362
 20
107.4700569077619
 30
0.0
 10
143.1755228863024
 20
107.1686219786132
 30
0.0
 10
143.1936564777838
 20
107.0826685147543
 30
0.0
  0
SPLINE
  5
EB
330
1F
100
AcDbEntity
  8
0
  6
Continuous
 62
     7
370
    25
100
AcDbSpline
210
0.0
220
0.0
230
1.0
 70
     8
 71
     3
 72
    16
 73
    12
 74
     0
 42
0.00000001
 43
0.00000001
 40
0.0
 40
0.0
 40
0.0
 40
0.0
 40
0.0728813724280768
 40
0.2084130610846787
 40
0.3659422509731655
 40
0.5287336295502242
 40
0.7073259665277781
 40
0.8052972600850482
 40
0.8998102405902507
 40
0.9714311248242639
 40
1.0
 40
1.0
 40
1.0
 40
1.0
 10
144.0269107852923
 20
116.2824237810631
 30
0.0
 10
144.0011035085291
 20
116.060011810912
 30
0.0
 10
143.9273044928234
 20
115.4239979986472
 30
0.0
 10
143.8913710706809
 20
114.2990333970476
 30
0.0
 10
143.919011177239
 20
112.8992269342939
 30
0.0
 10
143.9698519659851
 20
111.3675649267826
 30
0.0
 10
144.0130704800063
 20
110.0190026247868
 30
0.0
 10
144.0486812727818
 20
108.8793473216348
 30
0.0
 10
144.096266282186
 20
108.0705721143652
 30
0.0
 10
144.1119293663247
 20
107.470056907948
 30
0.0
 10
144.1755230513858
 20
107.1686219786545
 30
0.0
 10
144.1936566416966
 20
107.0826685147543
 30
0.0
  0
SPLINE
  5
EC
330
1F
100
AcDbEntity
  8
0
  6
Continuous
 62
     7
370
    25
100
AcDbSpline
210
0.0
220
0.0
230
1.0
 70
     8
 71
     3
 72
    16
 73
    12
 74
     0
 42
0.00000001
 43
0.00000001
 40
0.0
 40
0.0
 40
0.0
 40
0.0
 40
0.0728813724181975
 40
0.2084130610564279
 40
0.3659422509235611
 40
0.528733626373846
 40
0.7073259665674507
 40
0.8052972601114406
 40
0.8998102406038319
 40
0.9714311248281365
 40
1.0
 40
1.0
 40
1.0
 40
1.0
 10
145.0269109492051
 20
116.2824237810631
 30
0.0
 10
145.0011036751794
 20
116.0600118109968
 30
0.0
 10
144.9273046673019
 20
115.4239979989748
 30
0.0
 10
144.8913711409863
 20
114.2990333941453
 30
0.0
 10
144.9190117528315
 20
112.8992269565973
 30
0.0
 10
144.9698504797536
 20
111.3675648847469
 30
0.0
 10
145.0130708804378
 20
110.0190026422595
 30
0.0
 10
145.0486813910212
 20
108.8793473201843
 30
0.0
 10
145.0962664552057
 20
108.0705721146544
 30
0.0
 10
145.1119295295577
 20
107.4700569079265
 30
0.0
 10
145.1755232151477
 20
107.1686219786497
 30
0.0
 10
145.1936568056094
 20
107.0826685147543
 30
0.0
  0
SPLINE
  5
ED
330
1F
100
AcDbEntity
  8
0
  6
Continuous
 62
     7
370
    25
100
AcDbSpline
210
0.0
220
0.0
230
1.0
 70
     8
 71
     3
 72
    16
 73
    12
 74
     0
 42
0.00000001
 43
0.00000001
 40
0.0
 40
0.0
 40
0.0
 40
0.0
 40
0.07288136127025
 40
0.2084130532716817
 40
0.3659422433883924
 40
0.5287336177723444
 40
0.7073259567961152
 40
0.8052972496983634
 40
0.8998102295716659
 40
0.9714311058618827
 40
1.0
 40
1.0
 40
1.0
 40
1.0
 10
146.0269101817953
 20
116.2824237810631
 30
0.0
 10
146.0011033254189
 20
116.0600118031979
 30
0.0
 10
145.9273055033284
 20
115.4239978953458
 30
0.0
 10
145.8913694621185
 20
114.299033437436
 30
0.0
 10
145.9190124689727
 20
112.8992269550456
 30
0.0
 10
145.96985043781
 20
111.3675648820356
 30
0.0
 10
146.0130711999738
 20
110.0190026578338
 30
0.0
 10
146.0486813016992
 20
108.8793472902942
 30
0.0
 10
146.0962674349376
 20
108.0705722358181
 30
0.0
 10
146.1119280051679
 20
107.470056691529
 30
0.0
 10
146.1755229966473
 20
107.1686219676726
 30
0.0
 10
146.1936569695222
 20
107.0826685147543
 30
0.0
  0
SPLINE
  5
EE
330
1F
100
AcDbEntity
  8
0
  6
Continuous
 62
     7
370
    25
100
AcDbSpline
210
0.0
220
0.0
230
1.0
 70
     8
 71
     3
 72
    16
 73
    12
 74
     0
 42
0.00000001
 43
0.00000001
 40
0.0
 40
0.0
 40
0.0
 40
0.0
 40
0.072881372678499
 40
0.2084130618007911
 40
0.3659422535119933
 40
0.5287336295437001
 40
0.707325970375161
 40
0.8052972642690628
 40
0.8998102402459963
 40
0.9714311247261005
 40
1.0
 40
1.0
 40
1.0
 40
1.0
 10
147.026910345708
 20
116.2824237810631
 30
0.0
 10
147.0011030801749
 20
116.0600118111011
 30
0.0
 10
146.9273040965828
 20
115.4239979993773
 30
0.0
 10
146.8913702469676
 20
114.2990333866396
 30
0.0
 10
146.91901242733
 20
112.8992269644216
 30
0.0
 10
146.9698507542442
 20
111.3675648861022
 30
0.0
 10
147.0130710326939
 20
110.0190026332573
 30
0.0
 10
147.048682076657
 20
108.8793473524197
 30
0.0
 10
147.0962655954625
 20
108.0705720873449
 30
0.0
 10
147.1119289452169
 20
107.4700569088477
 30
0.0
 10
147.1755226159011
 20
107.1686219788541
 30
0.0
 10
147.1936562021124
 20
107.0826685147543
 30
0.0
  0
SPLINE
  5
EF
330
1F
100
AcDbEntity
  8
0
  6
Continuous
 62
     7
370
    25
100
AcDbSpline
210
0.0
220
0.0
230
1.0
 70
     8
 71
     3
 72
    16
 73
    12
 74
     0
 42
0.00000001
 43
0.00000001
 40
0.0
 40
0.0
 40
0.0
 40
0.0
 40
0.072881372678499
 40
0.2084130618007911
 40
0.3659422535119933
 40
0.5287336295437001
 40
0.707325970375161
 40
0.8052972642690628
 40
0.8998102402459963
 40
0.9714311247261005
 40
1.0
 40
1.0
 40
1.0
 40
1.0
 10
148.0269105096208
 20
116.2824237810631
 30
0.0
 10
148.0011032440877
 20
116.0600118111011
 30
0.0
 10
147.9273042604955
 20
115.4239979993773
 30
0.0
 10
147.8913704108804
 20
114.2990333866396
 30
0.0
 10
147.9190125912428
 20
112.8992269644216
 30
0.0
 10
147.969850918157
 20
111.3675648861022
 30
0.0
 10
148.0130711966067
 20
110.0190026332573
 30
0.0
 10
148.0486822405698
 20
108.8793473524197
 30
0.0
 10
148.0962657593752
 20
108.0705720873449
 30
0.0
 10
148.1119291091297
 20
107.4700569088477
 30
0.0
 10
148.1755227798139
 20
107.1686219788541
 30
0.0
 10
148.1936563660251
 20
107.0826685147543
 30
0.0
  0
SPLINE
  5
F0
330
1F
100
AcDbEntity
  8
0
  6
Continuous
 62
     7
370
    25
100
AcDbSpline
210
0.0
220
0.0
230
1.0
 70
     8
 71
     3
 72
    16
 73
    12
 74
     0
 42
0.00000001
 43
0.00000001
 40
0.0
 40
0.0
 40
0.0
 40
0.0
 40
0.0728813725898982
 40
0.2084130615474265
 40
0.3659422530671229
 40
0.5287336289009266
 40
0.7073259695152755
 40
0.805297259652742
 40
0.8998102403677956
 40
0.9714311247608313
 40
1.0
 40
1.0
 40
1.0
 40
1.0
 10
149.0269106735336
 20
116.2824237810631
 30
0.0
 10
149.0011034084215
 20
116.0600118111174
 30
0.0
 10
148.9273044260333
 20
115.4239979994403
 30
0.0
 10
148.8913705603969
 20
114.2990333860819
 30
0.0
 10
148.9190128184985
 20
112.8992269668754
 30
0.0
 10
148.9698508283447
 20
111.3675648762733
 30
0.0
 10
149.0130722063996
 20
110.0190026772038
 30
0.0
 10
149.0486808072048
 20
108.879347297992
 30
0.0
 10
149.0962662411063
 20
108.0705721168584
 30
0.0
 10
149.1119292492902
 20
107.4700569077619
 30
0.0
 10
149.1755229384565
 20
107.1686219786132
 30
0.0
 10
149.1936565299379
 20
107.0826685147543
 30
0.0
  0
LINE
  5
F1
330
1F
100
AcDbEntity
  8
0
  6
Continuous
 62
     7
370
    25
100
AcDbLine
 10
163.0350937058
 20
114.7327416668
 30
0.0
 11
149.3605262522
 21
114.7327416668
 31
0.0
  0
LINE
  5
F2
330
1F
100
AcDbEntity
  8
0
  6
Continuous
 62
     7
370
    25
100
AcDbLine
 10
148.9188874994
 20
114.7327416668
 30
0.0
 11
148.3605260883
 21
114.7327416668
 31
0.0
  0
LINE
  5
F3
330
1F
100
AcDbEntity
  8
0
  6
Continuous
 62
     7
370
    25
100
AcDbLine
 10
147.9188873355
 20
114.7327416668
 30
0.0
 11
147.3605259244
 21
114.7327416668
 31
0.0
  0
LINE
  5
F4
330
1F
100
AcDbEntity
  8
0
  6
Continuous
 62
     7
370
    25
100
AcDbLine
 10
146.9188881029
 20
114.7327416668
 30
0.0
 11
146.3605257605
 21
114.7327416668
 31
0.0
  0
LINE
  5
F5
330
1F
100
AcDbEntity
  8
0
  6
Continuous
 62
     7
370
    25
100
AcDbLine
 10
145.918887939
 20
114.7327416668
 30
0.0
 11
145.3605255966
 21
114.7327416668
 31
0.0
  0
LINE
  5
F6
330
1F
100
AcDbEntity
  8
0
  6
Continuous
 62
     7
370
    25
100
AcDbLine
 10
144.9188877751
 20
114.7327416668
 30
0.0
 11
144.360526364
 21
114.7327416668
 31
0.0
  0
LINE
  5
F7
330
1F
100
AcDbEntity
  8
0
  6
Continuous
 62
     7
370
    25
100
AcDbLine
 10
143.9188876112
 20
114.7327416668
 30
0.0
 11
143.3605262001
 21
114.7327416668
 31
0.0
  0
LINE
  5
F8
330
1F
100
AcDbEntity
  8
0
  6
Continuous
 62
     7
370
    25
100
AcDbLine
 10
142.9188874473
 20
114.7327416668
 30
0.0
 11
142.3605260362
 21
114.7327416668
 31
0.0
  0
LINE
  5
F9
330
1F
100
AcDbEntity
  8
0
  6
Continuous
 62
     7
370
    25
100
AcDbLine
 10
141.9188882147
 20
114.7327416668
 30
0.0
 11
141.3605258723
 21
114.7327416668
 31
0.0
  0
LINE
  5
FA
330
1F
100
AcDbEntity
  8
0
  6
Continuous
 62
     7
370
    25
100
AcDbLine
 10
140.9188875851
 20
114.7327416668
 30
0.0
 11
140.3605257084
 21
114.7327416668
 31
0.0
  0
LINE
  5
FB
330
1F
100
AcDbEntity
  8
0
  6
Continuous
 62
     7
370
    25
100
AcDbLine
 10
139.9188878869
 20
114.7327416668
 30
0.0
 11
139.3605260101
 21
114.7327416668
 31
0.0
  0
LINE
  5
FC
330
1F
100
AcDbEntity
  8
0
  6
Continuous
 62
     7
370
    25
100
AcDbLine
 10
138.9188877229
 20
114.7327416668
 30
0.0
 11
138.3605258462
 21
114.7327416668
 31
0.0
  0
LINE
  5
FD
330
1F
100
AcDbEntity
  8
0
  6
Continuous
 62
     7
370
    25
100
AcDbLine
 10
137.918887559
 20
114.7327416668
 30
0.0
 11
137.3605259151
 21
114.7327416668
 31
0.0
  0
LINE
  5
FE
330
1F
100
AcDbEntity
  8
0
  6
Continuous
 62
     7
370
    25
100
AcDbLine
 10
138.5154816245
 20
109.9327414388
 30
0.0
 11
139.0155473647
 21
109.9327414388
 31
0.0
  0
LINE
  5
FF
330
1F
100
AcDbEntity
  8
0
  6
Continuous
 62
     7
370
    25
100
AcDbLine
 10
139.5154817884
 20
109.9327414388
 30
0.0
 11
140.0155470629
 21
109.9327414388
 31
0.0
  0
LINE
  5
100
330
1F
100
AcDbEntity
  8
0
  6
Continuous
 62
     7
370
    25
100
AcDbLine
 10
140.5154819523
 20
109.9327414388
 30
0.0
 11
141.0155472268
 21
109.9327414388
 31
0.0
  0
LINE
  5
101
330
1F
100
AcDbEntity
  8
0
  6
Continuous
 62
     7
370
    25
100
AcDbLine
 10
141.5154816505
 20
109.9327414388
 30
0.0
 11
142.0155473907
 21
109.9327414388
 31
0.0
  0
LINE
  5
102
330
1F
100
AcDbEntity
  8
0
  6
Continuous
 62
     7
370
    25
100
AcDbLine
 10
142.5154813488
 20
109.9327414388
 30
0.0
 11
143.0155475546
 21
109.9327414388
 31
0.0
  0
LINE
  5
103
330
1F
100
AcDbEntity
  8
0
  6
Continuous
 62
     7
370
    25
100
AcDbLine
 10
143.5154815127
 20
109.9327414388
 30
0.0
 11
144.0155467872
 21
109.9327414388
 31
0.0
  0
LINE
  5
104
330
1F
100
AcDbEntity
  8
0
  6
Continuous
 62
     7
370
    25
100
AcDbLine
 10
144.5154816766
 20
109.9327414388
 30
0.0
 11
145.0155469511
 21
109.9327414388
 31
0.0
  0
LINE
  5
105
330
1F
100
AcDbEntity
  8
0
  6
Continuous
 62
     7
370
    25
100
AcDbLine
 10
145.5154818405
 20
109.9327414388
 30
0.0
 11
146.0155471151
 21
109.9327414388
 31
0.0
  0
LINE
  5
106
330
1F
100
AcDbEntity
  8
0
  6
Continuous
 62
     7
370
    25
100
AcDbLine
 10
146.5154820044
 20
109.9327414388
 30
0.0
 11
147.015547279
 21
109.9327414388
 31
0.0
  0
LINE
  5
107
330
1F
100
AcDbEntity
  8
0
  6
Continuous
 62
     7
370
    25
100
AcDbLine
 10
147.5154821684
 20
109.9327414388
 30
0.0
 11
148.0155474429
 21
109.9327414388
 31
0.0
  0
LINE
  5
108
330
1F
100
AcDbEntity
  8
0
  6
Continuous
 62
     7
370
    25
100
AcDbLine
 10
148.5154814009
 20
109.9327414388
 30
0.0
 11
149.0155476068
 21
109.9327414388
 31
0.0
  0
LINE
  5
109
330
1F
100
AcDbEntity
  8
0
  6
Continuous
 62
     7
370
    25
100
AcDbLine
 10
149.5154824962
 20
109.9327414388
 30
0.0
 11
164.1293604781
 21
109.9327414388
 31
0.0
  0
CIRCLE
  5
10A
330
1F
100
AcDbEntity
  8
0
  6
Continuous
 62
     7
370
    25
100
AcDbCircle
 10
149.9385895995
 20
117.5327420326
 30
0.0
 40
0.249999693982077
  0
SPLINE
  5
10B
330
1F
100
AcDbEntity
  8
0
  6
Continuous
 62
     7
370
    25
100
AcDbSpline
210
0.0
220
0.0
230
1.0
 70
     8
 71
     3
 72
    20
 73
    16
 74
     0
 42
0.00000001
 43
0.00000001
 40
0.0
 40
0.0
 40
0.0
 40
0.0
 40
0.0216457422056519
 40
0.0808474986322908
 40
0.1602388317188824
 40
0.2430747793565761
 40
0.3949812290308436
 40
0.534839961366651
 40
0.6732699534831457
 40
0.7991480565704567
 40
0.8676468416256645
 40
0.930910447603599
 40
0.9719952908226
 40
0.9839238508473885
 40
1.0
 40
1.0
 40
1.0
 40
1.0
 10
121.6507214027767
 20
107.1852918805737
 30
0.0
 10
121.6343674652786
 20
107.2616958604254
 30
0.0
 10
121.5732850165019
 20
107.5470670247807
 30
0.0
 10
121.5613961715825
 20
108.127632020832
 30
0.0
 10
121.5141737841098
 20
108.9235234681286
 30
0.0
 10
121.4799221085749
 20
110.0561091886602
 30
0.0
 10
121.4356861543147
 20
111.406180418903
 30
0.0
 10
121.3866478140592
 20
112.9552929094481
 30
0.0
 10
121.3384864878224
 20
114.4163402570751
 30
0.0
 10
121.3041710651274
 20
115.6025572614103
 30
0.0
 10
121.2479423659395
 20
116.5578021625095
 30
0.0
 10
121.0504981285159
 20
117.0952373323946
 30
0.0
 10
120.9670046997095
 20
117.6202931949164
 30
0.0
 10
120.6437040394077
 20
117.6099664050755
 30
0.0
 10
120.6703746457336
 20
117.4861637105197
 30
0.0
 10
120.6856849509601
 20
117.4150945710201
 30
0.0
  0
SPLINE
  5
10C
330
1F
100
AcDbEntity
  8
0
  6
Continuous
 62
     7
370
    25
100
AcDbSpline
210
0.0
220
0.0
230
1.0
 70
     8
 71
     3
 72
    20
 73
    16
 74
     0
 42
0.00000001
 43
0.00000001
 40
0.0
 40
0.0
 40
0.0
 40
0.0
 40
0.021645858835993
 40
0.0808475215250853
 40
0.1602387955849328
 40
0.2430746816348425
 40
0.3949810183680272
 40
0.5348396467201216
 40
0.6732695359151587
 40
0.7991475454132293
 40
0.8676462795402048
 40
0.9309098384822156
 40
0.9719946511550044
 40
0.9839238867189034
 40
1.0
 40
1.0
 40
1.0
 40
1.0
 10
122.6507234293346
 20
107.1852918805737
 30
0.0
 10
122.6343664816045
 20
107.2616957780119
 30
0.0
 10
122.5732731014013
 20
107.5470651777449
 30
0.0
 10
122.561405171047
 20
108.1276330642989
 30
0.0
 10
122.5141736563223
 20
108.9235232010622
 30
0.0
 10
122.479925286273
 20
110.0561093328612
 30
0.0
 10
122.4356878357612
 20
111.4061803644268
 30
0.0
 10
122.3866499161275
 20
112.9552929578804
 30
0.0
 10
122.3384885428367
 20
114.4163401217327
 30
0.0
 10
122.3041729574798
 20
115.6025576222032
 30
0.0
 10
122.2479446451627
 20
116.5578014967429
 30
0.0
 10
122.050499402724
 20
117.0952393107179
 30
0.0
 10
121.9670074781689
 20
117.6202930163863
 30
0.0
 10
121.6436975957459
 20
117.6099687974563
 30
0.0
 10
121.6703738271502
 20
117.4861634509677
 30
0.0
 10
121.6856869775181
 20
117.4150945710201
 30
0.0
  0
SPLINE
  5
10D
330
1F
100
AcDbEntity
  8
0
  6
Continuous
 62
     7
370
    25
100
AcDbSpline
210
0.0
220
0.0
230
1.0
 70
     8
 71
     3
 72
    20
 73
    16
 74
     0
 42
0.00000001
 43
0.00000001
 40
0.0
 40
0.0
 40
0.0
 40
0.0
 40
0.0216457279196918
 40
0.0808474452737997
 40
0.1602387259629538
 40
0.2430745945112444
 40
0.394980943928867
 40
0.5348395839593952
 40
0.6732694847135641
 40
0.7991475047226628
 40
0.8676462445693994
 40
0.9309098087940252
 40
0.9719946248974657
 40
0.9839238614574763
 40
1.0
 40
1.0
 40
1.0
 40
1.0
 10
123.6507180053119
 20
107.1852918805737
 30
0.0
 10
123.6343640610959
 20
107.2616958601862
 30
0.0
 10
123.5732815872274
 20
107.5470670236478
 30
0.0
 10
123.5613932498241
 20
108.1276320377741
 30
0.0
 10
123.5141679634906
 20
108.9235232938748
 30
0.0
 10
123.4799314343844
 20
110.0561094653577
 30
0.0
 10
123.435688606989
 20
111.4061803511382
 30
0.0
 10
123.3866522784785
 20
112.9552929606257
 30
0.0
 10
123.3384904388053
 20
114.4163401234495
 30
0.0
 10
123.3041751353431
 20
115.6025576153389
 30
0.0
 10
123.2479464094436
 20
116.5578015096062
 30
0.0
 10
123.0505022033884
 20
117.0952392724336
 30
0.0
 10
122.9670082260801
 20
117.6202930796538
 30
0.0
 10
122.6437009034644
 20
117.6099687249509
 30
0.0
 10
122.6703715813507
 20
117.4861634531409
 30
0.0
 10
122.6856815534954
 20
117.4150945710201
 30
0.0
  0
SPLINE
  5
10E
330
1F
100
AcDbEntity
  8
0
  6
Continuous
 62
     7
370
    25
100
AcDbSpline
210
0.0
220
0.0
230
1.0
 70
     8
 71
     3
 72
    20
 73
    16
 74
     0
 42
0.00000001
 43
0.00000001
 40
0.0
 40
0.0
 40
0.0
 40
0.0
 40
0.0216457325109937
 40
0.0808474624224505
 40
0.1602387599513866
 40
0.2430746704886568
 40
0.3949810521273216
 40
0.5348396997587916
 40
0.6732696298754964
 40
0.7991477015183395
 40
0.8676463862003552
 40
0.9309101374328733
 40
0.9719946189572113
 40
0.9839238580475469
 40
1.0
 40
1.0
 40
1.0
 40
1.0
 10
124.6507200318699
 20
107.1852918805737
 30
0.0
 10
124.6343660941813
 20
107.2616958604211
 30
0.0
 10
124.5732836446931
 20
107.5470670247603
 30
0.0
 10
124.5613948141649
 20
108.1276320211369
 30
0.0
 10
124.5141723443437
 20
108.9235234665722
 30
0.0
 10
124.4799210983693
 20
110.0561091968133
 30
0.0
 10
124.435682246919
 20
111.4061802819889
 30
0.0
 10
124.386654897186
 20
112.9552929415513
 30
0.0
 10
124.3384978990312
 20
114.4163408018515
 30
0.0
 10
124.3041609415442
 20
115.6025559001139
 30
0.0
 10
124.2479549890054
 20
116.5578040917766
 30
0.0
 10
124.0504915886236
 20
117.0952348488353
 30
0.0
 10
123.9670093851399
 20
117.6202934883978
 30
0.0
 10
123.6437027986246
 20
117.6099686431467
 30
0.0
 10
123.670373559989
 20
117.4861634233077
 30
0.0
 10
123.6856835800533
 20
117.4150945710201
 30
0.0
  0
SPLINE
  5
10F
330
1F
100
AcDbEntity
  8
0
  6
Continuous
 62
     7
370
    25
100
AcDbSpline
210
0.0
220
0.0
230
1.0
 70
     8
 71
     3
 72
    20
 73
    16
 74
     0
 42
0.00000001
 43
0.00000001
 40
0.0
 40
0.0
 40
0.0
 40
0.0
 40
0.0216458731328508
 40
0.0808475749240068
 40
0.1602389014209399
 40
0.2430748421830645
 40
0.3949812792487564
 40
0.5348399999759759
 40
0.6732699806024711
 40
0.7991480732416179
 40
0.8676468526112732
 40
0.9309104533381866
 40
0.9719952931470537
 40
0.9839238521817449
 40
1.0
 40
1.0
 40
1.0
 40
1.0
 10
125.6507220584278
 20
107.1852918805737
 30
0.0
 10
125.6343651106974
 20
107.2616957780127
 30
0.0
 10
125.573271730493
 20
107.5470651777488
 30
0.0
 10
125.5614038001629
 20
108.1276330642393
 30
0.0
 10
125.5141722852998
 20
108.9235232013664
 30
0.0
 10
125.4799239159722
 20
110.0561093312677
 30
0.0
 10
125.4356864605881
 20
111.4061803756436
 30
0.0
 10
125.386648559417
 20
112.9552929205554
 30
0.0
 10
125.3384871214886
 20
114.416340254353
 30
0.0
 10
125.3041717236624
 20
115.6025572617674
 30
0.0
 10
125.2479430210607
 20
116.5578021624439
 30
0.0
 10
125.0504987842557
 20
117.0952373324056
 30
0.0
 10
124.9670053553559
 20
117.6202931949158
 30
0.0
 10
124.6437046950596
 20
117.6099664050756
 30
0.0
 10
124.670375301385
 20
117.4861637105197
 30
0.0
 10
124.6856856066112
 20
117.4150945710201
 30
0.0
  0
SPLINE
  5
110
330
1F
100
AcDbEntity
  8
0
  6
Continuous
 62
     7
370
    25
100
AcDbSpline
210
0.0
220
0.0
230
1.0
 70
     8
 71
     3
 72
    20
 73
    16
 74
     0
 42
0.00000001
 43
0.00000001
 40
0.0
 40
0.0
 40
0.0
 40
0.0
 40
0.021645858835993
 40
0.0808475215250853
 40
0.1602387955849328
 40
0.2430746816348425
 40
0.3949810183680272
 40
0.5348396467201216
 40
0.6732695359151587
 40
0.7991475454132293
 40
0.8676462795402048
 40
0.9309098384822156
 40
0.9719946511550044
 40
0.9839238867189034
 40
1.0
 40
1.0
 40
1.0
 40
1.0
 10
126.6507240849857
 20
107.1852918805737
 30
0.0
 10
126.6343671372556
 20
107.2616957780119
 30
0.0
 10
126.5732737570524
 20
107.5470651777449
 30
0.0
 10
126.5614058266981
 20
108.1276330642989
 30
0.0
 10
126.5141743119734
 20
108.9235232010622
 30
0.0
 10
126.4799259419241
 20
110.0561093328612
 30
0.0
 10
126.4356884914123
 20
111.4061803644268
 30
0.0
 10
126.3866505717786
 20
112.9552929578804
 30
0.0
 10
126.3384891984878
 20
114.4163401217327
 30
0.0
 10
126.3041736131309
 20
115.6025576222032
 30
0.0
 10
126.2479453008138
 20
116.5578014967429
 30
0.0
 10
126.0505000583751
 20
117.0952393107179
 30
0.0
 10
125.96700813382
 20
117.6202930163863
 30
0.0
 10
125.643698251397
 20
117.6099687974563
 30
0.0
 10
125.6703744828013
 20
117.4861634509677
 30
0.0
 10
125.6856876331692
 20
117.4150945710201
 30
0.0
  0
SPLINE
  5
111
330
1F
100
AcDbEntity
  8
0
  6
Continuous
 62
     7
370
    25
100
AcDbSpline
210
0.0
220
0.0
230
1.0
 70
     8
 71
     3
 72
    20
 73
    16
 74
     0
 42
0.00000001
 43
0.00000001
 40
0.0
 40
0.0
 40
0.0
 40
0.0
 40
0.0216457315930728
 40
0.0808474589939884
 40
0.1602387531562133
 40
0.2430746357621373
 40
0.3949810109589763
 40
0.5348396747241683
 40
0.6732695989705372
 40
0.7991476403417234
 40
0.8676463918130156
 40
0.9309101403627362
 40
0.971994620144823
 40
0.9839238587292807
 40
1.0
 40
1.0
 40
1.0
 40
1.0
 10
127.650718660963
 20
107.1852918805737
 30
0.0
 10
127.6343647167521
 20
107.261695860188
 30
0.0
 10
127.573282242903
 20
107.5470670236566
 30
0.0
 10
127.5613939051091
 20
108.1276320376427
 30
0.0
 10
127.5141686210106
 20
108.9235232945453
 30
0.0
 10
127.4799320802453
 20
110.0561094618454
 30
0.0
 10
127.435689331557
 20
111.4061803758628
 30
0.0
 10
127.3866527048027
 20
112.9552928783525
 30
0.0
 10
127.3384919092837
 20
114.416340415777
 30
0.0
 10
127.3041735764539
 20
115.6025568208506
 30
0.0
 10
127.2479511173226
 20
116.5578036205845
 30
0.0
 10
127.0504906497056
 20
117.0952348914405
 30
0.0
 10
126.9670079912611
 20
117.6202934861321
 30
0.0
 10
126.6437014318026
 20
117.6099686435495
 30
0.0
 10
126.6703721905719
 20
117.4861634234546
 30
0.0
 10
126.6856822091465
 20
117.4150945710201
 30
0.0
  0
SPLINE
  5
112
330
1F
100
AcDbEntity
  8
0
  6
Continuous
 62
     7
370
    25
100
AcDbSpline
210
0.0
220
0.0
230
1.0
 70
     8
 71
     3
 72
    20
 73
    16
 74
     0
 42
0.00000001
 43
0.00000001
 40
0.0
 40
0.0
 40
0.0
 40
0.0
 40
0.0216457347598343
 40
0.0808474708219379
 40
0.160238776599076
 40
0.2430746957424195
 40
0.3949810931630977
 40
0.5348397773895539
 40
0.6732696998254087
 40
0.7991477845461052
 40
0.8676465460387363
 40
0.9309101302549186
 40
0.9719946160476476
 40
0.983923856377348
 40
1.0
 40
1.0
 40
1.0
 40
1.0
 10
128.650720687521
 20
107.1852918805737
 30
0.0
 10
128.6343667501082
 20
107.2616958604283
 30
0.0
 10
128.5732843016503
 20
107.5470670247942
 30
0.0
 10
128.5613954502835
 20
108.1276320206296
 30
0.0
 10
128.5141730997032
 20
108.9235234691618
 30
0.0
 10
128.4799212317239
 20
110.0561091832485
 30
0.0
 10
128.4356865765811
 20
111.4061804569976
 30
0.0
 10
128.3866433161195
 20
112.9552927032384
 30
0.0
 10
128.3384992241936
 20
114.4163406379611
 30
0.0
 10
128.304167965329
 20
115.602557071108
 30
0.0
 10
128.2479431829739
 20
116.5578022420502
 30
0.0
 10
128.0504941447149
 20
117.0952360599666
 30
0.0
 10
127.967009933103
 20
117.6202934656762
 30
0.0
 10
127.6437034734246
 20
117.609968647187
 30
0.0
 10
127.6703742226235
 20
117.4861634247811
 30
0.0
 10
127.6856842357044
 20
117.4150945710201
 30
0.0
  0
SPLINE
  5
113
330
1F
100
AcDbEntity
  8
0
  6
Continuous
 62
     7
370
    25
100
AcDbSpline
210
0.0
220
0.0
230
1.0
 70
     8
 71
     3
 72
    20
 73
    16
 74
     0
 42
0.00000001
 43
0.00000001
 40
0.0
 40
0.0
 40
0.0
 40
0.0
 40
0.0216458731328508
 40
0.0808475749240068
 40
0.1602389014209399
 40
0.2430748421830645
 40
0.3949812792487564
 40
0.5348399999759759
 40
0.6732699806024711
 40
0.7991480732416179
 40
0.8676468526112732
 40
0.9309104533381866
 40
0.9719952931470537
 40
0.9839238521817449
 40
1.0
 40
1.0
 40
1.0
 40
1.0
 10
129.6507227140789
 20
107.1852918805737
 30
0.0
 10
129.6343657663485
 20
107.2616957780127
 30
0.0
 10
129.5732723861441
 20
107.5470651777488
 30
0.0
 10
129.561404455814
 20
108.1276330642393
 30
0.0
 10
129.5141729409509
 20
108.9235232013664
 30
0.0
 10
129.4799245716233
 20
110.0561093312677
 30
0.0
 10
129.4356871162392
 20
111.4061803756436
 30
0.0
 10
129.3866492150681
 20
112.9552929205554
 30
0.0
 10
129.3384877771396
 20
114.416340254353
 30
0.0
 10
129.3041723793135
 20
115.6025572617674
 30
0.0
 10
129.2479436767118
 20
116.5578021624439
 30
0.0
 10
129.0504994399068
 20
117.0952373324056
 30
0.0
 10
128.9670060110069
 20
117.6202931949158
 30
0.0
 10
128.6437053507107
 20
117.6099664050756
 30
0.0
 10
128.6703759570361
 20
117.4861637105197
 30
0.0
 10
128.6856862622623
 20
117.4150945710201
 30
0.0
  0
SPLINE
  5
114
330
1F
100
AcDbEntity
  8
0
  6
Continuous
 62
     7
370
    25
100
AcDbSpline
210
0.0
220
0.0
230
1.0
 70
     8
 71
     3
 72
    20
 73
    16
 74
     0
 42
0.00000001
 43
0.00000001
 40
0.0
 40
0.0
 40
0.0
 40
0.0
 40
0.0216457280928019
 40
0.0808474459203713
 40
0.1602386948284669
 40
0.2430745884577883
 40
0.394980939090271
 40
0.5348395802393086
 40
0.6732694821005605
 40
0.7991475031163595
 40
0.8676462435109098
 40
0.9309098082414814
 40
0.9719946246734948
 40
0.9839238613289086
 40
1.0
 40
1.0
 40
1.0
 40
1.0
 10
130.6507172900562
 20
107.1852918805737
 30
0.0
 10
130.6343633811886
 20
107.2616958617714
 30
0.0
 10
130.5732810393476
 20
107.5470670311542
 30
0.0
 10
130.5613900339129
 20
108.1276318080712
 30
0.0
 10
130.5141800370432
 20
108.92352372221
 30
0.0
 10
130.4799238862013
 20
110.0561091167138
 30
0.0
 10
130.4356899653498
 20
111.406180430202
 30
0.0
 10
130.3866510307979
 20
112.9552929403252
 30
0.0
 10
130.3384898540338
 20
114.4163401284247
 30
0.0
 10
130.3041744029706
 20
115.6025576146863
 30
0.0
 10
130.2479456973332
 20
116.5578015097261
 30
0.0
 10
130.0505014876062
 20
117.0952392724135
 30
0.0
 10
129.9670075108524
 20
117.6202930796548
 30
0.0
 10
129.6437001882037
 20
117.6099687249507
 30
0.0
 10
129.6703708660931
 20
117.4861634531409
 30
0.0
 10
129.6856808382396
 20
117.4150945710201
 30
0.0
  0
SPLINE
  5
115
330
1F
100
AcDbEntity
  8
0
  6
Continuous
 62
     7
370
    25
100
AcDbSpline
210
0.0
220
0.0
230
1.0
 70
     8
 71
     3
 72
    20
 73
    16
 74
     0
 42
0.00000001
 43
0.00000001
 40
0.0
 40
0.0
 40
0.0
 40
0.0
 40
0.0216457315421206
 40
0.0808474588036803
 40
0.1602387527790248
 40
0.2430746596085209
 40
0.394981034447785
 40
0.5348396758191166
 40
0.6732695997396331
 40
0.7991476408145128
 40
0.8676463921245648
 40
0.9309101405253679
 40
0.9719946202107452
 40
0.9839238587671225
 40
0.9999999999999999
 40
0.9999999999999999
 40
0.9999999999999999
 40
0.9999999999999999
 10
131.6507193166141
 20
107.1852918805737
 30
0.0
 10
131.6343653788927
 20
107.2616958604191
 30
0.0
 10
131.5732829292817
 20
107.5470670247509
 30
0.0
 10
131.5613941012372
 20
108.1276320212778
 30
0.0
 10
131.5141716172037
 20
108.9235234658531
 30
0.0
 10
131.4799204453658
 20
110.0561092005801
 30
0.0
 10
131.4356810934491
 20
111.4061802554731
 30
0.0
 10
131.386655640124
 20
112.9552930297848
 30
0.0
 10
131.3384920055992
 20
114.4163403982125
 30
0.0
 10
131.3041743054781
 20
115.6025568231547
 30
0.0
 10
131.2479517594908
 20
116.5578036201611
 30
0.0
 10
131.0504913076138
 20
117.0952348915114
 30
0.0
 10
130.9670086467922
 20
117.6202934861284
 30
0.0
 10
130.643702087475
 20
117.6099686435502
 30
0.0
 10
130.6703728462307
 20
117.4861634234548
 30
0.0
 10
130.6856828647976
 20
117.4150945710201
 30
0.0
  0
SPLINE
  5
116
330
1F
100
AcDbEntity
  8
0
  6
Continuous
 62
     7
370
    25
100
AcDbSpline
210
0.0
220
0.0
230
1.0
 70
     8
 71
     3
 72
    20
 73
    16
 74
     0
 42
0.00000001
 43
0.00000001
 40
0.0
 40
0.0
 40
0.0
 40
0.0
 40
0.0216457422056519
 40
0.0808474986322908
 40
0.1602388317188824
 40
0.2430747793565761
 40
0.3949812290308436
 40
0.534839961366651
 40
0.6732699534831457
 40
0.7991480565704567
 40
0.8676468416256645
 40
0.930910447603599
 40
0.9719952908226
 40
0.9839238508473885
 40
1.0
 40
1.0
 40
1.0
 40
1.0
 10
132.6507213431721
 20
107.1852918805737
 30
0.0
 10
132.6343674056739
 20
107.2616958604254
 30
0.0
 10
132.5732849568973
 20
107.5470670247807
 30
0.0
 10
132.5613961119778
 20
108.127632020832
 30
0.0
 10
132.5141737245051
 20
108.9235234681286
 30
0.0
 10
132.4799220489703
 20
110.0561091886602
 30
0.0
 10
132.4356860947101
 20
111.406180418903
 30
0.0
 10
132.3866477544545
 20
112.9552929094481
 30
0.0
 10
132.3384864282177
 20
114.4163402570751
 30
0.0
 10
132.3041710055228
 20
115.6025572614103
 30
0.0
 10
132.2479423063349
 20
116.5578021625095
 30
0.0
 10
132.0504980689113
 20
117.0952373323946
 30
0.0
 10
131.9670046401048
 20
117.6202931949164
 30
0.0
 10
131.643703979803
 20
117.6099664050755
 30
0.0
 10
131.670374586129
 20
117.4861637105197
 30
0.0
 10
131.6856848913555
 20
117.4150945710201
 30
0.0
  0
SPLINE
  5
117
330
1F
100
AcDbEntity
  8
0
  6
Continuous
 62
     7
370
    25
100
AcDbSpline
210
0.0
220
0.0
230
1.0
 70
     8
 71
     3
 72
    20
 73
    16
 74
     0
 42
0.00000001
 43
0.00000001
 40
0.0
 40
0.0
 40
0.0
 40
0.0
 40
0.021645858835993
 40
0.0808475215250853
 40
0.1602387955849328
 40
0.2430746816348425
 40
0.3949810183680272
 40
0.5348396467201216
 40
0.6732695359151587
 40
0.7991475454132293
 40
0.8676462795402048
 40
0.9309098384822156
 40
0.9719946511550044
 40
0.9839238867189034
 40
1.0
 40
1.0
 40
1.0
 40
1.0
 10
133.65072336973
 20
107.1852918805737
 30
0.0
 10
133.6343664219999
 20
107.2616957780119
 30
0.0
 10
133.5732730417967
 20
107.5470651777449
 30
0.0
 10
133.5614051114424
 20
108.1276330642989
 30
0.0
 10
133.5141735967177
 20
108.9235232010622
 30
0.0
 10
133.4799252266683
 20
110.0561093328612
 30
0.0
 10
133.4356877761566
 20
111.4061803644268
 30
0.0
 10
133.3866498565229
 20
112.9552929578804
 30
0.0
 10
133.3384884832321
 20
114.4163401217327
 30
0.0
 10
133.3041728978752
 20
115.6025576222032
 30
0.0
 10
133.247944585558
 20
116.5578014967429
 30
0.0
 10
133.0504993431194
 20
117.0952393107179
 30
0.0
 10
132.9670074185642
 20
117.6202930163863
 30
0.0
 10
132.6436975361412
 20
117.6099687974563
 30
0.0
 10
132.6703737675455
 20
117.4861634509677
 30
0.0
 10
132.6856869179134
 20
117.4150945710201
 30
0.0
  0
SPLINE
  5
118
330
1F
100
AcDbEntity
  8
0
  6
Continuous
 62
     7
370
    25
100
AcDbSpline
210
0.0
220
0.0
230
1.0
 70
     8
 71
     3
 72
    13
 73
     9
 74
     0
 42
0.00000001
 43
0.00000001
 40
0.0
 40
0.0
 40
0.0
 40
0.0
 40
0.0431709596648814
 40
0.1612448337091365
 40
0.3195854443409806
 40
0.484796055560499
 40
0.7877631309981242
 40
1.0
 40
1.0
 40
1.0
 40
1.0
 10
134.6507179457073
 20
107.1852918805737
 30
0.0
 10
134.634364007323
 20
107.2616958374269
 30
0.0
 10
134.5732815552366
 20
107.5470669158822
 30
0.0
 10
134.5613927772624
 20
108.1276336493796
 30
0.0
 10
134.5141700119285
 20
108.9235150670329
 30
0.0
 10
134.4799203323562
 20
110.0561525594939
 30
0.0
 10
134.4397083112717
 20
111.2853748620845
 30
0.0
 10
134.4099694313754
 20
112.2163386169793
 30
0.0
 10
134.3977185803776
 20
112.5998466134254
 30
0.0
  0
SPLINE
  5
119
330
1F
100
AcDbEntity
  8
0
  6
Continuous
 62
     7
370
    25
100
AcDbSpline
210
0.0
220
0.0
230
1.0
 70
     8
 71
     3
 72
    10
 73
     6
 74
     0
 42
0.00000001
 43
0.00000001
 40
0.0
 40
0.0
 40
0.0
 40
0.0
 40
0.4374733256396631
 40
0.677088533262905
 40
1.0
 40
1.0
 40
1.0
 40
1.0
 10
133.9373621064548
 20
117.3991736116071
 30
0.0
 10
133.9166611882911
 20
117.4880980611305
 30
0.0
 10
133.8846218535587
 20
117.6257286812627
 30
0.0
 10
133.6415930963209
 20
117.6077634287941
 30
0.0
 10
133.6696028448417
 20
117.4853592011175
 30
0.0
 10
133.6856814938907
 20
117.4150945710201
 30
0.0
  0
SPLINE
  5
11A
330
1F
100
AcDbEntity
  8
0
  6
Continuous
 62
     7
370
    25
100
AcDbSpline
210
0.0
220
0.0
230
1.0
 70
     8
 71
     3
 72
     9
 73
     5
 74
     0
 42
0.00000001
 43
0.00000001
 40
0.0
 40
0.0
 40
0.0
 40
0.0
 40
0.6501055380308912
 40
1.0
 40
1.0
 40
1.0
 40
1.0
 10
121.9062763172512
 20
117.7827416079302
 30
0.0
 10
121.8496872096843
 20
117.7303222471197
 30
0.0
 10
121.7626411775304
 20
117.6496901685663
 30
0.0
 10
121.7410293941901
 20
117.5353685566032
 30
0.0
 10
121.7334675508861
 20
117.4953680576939
 30
0.0
  0
SPLINE
  5
11B
330
1F
100
AcDbEntity
  8
0
  6
Continuous
 62
     7
370
    25
100
AcDbSpline
210
0.0
220
0.0
230
1.0
 70
     8
 71
     3
 72
     9
 73
     5
 74
     0
 42
0.00000001
 43
0.00000001
 40
0.0
 40
0.0
 40
0.0
 40
0.0
 40
0.5543071740707091
 40
1.0
 40
1.0
 40
1.0
 40
1.0
 10
121.6399106103306
 20
117.1422324234803
 30
0.0
 10
121.5939474325081
 20
116.6980934048497
 30
0.0
 10
121.5110273838914
 20
115.8968426915152
 30
0.0
 10
121.4923475710668
 20
115.091622520365
 30
0.0
 10
121.4840221125011
 20
114.7327416667897
 30
0.0
  0
SPLINE
  5
11C
330
1F
100
AcDbEntity
  8
0
  6
Continuous
 62
     7
370
    25
100
AcDbSpline
210
0.0
220
0.0
230
1.0
 70
     8
 71
     3
 72
     9
 73
     5
 74
     0
 42
0.00000001
 43
0.00000001
 40
0.0
 40
0.0
 40
0.0
 40
0.0
 40
0.6500970621660067
 40
1.0
 40
1.0
 40
1.0
 40
1.0
 10
122.9062708932285
 20
117.7827416079302
 30
0.0
 10
122.8496864662327
 20
117.7303213160331
 30
0.0
 10
122.7626464989896
 20
117.6496867539841
 30
0.0
 10
122.7410268911584
 20
117.5353683893336
 30
0.0
 10
122.7334621268635
 20
117.4953680576939
 30
0.0
  0
SPLINE
  5
11D
330
1F
100
AcDbEntity
  8
0
  6
Continuous
 62
     7
370
    25
100
AcDbSpline
210
0.0
220
0.0
230
1.0
 70
     8
 71
     3
 72
     9
 73
     5
 74
     0
 42
0.00000001
 43
0.00000001
 40
0.0
 40
0.0
 40
0.0
 40
0.0
 40
0.5543073553302934
 40
1.0
 40
1.0
 40
1.0
 40
1.0
 10
122.6399126368885
 20
117.1422324234803
 30
0.0
 10
122.5939454321893
 20
116.6980934956775
 30
0.0
 10
122.5110181459877
 20
115.8968432082117
 30
0.0
 10
122.4923461225613
 20
115.0916225786996
 30
0.0
 10
122.484024139059
 20
114.7327416667897
 30
0.0
  0
SPLINE
  5
11E
330
1F
100
AcDbEntity
  8
0
  6
Continuous
 62
     7
370
    25
100
AcDbSpline
210
0.0
220
0.0
230
1.0
 70
     8
 71
     3
 72
    11
 73
     7
 74
     0
 42
0.00000001
 43
0.00000001
 40
0.0
 40
0.0
 40
0.0
 40
0.0
 40
0.0713113195929438
 40
0.2266576934297347
 40
0.6553268819740224
 40
1.0
 40
1.0
 40
1.0
 40
1.0
 10
123.9062729197864
 20
117.7827416079302
 30
0.0
 10
123.854481549639
 20
117.7279437464153
 30
0.0
 10
123.6898665549343
 20
117.553772843861
 30
0.0
 10
123.6012788240342
 20
116.8427315107542
 30
0.0
 10
123.5135028352664
 20
115.9011809625558
 30
0.0
 10
123.4931083782274
 20
115.0929599664981
 30
0.0
 10
123.4840187150364
 20
114.7327416667897
 30
0.0
  0
SPLINE
  5
11F
330
1F
100
AcDbEntity
  8
0
  6
Continuous
 62
     7
370
    25
100
AcDbSpline
210
0.0
220
0.0
230
1.0
 70
     8
 71
     3
 72
    11
 73
     7
 74
     0
 42
0.00000001
 43
0.00000001
 40
0.0
 40
0.0
 40
0.0
 40
0.0
 40
0.0713113195929438
 40
0.2266576934297347
 40
0.6553268819740224
 40
1.0
 40
1.0
 40
1.0
 40
1.0
 10
124.9062749463444
 20
117.7827416079302
 30
0.0
 10
124.8544835761969
 20
117.7279437464153
 30
0.0
 10
124.6898685814922
 20
117.553772843861
 30
0.0
 10
124.6012808505921
 20
116.8427315107542
 30
0.0
 10
124.5135048618244
 20
115.9011809625558
 30
0.0
 10
124.4931104047853
 20
115.0929599664981
 30
0.0
 10
124.4840207415943
 20
114.7327416667897
 30
0.0
  0
SPLINE
  5
120
330
1F
100
AcDbEntity
  8
0
  6
Continuous
 62
     7
370
    25
100
AcDbSpline
210
0.0
220
0.0
230
1.0
 70
     8
 71
     3
 72
     9
 73
     5
 74
     0
 42
0.00000001
 43
0.00000001
 40
0.0
 40
0.0
 40
0.0
 40
0.0
 40
0.6500970621660067
 40
1.0
 40
1.0
 40
1.0
 40
1.0
 10
125.9062695223217
 20
117.7827416079302
 30
0.0
 10
125.8496850953259
 20
117.7303213160331
 30
0.0
 10
125.7626451280828
 20
117.6496867539841
 30
0.0
 10
125.7410255202516
 20
117.5353683893336
 30
0.0
 10
125.7334607559566
 20
117.4953680576939
 30
0.0
  0
SPLINE
  5
121
330
1F
100
AcDbEntity
  8
0
  6
Continuous
 62
     7
370
    25
100
AcDbSpline
210
0.0
220
0.0
230
1.0
 70
     8
 71
     3
 72
     9
 73
     5
 74
     0
 42
0.00000001
 43
0.00000001
 40
0.0
 40
0.0
 40
0.0
 40
0.0
 40
0.5543073553302934
 40
1.0
 40
1.0
 40
1.0
 40
1.0
 10
125.6399112659817
 20
117.1422324234803
 30
0.0
 10
125.5939440612825
 20
116.6980934956775
 30
0.0
 10
125.5110167750809
 20
115.8968432082117
 30
0.0
 10
125.4923447516545
 20
115.0916225786996
 30
0.0
 10
125.4840227681522
 20
114.7327416667897
 30
0.0
  0
SPLINE
  5
122
330
1F
100
AcDbEntity
  8
0
  6
Continuous
 62
     7
370
    25
100
AcDbSpline
210
0.0
220
0.0
230
1.0
 70
     8
 71
     3
 72
     9
 73
     5
 74
     0
 42
0.00000001
 43
0.00000001
 40
0.0
 40
0.0
 40
0.0
 40
0.0
 40
0.6501055380308912
 40
1.0
 40
1.0
 40
1.0
 40
1.0
 10
126.9062715488796
 20
117.7827416079302
 30
0.0
 10
126.8496824413127
 20
117.7303222471197
 30
0.0
 10
126.7626364091588
 20
117.6496901685663
 30
0.0
 10
126.7410246258186
 20
117.5353685566032
 30
0.0
 10
126.7334627825146
 20
117.4953680576939
 30
0.0
  0
SPLINE
  5
123
330
1F
100
AcDbEntity
  8
0
  6
Continuous
 62
     7
370
    25
100
AcDbSpline
210
0.0
220
0.0
230
1.0
 70
     8
 71
     3
 72
     9
 73
     5
 74
     0
 42
0.00000001
 43
0.00000001
 40
0.0
 40
0.0
 40
0.0
 40
0.0
 40
0.5543072340031984
 40
1.0
 40
1.0
 40
1.0
 40
1.0
 10
126.639905841959
 20
117.1422324234803
 30
0.0
 10
126.5939418084166
 20
116.6980934348814
 30
0.0
 10
126.5110202250009
 20
115.896842862358
 30
0.0
 10
126.4923472185879
 20
115.091622539653
 30
0.0
 10
126.4840247947101
 20
114.7327416667897
 30
0.0
  0
SPLINE
  5
124
330
1F
100
AcDbEntity
  8
0
  6
Continuous
 62
     7
370
    25
100
AcDbSpline
210
0.0
220
0.0
230
1.0
 70
     8
 71
     3
 72
     9
 73
     5
 74
     0
 42
0.00000001
 43
0.00000001
 40
0.0
 40
0.0
 40
0.0
 40
0.0
 40
0.6501055380308912
 40
1.0
 40
1.0
 40
1.0
 40
1.0
 10
127.9062735754375
 20
117.7827416079302
 30
0.0
 10
127.8496844678706
 20
117.7303222471197
 30
0.0
 10
127.7626384357167
 20
117.6496901685663
 30
0.0
 10
127.7410266523765
 20
117.5353685566032
 30
0.0
 10
127.7334648090725
 20
117.4953680576939
 30
0.0
  0
SPLINE
  5
125
330
1F
100
AcDbEntity
  8
0
  6
Continuous
 62
     7
370
    25
100
AcDbSpline
210
0.0
220
0.0
230
1.0
 70
     8
 71
     3
 72
     9
 73
     5
 74
     0
 42
0.00000001
 43
0.00000001
 40
0.0
 40
0.0
 40
0.0
 40
0.0
 40
0.5543071740707091
 40
1.0
 40
1.0
 40
1.0
 40
1.0
 10
127.6399078685169
 20
117.1422324234803
 30
0.0
 10
127.5939446906944
 20
116.6980934048497
 30
0.0
 10
127.5110246420778
 20
115.8968426915152
 30
0.0
 10
127.4923448292531
 20
115.091622520365
 30
0.0
 10
127.4840193706875
 20
114.7327416667897
 30
0.0
  0
SPLINE
  5
126
330
1F
100
AcDbEntity
  8
0
  6
Continuous
 62
     7
370
    25
100
AcDbSpline
210
0.0
220
0.0
230
1.0
 70
     8
 71
     3
 72
     9
 73
     5
 74
     0
 42
0.00000001
 43
0.00000001
 40
0.0
 40
0.0
 40
0.0
 40
0.0
 40
0.6501055380308912
 40
1.0
 40
1.0
 40
1.0
 40
1.0
 10
128.9062756019954
 20
117.7827416079302
 30
0.0
 10
128.8496864944286
 20
117.7303222471197
 30
0.0
 10
128.7626404622746
 20
117.6496901685663
 30
0.0
 10
128.7410286789344
 20
117.5353685566032
 30
0.0
 10
128.7334668356304
 20
117.4953680576939
 30
0.0
  0
SPLINE
  5
127
330
1F
100
AcDbEntity
  8
0
  6
Continuous
 62
     7
370
    25
100
AcDbSpline
210
0.0
220
0.0
230
1.0
 70
     8
 71
     3
 72
     9
 73
     5
 74
     0
 42
0.00000001
 43
0.00000001
 40
0.0
 40
0.0
 40
0.0
 40
0.0
 40
0.5543071740707091
 40
1.0
 40
1.0
 40
1.0
 40
1.0
 10
128.6399098950748
 20
117.1422324234803
 30
0.0
 10
128.5939467172523
 20
116.6980934048497
 30
0.0
 10
128.5110266686357
 20
115.8968426915152
 30
0.0
 10
128.492346855811
 20
115.091622520365
 30
0.0
 10
128.4840213972454
 20
114.7327416667897
 30
0.0
  0
SPLINE
  5
128
330
1F
100
AcDbEntity
  8
0
  6
Continuous
 62
     7
370
    25
100
AcDbSpline
210
0.0
220
0.0
230
1.0
 70
     8
 71
     3
 72
     9
 73
     5
 74
     0
 42
0.00000001
 43
0.00000001
 40
0.0
 40
0.0
 40
0.0
 40
0.0
 40
0.6500970621660067
 40
1.0
 40
1.0
 40
1.0
 40
1.0
 10
129.9062701779728
 20
117.7827416079302
 30
0.0
 10
129.849685750977
 20
117.7303213160331
 30
0.0
 10
129.7626457837339
 20
117.6496867539841
 30
0.0
 10
129.7410261759027
 20
117.5353683893336
 30
0.0
 10
129.7334614116077
 20
117.4953680576939
 30
0.0
  0
SPLINE
  5
129
330
1F
100
AcDbEntity
  8
0
  6
Continuous
 62
     7
370
    25
100
AcDbSpline
210
0.0
220
0.0
230
1.0
 70
     8
 71
     3
 72
     9
 73
     5
 74
     0
 42
0.00000001
 43
0.00000001
 40
0.0
 40
0.0
 40
0.0
 40
0.0
 40
0.5543073553302934
 40
1.0
 40
1.0
 40
1.0
 40
1.0
 10
129.6399119216327
 20
117.1422324234803
 30
0.0
 10
129.5939447169336
 20
116.6980934956775
 30
0.0
 10
129.511017430732
 20
115.8968432082117
 30
0.0
 10
129.4923454073055
 20
115.0916225786996
 30
0.0
 10
129.4840234238033
 20
114.7327416667897
 30
0.0
  0
SPLINE
  5
12A
330
1F
100
AcDbEntity
  8
0
  6
Continuous
 62
     7
370
    25
100
AcDbSpline
210
0.0
220
0.0
230
1.0
 70
     8
 71
     3
 72
    11
 73
     7
 74
     0
 42
0.00000001
 43
0.00000001
 40
0.0
 40
0.0
 40
0.0
 40
0.0
 40
0.0713113255556313
 40
0.2266577123816907
 40
0.6553269367691015
 40
1.0
 40
1.0
 40
1.0
 40
1.0
 10
130.9062722045307
 20
117.7827416079302
 30
0.0
 10
130.854480830891
 20
117.7279437465388
 30
0.0
 10
130.6898658250864
 20
117.553772844377
 30
0.0
 10
130.601278368107
 20
116.8427315015839
 30
0.0
 10
130.513499514762
 20
115.9011811397347
 30
0.0
 10
130.4931120125942
 20
115.0929599876151
 30
0.0
 10
130.4840254503612
 20
114.7327416667897
 30
0.0
  0
SPLINE
  5
12B
330
1F
100
AcDbEntity
  8
0
  6
Continuous
 62
     7
370
    25
100
AcDbSpline
210
0.0
220
0.0
230
1.0
 70
     8
 71
     3
 72
     9
 73
     5
 74
     0
 42
0.00000001
 43
0.00000001
 40
0.0
 40
0.0
 40
0.0
 40
0.0
 40
0.6501055380308912
 40
1.0
 40
1.0
 40
1.0
 40
1.0
 10
131.9062742310886
 20
117.7827416079302
 30
0.0
 10
131.8496851235217
 20
117.7303222471197
 30
0.0
 10
131.7626390913678
 20
117.6496901685663
 30
0.0
 10
131.7410273080276
 20
117.5353685566032
 30
0.0
 10
131.7334654647236
 20
117.4953680576939
 30
0.0
  0
SPLINE
  5
12C
330
1F
100
AcDbEntity
  8
0
  6
Continuous
 62
     7
370
    25
100
AcDbSpline
210
0.0
220
0.0
230
1.0
 70
     8
 71
     3
 72
     9
 73
     5
 74
     0
 42
0.00000001
 43
0.00000001
 40
0.0
 40
0.0
 40
0.0
 40
0.0
 40
0.5543071740707091
 40
1.0
 40
1.0
 40
1.0
 40
1.0
 10
131.639908524168
 20
117.1422324234803
 30
0.0
 10
131.5939453463455
 20
116.6980934048497
 30
0.0
 10
131.5110252977288
 20
115.8968426915152
 30
0.0
 10
131.4923454849042
 20
115.091622520365
 30
0.0
 10
131.4840200263386
 20
114.7327416667897
 30
0.0
  0
SPLINE
  5
12D
330
1F
100
AcDbEntity
  8
0
  6
Continuous
 62
     7
370
    25
100
AcDbSpline
210
0.0
220
0.0
230
1.0
 70
     8
 71
     3
 72
    11
 73
     7
 74
     0
 42
0.00000001
 43
0.00000001
 40
0.0
 40
0.0
 40
0.0
 40
0.0
 40
0.0713113195929438
 40
0.2266576934297347
 40
0.6553268819740224
 40
1.0
 40
1.0
 40
1.0
 40
1.0
 10
132.9062762576465
 20
117.7827416079302
 30
0.0
 10
132.8544848874991
 20
117.7279437464153
 30
0.0
 10
132.6898698927944
 20
117.553772843861
 30
0.0
 10
132.6012821618943
 20
116.8427315107542
 30
0.0
 10
132.5135061731266
 20
115.9011809625558
 30
0.0
 10
132.4931117160875
 20
115.0929599664981
 30
0.0
 10
132.4840220528965
 20
114.7327416667897
 30
0.0
  0
SPLINE
  5
12E
330
1F
100
AcDbEntity
  8
0
  6
Continuous
 62
     7
370
    25
100
AcDbSpline
210
0.0
220
0.0
230
1.0
 70
     8
 71
     3
 72
    11
 73
     7
 74
     0
 42
0.00000001
 43
0.00000001
 40
0.0
 40
0.0
 40
0.0
 40
0.0
 40
0.0713098970241778
 40
0.226656487592983
 40
0.6553264847171566
 40
1.0
 40
1.0
 40
1.0
 40
1.0
 10
133.9062708336239
 20
117.7827416079302
 30
0.0
 10
133.8544823320875
 20
117.7279434611376
 30
0.0
 10
133.6898740470419
 20
117.5537691039035
 30
0.0
 10
133.6012828868873
 20
116.8427333590362
 30
0.0
 10
133.5134965945905
 20
115.9011809789838
 30
0.0
 10
133.4931101623535
 20
115.0929598702287
 30
0.0
 10
133.4840240794544
 20
114.7327416667897
 30
0.0
  0
SPLINE
  5
12F
330
1F
100
AcDbEntity
  8
0
  6
Continuous
 62
     7
370
    25
100
AcDbSpline
210
0.0
220
0.0
230
1.0
 70
     8
 71
     3
 72
    16
 73
    12
 74
     0
 42
0.00000001
 43
0.00000001
 40
0.0
 40
0.0
 40
0.0
 40
0.0
 40
0.0728813764401144
 40
0.2084130810596092
 40
0.3659422796199007
 40
0.5287336795778983
 40
0.7073260296270193
 40
0.8052973140287907
 40
0.8998103191499784
 40
0.9714311998616908
 40
1.0
 40
1.0
 40
1.0
 40
1.0
 10
120.9945934730892
 20
116.2824237810631
 30
0.0
 10
120.9687862690421
 20
116.0600118073691
 30
0.0
 10
120.8949874582661
 20
115.4239979590277
 30
0.0
 10
120.8590512719739
 20
114.2990334657745
 30
0.0
 10
120.8866912657603
 20
112.8992268551944
 30
0.0
 10
120.9375366723776
 20
111.367564965731
 30
0.0
 10
120.9807591914059
 20
110.0190027754217
 30
0.0
 10
121.0163606056162
 20
108.8793471676867
 30
0.0
 10
121.0639522627948
 20
108.0705720468097
 30
0.0
 10
121.0796163388633
 20
107.4700576171613
 30
0.0
 10
121.1432052665105
 20
107.1686220127878
 30
0.0
 10
121.1613374668484
 20
107.0826685147543
 30
0.0
  0
SPLINE
  5
130
330
1F
100
AcDbEntity
  8
0
  6
Continuous
 62
     7
370
    25
100
AcDbSpline
210
0.0
220
0.0
230
1.0
 70
     8
 71
     3
 72
    16
 73
    12
 74
     0
 42
0.00000001
 43
0.00000001
 40
0.0
 40
0.0
 40
0.0
 40
0.0
 40
0.0728813677918412
 40
0.2084130563288296
 40
0.3659422361963411
 40
0.5287335919992269
 40
0.7073259208561653
 40
0.805297222731516
 40
0.8998101778129979
 40
0.9714310500260105
 40
1.0
 40
1.0
 40
1.0
 40
1.0
 10
121.9945954996471
 20
116.2824237810631
 30
0.0
 10
121.9687883099108
 20
116.0600118078151
 30
0.0
 10
121.8949895400583
 20
115.4239979607491
 30
0.0
 10
121.8590528091837
 20
114.2990334505237
 30
0.0
 10
121.8866954439191
 20
112.8992269985678
 30
0.0
 10
121.9375300688579
 20
111.3675648494412
 30
0.0
 10
121.9807478533787
 20
110.0190025166858
 30
0.0
 10
122.0163671012502
 20
108.8793474509919
 30
0.0
 10
122.063946851191
 20
108.0705723020094
 30
0.0
 10
122.0796058653119
 20
107.4700561378494
 30
0.0
 10
122.1432044654541
 20
107.1686219409869
 30
0.0
 10
122.1613394934063
 20
107.0826685147543
 30
0.0
  0
SPLINE
  5
131
330
1F
100
AcDbEntity
  8
0
  6
Continuous
 62
     7
370
    25
100
AcDbSpline
210
0.0
220
0.0
230
1.0
 70
     8
 71
     3
 72
    16
 73
    12
 74
     0
 42
0.00000001
 43
0.00000001
 40
0.0
 40
0.0
 40
0.0
 40
0.0
 40
0.0728813702702665
 40
0.2084130294098912
 40
0.3659422146343863
 40
0.5287335759732028
 40
0.7073259109034045
 40
0.8052972161103962
 40
0.8998101744059133
 40
0.9714310490544863
 40
1.0
 40
1.0
 40
1.0
 40
1.0
 10
122.9945900756244
 20
116.2824237810631
 30
0.0
 10
122.968782568775
 20
116.0600118211765
 30
0.0
 10
122.8949829041409
 20
115.4239981160958
 30
0.0
 10
122.8590582287383
 20
114.2990332032997
 30
0.0
 10
122.8866964707891
 20
112.8992270406667
 30
0.0
 10
122.9375324019692
 20
111.3675648365316
 30
0.0
 10
122.9807498359309
 20
110.019002518539
 30
0.0
 10
123.0163691362948
 20
108.8793474506345
 30
0.0
 10
123.0639488760567
 20
108.0705723020806
 30
0.0
 10
123.0796078919961
 20
107.4700561378441
 30
0.0
 10
123.1432064920401
 20
107.1686219409858
 30
0.0
 10
123.1613415199642
 20
107.0826685147543
 30
0.0
  0
SPLINE
  5
132
330
1F
100
AcDbEntity
  8
0
  6
Continuous
 62
     7
370
    25
100
AcDbSpline
210
0.0
220
0.0
230
1.0
 70
     8
 71
     3
 72
    16
 73
    12
 74
     0
 42
0.00000001
 43
0.00000001
 40
0.0
 40
0.0
 40
0.0
 40
0.0
 40
0.0728813764401144
 40
0.2084130810596092
 40
0.3659422796199007
 40
0.5287336795778983
 40
0.7073260296270193
 40
0.8052973140287907
 40
0.8998103191499784
 40
0.9714311998616908
 40
1.0
 40
1.0
 40
1.0
 40
1.0
 10
123.9945921021824
 20
116.2824237810631
 30
0.0
 10
123.9687848981352
 20
116.0600118073691
 30
0.0
 10
123.8949860873593
 20
115.4239979590277
 30
0.0
 10
123.8590499010671
 20
114.2990334657745
 30
0.0
 10
123.8866898948534
 20
112.8992268551944
 30
0.0
 10
123.9375353014708
 20
111.367564965731
 30
0.0
 10
123.9807578204991
 20
110.0190027754217
 30
0.0
 10
124.0163592347094
 20
108.8793471676867
 30
0.0
 10
124.0639508918879
 20
108.0705720468097
 30
0.0
 10
124.0796149679565
 20
107.4700576171613
 30
0.0
 10
124.1432038956036
 20
107.1686220127878
 30
0.0
 10
124.1613360959415
 20
107.0826685147543
 30
0.0
  0
SPLINE
  5
133
330
1F
100
AcDbEntity
  8
0
  6
Continuous
 62
     7
370
    25
100
AcDbSpline
210
0.0
220
0.0
230
1.0
 70
     8
 71
     3
 72
    16
 73
    12
 74
     0
 42
0.00000001
 43
0.00000001
 40
0.0
 40
0.0
 40
0.0
 40
0.0
 40
0.0728813749169671
 40
0.2084130767039858
 40
0.3659422719720758
 40
0.5287336685278972
 40
0.707326014844618
 40
0.8052972971988882
 40
0.8998102615202721
 40
0.97143120045875
 40
1.0
 40
1.0
 40
1.0
 40
1.0
 10
124.9945941287403
 20
116.2824237810631
 30
0.0
 10
124.9687869236106
 20
116.0600118073088
 30
0.0
 10
124.8949881097388
 20
115.4239979587946
 30
0.0
 10
124.8590519646441
 20
114.2990334678391
 30
0.0
 10
124.8866917585289
 20
112.89922684611
 30
0.0
 10
124.9375379804678
 20
111.3675650021194
 30
0.0
 10
124.9807576710056
 20
110.0190026540569
 30
0.0
 10
125.0163653642582
 20
108.8793475159689
 30
0.0
 10
125.063939431714
 20
108.0705713496282
 30
0.0
 10
125.0796179651495
 20
107.4700578677674
 30
0.0
 10
125.1432061459354
 20
107.1686220285231
 30
0.0
 10
125.1613381224994
 20
107.0826685147543
 30
0.0
  0
SPLINE
  5
134
330
1F
100
AcDbEntity
  8
0
  6
Continuous
 62
     7
370
    25
100
AcDbSpline
210
0.0
220
0.0
230
1.0
 70
     8
 71
     3
 72
    16
 73
    12
 74
     0
 42
0.00000001
 43
0.00000001
 40
0.0
 40
0.0
 40
0.0
 40
0.0
 40
0.0728813677918412
 40
0.2084130563288296
 40
0.3659422361963411
 40
0.5287335919992269
 40
0.7073259208561653
 40
0.805297222731516
 40
0.8998101778129979
 40
0.9714310500260105
 40
1.0
 40
1.0
 40
1.0
 40
1.0
 10
125.9945961552982
 20
116.2824237810631
 30
0.0
 10
125.9687889655619
 20
116.0600118078151
 30
0.0
 10
125.8949901957094
 20
115.4239979607491
 30
0.0
 10
125.8590534648348
 20
114.2990334505237
 30
0.0
 10
125.8866960995702
 20
112.8992269985678
 30
0.0
 10
125.937530724509
 20
111.3675648494412
 30
0.0
 10
125.9807485090298
 20
110.0190025166858
 30
0.0
 10
126.0163677569013
 20
108.8793474509919
 30
0.0
 10
126.0639475068421
 20
108.0705723020094
 30
0.0
 10
126.079606520963
 20
107.4700561378494
 30
0.0
 10
126.1432051211052
 20
107.1686219409869
 30
0.0
 10
126.1613401490574
 20
107.0826685147543
 30
0.0
  0
SPLINE
  5
135
330
1F
100
AcDbEntity
  8
0
  6
Continuous
 62
     7
370
    25
100
AcDbSpline
210
0.0
220
0.0
230
1.0
 70
     8
 71
     3
 72
    16
 73
    12
 74
     0
 42
0.00000001
 43
0.00000001
 40
0.0
 40
0.0
 40
0.0
 40
0.0
 40
0.0728813695614591
 40
0.2084130273829714
 40
0.3659422110754173
 40
0.5287335708310074
 40
0.7073259040243102
 40
0.8052971791794026
 40
0.8998101753803089
 40
0.9714310493323335
 40
1.0
 40
1.0
 40
1.0
 40
1.0
 10
126.9945907312755
 20
116.2824237810631
 30
0.0
 10
126.9687832277941
 20
116.060011821307
 30
0.0
 10
126.8949835727916
 20
115.4239981165994
 30
0.0
 10
126.8590587692192
 20
114.2990331988381
 30
0.0
 10
126.8866976331831
 20
112.8992270602974
 30
0.0
 10
126.9375310278207
 20
111.367564757899
 30
0.0
 10
126.9807572586227
 20
110.019002870116
 30
0.0
 10
127.0163570137242
 20
108.8793470152072
 30
0.0
 10
127.0639520742544
 20
108.0705725381912
 30
0.0
 10
127.0796083576288
 20
107.4700561291582
 30
0.0
 10
127.14320710553
 20
107.1686219390585
 30
0.0
 10
127.1613421756153
 20
107.0826685147543
 30
0.0
  0
SPLINE
  5
136
330
1F
100
AcDbEntity
  8
0
  6
Continuous
 62
     7
370
    25
100
AcDbSpline
210
0.0
220
0.0
230
1.0
 70
     8
 71
     3
 72
    16
 73
    12
 74
     0
 42
0.00000001
 43
0.00000001
 40
0.0
 40
0.0
 40
0.0
 40
0.0
 40
0.0728813764401144
 40
0.2084130810596092
 40
0.3659422796199007
 40
0.5287336795778983
 40
0.7073260296270193
 40
0.8052973140287907
 40
0.8998103191499784
 40
0.9714311998616908
 40
1.0
 40
1.0
 40
1.0
 40
1.0
 10
127.9945927578335
 20
116.2824237810631
 30
0.0
 10
127.9687855537863
 20
116.0600118073691
 30
0.0
 10
127.8949867430104
 20
115.4239979590277
 30
0.0
 10
127.8590505567181
 20
114.2990334657745
 30
0.0
 10
127.8866905505046
 20
112.8992268551944
 30
0.0
 10
127.9375359571219
 20
111.367564965731
 30
0.0
 10
127.9807584761501
 20
110.0190027754217
 30
0.0
 10
128.0163598903605
 20
108.8793471676867
 30
0.0
 10
128.0639515475391
 20
108.0705720468097
 30
0.0
 10
128.0796156236076
 20
107.4700576171613
 30
0.0
 10
128.1432045512547
 20
107.1686220127878
 30
0.0
 10
128.1613367515926
 20
107.0826685147543
 30
0.0
  0
SPLINE
  5
137
330
1F
100
AcDbEntity
  8
0
  6
Continuous
 62
     7
370
    25
100
AcDbSpline
210
0.0
220
0.0
230
1.0
 70
     8
 71
     3
 72
    16
 73
    12
 74
     0
 42
0.00000001
 43
0.00000001
 40
0.0
 40
0.0
 40
0.0
 40
0.0
 40
0.0728813677918412
 40
0.2084130563288296
 40
0.3659422361963411
 40
0.5287335919992269
 40
0.7073259208561653
 40
0.805297222731516
 40
0.8998101778129979
 40
0.9714310500260105
 40
1.0
 40
1.0
 40
1.0
 40
1.0
 10
128.9945947843914
 20
116.2824237810631
 30
0.0
 10
128.9687875946551
 20
116.0600118078151
 30
0.0
 10
128.8949888248025
 20
115.4239979607491
 30
0.0
 10
128.859052093928
 20
114.2990334505237
 30
0.0
 10
128.8866947286634
 20
112.8992269985678
 30
0.0
 10
128.9375293536022
 20
111.3675648494412
 30
0.0
 10
128.980747138123
 20
110.0190025166858
 30
0.0
 10
129.0163663859945
 20
108.8793474509919
 30
0.0
 10
129.0639461359353
 20
108.0705723020094
 30
0.0
 10
129.0796051500562
 20
107.4700561378494
 30
0.0
 10
129.1432037501984
 20
107.1686219409869
 30
0.0
 10
129.1613387781505
 20
107.0826685147543
 30
0.0
  0
SPLINE
  5
138
330
1F
100
AcDbEntity
  8
0
  6
Continuous
 62
     7
370
    25
100
AcDbSpline
210
0.0
220
0.0
230
1.0
 70
     8
 71
     3
 72
    16
 73
    12
 74
     0
 42
0.00000001
 43
0.00000001
 40
0.0
 40
0.0
 40
0.0
 40
0.0
 40
0.0728813702702665
 40
0.2084130294098912
 40
0.3659422146343863
 40
0.5287335759732028
 40
0.7073259109034045
 40
0.8052972161103962
 40
0.8998101744059133
 40
0.9714310490544863
 40
1.0
 40
1.0
 40
1.0
 40
1.0
 10
129.9945893603687
 20
116.2824237810631
 30
0.0
 10
129.9687818535192
 20
116.0600118211765
 30
0.0
 10
129.8949821888851
 20
115.4239981160958
 30
0.0
 10
129.8590575134825
 20
114.2990332032997
 30
0.0
 10
129.8866957555334
 20
112.8992270406667
 30
0.0
 10
129.9375316867134
 20
111.3675648365316
 30
0.0
 10
129.9807491206752
 20
110.019002518539
 30
0.0
 10
130.0163684210391
 20
108.8793474506345
 30
0.0
 10
130.063948160801
 20
108.0705723020806
 30
0.0
 10
130.0796071767404
 20
107.4700561378441
 30
0.0
 10
130.1432057767844
 20
107.1686219409858
 30
0.0
 10
130.1613408047085
 20
107.0826685147543
 30
0.0
  0
SPLINE
  5
139
330
1F
100
AcDbEntity
  8
0
  6
Continuous
 62
     7
370
    25
100
AcDbSpline
210
0.0
220
0.0
230
1.0
 70
     8
 71
     3
 72
    16
 73
    12
 74
     0
 42
0.00000001
 43
0.00000001
 40
0.0
 40
0.0
 40
0.0
 40
0.0
 40
0.0728813775030575
 40
0.2084130840992229
 40
0.3659422952103561
 40
0.5287336727046851
 40
0.7073260253584973
 40
0.8052973111891372
 40
0.8998103176887557
 40
0.9714311994450274
 40
1.0
 40
1.0
 40
1.0
 40
1.0
 10
130.9945913869266
 20
116.2824237810631
 30
0.0
 10
130.9687842690567
 20
116.0600118087774
 30
0.0
 10
130.8949857047149
 20
115.4239979644629
 30
0.0
 10
130.8590462380303
 20
114.2990333861005
 30
0.0
 10
130.8867021458983
 20
112.8992270803872
 30
0.0
 10
130.9375306137999
 20
111.3675647833232
 30
0.0
 10
130.9807576758338
 20
110.0190027906624
 30
0.0
 10
131.0163584094134
 20
108.8793471647474
 30
0.0
 10
131.0639501985733
 20
108.0705720473957
 30
0.0
 10
131.079614251063
 20
107.4700576171176
 30
0.0
 10
131.1432031799845
 20
107.1686220127781
 30
0.0
 10
131.1613353806858
 20
107.0826685147543
 30
0.0
  0
SPLINE
  5
13A
330
1F
100
AcDbEntity
  8
0
  6
Continuous
 62
     7
370
    25
100
AcDbSpline
210
0.0
220
0.0
230
1.0
 70
     8
 71
     3
 72
    16
 73
    12
 74
     0
 42
0.00000001
 43
0.00000001
 40
0.0
 40
0.0
 40
0.0
 40
0.0
 40
0.0728813764401144
 40
0.2084130810596092
 40
0.3659422796199007
 40
0.5287336795778983
 40
0.7073260296270193
 40
0.8052973140287907
 40
0.8998103191499784
 40
0.9714311998616908
 40
1.0
 40
1.0
 40
1.0
 40
1.0
 10
131.9945934134846
 20
116.2824237810631
 30
0.0
 10
131.9687862094374
 20
116.0600118073691
 30
0.0
 10
131.8949873986615
 20
115.4239979590277
 30
0.0
 10
131.8590512123693
 20
114.2990334657745
 30
0.0
 10
131.8866912061557
 20
112.8992268551944
 30
0.0
 10
131.937536612773
 20
111.367564965731
 30
0.0
 10
131.9807591318012
 20
110.0190027754217
 30
0.0
 10
132.0163605460116
 20
108.8793471676867
 30
0.0
 10
132.0639522031902
 20
108.0705720468097
 30
0.0
 10
132.0796162792587
 20
107.4700576171613
 30
0.0
 10
132.1432052069058
 20
107.1686220127878
 30
0.0
 10
132.1613374072437
 20
107.0826685147543
 30
0.0
  0
SPLINE
  5
13B
330
1F
100
AcDbEntity
  8
0
  6
Continuous
 62
     7
370
    25
100
AcDbSpline
210
0.0
220
0.0
230
1.0
 70
     8
 71
     3
 72
    16
 73
    12
 74
     0
 42
0.00000001
 43
0.00000001
 40
0.0
 40
0.0
 40
0.0
 40
0.0
 40
0.0728813677918412
 40
0.2084130563288296
 40
0.3659422361963411
 40
0.5287335919992269
 40
0.7073259208561653
 40
0.805297222731516
 40
0.8998101778129979
 40
0.9714310500260105
 40
1.0
 40
1.0
 40
1.0
 40
1.0
 10
132.9945954400425
 20
116.2824237810631
 30
0.0
 10
132.9687882503061
 20
116.0600118078151
 30
0.0
 10
132.8949894804536
 20
115.4239979607491
 30
0.0
 10
132.8590527495791
 20
114.2990334505237
 30
0.0
 10
132.8866953843145
 20
112.8992269985678
 30
0.0
 10
132.9375300092533
 20
111.3675648494412
 30
0.0
 10
132.980747793774
 20
110.0190025166858
 30
0.0
 10
133.0163670416456
 20
108.8793474509919
 30
0.0
 10
133.0639467915864
 20
108.0705723020094
 30
0.0
 10
133.0796058057072
 20
107.4700561378494
 30
0.0
 10
133.1432044058495
 20
107.1686219409869
 30
0.0
 10
133.1613394338016
 20
107.0826685147543
 30
0.0
  0
SPLINE
  5
13C
330
1F
100
AcDbEntity
  8
0
  6
Continuous
 62
     7
370
    25
100
AcDbSpline
210
0.0
220
0.0
230
1.0
 70
     8
 71
     3
 72
    15
 73
    11
 74
     0
 42
0.00000001
 43
0.00000001
 40
0.0
 40
0.0
 40
0.0
 40
0.0
 40
0.0556975463804797
 40
0.2436177644372287
 40
0.4378153544072969
 40
0.65086229218914
 40
0.7677345340633359
 40
0.8804812337099501
 40
0.9659194359211434
 40
1.0
 40
1.0
 40
1.0
 40
1.0
 10
133.8892611581211
 20
114.7967128174562
 30
0.0
 10
133.8823172672183
 20
114.6534486097855
 30
0.0
 10
133.8519451002529
 20
114.0268194624586
 30
0.0
 10
133.8916251854654
 20
112.8989918343134
 30
0.0
 10
133.9360209386253
 20
111.3676369623263
 30
0.0
 10
133.9809667382421
 20
110.0189921648855
 30
0.0
 10
134.0163272349045
 20
108.879349447369
 30
0.0
 10
134.063957159348
 20
108.0705719039488
 30
0.0
 10
134.079607209646
 20
107.4700561675621
 30
0.0
 10
134.1432062942609
 20
107.1686219475796
 30
0.0
 10
134.1613414603596
 20
107.0826685147543
 30
0.0
  0
SPLINE
  5
13D
330
1F
100
AcDbEntity
  8
0
  6
Continuous
 62
     7
370
    25
100
AcDbSpline
210
0.0
220
0.0
230
1.0
 70
     8
 71
     3
 72
    12
 73
     8
 74
     0
 42
0.00000001
 43
0.00000001
 40
0.0
 40
0.0
 40
0.0
 40
0.0
 40
0.3295993482230155
 40
0.5540129263580096
 40
0.7705049504143285
 40
0.934560144830095
 40
1.0
 40
1.0
 40
1.0
 40
1.0
 10
134.9459024983768
 20
111.0965372620333
 30
0.0
 10
134.960168876033
 20
110.6548505599334
 30
0.0
 10
134.9841487706427
 20
109.912433611347
 30
0.0
 10
135.0163457586654
 20
108.8793463718802
 30
0.0
 10
135.0639535074072
 20
108.0705722054867
 30
0.0
 10
135.0796147086717
 20
107.4700576053172
 30
0.0
 10
135.1432037916942
 20
107.1686220101598
 30
0.0
 10
135.1613360363369
 20
107.0826685147543
 30
0.0
  0
SPLINE
  5
13E
330
1F
100
AcDbEntity
  8
0
  6
Continuous
 62
     7
370
    25
100
AcDbSpline
210
0.0
220
0.0
230
1.0
 70
     8
 71
     3
 72
    16
 73
    12
 74
     0
 42
0.00000001
 43
0.00000001
 40
0.0
 40
0.0
 40
0.0
 40
0.0
 40
0.0728813775030575
 40
0.2084130840992229
 40
0.3659422952103561
 40
0.5287336727046851
 40
0.7073260253584973
 40
0.8052973111891372
 40
0.8998103176887557
 40
0.9714311994450274
 40
1.0
 40
1.0
 40
1.0
 40
1.0
 10
119.9945914465313
 20
116.2824237810631
 30
0.0
 10
119.9687843286614
 20
116.0600118087774
 30
0.0
 10
119.8949857643196
 20
115.4239979644629
 30
0.0
 10
119.859046297635
 20
114.2990333861005
 30
0.0
 10
119.8867022055029
 20
112.8992270803872
 30
0.0
 10
119.9375306734045
 20
111.3675647833232
 30
0.0
 10
119.9807577354385
 20
110.0190027906624
 30
0.0
 10
120.0163584690181
 20
108.8793471647474
 30
0.0
 10
120.0639502581779
 20
108.0705720473957
 30
0.0
 10
120.0796143106677
 20
107.4700576171176
 30
0.0
 10
120.1432032395892
 20
107.1686220127781
 30
0.0
 10
120.1613354402904
 20
107.0826685147543
 30
0.0
  0
SPLINE
  5
13F
330
1F
100
AcDbEntity
  8
0
  6
Continuous
 62
     7
370
    25
100
AcDbSpline
210
0.0
220
0.0
230
1.0
 70
     8
 71
     3
 72
    11
 73
     7
 74
     0
 42
0.00000001
 43
0.00000001
 40
0.0
 40
0.0
 40
0.0
 40
0.0
 40
0.0713113195929438
 40
0.2266576934297347
 40
0.6553268819740224
 40
1.0
 40
1.0
 40
1.0
 40
1.0
 10
120.9062742906933
 20
117.7827416079302
 30
0.0
 10
120.8544829205458
 20
117.7279437464153
 30
0.0
 10
120.6898679258411
 20
117.553772843861
 30
0.0
 10
120.6012801949411
 20
116.8427315107542
 30
0.0
 10
120.5135042061733
 20
115.9011809625558
 30
0.0
 10
120.4931097491342
 20
115.0929599664981
 30
0.0
 10
120.4840200859432
 20
114.7327416667897
 30
0.0
  0
SPLINE
  5
140
330
1F
100
AcDbEntity
  8
0
  6
Continuous
 62
     7
370
    25
100
AcDbSpline
210
0.0
220
0.0
230
1.0
 70
     8
 71
     3
 72
    20
 73
    16
 74
     0
 42
0.00000001
 43
0.00000001
 40
0.0
 40
0.0
 40
0.0
 40
0.0
 40
0.0216457315421206
 40
0.0808474588036803
 40
0.1602387527790248
 40
0.2430746596085209
 40
0.394981034447785
 40
0.5348396758191166
 40
0.6732695997396331
 40
0.7991476408145128
 40
0.8676463921245648
 40
0.9309101405253679
 40
0.9719946202107452
 40
0.9839238587671225
 40
0.9999999999999999
 40
0.9999999999999999
 40
0.9999999999999999
 40
0.9999999999999999
 10
120.6507193762188
 20
107.1852918805737
 30
0.0
 10
120.6343654384973
 20
107.2616958604191
 30
0.0
 10
120.5732829888863
 20
107.5470670247509
 30
0.0
 10
120.5613941608419
 20
108.1276320212778
 30
0.0
 10
120.5141716768084
 20
108.9235234658531
 30
0.0
 10
120.4799205049705
 20
110.0561092005801
 30
0.0
 10
120.4356811530537
 20
111.4061802554731
 30
0.0
 10
120.3866556997286
 20
112.9552930297848
 30
0.0
 10
120.3384920652039
 20
114.4163403982125
 30
0.0
 10
120.3041743650827
 20
115.6025568231547
 30
0.0
 10
120.2479518190955
 20
116.5578036201611
 30
0.0
 10
120.0504913672185
 20
117.0952348915114
 30
0.0
 10
119.9670087063968
 20
117.6202934861284
 30
0.0
 10
119.6437021470797
 20
117.6099686435502
 30
0.0
 10
119.6703729058354
 20
117.4861634234548
 30
0.0
 10
119.6856829244022
 20
117.4150945710201
 30
0.0
  0
SPLINE
  5
141
330
1F
100
AcDbEntity
  8
0
  6
Continuous
 62
     7
370
    25
100
AcDbSpline
210
0.0
220
0.0
230
1.0
 70
     8
 71
     3
 72
     9
 73
     5
 74
     0
 42
0.00000001
 43
0.00000001
 40
0.0
 40
0.0
 40
0.0
 40
0.0
 40
0.3761015647986437
 40
1.0
 40
1.0
 40
1.0
 40
1.0
 10
120.3490379172687
 20
106.8893822932799
 30
0.0
 10
120.4037048101941
 20
106.9712924453411
 30
0.0
 10
120.5490562206693
 20
107.1890797659151
 30
0.0
 10
120.5749054692908
 20
107.4522139400699
 30
0.0
 10
120.5910327750568
 20
107.616382939573
 30
0.0
  0
LINE
  5
142
330
1F
100
AcDbEntity
  8
0
  6
Continuous
 62
     7
370
    25
100
AcDbLine
 10
133.8865714985
 20
114.7327416668
 30
0.0
 11
133.3282100874
 21
114.7327416668
 31
0.0
  0
LINE
  5
143
330
1F
100
AcDbEntity
  8
0
  6
Continuous
 62
     7
370
    25
100
AcDbLine
 10
132.886569472
 20
114.7327416668
 30
0.0
 11
132.3282080609
 21
114.7327416668
 31
0.0
  0
LINE
  5
144
330
1F
100
AcDbEntity
  8
0
  6
Continuous
 62
     7
370
    25
100
AcDbLine
 10
131.8865674454
 20
114.7327416668
 30
0.0
 11
131.3282060343
 21
114.7327416668
 31
0.0
  0
LINE
  5
145
330
1F
100
AcDbEntity
  8
0
  6
Continuous
 62
     7
370
    25
100
AcDbLine
 10
130.8865728694
 20
114.7327416668
 30
0.0
 11
130.3282114583
 21
114.7327416668
 31
0.0
  0
LINE
  5
146
330
1F
100
AcDbEntity
  8
0
  6
Continuous
 62
     7
370
    25
100
AcDbLine
 10
129.8865708429
 20
114.7327416668
 30
0.0
 11
129.3282094318
 21
114.7327416668
 31
0.0
  0
LINE
  5
147
330
1F
100
AcDbEntity
  8
0
  6
Continuous
 62
     7
370
    25
100
AcDbLine
 10
128.8865688163
 20
114.7327416668
 30
0.0
 11
128.3282074052
 21
114.7327416668
 31
0.0
  0
LINE
  5
148
330
1F
100
AcDbEntity
  8
0
  6
Continuous
 62
     7
370
    25
100
AcDbLine
 10
127.8865667898
 20
114.7327416668
 30
0.0
 11
127.3282053787
 21
114.7327416668
 31
0.0
  0
LINE
  5
149
330
1F
100
AcDbEntity
  8
0
  6
Continuous
 62
     7
370
    25
100
AcDbLine
 10
126.8865722138
 20
114.7327416668
 30
0.0
 11
126.3282108027
 21
114.7327416668
 31
0.0
  0
LINE
  5
14A
330
1F
100
AcDbEntity
  8
0
  6
Continuous
 62
     7
370
    25
100
AcDbLine
 10
125.8865701872
 20
114.7327416668
 30
0.0
 11
125.3282087761
 21
114.7327416668
 31
0.0
  0
LINE
  5
14B
330
1F
100
AcDbEntity
  8
0
  6
Continuous
 62
     7
370
    25
100
AcDbLine
 10
124.8865681607
 20
114.7327416668
 30
0.0
 11
124.3282067496
 21
114.7327416668
 31
0.0
  0
LINE
  5
14C
330
1F
100
AcDbEntity
  8
0
  6
Continuous
 62
     7
370
    25
100
AcDbLine
 10
123.8865735847
 20
114.7327416668
 30
0.0
 11
123.328204723
 21
114.7327416668
 31
0.0
  0
LINE
  5
14D
330
1F
100
AcDbEntity
  8
0
  6
Continuous
 62
     7
370
    25
100
AcDbLine
 10
122.8865715581
 20
114.7327416668
 30
0.0
 11
122.328210147
 21
114.7327416668
 31
0.0
  0
LINE
  5
14E
330
1F
100
AcDbEntity
  8
0
  6
Continuous
 62
     7
370
    25
100
AcDbLine
 10
121.8865695316
 20
114.7327416668
 30
0.0
 11
121.3282081205
 21
114.7327416668
 31
0.0
  0
LINE
  5
14F
330
1F
100
AcDbEntity
  8
0
  6
Continuous
 62
     7
370
    25
100
AcDbLine
 10
120.886567505
 20
114.7327416668
 30
0.0
 11
120.1562764961
 21
114.7327416668
 31
0.0
  0
LINE
  5
150
330
1F
100
AcDbEntity
  8
0
  6
Continuous
 62
     7
370
    25
100
AcDbLine
 10
120.4831632692
 20
109.9327414388
 30
0.0
 11
120.9832313377
 21
109.9327414388
 31
0.0
  0
LINE
  5
151
330
1F
100
AcDbEntity
  8
0
  6
Continuous
 62
     7
370
    25
100
AcDbLine
 10
121.4831652957
 20
109.9327414388
 30
0.0
 11
121.9832259137
 21
109.9327414388
 31
0.0
  0
LINE
  5
152
330
1F
100
AcDbEntity
  8
0
  6
Continuous
 62
     7
370
    25
100
AcDbLine
 10
122.4831673223
 20
109.9327414388
 30
0.0
 11
122.9832279402
 21
109.9327414388
 31
0.0
  0
LINE
  5
153
330
1F
100
AcDbEntity
  8
0
  6
Continuous
 62
     7
370
    25
100
AcDbLine
 10
123.4831618983
 20
109.9327414388
 30
0.0
 11
123.9832299668
 21
109.9327414388
 31
0.0
  0
LINE
  5
154
330
1F
100
AcDbEntity
  8
0
  6
Continuous
 62
     7
370
    25
100
AcDbLine
 10
124.4831639248
 20
109.9327414388
 30
0.0
 11
124.9832319933
 21
109.9327414388
 31
0.0
  0
LINE
  5
155
330
1F
100
AcDbEntity
  8
0
  6
Continuous
 62
     7
370
    25
100
AcDbLine
 10
125.4831659514
 20
109.9327414388
 30
0.0
 11
125.9832265693
 21
109.9327414388
 31
0.0
  0
LINE
  5
156
330
1F
100
AcDbEntity
  8
0
  6
Continuous
 62
     7
370
    25
100
AcDbLine
 10
126.4831605274
 20
109.9327414388
 30
0.0
 11
126.9832285959
 21
109.9327414388
 31
0.0
  0
LINE
  5
157
330
1F
100
AcDbEntity
  8
0
  6
Continuous
 62
     7
370
    25
100
AcDbLine
 10
127.4831625539
 20
109.9327414388
 30
0.0
 11
127.9832306224
 21
109.9327414388
 31
0.0
  0
LINE
  5
158
330
1F
100
AcDbEntity
  8
0
  6
Continuous
 62
     7
370
    25
100
AcDbLine
 10
128.4831645805
 20
109.9327414388
 30
0.0
 11
128.983232649
 21
109.9327414388
 31
0.0
  0
LINE
  5
159
330
1F
100
AcDbEntity
  8
0
  6
Continuous
 62
     7
370
    25
100
AcDbLine
 10
129.483166607
 20
109.9327414388
 30
0.0
 11
129.983227225
 21
109.9327414388
 31
0.0
  0
LINE
  5
15A
330
1F
100
AcDbEntity
  8
0
  6
Continuous
 62
     7
370
    25
100
AcDbLine
 10
130.483161183
 20
109.9327414388
 30
0.0
 11
130.9832292515
 21
109.9327414388
 31
0.0
  0
LINE
  5
15B
330
1F
100
AcDbEntity
  8
0
  6
Continuous
 62
     7
370
    25
100
AcDbLine
 10
131.4831632096
 20
109.9327414388
 30
0.0
 11
131.9832312781
 21
109.9327414388
 31
0.0
  0
LINE
  5
15C
330
1F
100
AcDbEntity
  8
0
  6
Continuous
 62
     7
370
    25
100
AcDbLine
 10
132.4831652361
 20
109.9327414388
 30
0.0
 11
132.9832258541
 21
109.9327414388
 31
0.0
  0
LINE
  5
15D
330
1F
100
AcDbEntity
  8
0
  6
Continuous
 62
     7
370
    25
100
AcDbLine
 10
133.4831672627
 20
109.9327414388
 30
0.0
 11
133.9832278806
 21
109.9327414388
 31
0.0
  0
LINE
  5
15E
330
1F
100
AcDbEntity
  8
0
  6
Continuous
 62
     7
370
    25
100
AcDbLine
 10
134.4831618387
 20
109.9327414388
 30
0.0
 11
134.9832299072
 21
109.9327414388
 31
0.0
  0
SPLINE
  5
15F
330
1F
100
AcDbEntity
  8
0
  6
Continuous
 62
     7
370
    25
100
AcDbSpline
210
0.0
220
0.0
230
1.0
 70
     8
 71
     3
 72
    13
 73
     9
 74
     0
 42
0.00000001
 43
0.00000001
 40
0.0
 40
0.0
 40
0.0
 40
0.0
 40
0.0118500207265656
 40
0.118246957424737
 40
0.3322718428877451
 40
0.6025302691077565
 40
0.9015367793635747
 40
1.0
 40
1.0
 40
1.0
 40
1.0
 10
68.25859424651907
 20
114.9476050025035
 30
0.0
 10
68.25770086312548
 20
114.938395366706
 30
0.0
 10
68.24878612191604
 20
114.8464958302265
 30
0.0
 10
68.36908605951766
 20
114.6020871746197
 30
0.0
 10
68.41777898839561
 20
114.1462226013459
 30
0.0
 10
68.52682106737191
 20
113.5456114109378
 30
0.0
 10
68.5950511949117
 20
113.0305961158946
 30
0.0
 10
68.6364176733385
 20
112.7240707791404
 30
0.0
 10
68.64666518749044
 20
112.648136765761
 30
0.0
  0
SPLINE
  5
160
330
1F
100
AcDbEntity
  8
0
  6
Continuous
 62
     7
370
    25
100
AcDbSpline
210
0.0
220
0.0
230
1.0
 70
     8
 71
     3
 72
    12
 73
     8
 74
     0
 42
0.00000001
 43
0.00000001
 40
0.0
 40
0.0
 40
0.0
 40
0.0
 40
0.2086516142729312
 40
0.3537607388027844
 40
0.5417977058883332
 40
0.9485032104881246
 40
1.0
 40
1.0
 40
1.0
 40
1.0
 10
69.25901350559042
 20
109.4443330632705
 30
0.0
 10
69.29550244229401
 20
109.3456909340897
 30
0.0
 10
69.3573680226365
 20
109.1784470207479
 30
0.0
 10
69.63159446424099
 20
109.0998859199841
 30
0.0
 10
69.97111424261219
 20
109.2719653419755
 30
0.0
 10
70.05903749309091
 20
109.5979922820933
 30
0.0
 10
70.1058324748178
 20
109.8090240132401
 30
0.0
 10
70.111091704977
 20
109.8327416086752
 30
0.0
  0
SPLINE
  5
161
330
1F
100
AcDbEntity
  8
0
  6
Continuous
 62
     7
370
    25
100
AcDbSpline
210
0.0
220
0.0
230
1.0
 70
     8
 71
     3
 72
    23
 73
    19
 74
     0
 42
0.00000001
 43
0.00000001
 40
0.0
 40
0.0
 40
0.0
 40
0.0
 40
0.0006755205558286
 40
0.0156014310826001
 40
0.0615428429821844
 40
0.1310081371187515
 40
0.2167045982570058
 40
0.3127299727326905
 40
0.4147694333972213
 40
0.5189624367329196
 40
0.6186306662220016
 40
0.7061419307886969
 40
0.8196893737562688
 40
0.8527856420285949
 40
0.8771210393498788
 40
0.9043341235207631
 40
0.940933980677347
 40
1.0
 40
1.0
 40
1.0
 40
1.0
 10
70.69791433395193
 20
114.9571899416108
 30
0.0
 10
70.69630479904059
 20
114.9574998609796
 30
0.0
 10
70.65913191395519
 20
114.9646575790266
 30
0.0
 10
70.79599957294057
 20
114.7287004664467
 30
0.0
 10
70.77786179202562
 20
114.5211977485128
 30
0.0
 10
70.90621348054862
 20
114.0094210918697
 30
0.0
 10
70.97860906014547
 20
113.4433224403923
 30
0.0
 10
71.07563482767634
 20
112.7772460093624
 30
0.0
 10
71.16753113128654
 20
112.0746209684686
 30
0.0
 10
71.26545463923928
 20
111.3626645077588
 30
0.0
 10
71.36262556072255
 20
110.682573927822
 30
0.0
 10
71.49491023219305
 20
109.9964473827647
 30
0.0
 10
71.59297352067475
 20
109.4262319151415
 30
0.0
 10
71.90262118074413
 20
109.1359464730918
 30
0.0
 10
72.1127049242896
 20
109.118047387821
 30
0.0
 10
72.30545294892782
 20
109.2190408133298
 30
0.0
 10
72.4605975982697
 20
109.4749029256015
 30
0.0
 10
72.50461074604178
 20
109.6961433561993
 30
0.0
 10
72.53178534091755
 20
109.8327416086752
 30
0.0
  0
SPLINE
  5
162
330
1F
100
AcDbEntity
  8
0
  6
Continuous
 62
     7
370
    25
100
AcDbSpline
210
0.0
220
0.0
230
1.0
 70
     8
 71
     3
 72
    21
 73
    17
 74
     0
 42
0.00000001
 43
0.00000001
 40
0.0
 40
0.0
 40
0.0
 40
0.0
 40
0.0042497168241049
 40
0.0379017459765648
 40
0.0961674755309679
 40
0.1727639468208292
 40
0.2636088938019241
 40
0.3640777466303254
 40
0.4696110296360144
 40
0.5736479915097489
 40
0.6685326528470379
 40
0.8023546077439301
 40
0.8420790678825693
 40
0.8645220946514073
 40
0.9054228970120781
 40
1.0
 40
1.0
 40
1.0
 40
1.0
 10
73.17390617908285
 20
114.9224269295294
 30
0.0
 10
73.16328590370269
 20
114.9214756780553
 30
0.0
 10
73.06856736213372
 20
114.9129917970758
 30
0.0
 10
73.29481527195577
 20
114.5886974748814
 30
0.0
 10
73.2677485482078
 20
114.2668814489166
 30
0.0
 10
73.39620062445181
 20
113.7179151777319
 30
0.0
 10
73.47088267132793
 20
113.1061401136454
 30
0.0
 10
73.56832320079955
 20
112.4138896813713
 30
0.0
 10
73.66355852854154
 20
111.6950769128261
 30
0.0
 10
73.7611883199593
 20
110.9874564147727
 30
0.0
 10
73.89205634696712
 20
110.2217869544516
 30
0.0
 10
73.99351153498272
 20
109.5904680756851
 30
0.0
 10
74.25988357488917
 20
109.1954069065813
 30
0.0
 10
74.49484180302741
 20
109.0968058043098
 30
0.0
 10
74.87829774179448
 20
109.270140959347
 30
0.0
 10
74.95005444738604
 20
109.6014528402309
 30
0.0
 10
75.00014779151724
 20
109.8327416086752
 30
0.0
  0
SPLINE
  5
163
330
1F
100
AcDbEntity
  8
0
  6
Continuous
 62
     7
370
    25
100
AcDbSpline
210
0.0
220
0.0
230
1.0
 70
     8
 71
     3
 72
    23
 73
    19
 74
     0
 42
0.00000001
 43
0.00000001
 40
0.0
 40
0.0
 40
0.0
 40
0.0
 40
0.0033478845252828
 40
0.0373693870365221
 40
0.0918561110851871
 40
0.1652107270386225
 40
0.2552045181542218
 40
0.3552659336551969
 40
0.4590136683512263
 40
0.5602022686977792
 40
0.6517935576139721
 40
0.7244104076571889
 40
0.8155879712942975
 40
0.8515349605873864
 40
0.8829035009241882
 40
0.912898737854775
 40
0.9529315106038482
 40
1.0
 40
1.0
 40
1.0
 40
1.0
 10
75.60988840640829
 20
114.9190245753337
 30
0.0
 10
75.60304745684583
 20
114.9146970333622
 30
0.0
 10
75.52668816489124
 20
114.8663926221353
 30
0.0
 10
75.7281043355675
 20
114.6091076403374
 30
0.0
 10
75.71473935977659
 20
114.267288861879
 30
0.0
 10
75.83457661333235
 20
113.7526142217835
 30
0.0
 10
75.90974710808929
 20
113.1477045298465
 30
0.0
 10
76.00598430565331
 20
112.4657737990584
 30
0.0
 10
76.09862487080525
 20
111.7592933713805
 30
0.0
 10
76.1956995163624
 20
111.0734390479864
 30
0.0
 10
76.28816968976567
 20
110.4581688027746
 30
0.0
 10
76.40930569136889
 20
109.8787838691268
 30
0.0
 10
76.5036625331853
 20
109.4031113114116
 30
0.0
 10
76.78517926143628
 20
109.1308285831114
 30
0.0
 10
77.03339760509344
 20
109.1160180090453
 30
0.0
 10
77.23482747222015
 20
109.2638779344761
 30
0.0
 10
77.36047474433924
 20
109.5133458544442
 30
0.0
 10
77.41075000395172
 20
109.7105932470134
 30
0.0
 10
77.43791815818594
 20
109.817183399405
 30
0.0
  0
SPLINE
  5
164
330
1F
100
AcDbEntity
  8
0
  6
Continuous
 62
     7
370
    25
100
AcDbSpline
210
0.0
220
0.0
230
1.0
 70
     8
 71
     3
 72
    22
 73
    18
 74
     0
 42
0.00000001
 43
0.00000001
 40
0.0
 40
0.0
 40
0.0
 40
0.0
 40
0.0027378000897774
 40
0.0162995840280561
 40
0.0607695175973854
 40
0.1284329974205994
 40
0.2188074774707292
 40
0.3218029165698371
 40
0.4291743870347045
 40
0.5338916916392037
 40
0.6284606752558535
 40
0.7037426724518986
 40
0.8003672384957703
 40
0.8434164408358193
 40
0.8768865993172076
 40
0.9279265240821409
 40
1.0
 40
1.0
 40
1.0
 40
1.0
 10
78.02784022868916
 20
114.946368438955
 30
0.0
 10
78.0272206566177
 20
114.9399377484804
 30
0.0
 10
78.02353201365294
 20
114.9016524185396
 30
0.0
 10
78.0939339778769
 20
114.7694922620177
 30
0.0
 10
78.13407120982386
 20
114.4784670521314
 30
0.0
 10
78.23278330093738
 20
114.0133781697801
 30
0.0
 10
78.31939806980462
 20
113.4076890683133
 30
0.0
 10
78.41748294732872
 20
112.7096790195338
 30
0.0
 10
78.51394207989844
 20
111.9774311913075
 30
0.0
 10
78.61225415229221
 20
111.2656494589457
 30
0.0
 10
78.70506027085753
 20
110.6281273986612
 30
0.0
 10
78.82235820353633
 20
110.0163826280711
 30
0.0
 10
78.91326310098559
 20
109.5142749262969
 30
0.0
 10
79.16080637043939
 20
109.1690394333101
 30
0.0
 10
79.48200253340728
 20
109.0873228294107
 30
0.0
 10
79.79166614097925
 20
109.3776793873563
 30
0.0
 10
79.83899544097196
 20
109.6647082007917
 30
0.0
 10
79.86670312465475
 20
109.8327416086752
 30
0.0
  0
SPLINE
  5
165
330
1F
100
AcDbEntity
  8
0
  6
Continuous
 62
     7
370
    25
100
AcDbSpline
210
0.0
220
0.0
230
1.0
 70
     8
 71
     3
 72
    24
 73
    20
 74
     0
 42
0.00000001
 43
0.00000001
 40
0.0
 40
0.0
 40
0.0
 40
0.0
 40
0.0000635044184622
 40
0.0059337716831427
 40
0.0369294874379184
 40
0.092136876950315
 40
0.1727033651380517
 40
0.2687408899575101
 40
0.3708812384139438
 40
0.4724668594231611
 40
0.5673407093678539
 40
0.6492190299908925
 40
0.7664042141389673
 40
0.8106674636391297
 40
0.8564830159381209
 40
0.8877490122593743
 40
0.9130586731423297
 40
0.9959978564355466
 40
1.0
 40
1.0
 40
1.0
 40
1.0
 10
80.46075281680868
 20
114.9717833006937
 30
0.0
 10
80.4606127254533
 20
114.9718396706856
 30
0.0
 10
80.44752276828636
 20
114.9771068106642
 30
0.0
 10
80.53132502977898
 20
114.828697369478
 30
0.0
 10
80.51899874595118
 20
114.7019397131844
 30
0.0
 10
80.64108466372116
 20
114.2637729154406
 30
0.0
 10
80.71060684419464
 20
113.748824206536
 30
0.0
 10
80.81126441972346
 20
113.0900623372993
 30
0.0
 10
80.90319198909121
 20
112.3924868660063
 30
0.0
 10
80.99702122289602
 20
111.6943854674341
 30
0.0
 10
81.08753138622153
 20
111.0447326520721
 30
0.0
 10
81.19648930955216
 20
110.3611851039202
 30
0.0
 10
81.30099071573854
 20
109.7948563825791
 30
0.0
 10
81.46481811722884
 20
109.3341209551337
 30
0.0
 10
81.69180614897456
 20
109.1155434696905
 30
0.0
 10
81.95606111330973
 20
109.1304731815194
 30
0.0
 10
82.21559428594993
 20
109.3501462479345
 30
0.0
 10
82.28987280015318
 20
109.6233214916972
 30
0.0
 10
82.33237163201885
 20
109.8235256708015
 30
0.0
 10
82.33432796777532
 20
109.8327416086752
 30
0.0
  0
SPLINE
  5
166
330
1F
100
AcDbEntity
  8
0
  6
Continuous
 62
     7
370
    25
100
AcDbSpline
210
0.0
220
0.0
230
1.0
 70
     8
 71
     3
 72
    18
 73
    14
 74
     0
 42
0.00000001
 43
0.00000001
 40
0.0
 40
0.0
 40
0.0
 40
0.0
 40
0.0094100030706631
 40
0.0491422018723994
 40
0.1251463303516753
 40
0.232391165174639
 40
0.3543887002999148
 40
0.4824122507894918
 40
0.6082808341170711
 40
0.7248493543080428
 40
0.8269749503931926
 40
0.9112603041759683
 40
1.0
 40
1.0
 40
1.0
 40
1.0
 10
82.95036432327078
 20
114.9345241112817
 30
0.0
 10
82.94816022651659
 20
114.9169601892198
 30
0.0
 10
82.93664969173491
 20
114.8252354791261
 30
0.0
 10
83.02246641229151
 20
114.5983977640752
 30
0.0
 10
83.08097632343647
 20
114.1878882889435
 30
0.0
 10
83.18082631815692
 20
113.6241758809898
 30
0.0
 10
83.27109206227759
 20
112.9620519732227
 30
0.0
 10
83.36502821359574
 20
112.2648120944526
 30
0.0
 10
83.45762789996374
 20
111.5779449951092
 30
0.0
 10
83.54615954095007
 20
110.9387626671147
 30
0.0
 10
83.64339466301466
 20
110.3814092454491
 30
0.0
 10
83.72091108543015
 20
109.8684518080469
 30
0.0
 10
83.86135121959781
 20
109.5745738693023
 30
0.0
 10
83.93337902606771
 20
109.4238521157015
 30
0.0
  0
SPLINE
  5
167
330
1F
100
AcDbEntity
  8
0
  6
Continuous
 62
     7
370
    25
100
AcDbSpline
210
0.0
220
0.0
230
1.0
 70
     8
 71
     3
 72
    14
 73
    10
 74
     0
 42
0.00000001
 43
0.00000001
 40
0.0
 40
0.0
 40
0.0
 40
0.0
 40
0.0003764348944424
 40
0.0423200409910142
 40
0.1729656750376006
 40
0.3939553840882201
 40
0.6566929339349915
 40
0.9378002438078038
 40
1.0
 40
1.0
 40
1.0
 40
1.0
 10
85.38487878621862
 20
114.9401497652937
 30
0.0
 10
85.38455425823152
 20
114.9401306359129
 30
0.0
 10
85.34806976139237
 20
114.9379800484104
 30
0.0
 10
85.45767595983202
 20
114.7064480539652
 30
0.0
 10
85.46014729447812
 20
114.4630213483029
 30
0.0
 10
85.5908207984939
 20
113.8949399951685
 30
0.0
 10
85.67191993057166
 20
113.2624208816928
 30
0.0
 10
85.74569496508613
 20
112.7417829898459
 30
0.0
 10
85.78479087527961
 20
112.4495253174581
 30
0.0
 10
85.79187420190618
 20
112.3965745985109
 30
0.0
  0
SPLINE
  5
168
330
1F
100
AcDbEntity
  8
0
  6
Continuous
 62
     7
370
    25
100
AcDbSpline
210
0.0
220
0.0
230
1.0
 70
     8
 71
     3
 72
     9
 73
     5
 74
     0
 42
0.00000001
 43
0.00000001
 40
0.0
 40
0.0
 40
0.0
 40
0.0
 40
0.4047951209715708
 40
0.9999999999999999
 40
0.9999999999999999
 40
0.9999999999999999
 40
0.9999999999999999
 10
86.96411875070379
 20
109.2698902914483
 30
0.0
 10
87.01976572089703
 20
109.3349736277871
 30
0.0
 10
87.15723518954988
 20
109.495754558601
 30
0.0
 10
87.18878679951553
 20
109.7070045707496
 30
0.0
 10
87.20756647170828
 20
109.8327416086752
 30
0.0
  0
SPLINE
  5
169
330
1F
100
AcDbEntity
  8
0
  6
Continuous
 62
     7
370
    25
100
AcDbSpline
210
0.0
220
0.0
230
1.0
 70
     8
 71
     3
 72
    14
 73
    10
 74
     0
 42
0.00000001
 43
0.00000001
 40
0.0
 40
0.0
 40
0.0
 40
0.0
 40
0.008132993498235
 40
0.0670908737961196
 40
0.2257731937421351
 40
0.4508275888454669
 40
0.711712450064107
 40
0.986568802170585
 40
1.0
 40
1.0
 40
1.0
 40
1.0
 10
87.833616407526
 20
114.9442692378719
 30
0.0
 10
87.82598977529564
 20
114.9448146498453
 30
0.0
 10
87.7630759883159
 20
114.9493138746243
 30
0.0
 10
87.9384710246334
 20
114.6542719778708
 30
0.0
 10
87.9168151350608
 20
114.365909558866
 30
0.0
 10
88.05622246763548
 20
113.7720553509207
 30
0.0
 10
88.13386813599114
 20
113.132527248468
 30
0.0
 10
88.20142284784195
 20
112.6562589081215
 30
0.0
 10
88.23475968857439
 20
112.408134607166
 30
0.0
 10
88.23631283820913
 20
112.3965745985109
 30
0.0
  0
SPLINE
  5
16A
330
1F
100
AcDbEntity
  8
0
  6
Continuous
 62
     7
370
    25
100
AcDbSpline
210
0.0
220
0.0
230
1.0
 70
     8
 71
     3
 72
    14
 73
    10
 74
     0
 42
0.00000001
 43
0.00000001
 40
0.0
 40
0.0
 40
0.0
 40
0.0
 40
0.0188442923392621
 40
0.24269619857697
 40
0.4011241899221163
 40
0.5705545063499947
 40
0.658844131123359
 40
0.7865015050992488
 40
1.0
 40
1.0
 40
1.0
 40
1.0
 10
88.51892081083105
 20
110.4487600362111
 30
0.0
 10
88.52137917563869
 20
110.433372948887
 30
0.0
 10
88.55304052873097
 20
110.2352021959874
 30
0.0
 10
88.62197902832138
 20
109.9071334150509
 30
0.0
 10
88.73309246932324
 20
109.4756033996965
 30
0.0
 10
88.9298505586941
 20
109.1395211430901
 30
0.0
 10
89.27948069891573
 20
109.1115124369498
 30
0.0
 10
89.56548139519118
 20
109.377596812695
 30
0.0
 10
89.62581258996782
 20
109.6575465047516
 30
0.0
 10
89.66356840909765
 20
109.8327416086752
 30
0.0
  0
SPLINE
  5
16B
330
1F
100
AcDbEntity
  8
0
  6
Continuous
 62
     7
370
    25
100
AcDbSpline
210
0.0
220
0.0
230
1.0
 70
     8
 71
     3
 72
    22
 73
    18
 74
     0
 42
0.00000001
 43
0.00000001
 40
0.0
 40
0.0
 40
0.0
 40
0.0
 40
0.0013253938612002
 40
0.024573317519545
 40
0.0856115003289281
 40
0.1699105266531765
 40
0.2666775082489131
 40
0.3673722534461775
 40
0.4699809445415066
 40
0.571569123066144
 40
0.6654213726665996
 40
0.7437607933218388
 40
0.8312424518924788
 40
0.8594731677162112
 40
0.8940191623710463
 40
0.9716318211327923
 40
1.0
 40
1.0
 40
1.0
 40
1.0
 10
90.25845256627844
 20
114.9549910890121
 30
0.0
 10
90.25533848162873
 20
114.9542187535717
 30
0.0
 10
90.19760214142082
 20
114.9398993542114
 30
0.0
 10
90.39704754276265
 20
114.6640071544905
 30
0.0
 10
90.3589287933127
 20
114.3437234069237
 30
0.0
 10
90.50574383409312
 20
113.7507545442578
 30
0.0
 10
90.58165984452498
 20
113.105437962352
 30
0.0
 10
90.68112658421826
 20
112.4031586543192
 30
0.0
 10
90.77421173378947
 20
111.6929868166512
 30
0.0
 10
90.87262241524058
 20
111.0000493218226
 30
0.0
 10
90.97281972870918
 20
110.3600264545783
 30
0.0
 10
91.0976677083461
 20
109.7748781767982
 30
0.0
 10
91.22067064348325
 20
109.2954961305142
 30
0.0
 10
91.54008322529484
 20
109.100828295589
 30
0.0
 10
91.8990149347108
 20
109.1753421657041
 30
0.0
 10
92.0386627492854
 20
109.5294866516053
 30
0.0
 10
92.09496932084993
 20
109.7687084576415
 30
0.0
 10
92.11004105390356
 20
109.8327416086752
 30
0.0
  0
LINE
  5
16C
330
1F
100
AcDbEntity
  8
0
  6
Continuous
 62
     7
370
    25
100
AcDbLine
 10
92.8002255875
 20
114.5065685826
 30
0.0
 11
92.8218248207
 21
114.4008082895
 31
0.0
  0
LINE
  5
16D
330
1F
100
AcDbEntity
  8
0
  6
Continuous
 62
     7
370
    25
100
AcDbLine
 10
92.4235763866
 20
115.0914361326
 30
0.0
 11
92.331174286
 21
114.8327414969
 31
0.0
  0
SPLINE
  5
16E
330
1F
100
AcDbEntity
  8
0
  6
Continuous
 62
     7
370
    25
100
AcDbSpline
210
0.0
220
0.0
230
1.0
 70
     8
 71
     3
 72
    23
 73
    19
 74
     0
 42
0.00000001
 43
0.00000001
 40
0.0
 40
0.0
 40
0.0
 40
0.0
 40
0.000201028442974
 40
0.0051950349998704
 40
0.0564204000334172
 40
0.1141377053643115
 40
0.1920915916578043
 40
0.2861662123163206
 40
0.3879874398857345
 40
0.4916217806024866
 40
0.5905414891375715
 40
0.6745989606821813
 40
0.7384394175162996
 40
0.8233446473498668
 40
0.8623868643714219
 40
0.889226864375108
 40
0.9465533944606753
 40
0.9999999999999999
 40
0.9999999999999999
 40
0.9999999999999999
 40
0.9999999999999999
 10
91.72746864141271
 20
109.7189344557185
 30
0.0
 10
91.72795118198955
 20
109.718939116165
 30
0.0
 10
91.74042113474079
 20
109.7190595527669
 30
0.0
 10
91.64367588895347
 20
109.9161720967121
 30
0.0
 10
91.64829694605389
 20
110.0884531002679
 30
0.0
 10
91.53681784153896
 20
110.5599224449173
 30
0.0
 10
91.46437810501786
 20
111.0774744337928
 30
0.0
 10
91.37036140259951
 20
111.7197227884838
 30
0.0
 10
91.27850285034766
 20
112.4151582354968
 30
0.0
 10
91.18338499150349
 20
113.1243319872755
 30
0.0
 10
91.08731092110675
 20
113.7894785218671
 30
0.0
 10
90.99591651051891
 20
114.3644815512588
 30
0.0
 10
90.87939690718297
 20
114.8913799353911
 30
0.0
 10
90.77561352899724
 20
115.3477736563226
 30
0.0
 10
90.45283051110978
 20
115.5611364898771
 30
0.0
 10
90.14642745900966
 20
115.509323814237
 30
0.0
 10
89.95956392997937
 20
115.2016060858911
 30
0.0
 10
89.89728584903656
 20
114.952791376697
 30
0.0
 10
89.86723748029516
 20
114.8327414969165
 30
0.0
  0
SPLINE
  5
16F
330
1F
100
AcDbEntity
  8
0
  6
Continuous
 62
     7
370
    25
100
AcDbSpline
210
0.0
220
0.0
230
1.0
 70
     8
 71
     3
 72
    11
 73
     7
 74
     0
 42
0.00000001
 43
0.00000001
 40
0.0
 40
0.0
 40
0.0
 40
0.0
 40
0.0071335556960786
 40
0.2343150916871167
 40
0.6894182594722653
 40
1.0
 40
1.0
 40
1.0
 40
1.0
 10
89.29246244014547
 20
109.6962183339704
 30
0.0
 10
89.29423152073068
 20
109.6963286126967
 30
0.0
 10
89.352340309277
 20
109.6999509254624
 30
0.0
 10
89.16082884252067
 20
109.951611029709
 30
0.0
 10
89.19098758691321
 20
110.1345310425875
 30
0.0
 10
89.14885741344142
 20
110.3245175182288
 30
0.0
 10
89.13176831783102
 20
110.4015809808109
 30
0.0
  0
SPLINE
  5
170
330
1F
100
AcDbEntity
  8
0
  6
Continuous
 62
     7
370
    25
100
AcDbSpline
210
0.0
220
0.0
230
1.0
 70
     8
 71
     3
 72
    16
 73
    12
 74
     0
 42
0.00000001
 43
0.00000001
 40
0.0
 40
0.0
 40
0.0
 40
0.0
 40
0.0832953212090858
 40
0.2438543633834431
 40
0.385999694239162
 40
0.5026073165985664
 40
0.6628365785513741
 40
0.7388945142275328
 40
0.7999469341754677
 40
0.8884292942208813
 40
0.9999999999999999
 40
0.9999999999999999
 40
0.9999999999999999
 40
0.9999999999999999
 10
88.83626339019582
 20
112.3965745985109
 30
0.0
 10
88.82039593223965
 20
112.5152859617242
 30
0.0
 10
88.77394255644077
 20
112.8628238964193
 30
0.0
 10
88.69799341772993
 20
113.4125344391414
 30
0.0
 10
88.61052137070101
 20
114.0093405423101
 30
0.0
 10
88.5006356892423
 20
114.6011088739609
 30
0.0
 10
88.40881389796473
 20
115.1025647007457
 30
0.0
 10
88.17617992118379
 20
115.4826746828071
 30
0.0
 10
87.82473673820284
 20
115.589620903886
 30
0.0
 10
87.51735094130045
 20
115.2734433900789
 30
0.0
 10
87.46896769447432
 20
114.9905260619556
 30
0.0
 10
87.44198408902929
 20
114.8327414969165
 30
0.0
  0
SPLINE
  5
171
330
1F
100
AcDbEntity
  8
0
  6
Continuous
 62
     7
370
    25
100
AcDbSpline
210
0.0
220
0.0
230
1.0
 70
     8
 71
     3
 72
    17
 73
    13
 74
     0
 42
0.00000001
 43
0.00000001
 40
0.0
 40
0.0
 40
0.0
 40
0.0
 40
0.1106036184277962
 40
0.2671059308927164
 40
0.4059210226527808
 40
0.5223439587031415
 40
0.6134767491013896
 40
0.6913620326063216
 40
0.7619449425433791
 40
0.8142113388929999
 40
0.8656605736592929
 40
1.0
 40
1.0
 40
1.0
 40
1.0
 10
86.39175024808691
 20
112.3965745985109
 30
0.0
 10
86.370633110084
 20
112.5545245882579
 30
0.0
 10
86.31963556692735
 20
112.9359712320981
 30
0.0
 10
86.23935335323229
 20
113.5152747174578
 30
0.0
 10
86.14963036384064
 20
114.1017429434055
 30
0.0
 10
86.06040045881846
 20
114.5927683922632
 30
0.0
 10
85.96714679990852
 20
114.9938104982459
 30
0.0
 10
85.85127504223905
 20
115.3198783851709
 30
0.0
 10
85.6310006587718
 20
115.5436218353871
 30
0.0
 10
85.35448448066397
 20
115.5414891284578
 30
0.0
 10
85.08520061521175
 20
115.2985696975547
 30
0.0
 10
85.02896754666462
 20
115.0282229173254
 30
0.0
 10
84.98830673278616
 20
114.8327414969165
 30
0.0
  0
SPLINE
  5
172
330
1F
100
AcDbEntity
  8
0
  6
Continuous
 62
     7
370
    25
100
AcDbSpline
210
0.0
220
0.0
230
1.0
 70
     8
 71
     3
 72
    18
 73
    14
 74
     0
 42
0.00000001
 43
0.00000001
 40
0.0
 40
0.0
 40
0.0
 40
0.0
 40
0.0808954491044961
 40
0.2351366075624826
 40
0.3770760540844353
 40
0.5011482442388049
 40
0.6022320697804772
 40
0.7247104090071046
 40
0.7643423772251222
 40
0.8136396356877436
 40
0.8866148859318569
 40
0.9614835338545017
 40
1.0
 40
1.0
 40
1.0
 40
1.0
 10
83.97087779821202
 20
112.2223465984055
 30
0.0
 10
83.9547224991506
 20
112.3426231314873
 30
0.0
 10
83.90776432959338
 20
112.6922276676054
 30
0.0
 10
83.83215541876471
 20
113.2530449702355
 30
0.0
 10
83.74071923225948
 20
113.8761797582224
 30
0.0
 10
83.65034435002008
 20
114.4216074004856
 30
0.0
 10
83.53922248904661
 20
114.9249469953279
 30
0.0
 10
83.42853034227284
 20
115.3257348920512
 30
0.0
 10
83.17599167223356
 20
115.536179262016
 30
0.0
 10
82.90958901544728
 20
115.5491366493176
 30
0.0
 10
82.67925177098076
 20
115.3191747859938
 30
0.0
 10
82.58648894606782
 20
115.0549015556733
 30
0.0
 10
82.54823502643387
 20
114.8890728423176
 30
0.0
 10
82.53524032415197
 20
114.8327414969165
 30
0.0
  0
SPLINE
  5
173
330
1F
100
AcDbEntity
  8
0
  6
Continuous
 62
     7
370
    25
100
AcDbSpline
210
0.0
220
0.0
230
1.0
 70
     8
 71
     3
 72
    22
 73
    18
 74
     0
 42
0.00000001
 43
0.00000001
 40
0.0
 40
0.0
 40
0.0
 40
0.0
 40
0.010957087263439
 40
0.0563244138392005
 40
0.1336753173993034
 40
0.2270266339670543
 40
0.3282127724573342
 40
0.4296176514288205
 40
0.5286853137337048
 40
0.6226390847431015
 40
0.7056191295157997
 40
0.8110675817102111
 40
0.8387631546436894
 40
0.8665163556463715
 40
0.906843227901408
 40
0.9515371597990546
 40
1.0
 40
1.0
 40
1.0
 40
1.0
 10
81.93507370532797
 20
109.7209272531975
 30
0.0
 10
81.93299431217612
 20
109.7465717470274
 30
0.0
 10
81.92230528528394
 20
109.8783961131605
 30
0.0
 10
81.82230532355074
 20
110.178512244342
 30
0.0
 10
81.74918402557712
 20
110.6804761255947
 30
0.0
 10
81.64873066914114
 20
111.3099791111018
 30
0.0
 10
81.55636157362858
 20
111.9979095704792
 30
0.0
 10
81.46281838337764
 20
112.6992483480744
 30
0.0
 10
81.36883698474487
 20
113.3828321489521
 30
0.0
 10
81.27532143756676
 20
114.0249675089532
 30
0.0
 10
81.15081996532157
 20
114.6700925530091
 30
0.0
 10
81.05470137156983
 20
115.1860931751042
 30
0.0
 10
80.81265586754446
 20
115.4863677244804
 30
0.0
 10
80.58690457481538
 20
115.5714268243789
 30
0.0
 10
80.32185605688477
 20
115.4411718971602
 30
0.0
 10
80.1663958486147
 20
115.1587594188728
 30
0.0
 10
80.1226642086068
 20
114.9443062314746
 30
0.0
 10
80.09991374791906
 20
114.8327414969165
 30
0.0
  0
SPLINE
  5
174
330
1F
100
AcDbEntity
  8
0
  6
Continuous
 62
     7
370
    25
100
AcDbSpline
210
0.0
220
0.0
230
1.0
 70
     8
 71
     3
 72
    21
 73
    17
 74
     0
 42
0.00000001
 43
0.00000001
 40
0.0
 40
0.0
 40
0.0
 40
0.0
 40
0.0121047002992072
 40
0.060456688361125
 40
0.1397574053168576
 40
0.234668718785449
 40
0.3357736059921965
 40
0.4375932498829792
 40
0.5400778773329031
 40
0.6371559760653902
 40
0.721540590773216
 40
0.783123111072347
 40
0.8484207021116558
 40
0.8800890441119565
 40
0.9213129616984493
 40
1.0
 40
1.0
 40
1.0
 40
1.0
 10
79.50427708209799
 20
109.7052880188633
 30
0.0
 10
79.49855944679653
 20
109.7331474969109
 30
0.0
 10
79.4700028293638
 20
109.8722911139023
 30
0.0
 10
79.38088453895674
 20
110.1887307208729
 30
0.0
 10
79.29842131918981
 20
110.7058332756164
 30
0.0
 10
79.20017332906119
 20
111.3448656069188
 30
0.0
 10
79.10632144323417
 20
112.0383954019961
 30
0.0
 10
79.01164025244175
 20
112.7494600227018
 30
0.0
 10
78.91501810214527
 20
113.4513898533349
 30
0.0
 10
78.81561030910974
 20
114.1093696096541
 30
0.0
 10
78.70847659343646
 20
114.6755274011379
 30
0.0
 10
78.59488110026108
 20
115.1448082756845
 30
0.0
 10
78.39703286722302
 20
115.5207599085453
 30
0.0
 10
78.0407889890598
 20
115.5545414133258
 30
0.0
 10
77.74654120560325
 20
115.3010215679716
 30
0.0
 10
77.68854261096656
 20
115.0182799865539
 30
0.0
 10
77.65048322261617
 20
114.8327414969165
 30
0.0
  0
SPLINE
  5
175
330
1F
100
AcDbEntity
  8
0
  6
Continuous
 62
     7
370
    25
100
AcDbSpline
210
0.0
220
0.0
230
1.0
 70
     8
 71
     3
 72
    23
 73
    19
 74
     0
 42
0.00000001
 43
0.00000001
 40
0.0
 40
0.0
 40
0.0
 40
0.0
 40
0.0014487029944617
 40
0.0247348998591035
 40
0.0803635841995956
 40
0.1568003850045923
 40
0.2474265420999104
 40
0.345896598890658
 40
0.4491649365287088
 40
0.5524923256428106
 40
0.6489036383523813
 40
0.7303067984359173
 40
0.830076907052919
 40
0.8600505029641887
 40
0.8866328957009023
 40
0.9174557769150208
 40
0.9575598647424474
 40
1.0
 40
1.0
 40
1.0
 40
1.0
 10
77.05334899009512
 20
109.7144119532962
 30
0.0
 10
77.05649375547664
 20
109.7159267442914
 30
0.0
 10
77.11018692591261
 20
109.7417900190403
 30
0.0
 10
76.9300387401076
 20
109.979537849278
 30
0.0
 10
76.95398026066019
 20
110.2927245786642
 30
0.0
 10
76.82171905804435
 20
110.8285855729946
 30
0.0
 10
76.74693009497328
 20
111.438774888816
 30
0.0
 10
76.64955439933065
 20
112.1213956534158
 30
0.0
 10
76.55664470432986
 20
112.8315362591014
 30
0.0
 10
76.45798136755315
 20
113.535362540683
 30
0.0
 10
76.35911523372755
 20
114.1927455997985
 30
0.0
 10
76.23019908842186
 20
114.8178015375491
 30
0.0
 10
76.11503797983032
 20
115.3479664553214
 30
0.0
 10
75.7836479634045
 20
115.552699151811
 30
0.0
 10
75.56543662562561
 20
115.5272495199679
 30
0.0
 10
75.38642838773117
 20
115.368131146956
 30
0.0
 10
75.27424706986143
 20
115.1212977999082
 30
0.0
 10
75.23734731594193
 20
114.930724706102
 30
0.0
 10
75.21837529720113
 20
114.8327414969165
 30
0.0
  0
SPLINE
  5
176
330
1F
100
AcDbEntity
  8
0
  6
Continuous
 62
     7
370
    25
100
AcDbSpline
210
0.0
220
0.0
230
1.0
 70
     8
 71
     3
 72
    22
 73
    18
 74
     0
 42
0.00000001
 43
0.00000001
 40
0.0
 40
0.0
 40
0.0
 40
0.0
 40
0.0096496869531723
 40
0.0531240070637798
 40
0.1186440882954491
 40
0.2011937537529861
 40
0.2958501489799321
 40
0.3984899227548985
 40
0.5041583740683723
 40
0.6059388378595412
 40
0.695788441421767
 40
0.8157604943158121
 40
0.8492293071241503
 40
0.8685180363708447
 40
0.8866191256663795
 40
0.9165711816794858
 40
1.0
 40
1.0
 40
1.0
 40
1.0
 10
74.60961815894888
 20
109.7206511160542
 30
0.0
 10
74.60700398444413
 20
109.7431174490025
 30
0.0
 10
74.59261228183972
 20
109.8668003867016
 30
0.0
 10
74.50126714781742
 20
110.1314984886836
 30
0.0
 10
74.43383351101717
 20
110.5757034744825
 30
0.0
 10
74.34081716534325
 20
111.1361984872807
 30
0.0
 10
74.25163969696466
 20
111.7855493433463
 30
0.0
 10
74.15746107412377
 20
112.4888238141078
 30
0.0
 10
74.05993187911861
 20
113.2079078002814
 30
0.0
 10
73.96213613485712
 20
113.8989516250213
 30
0.0
 10
73.83096095371171
 20
114.610909925319
 30
0.0
 10
73.72927943189298
 20
115.1927674201806
 30
0.0
 10
73.44239890627185
 20
115.5062401449482
 30
0.0
 10
73.27489558137654
 20
115.5454676750258
 30
0.0
 10
73.11531449475302
 20
115.516254909152
 30
0.0
 10
72.8730967399237
 20
115.29978021303
 30
0.0
 10
72.81832765447584
 20
115.0307220316646
 30
0.0
 10
72.7780270296459
 20
114.8327414969165
 30
0.0
  0
SPLINE
  5
177
330
1F
100
AcDbEntity
  8
0
  6
Continuous
 62
     7
370
    25
100
AcDbSpline
210
0.0
220
0.0
230
1.0
 70
     8
 71
     3
 72
    23
 73
    19
 74
     0
 42
0.00000001
 43
0.00000001
 40
0.0
 40
0.0
 40
0.0
 40
0.0
 40
0.0015101830666038
 40
0.0117445978150432
 40
0.0537919168685238
 40
0.1153103609548217
 40
0.1949114701778591
 40
0.2890149216193567
 40
0.3907813045346354
 40
0.4941900922247476
 40
0.5928508539022326
 40
0.6790318575707768
 40
0.7453800789513446
 40
0.8284057434589079
 40
0.8618926474593495
 40
0.8910010944612373
 40
0.9684552849434978
 40
1.0
 40
1.0
 40
1.0
 40
1.0
 10
72.16067192138479
 20
109.7343669364412
 30
0.0
 10
72.16378118699554
 20
109.7363579101692
 30
0.0
 10
72.18796174821767
 20
109.7518415864291
 30
0.0
 10
72.08828700753564
 20
109.8976716159801
 30
0.0
 10
72.08962932758196
 20
110.1305303294942
 30
0.0
 10
71.9784317806132
 20
110.5657392009475
 30
0.0
 10
71.90571708061665
 20
111.104103348878
 30
0.0
 10
71.81143120935293
 20
111.7443101469384
 30
0.0
 10
71.71995889204
 20
112.4377917214114
 30
0.0
 10
71.6251259802634
 20
113.1429604246905
 30
0.0
 10
71.52836649588657
 20
113.8093323175326
 30
0.0
 10
71.43512223009208
 20
114.3931193126033
 30
0.0
 10
71.31487472824237
 20
114.9215438979623
 30
0.0
 10
71.20341847211613
 20
115.3686309860275
 30
0.0
 10
70.88940998259328
 20
115.5573409100915
 30
0.0
 10
70.54064991298927
 20
115.4950569187236
 30
0.0
 10
70.3891256491993
 20
115.1480290745058
 30
0.0
 10
70.3330350708363
 20
114.9035071193886
 30
0.0
 10
70.31680223525808
 20
114.8327414969165
 30
0.0
  0
SPLINE
  5
178
330
1F
100
AcDbEntity
  8
0
  6
Continuous
 62
     7
370
    25
100
AcDbSpline
210
0.0
220
0.0
230
1.0
 70
     8
 71
     3
 72
    23
 73
    19
 74
     0
 42
0.00000001
 43
0.00000001
 40
0.0
 40
0.0
 40
0.0
 40
0.0
 40
0.0020082438047009
 40
0.0254281581952989
 40
0.0704407940409653
 40
0.1365214945122065
 40
0.2246409347747058
 40
0.3287047860502701
 40
0.4402387573615708
 40
0.5526692248461443
 40
0.6586964599151008
 40
0.7465740539705554
 40
0.8594215631038477
 40
0.9036156685315466
 40
0.9437955284833327
 40
0.9723137951470114
 40
0.9992312061373668
 40
1.0
 40
1.0
 40
1.0
 40
1.0
 10
69.71762654365347
 20
109.72911776958
 30
0.0
 10
69.72219266362485
 20
109.7286633995452
 30
0.0
 10
69.78000836344145
 20
109.72291021704
 30
0.0
 10
69.62064290834698
 20
109.961094834044
 30
0.0
 10
69.63719548201881
 20
110.1802002613149
 30
0.0
 10
69.52150855742379
 20
110.6339297744887
 30
0.0
 10
69.4517610536111
 20
111.1724230228682
 30
0.0
 10
69.35573250283204
 20
111.8259142453289
 30
0.0
 10
69.26396701010583
 20
112.5264388115073
 30
0.0
 10
69.16764590334806
 20
113.232400794459
 30
0.0
 10
69.07412800305298
 20
113.8872211055641
 30
0.0
 10
68.95819292517388
 20
114.5380221273651
 30
0.0
 10
68.86092277282977
 20
115.0615894914896
 30
0.0
 10
68.65322113800357
 20
115.4437875454157
 30
0.0
 10
68.40829900936475
 20
115.5631182576213
 30
0.0
 10
68.20742770666529
 20
115.4996640229659
 30
0.0
 10
68.09634078969147
 20
115.4240696760523
 30
0.0
 10
68.07626963346446
 20
115.3677257237765
 30
0.0
 10
68.07571229518697
 20
115.3661611581404
 30
0.0
  0
LINE
  5
179
330
1F
100
AcDbEntity
  8
0
  6
Continuous
 62
     7
370
    25
100
AcDbLine
 10
97.9062723833
 20
105.3327413367
 30
0.0
 11
98.4062733966
 21
105.8327414187
 31
0.0
  0
LINE
  5
17A
330
1F
100
AcDbEntity
  8
0
  6
Continuous
 62
     7
370
    25
100
AcDbLine
 10
98.4062733966
 20
118.8327416869
 30
0.0
 11
97.9062723833
 21
119.3327417689
 31
0.0
  0
LINE
  5
17B
330
1F
100
AcDbEntity
  8
0
  6
Continuous
 62
     7
370
    25
100
AcDbLine
 10
97.9062723833
 20
119.3327417689
 30
0.0
 11
83.9062738139
 21
119.3327417689
 31
0.0
  0
LINE
  5
17C
330
1F
100
AcDbEntity
  8
0
  6
Continuous
 62
     7
370
    25
100
AcDbLine
 10
83.9062738139
 20
105.3327413367
 30
0.0
 11
97.9062723833
 21
105.3327413367
 31
0.0
  0
LINE
  5
17D
330
1F
100
AcDbEntity
  8
0
  6
Continuous
 62
     7
370
    25
100
AcDbLine
 10
98.4062733966
 20
107.3327416646
 30
0.0
 11
99.9062764365
 21
107.3327416646
 31
0.0
  0
LINE
  5
17E
330
1F
100
AcDbEntity
  8
0
  6
Continuous
 62
     7
370
    25
100
AcDbLine
 10
99.9062764365
 20
117.332741441
 30
0.0
 11
98.4062733966
 21
117.332741441
 31
0.0
  0
LINE
  5
17F
330
1F
100
AcDbEntity
  8
0
  6
Continuous
 62
     7
370
    25
100
AcDbLine
 10
107.9062702972
 20
107.3327416646
 30
0.0
 11
120.1562764961
 21
107.3327416646
 31
0.0
  0
LINE
  5
180
330
1F
100
AcDbEntity
  8
0
  6
Continuous
 62
     7
370
    25
100
AcDbLine
 10
119.756269725
 20
117.332741441
 30
0.0
 11
107.9062702972
 21
117.332741441
 31
0.0
  0
LINE
  5
181
330
1F
100
AcDbEntity
  8
0
  6
Continuous
 62
     7
370
    25
100
AcDbLine
 10
107.9062702972
 20
117.332741441
 30
0.0
 11
104.9062716681
 21
116.3327417428
 31
0.0
  0
LINE
  5
182
330
1F
100
AcDbEntity
  8
0
  6
Continuous
 62
     7
370
    25
100
AcDbLine
 10
104.9062716681
 20
108.3327413628
 30
0.0
 11
107.9062702972
 21
107.3327416646
 31
0.0
  0
LINE
  5
183
330
1F
100
AcDbEntity
  8
0
  6
Continuous
 62
     7
370
    25
100
AcDbLine
 10
99.9062764365
 20
108.3327413628
 30
0.0
 11
104.9062716681
 21
108.3327413628
 31
0.0
  0
LINE
  5
184
330
1F
100
AcDbEntity
  8
0
  6
Continuous
 62
     7
370
    25
100
AcDbLine
 10
104.9062716681
 20
116.3327417428
 30
0.0
 11
99.9062764365
 21
116.3327417428
 31
0.0
  0
LINE
  5
185
330
1F
100
AcDbEntity
  8
0
  6
Continuous
 62
     7
370
    25
100
AcDbLine
 10
69.7272824961
 20
109.8327416087
 30
0.0
 11
71.5593355614
 21
109.8327416087
 31
0.0
  0
LINE
  5
186
330
1F
100
AcDbEntity
  8
0
  6
Continuous
 62
     7
370
    25
100
AcDbLine
 10
72.1452641207
 20
109.8327416087
 30
0.0
 11
74.0099358279
 21
109.8327416087
 31
0.0
  0
LINE
  5
187
330
1F
100
AcDbEntity
  8
0
  6
Continuous
 62
     7
370
    25
100
AcDbLine
 10
74.589471789
 20
109.8327416087
 30
0.0
 11
76.430554958
 21
109.8327416087
 31
0.0
  0
LINE
  5
188
330
1F
100
AcDbEntity
  8
0
  6
Continuous
 62
     7
370
    25
100
AcDbLine
 10
77.0312356669
 20
109.8327416087
 30
0.0
 11
78.8800823408
 21
109.8327416087
 31
0.0
  0
LINE
  5
189
330
1F
100
AcDbEntity
  8
0
  6
Continuous
 62
     7
370
    25
100
AcDbLine
 10
79.4759350735
 20
109.8327416087
 30
0.0
 11
81.3193875271
 21
109.8327416087
 31
0.0
  0
LINE
  5
18A
330
1F
100
AcDbEntity
  8
0
  6
Continuous
 62
     7
370
    25
100
AcDbLine
 10
81.9192188698
 20
109.8327416087
 30
0.0
 11
83.7626340705
 21
109.8327416087
 31
0.0
  0
LINE
  5
18B
330
1F
100
AcDbEntity
  8
0
  6
Continuous
 62
     7
370
    25
100
AcDbLine
 10
87.326015802
 20
109.8327416087
 30
0.0
 11
88.6448803264
 21
109.8327416087
 31
0.0
  0
LINE
  5
18C
330
1F
100
AcDbEntity
  8
0
  6
Continuous
 62
     7
370
    25
100
AcDbLine
 10
89.2897280771
 20
109.8327416087
 30
0.0
 11
91.0893413144
 21
109.8327416087
 31
0.0
  0
LINE
  5
18D
330
1F
100
AcDbEntity
  8
0
  6
Continuous
 62
     7
370
    25
100
AcDbLine
 10
91.7265298683
 20
109.8327416087
 30
0.0
 11
92.9062697011
 21
109.8327416087
 31
0.0
  0
LINE
  5
18E
330
1F
100
AcDbEntity
  8
0
  6
Continuous
 62
     7
370
    25
100
AcDbLine
 10
92.6500740367
 20
114.8327414969
 30
0.0
 11
90.8918189722
 21
114.8327414969
 31
0.0
  0
LINE
  5
18F
330
1F
100
AcDbEntity
  8
0
  6
Continuous
 62
     7
370
    25
100
AcDbLine
 10
90.2704703528
 20
114.8327414969
 30
0.0
 11
88.4322482067
 21
114.8327414969
 31
0.0
  0
LINE
  5
190
330
1F
100
AcDbEntity
  8
0
  6
Continuous
 62
     7
370
    25
100
AcDbLine
 10
87.8388914186
 20
114.8327414969
 30
0.0
 11
85.9988587815
 21
114.8327414969
 31
0.0
  0
LINE
  5
191
330
1F
100
AcDbEntity
  8
0
  6
Continuous
 62
     7
370
    25
100
AcDbLine
 10
85.387814315
 20
114.8327414969
 30
0.0
 11
83.5557388979
 21
114.8327414969
 31
0.0
  0
LINE
  5
192
330
1F
100
AcDbEntity
  8
0
  6
Continuous
 62
     7
370
    25
100
AcDbLine
 10
82.9558777529
 20
114.8327414969
 30
0.0
 11
81.0923757869
 21
114.8327414969
 31
0.0
  0
LINE
  5
193
330
1F
100
AcDbEntity
  8
0
  6
Continuous
 62
     7
370
    25
100
AcDbLine
 10
80.4339977819
 20
114.8327414969
 30
0.0
 11
78.6627787072
 21
114.8327414969
 31
0.0
  0
LINE
  5
194
330
1F
100
AcDbEntity
  8
0
  6
Continuous
 62
     7
370
    25
100
AcDbLine
 10
78.0563312489
 20
114.8327414969
 30
0.0
 11
76.2154715973
 21
114.8327414969
 31
0.0
  0
LINE
  5
195
330
1F
100
AcDbEntity
  8
0
  6
Continuous
 62
     7
370
    25
100
AcDbLine
 10
75.6105291563
 20
114.8327414969
 30
0.0
 11
73.7479585129
 21
114.8327414969
 31
0.0
  0
LINE
  5
196
330
1F
100
AcDbEntity
  8
0
  6
Continuous
 62
     7
370
    25
100
AcDbLine
 10
73.1673794705
 20
114.8327414969
 30
0.0
 11
71.3331359345
 21
114.8327414969
 31
0.0
  0
LINE
  5
197
330
1F
100
AcDbEntity
  8
0
  6
Continuous
 62
     7
370
    25
100
AcDbLine
 10
70.6849652249
 20
114.8327414969
 30
0.0
 11
68.8752937037
 21
114.8327414969
 31
0.0
  0
LINE
  5
198
330
1F
100
AcDbEntity
  8
0
  6
Continuous
 62
     7
370
    25
100
AcDbLine
 10
68.2796346861
 20
114.8327414969
 30
0.0
 11
68.1082117278
 21
114.8327414969
 31
0.0
  0
LWPOLYLINE
  5
199
330
1F
100
AcDbEntity
  8
0
  6
Continuous
 62
     7
370
    25
100
AcDbPolyline
 90
        3
 70
   128
 43
0.0
 10
119.685690375
 20
117.4150829295
 10
119.7294997889
 20
117.3559649008
 10
119.756269725
 20
117.332741441
  0
LINE
  5
19A
330
1F
100
AcDbEntity
  8
0
  6
Continuous
 62
     7
370
    25
100
AcDbLine
 10
97.9062723833
 20
108.8327414448
 30
0.0
 11
97.9062723833
 21
119.3327417689
 31
0.0
  0
LINE
  5
19B
330
1F
100
AcDbEntity
  8
0
  6
Continuous
 62
     7
370
    25
100
AcDbLine
 10
97.9062723833
 20
105.3327413367
 30
0.0
 11
97.9062723833
 21
108.8327414448
 31
0.0
  0
LINE
  5
19C
330
1F
100
AcDbEntity
  8
0
  6
Continuous
 62
     7
370
    25
100
AcDbLine
 10
98.4062733966
 20
109.0827414857
 30
0.0
 11
98.4062733966
 21
105.8327414187
 31
0.0
  0
LINE
  5
19D
330
1F
100
AcDbEntity
  8
0
  6
Continuous
 62
     7
370
    25
100
AcDbLine
 10
98.4062733966
 20
118.8327416869
 30
0.0
 11
98.4062733966
 21
109.0827414857
 31
0.0
  0
LINE
  5
19E
330
1F
100
AcDbEntity
  8
0
  6
Continuous
 62
     7
370
    25
100
AcDbLine
 10
83.9062738139
 20
115.7773149291
 30
0.0
 11
91.1562698799
 21
115.7773149291
 31
0.0
  0
LINE
  5
19F
330
1F
100
AcDbEntity
  8
0
  6
Continuous
 62
     7
370
    25
100
AcDbLine
 10
83.9062738139
 20
115.7773149291
 30
0.0
 11
83.9062738139
 21
119.3327417689
 31
0.0
  0
LINE
  5
1A0
330
1F
100
AcDbEntity
  8
0
  6
Continuous
 62
     7
370
    25
100
AcDbLine
 10
83.9062738139
 20
105.3327413367
 30
0.0
 11
83.9062738139
 21
112.3965745985
 31
0.0
  0
LINE
  5
1A1
330
1F
100
AcDbEntity
  8
0
  6
Continuous
 62
     7
370
    25
100
AcDbLine
 10
89.4062700588
 20
112.3965745985
 30
0.0
 11
83.9062738139
 21
112.3965745985
 31
0.0
  0
LINE
  5
1A2
330
1F
100
AcDbEntity
  8
0
  6
Continuous
 62
     7
370
    25
100
AcDbLine
 10
89.4062700588
 20
112.3965745985
 30
0.0
 11
89.4062700588
 21
110.4594255423
 31
0.0
  0
LINE
  5
1A3
330
1F
100
AcDbEntity
  8
0
  6
Continuous
 62
     7
370
    25
100
AcDbLine
 10
89.4062700588
 20
110.4594255423
 30
0.0
 11
88.6562722641
 21
110.4594255423
 31
0.0
  0
SPLINE
  5
1A4
330
1F
100
AcDbEntity
  8
0
  6
Continuous
 62
     7
370
    25
100
AcDbSpline
210
0.0
220
0.0
230
1.0
 70
     8
 71
     3
 72
    17
 73
    13
 74
     0
 42
0.00000001
 43
0.00000001
 40
0.0
 40
0.0
 40
0.0
 40
0.0
 40
0.1127177762124033
 40
0.2242723614098009
 40
0.3353613474080444
 40
0.4431616658998507
 40
0.5430399625687274
 40
0.637341385879465
 40
0.7342061274984608
 40
0.840184445626723
 40
0.953795672456723
 40
1.0
 40
1.0
 40
1.0
 40
1.0
 10
88.65627226413534
 20
110.4594255423356
 30
0.0
 10
88.46321947937236
 20
110.4408393568371
 30
0.0
 10
88.07910611792758
 20
110.4038587859686
 30
0.0
 10
87.56538890668911
 20
110.1207676592061
 30
0.0
 10
87.16617918690439
 20
109.7127300681627
 30
0.0
 10
86.92641592122203
 20
109.2122852210688
 30
0.0
 10
86.88050571717163
 20
108.6867408331772
 30
0.0
 10
87.03773067281529
 20
108.2016308942201
 30
0.0
 10
87.3777591841823
 20
107.8093434988131
 30
0.0
 10
87.85731602461999
 20
107.5441301825429
 30
0.0
 10
88.30495971078176
 20
107.4390580753261
 30
0.0
 10
88.57748297382892
 20
107.4307412768968
 30
0.0
 10
88.65627226413534
 20
107.4283368045647
 30
0.0
  0
LINE
  5
1A5
330
1F
100
AcDbEntity
  8
0
  6
Continuous
 62
     7
370
    25
100
AcDbLine
 10
88.6562722641
 20
107.4283368046
 30
0.0
 11
91.1562698799
 21
107.4283368046
 31
0.0
  0
SPLINE
  5
1A6
330
1F
100
AcDbEntity
  8
0
  6
Continuous
 62
     7
370
    25
100
AcDbSpline
210
0.0
220
0.0
230
1.0
 70
     8
 71
     3
 72
    12
 73
     8
 74
     0
 42
0.00000001
 43
0.00000001
 40
0.0
 40
0.0
 40
0.0
 40
0.0
 40
0.2302615203182236
 40
0.4491773464137329
 40
0.6574357726353106
 40
0.8597898677737441
 40
1.0
 40
1.0
 40
1.0
 40
1.0
 10
91.15626987994955
 20
107.4283368045647
 30
0.0
 10
91.34782968416239
 20
107.4414899092309
 30
0.0
 10
91.72151055110422
 20
107.4671480245899
 30
0.0
 10
92.23636217798291
 20
107.6770525189834
 30
0.0
 10
92.64554622460876
 20
108.0142977810236
 30
0.0
 10
92.87448707502256
 20
108.4308519007184
 30
0.0
 10
92.89703920634798
 20
108.7160223502386
 30
0.0
 10
92.90626970113561
 20
108.8327414447624
 30
0.0
  0
LINE
  5
1A7
330
1F
100
AcDbEntity
  8
0
  6
Continuous
 62
     7
370
    25
100
AcDbLine
 10
92.9062697011
 20
108.8327414448
 30
0.0
 11
92.9062697011
 21
114.1444749057
 31
0.0
  0
SPLINE
  5
1A8
330
1F
100
AcDbEntity
  8
0
  6
Continuous
 62
     7
370
    25
100
AcDbSpline
210
0.0
220
0.0
230
1.0
 70
     8
 71
     3
 72
    12
 73
     8
 74
     0
 42
0.00000001
 43
0.00000001
 40
0.0
 40
0.0
 40
0.0
 40
0.0
 40
0.2168148240434114
 40
0.4286757863128203
 40
0.6395589841261483
 40
0.8522304573503355
 40
1.0
 40
1.0
 40
1.0
 40
1.0
 10
91.15626987994955
 20
115.7773149291236
 30
0.0
 10
91.34874387384767
 20
115.7608672088915
 30
0.0
 10
91.72929414776496
 20
115.7283475717555
 30
0.0
 10
92.24746102987179
 20
115.4680912676332
 30
0.0
 10
92.65166803907896
 20
115.0664158970673
 30
0.0
 10
92.87417225287817
 20
114.5948790805188
 30
0.0
 10
92.89693690556558
 20
114.2754364093944
 30
0.0
 10
92.90626970113561
 20
114.1444749057476
 30
0.0
  0
SPLINE
  5
1A9
330
1F
100
AcDbEntity
  8
0
  6
Continuous
 62
     7
370
    25
100
AcDbSpline
210
0.0
220
0.0
230
1.0
 70
     8
 71
     3
 72
    12
 73
     8
 74
     0
 42
0.00000001
 43
0.00000001
 40
0.0
 40
0.0
 40
0.0
 40
0.0
 40
0.2299427292583575
 40
0.4479960499351236
 40
0.6557055056594155
 40
0.8581457311839161
 40
1.0
 40
1.0
 40
1.0
 40
1.0
 10
91.15626987994955
 20
107.7391498813588
 30
0.0
 10
91.3470596779475
 20
107.7519484626986
 30
0.0
 10
91.71877430509265
 20
107.7768838624979
 30
0.0
 10
92.23223630971847
 20
107.9816837526181
 30
0.0
 10
92.64264734849387
 20
108.3136512605923
 30
0.0
 10
92.874085259818
 20
108.7289994833493
 30
0.0
 10
92.89687854201651
 20
109.0149329465425
 30
0.0
 10
92.90626970113561
 20
109.1327416336347
 30
0.0
  0
LINE
  5
1AA
330
1F
100
AcDbEntity
  8
0
  6
Continuous
 62
     7
370
    25
100
AcDbLine
 10
88.6562722641
 20
107.7391498814
 30
0.0
 11
91.1562698799
 21
107.7391498814
 31
0.0
  0
SPLINE
  5
1AB
330
1F
100
AcDbEntity
  8
0
  6
Continuous
 62
     7
370
    25
100
AcDbSpline
210
0.0
220
0.0
230
1.0
 70
     8
 71
     3
 72
    12
 73
     8
 74
     0
 42
0.00000001
 43
0.00000001
 40
0.0
 40
0.0
 40
0.0
 40
0.0
 40
0.1828387326400588
 40
0.3984558634654212
 40
0.6357484578272607
 40
0.8915683793174105
 40
1.0
 40
1.0
 40
1.0
 40
1.0
 10
86.93386939348028
 20
108.9255882518549
 30
0.0
 10
86.9664290204952
 20
108.7891350186772
 30
0.0
 10
87.0373853988786
 20
108.4917659105928
 30
0.0
 10
87.37415552035021
 20
108.1207278811914
 30
0.0
 10
87.84706142668455
 20
107.8560720435065
 30
0.0
 10
88.2982039634731
 20
107.7503389395224
 30
0.0
 10
88.57413283289067
 20
107.7417166063999
 30
0.0
 10
88.65627226413534
 20
107.7391498813588
 30
0.0
  0
LINE
  5
1AC
330
1F
100
AcDbEntity
  8
0
  6
Continuous
 62
     7
370
    25
100
AcDbLine
 10
83.9062738139
 20
115.6164261604
 30
0.0
 11
91.1562698799
 21
115.6164261604
 31
0.0
  0
SPLINE
  5
1AD
330
1F
100
AcDbEntity
  8
0
  6
Continuous
 62
     7
370
    25
100
AcDbSpline
210
0.0
220
0.0
230
1.0
 70
     8
 71
     3
 72
    12
 73
     8
 74
     0
 42
0.00000001
 43
0.00000001
 40
0.0
 40
0.0
 40
0.0
 40
0.0
 40
0.2190197540636512
 40
0.4326032600641009
 40
0.6457014034004314
 40
0.8613755170639026
 40
1.0
 40
1.0
 40
1.0
 40
1.0
 10
91.15626987994955
 20
115.6164261603911
 30
0.0
 10
91.34799011501072
 20
115.6002429655547
 30
0.0
 10
91.72667193328913
 20
115.568278255913
 30
0.0
 10
92.2435692508315
 20
115.3118290233762
 30
0.0
 10
92.64896565285389
 20
114.9136867466699
 30
0.0
 10
92.868465865786
 20
114.452667709199
 30
0.0
 10
92.89539180772299
 20
114.1436487382113
 30
0.0
 10
92.90592697442816
 20
114.0227405678664
 30
0.0
  0
LINE
  5
1AE
330
1F
100
AcDbEntity
  8
0
  6
Continuous
 62
     7
370
    25
100
AcDbLine
 10
83.9062738139
 20
115.6164261604
 30
0.0
 11
83.9062738139
 21
114.8327414969
 31
0.0
  0
LINE
  5
1AF
330
1F
100
AcDbEntity
  8
0
  6
Continuous
 62
     7
370
    25
100
AcDbLine
 10
92.9059269744
 20
114.0227405679
 30
0.0
 11
92.9062697011
 21
113.9981571444
 31
0.0
  0
LINE
  5
1B0
330
1F
100
AcDbEntity
  8
0
  6
Continuous
 62
     7
370
    25
100
AcDbLine
 10
99.9062764365
 20
117.332741441
 30
0.0
 11
99.9062764365
 21
107.3327416646
 31
0.0
  0
LINE
  5
1B1
330
1F
100
AcDbEntity
  8
0
  6
Continuous
 62
     7
370
    25
100
AcDbLine
 10
83.9062738139
 20
115.7773149291
 30
0.0
 11
83.9062738139
 21
115.6164261604
 31
0.0
  0
LINE
  5
1B2
330
1F
100
AcDbEntity
  8
0
  6
Continuous
 62
     7
370
    25
100
AcDbLine
 10
120.1562764961
 20
116.3911636079
 30
0.0
 11
120.1562764961
 21
117.332741441
 31
0.0
  0
LINE
  5
1B3
330
1F
100
AcDbEntity
  8
0
  6
Continuous
 62
     7
370
    25
100
AcDbLine
 10
120.1562764961
 20
107.3327416646
 30
0.0
 11
120.1562764961
 21
108.2743194977
 31
0.0
  0
LINE
  5
1B4
330
1F
100
AcDbEntity
  8
0
  6
Continuous
 62
     7
370
    25
100
AcDbLine
 10
107.9062702972
 20
112.3327415528
 30
0.0
 11
107.9062702972
 21
117.332741441
 31
0.0
  0
LINE
  5
1B5
330
1F
100
AcDbEntity
  8
0
  6
Continuous
 62
     7
370
    25
100
AcDbLine
 10
107.9062702972
 20
107.3327416646
 30
0.0
 11
107.9062702972
 21
112.3327415528
 31
0.0
  0
LINE
  5
1B6
330
1F
100
AcDbEntity
  8
0
  6
Continuous
 62
     7
370
    25
100
AcDbLine
 10
104.9062716681
 20
112.3327415528
 30
0.0
 11
104.9062716681
 21
116.3327417428
 31
0.0
  0
LINE
  5
1B7
330
1F
100
AcDbEntity
  8
0
  6
Continuous
 62
     7
370
    25
100
AcDbLine
 10
104.9062716681
 20
108.3327413628
 30
0.0
 11
104.9062716681
 21
112.3327415528
 31
0.0
  0
SPLINE
  5
1B8
330
1F
100
AcDbEntity
  8
0
  6
Continuous
 62
     7
370
    25
100
AcDbSpline
210
0.0
220
0.0
230
1.0
 70
     8
 71
     3
 72
    25
 73
    21
 74
     0
 42
0.00000001
 43
0.00000001
 40
0.0
 40
0.0
 40
0.0
 40
0.0
 40
0.0003625146615785
 40
0.0061744063804292
 40
0.0337718220377212
 40
0.0758553775515498
 40
0.1292827691009361
 40
0.2589091281799451
 40
0.4114474971694392
 40
0.5589974686109248
 40
0.6915662404101705
 40
0.7928607696450354
 40
0.8359933084929758
 40
0.8516381031036049
 40
0.8716120195108423
 40
0.8852879075566119
 40
0.8998349455958277
 40
0.92605816235751
 40
0.9992695845581129
 40
1.0
 40
1.0
 40
1.0
 40
1.0
 10
61.37999726221312
 20
109.6385741232146
 30
0.0
 10
61.38075112827711
 20
109.6381055785284
 30
0.0
 10
61.39359109291507
 20
109.6301252521959
 30
0.0
 10
61.35096219674886
 20
109.7730969098337
 30
0.0
 10
61.36702507679475
 20
109.8757939271521
 30
0.0
 10
61.32195545609093
 20
110.2012890516317
 30
0.0
 10
61.29316281787617
 20
110.7062729094442
 30
0.0
 10
61.24459469423571
 20
111.5014016404471
 30
0.0
 10
61.18704840621814
 20
112.4995780584371
 30
0.0
 10
61.13255121910782
 20
113.5082047430496
 30
0.0
 10
61.07189118383147
 20
114.4036307077322
 30
0.0
 10
61.02478601199574
 20
115.0337972747787
 30
0.0
 10
60.91542717222649
 20
115.4206795149229
 30
0.0
 10
60.75514785440078
 20
115.5228470675907
 30
0.0
 10
60.63682417224019
 20
115.5402267194273
 30
0.0
 10
60.52616400493766
 20
115.5115042164308
 30
0.0
 10
60.41701601512056
 20
115.4406891044407
 30
0.0
 10
60.28234888660506
 20
115.1992568680129
 30
0.0
 10
60.27436662399619
 20
114.9596444143314
 30
0.0
 10
60.25925142648391
 20
114.787551707175
 30
0.0
 10
60.25910211488951
 20
114.7858517335911
 30
0.0
  0
SPLINE
  5
1B9
330
1F
100
AcDbEntity
  8
0
  6
Continuous
 62
     7
370
    25
100
AcDbSpline
210
0.0
220
0.0
230
1.0
 70
     8
 71
     3
 72
    22
 73
    18
 74
     0
 42
0.00000001
 43
0.00000001
 40
0.0
 40
0.0
 40
0.0
 40
0.0
 40
0.0004623156257143
 40
0.0119930130452289
 40
0.0382543319790516
 40
0.0808175104378046
 40
0.2025307625960879
 40
0.3458543103664743
 40
0.492919728805594
 40
0.6314510016745679
 40
0.7498134563637564
 40
0.8272198925008654
 40
0.8539501593971248
 40
0.8741437445519146
 40
0.8930709105755947
 40
0.9257320263661105
 40
1.0
 40
1.0
 40
1.0
 40
1.0
 10
60.41011048242796
 20
115.044019240718
 30
0.0
 10
60.40927660907708
 20
115.0447511552593
 30
0.0
 10
60.38764495005634
 20
115.0637378824085
 30
0.0
 10
60.44277758096587
 20
114.8870848823487
 30
0.0
 10
60.42839209774001
 20
114.7738910713118
 30
0.0
 10
60.49551656798789
 20
114.2820288529671
 30
0.0
 10
60.52023041925136
 20
113.6084680541577
 30
0.0
 10
60.58031143594214
 20
112.6403288737124
 30
0.0
 10
60.63765970435009
 20
111.6535917624807
 30
0.0
 10
60.68530025255892
 20
110.7156024376378
 30
0.0
 10
60.75177906418461
 20
109.9508959075006
 30
0.0
 10
60.79525800970441
 20
109.4242550463216
 30
0.0
 10
60.96781946973115
 20
109.1766003420574
 30
0.0
 10
61.11791894915779
 20
109.1223878315852
 30
0.0
 10
61.29303603780497
 20
109.1490622757887
 30
0.0
 10
61.46486132141292
 20
109.4180562161803
 30
0.0
 10
61.49535624572631
 20
109.6627728284072
 30
0.0
 10
61.51653660223233
 20
109.8327416086752
 30
0.0
  0
SPLINE
  5
1BA
330
1F
100
AcDbEntity
  8
0
  6
Continuous
 62
     7
370
    25
100
AcDbSpline
210
0.0
220
0.0
230
1.0
 70
     8
 71
     3
 72
     9
 73
     5
 74
     0
 42
0.00000001
 43
0.00000001
 40
0.0
 40
0.0
 40
0.0
 40
0.0
 40
0.3076294375025367
 40
0.9999999999999999
 40
0.9999999999999999
 40
0.9999999999999999
 40
0.9999999999999999
 10
60.31803620741118
 20
109.2354658151228
 30
0.0
 10
60.34704684543331
 20
109.2658918383101
 30
0.0
 10
60.44135068793176
 20
109.3647966226971
 30
0.0
 10
60.45336502677616
 20
109.5048561576772
 30
0.0
 10
60.46168340131987
 20
109.6018292566944
 30
0.0
  0
SPLINE
  5
1BB
330
1F
100
AcDbEntity
  8
0
  6
Continuous
 62
     7
370
    25
100
AcDbSpline
210
0.0
220
0.0
230
1.0
 70
     8
 71
     3
 72
    13
 73
     9
 74
     0
 42
0.00000001
 43
0.00000001
 40
0.0
 40
0.0
 40
0.0
 40
0.0
 40
0.0018706215283095
 40
0.031860718265762
 40
0.1742656091879707
 40
0.3914230887714071
 40
0.6671151901570687
 40
1.0
 40
1.0
 40
1.0
 40
1.0
 10
60.37999523565519
 20
109.6385741232146
 30
0.0
 10
60.38074910201577
 20
109.6381055782704
 30
0.0
 10
60.39358907170525
 20
109.6301252475427
 30
0.0
 10
60.35095910111324
 20
109.7730970706944
 30
0.0
 10
60.36705434133312
 20
109.8757667362547
 30
0.0
 10
60.32192272540942
 20
110.2014739779415
 30
0.0
 10
60.30159301218609
 20
110.559249005498
 30
0.0
 10
60.28486625822312
 20
110.8368688806629
 30
0.0
 10
60.27571690962065
 20
110.9887238683362
 30
0.0
  0
SPLINE
  5
1BC
330
1F
100
AcDbEntity
  8
0
  6
Continuous
 62
     7
370
    25
100
AcDbSpline
210
0.0
220
0.0
230
1.0
 70
     8
 71
     3
 72
    23
 73
    19
 74
     0
 42
0.00000001
 43
0.00000001
 40
0.0
 40
0.0
 40
0.0
 40
0.0
 40
0.0040369664417018
 40
0.0403946516706231
 40
0.0967003540785099
 40
0.1718049992956852
 40
0.263173963388255
 40
0.3639279131889477
 40
0.4677917967287718
 40
0.5684399495120052
 40
0.6585427742498691
 40
0.7291417619654534
 40
0.817636191711094
 40
0.8535728654019825
 40
0.8843938895958314
 40
0.9148938973529835
 40
0.9566936468647348
 40
1.0
 40
1.0
 40
1.0
 40
1.0
 10
62.02159655973662
 20
114.9124997293759
 30
0.0
 10
62.01598907974113
 20
114.9046880755182
 30
0.0
 10
61.95987957166405
 20
114.8265231858385
 30
0.0
 10
62.13248370316161
 20
114.591656962657
 30
0.0
 10
62.14050126087901
 20
114.2161052925042
 30
0.0
 10
62.25210943945425
 20
113.6987941710929
 30
0.0
 10
62.33114482510124
 20
113.0823297948675
 30
0.0
 10
62.42668869875166
 20
112.3968561363531
 30
0.0
 10
62.51991870236352
 20
111.690014597953
 30
0.0
 10
62.61715812476324
 20
111.0094759625371
 30
0.0
 10
62.70964892164281
 20
110.4038114101825
 30
0.0
 10
62.8308693509136
 20
109.8408827550265
 30
0.0
 10
62.92804288353452
 20
109.3732131875115
 30
0.0
 10
63.22330170467422
 20
109.1244039859813
 30
0.0
 10
63.47104805812089
 20
109.1293473256335
 30
0.0
 10
63.66420303053287
 20
109.2926194007111
 30
0.0
 10
63.78018681368672
 20
109.5414449267022
 30
0.0
 10
63.82742297238078
 20
109.7345034985184
 30
0.0
 10
63.85145915434111
 20
109.8327416086752
 30
0.0
  0
SPLINE
  5
1BD
330
1F
100
AcDbEntity
  8
0
  6
Continuous
 62
     7
370
    25
100
AcDbSpline
210
0.0
220
0.0
230
1.0
 70
     8
 71
     3
 72
    23
 73
    19
 74
     0
 42
0.00000001
 43
0.00000001
 40
0.0
 40
0.0
 40
0.0
 40
0.0
 40
0.0001073423442518
 40
0.0064126420692666
 40
0.0221785636144029
 40
0.070626493691576
 40
0.1429798828580157
 40
0.2377794602985494
 40
0.3440064715705397
 40
0.4537297457370126
 40
0.5597511275135131
 40
0.6540057241805983
 40
0.7279601881739645
 40
0.8234145450134607
 40
0.8673958570744946
 40
0.8993896036573109
 40
0.9527961518926897
 40
1.0
 40
1.0
 40
1.0
 40
1.0
 10
64.43598700449218
 20
114.9474643727947
 30
0.0
 10
64.43574098769467
 20
114.9475047739068
 30
0.0
 10
64.42104392032218
 20
114.9499183402663
 30
0.0
 10
64.46764418874483
 20
114.8646797958105
 30
0.0
 10
64.47960930905322
 20
114.753475435318
 30
0.0
 10
64.57674488430729
 20
114.4097769048434
 30
0.0
 10
64.64807637227933
 20
113.9419537931842
 30
0.0
 10
64.74701708554304
 20
113.3138881093636
 30
0.0
 10
64.84173657444818
 20
112.6099092397916
 30
0.0
 10
64.93942895033682
 20
111.8767033291559
 30
0.0
 10
65.03756179984651
 20
111.1726789045698
 30
0.0
 10
65.12983426876133
 20
110.5491563460694
 30
0.0
 10
65.24803251662489
 20
109.9583288992197
 30
0.0
 10
65.33742551288623
 20
109.4672372885216
 30
0.0
 10
65.60972048645044
 20
109.1493033389037
 30
0.0
 10
65.93163435393663
 20
109.1075735155787
 30
0.0
 10
66.17504476856195
 20
109.3636475538432
 30
0.0
 10
66.21676923686466
 20
109.5905419545622
 30
0.0
 10
66.23634529993285
 20
109.6969950569976
 30
0.0
  0
SPLINE
  5
1BE
330
1F
100
AcDbEntity
  8
0
  6
Continuous
 62
     7
370
    25
100
AcDbSpline
210
0.0
220
0.0
230
1.0
 70
     8
 71
     3
 72
    14
 73
    10
 74
     0
 42
0.00000001
 43
0.00000001
 40
0.0
 40
0.0
 40
0.0
 40
0.0
 40
0.0031045222043006
 40
0.057805961980098
 40
0.2056559482282272
 40
0.4111456987299605
 40
0.645939206839034
 40
0.8884080555938305
 40
1.0
 40
1.0
 40
1.0
 40
1.0
 10
65.90936911985625
 20
109.7165714575161
 30
0.0
 10
65.91247421613191
 20
109.7170637009451
 30
0.0
 10
65.97029086727625
 20
109.7262292353074
 30
0.0
 10
65.7690810768301
 20
110.0125645818856
 30
0.0
 10
65.80969306034058
 20
110.3272126865941
 30
0.0
 10
65.65972642875894
 20
110.9327884179751
 30
0.0
 10
65.58341739025133
 20
111.5839933458653
 30
0.0
 10
65.50177808379675
 20
112.1599272743929
 30
0.0
 10
65.45553940377192
 20
112.5040956300419
 30
0.0
 10
65.44096601888884
 20
112.6125697021555
 30
0.0
  0
SPLINE
  5
1BF
330
1F
100
AcDbEntity
  8
0
  6
Continuous
 62
     7
370
    25
100
AcDbSpline
210
0.0
220
0.0
230
1.0
 70
     8
 71
     3
 72
    13
 73
     9
 74
     0
 42
0.00000001
 43
0.00000001
 40
0.0
 40
0.0
 40
0.0
 40
0.0
 40
0.0112154464316807
 40
0.3442810930732637
 40
0.4525035468807225
 40
0.5928180377244199
 40
0.9071076642892625
 40
1.0
 40
1.0
 40
1.0
 40
1.0
 10
65.06725979730834
 20
114.8751853591014
 30
0.0
 10
65.06584625093886
 20
114.8817420624651
 30
0.0
 10
65.0224545507371
 20
115.0830134977816
 30
0.0
 10
64.9392989265032
 20
115.3719259778626
 30
0.0
 10
64.62329753409651
 20
115.5591100559168
 30
0.0
 10
64.25692640574417
 20
115.4753532490979
 30
0.0
 10
64.12631482740252
 20
115.1208879386415
 30
0.0
 10
64.0716518609558
 20
114.8862667352788
 30
0.0
 10
64.05918134138334
 20
114.8327414969165
 30
0.0
  0
SPLINE
  5
1C0
330
1F
100
AcDbEntity
  8
0
  6
Continuous
 62
     7
370
    25
100
AcDbSpline
210
0.0
220
0.0
230
1.0
 70
     8
 71
     3
 72
    23
 73
    19
 74
     0
 42
0.00000001
 43
0.00000001
 40
0.0
 40
0.0
 40
0.0
 40
0.0
 40
0.005967378644677
 40
0.0422830584580049
 40
0.1072307819618907
 40
0.1901122221228354
 40
0.2847363960864836
 40
0.3854971543007781
 40
0.4897673241140613
 40
0.591470103989612
 40
0.6832023115307212
 40
0.8070875111049929
 40
0.8432358499456111
 40
0.8705370108650283
 40
0.8973852936544046
 40
0.9241792634628208
 40
0.9762225678754644
 40
1.0
 40
1.0
 40
1.0
 40
1.0
 10
63.46724761411894
 20
109.7184941729713
 30
0.0
 10
63.46655437814136
 20
109.7324896065964
 30
0.0
 10
63.46164231555719
 20
109.8316570590658
 30
0.0
 10
63.36677894677875
 20
110.0693986745304
 30
0.0
 10
63.30531649706628
 20
110.4971814558204
 30
0.0
 10
63.20822556528655
 20
111.0570859232571
 30
0.0
 10
63.11930501004717
 20
111.7034394289228
 30
0.0
 10
63.02544338100764
 20
112.3996443971424
 30
0.0
 10
62.92919928642466
 20
113.1119384177922
 30
0.0
 10
62.8325838241384
 20
113.8042030231351
 30
0.0
 10
62.70083859145704
 20
114.5327322137531
 30
0.0
 10
62.60563316410844
 20
115.12866648943
 30
0.0
 10
62.32738391498416
 20
115.494256500404
 30
0.0
 10
62.10936165262503
 20
115.5518078161998
 30
0.0
 10
61.91923245645528
 20
115.4871898307471
 30
0.0
 10
61.75596431454045
 20
115.2917793929978
 30
0.0
 10
61.67444621372012
 20
115.0611638355608
 30
0.0
 10
61.63849633336275
 20
114.8872735904863
 30
0.0
 10
61.62722242758024
 20
114.8327414969165
 30
0.0
  0
LINE
  5
1C1
330
1F
100
AcDbEntity
  8
0
  6
Continuous
 62
     7
370
    25
100
AcDbLine
 10
60.3180362074
 20
115.8327416608
 30
0.0
 11
58.3180470555
 21
115.8327416608
 31
0.0
  0
LINE
  5
1C2
330
1F
100
AcDbEntity
  8
0
  6
Continuous
 62
     7
370
    25
100
AcDbLine
 10
58.3180470555
 20
108.8327414448
 30
0.0
 11
60.3180362074
 21
108.8327414448
 31
0.0
  0
LINE
  5
1C3
330
1F
100
AcDbEntity
  8
0
  6
Continuous
 62
     7
370
    25
100
AcDbLine
 10
49.2604507296
 20
109.8327416087
 30
0.0
 11
58.3180470555
 21
109.8327416087
 31
0.0
  0
LINE
  5
1C4
330
1F
100
AcDbEntity
  8
0
  6
Continuous
 62
     7
370
    25
100
AcDbLine
 10
60.3619648306
 20
109.8327416087
 30
0.0
 11
60.763759741
 21
109.8327416087
 31
0.0
  0
LINE
  5
1C5
330
1F
100
AcDbEntity
  8
0
  6
Continuous
 62
     7
370
    25
100
AcDbLine
 10
61.3619668572
 20
109.8327416087
 30
0.0
 11
62.8393126814
 21
109.8327416087
 31
0.0
  0
LINE
  5
1C6
330
1F
100
AcDbEntity
  8
0
  6
Continuous
 62
     7
370
    25
100
AcDbLine
 10
63.4454025118
 20
109.8327416087
 30
0.0
 11
65.2917308895
 21
109.8327416087
 31
0.0
  0
LINE
  5
1C7
330
1F
100
AcDbEntity
  8
0
  6
Continuous
 62
     7
370
    25
100
AcDbLine
 10
65.9031702368
 20
109.8327416087
 30
0.0
 11
66.2228895514
 21
109.8327416087
 31
0.0
  0
LINE
  5
1C8
330
1F
100
AcDbEntity
  8
0
  6
Continuous
 62
     7
370
    25
100
AcDbLine
 10
64.4268674938
 20
114.8327414969
 30
0.0
 11
62.6047982065
 21
114.8327414969
 31
0.0
  0
LINE
  5
1C9
330
1F
100
AcDbEntity
  8
0
  6
Continuous
 62
     7
370
    25
100
AcDbLine
 10
62.0211197226
 20
114.8327414969
 30
0.0
 11
61.0211623995
 21
114.8327414969
 31
0.0
  0
LINE
  5
1CA
330
1F
100
AcDbEntity
  8
0
  6
Continuous
 62
     7
370
    25
100
AcDbLine
 10
60.4311807244
 20
114.8327414969
 30
0.0
 11
60.3180362074
 21
114.8327414969
 31
0.0
  0
LINE
  5
1CB
330
1F
100
AcDbEntity
  8
0
  6
Continuous
 62
     7
370
    25
100
AcDbLine
 10
58.3180470555
 20
114.8327414969
 30
0.0
 11
48.1409115879
 21
114.8327414969
 31
0.0
  0
LINE
  5
1CC
330
1F
100
AcDbEntity
  8
0
  6
Continuous
 62
     7
370
    25
100
AcDbLine
 10
58.3180470555
 20
114.81135088
 30
0.0
 11
58.3180470555
 21
115.8327416608
 31
0.0
  0
LINE
  5
1CD
330
1F
100
AcDbEntity
  8
0
  6
Continuous
 62
     7
370
    25
100
AcDbLine
 10
58.3180470555
 20
108.8327414448
 30
0.0
 11
58.3180470555
 21
114.81135088
 31
0.0
  0
LINE
  5
1CE
330
1F
100
AcDbEntity
  8
0
  6
Continuous
 62
     7
370
    25
100
AcDbLine
 10
60.3180362074
 20
114.81135088
 30
0.0
 11
60.3180362074
 21
115.8327416608
 31
0.0
  0
LINE
  5
1CF
330
1F
100
AcDbEntity
  8
0
  6
Continuous
 62
     7
370
    25
100
AcDbLine
 10
60.3180362074
 20
108.8327414448
 30
0.0
 11
60.3180362074
 21
114.81135088
 31
0.0
  0
LINE
  5
1D0
330
1F
100
AcDbEntity
  8
0
  6
Continuous
 62
     7
370
    25
100
AcDbLine
 10
28.4632060465
 20
109.8327416087
 30
0.0
 11
46.2604526218
 21
109.8327416087
 31
0.0
  0
LINE
  5
1D1
330
1F
100
AcDbEntity
  8
0
  6
Continuous
 62
     7
370
    25
100
AcDbLine
 10
45.140898579
 20
114.8327414969
 30
0.0
 11
28.4632060465
 21
114.8327414969
 31
0.0
  0
LINE
  5
1D2
330
1F
100
AcDbEntity
  8
0
  6
Continuous
 62
     7
370
    25
100
AcDbLine
 10
28.4632060465
 20
114.8327414969
 30
0.0
 11
27.0198348698
 21
112.3327415528
 31
0.0
  0
LINE
  5
1D3
330
1F
100
AcDbEntity
  8
0
  6
Continuous
 62
     7
370
    25
100
AcDbLine
 10
27.0198348698
 20
112.3327415528
 30
0.0
 11
28.4632060465
 21
109.8327416087
 31
0.0
  0
LINE
  5
1D4
330
1F
100
AcDbEntity
  8
0
  6
Continuous
 62
     7
370
    25
100
AcDbLine
 10
28.4632060465
 20
112.3327415528
 30
0.0
 11
28.4632060465
 21
114.8327414969
 31
0.0
  0
LINE
  5
1D5
330
1F
100
AcDbEntity
  8
0
  6
Continuous
 62
     7
370
    25
100
AcDbLine
 10
28.4632060465
 20
109.8327416087
 30
0.0
 11
28.4632060465
 21
112.3327415528
 31
0.0
  0
DIMENSION
  5
1D6
330
1F
100
AcDbEntity
  8
0
  6
Continuous
 62
     7
370
    18
100
AcDbDimension
  2
_D
 10
79.7649939464
 20
118.7327415528
 30
0.0
 11
79.7649939464
 21
126.0259570755
 31
0.0
 70
   160
  1
%%c<>
 71
     2
 42
-1.0
  3
SLDDIMSTYLE0
100
AcDbAlignedDimension
 13
83.9062727837
 23
105.9327415528
 33
0.0
 14
83.9062727837
 24
118.7327415528
 34
0.0
 50
90.0
100
AcDbRotatedDimension
  0
DIMENSION
  5
1E9
330
1F
100
AcDbEntity
  8
0
  6
Continuous
 62
     7
370
    18
100
AcDbDimension
  2
_D_1
 10
58.3180404225
 20
148.134993001
 30
0.0
 11
42.668938042
 21
148.134993001
 31
0.0
 70
   160
  1
L1=50～1000
 71
     2
 42
-1.0
  3
SLDDIMSTYLE1
100
AcDbAlignedDimension
 13
27.0198356615
 23
112.3327415528
 33
0.0
 14
58.3180404225
 24
115.8327415528
 34
0.0
100
AcDbRotatedDimension
  0
DIMENSION
  5
1F4
330
1F
100
AcDbEntity
  8
0
  6
Continuous
 62
     7
370
    18
100
AcDbDimension
  2
_D_2
 10
58.3180404225
 20
122.638428189
 30
0.0
 11
53.2538877815
 21
122.638428189
 31
0.0
 70
   160
  1
<>
 71
     2
 42
-1.0
  3
SLDDIMSTYLE2
100
AcDbAlignedDimension
 13
60.3180404225
 23
115.8327415528
 33
0.0
 14
58.3180404225
 24
115.8327415528
 34
0.0
100
AcDbRotatedDimension
  0
DIMENSION
  5
201
330
1F
100
AcDbEntity
  8
0
  6
Continuous
 62
     7
370
    18
100
AcDbDimension
  2
_D_3
 10
53.2538877815
 20
108.8327415528
 30
0.0
 11
53.2538877815
 21
103.7406049983
 31
0.0
 70
   160
  1
%%c<>
 71
     2
 42
-1.0
  3
SLDDIMSTYLE1
100
AcDbAlignedDimension
 13
58.3180404225
 23
115.8327415528
 33
0.0
 14
58.3180404225
 24
108.8327415528
 34
0.0
 50
90.0
100
AcDbRotatedDimension
  0
DIMENSION
  5
20D
330
1F
100
AcDbEntity
  8
0
  6
Continuous
 62
     7
370
    18
100
AcDbDimension
  2
_D_4
 10
99.9062727837
 20
148.134993001
 30
0.0
 11
79.1121566031
 21
148.134993001
 31
0.0
 70
   160
  1
50
 71
     2
 42
-1.0
  3
SLDDIMSTYLE1
100
AcDbAlignedDimension
 13
58.3180404225
 23
115.8327415528
 33
0.0
 14
99.9062727837
 24
117.3327415528
 34
0.0
100
AcDbRotatedDimension
  0
DIMENSION
  5
217
330
1F
100
AcDbEntity
  8
0
  6
Continuous
 62
     7
370
    18
100
AcDbDimension
  2
_D_5
 10
35.7299397361
 20
109.8327415528
 30
0.0
 11
35.7299397361
 21
122.638428189
 31
0.0
 70
   160
  1
%%c<>
 71
     2
 42
-1.0
  3
SLDDIMSTYLE2
100
AcDbAlignedDimension
 13
28.4632113345
 23
114.8327415528
 33
0.0
 14
28.4632113345
 24
109.8327415528
 34
0.0
 50
90.0
100
AcDbRotatedDimension
  0
DIMENSION
  5
222
330
1F
100
AcDbEntity
  8
0
  6
Continuous
 62
     7
370
    18
100
AcDbDimension
  2
_D_6
 10
99.9062727837
 20
131.1861941927
 30
0.0
 11
91.9062727837
 21
131.1861941927
 31
0.0
 70
   160
  1
(<>)
 71
     2
 42
-1.0
  3
SLDDIMSTYLE1
100
AcDbAlignedDimension
 13
83.9062727837
 23
119.3327415528
 33
0.0
 14
99.9062727837
 24
117.3327415528
 34
0.0
100
AcDbRotatedDimension
  0
DIMENSION
  5
22E
330
1F
100
AcDbEntity
  8
0
  6
Continuous
 62
     7
370
    18
100
AcDbDimension
  2
_D_7
 10
75.2233223758
 20
119.3327415528
 30
0.0
 11
75.2233223758
 21
124.7915049445
 31
0.0
 70
   160
  1
%%c<>
 71
     2
 42
-1.0
  3
SLDDIMSTYLE1
100
AcDbAlignedDimension
 13
83.9062727837
 23
105.3327415528
 33
0.0
 14
83.9062727837
 24
119.3327415528
 34
0.0
 50
90.0
100
AcDbRotatedDimension
  0
DIMENSION
  5
23A
330
1F
100
AcDbEntity
  8
0
  6
Continuous
 62
     7
370
    18
100
AcDbDimension
  2
_D_8
 10
263.1320157742
 20
131.1861941927
 30
0.0
 11
230.5225024462
 21
131.1861941927
 31
0.0
 70
   160
  1
(80)
 71
     2
 42
-1.0
  3
SLDDIMSTYLE1
100
AcDbAlignedDimension
 13
197.9129891182
 23
114.8327415528
 33
0.0
 14
263.1320157742
 24
123.9598964843
 34
0.0
100
AcDbRotatedDimension
  0
DIMENSION
  5
246
330
1F
100
AcDbEntity
  8
0
  6
Continuous
 62
     7
370
    18
100
AcDbDimension
  2
_D_9
 10
114.7710879915
 20
117.3327415528
 30
0.0
 11
114.7710879915
 21
122.638428189
 31
0.0
 70
   160
  1
%%c<>
 71
     2
 42
-1.0
  3
SLDDIMSTYLE1
100
AcDbAlignedDimension
 13
120.1562727837
 23
107.3327415528
 33
0.0
 14
120.1562727837
 24
117.3327415528
 34
0.0
 50
90.0
100
AcDbRotatedDimension
  0
DIMENSION
  5
250
330
1F
100
AcDbEntity
  8
0
  6
Continuous
 62
     7
370
    18
100
AcDbDimension
  2
_D_10
 10
119.9062727837
 20
148.134993001
 30
0.0
 11
109.9062727837
 21
148.134993001
 31
0.0
 70
   160
  1
<>
 71
     2
 42
-1.0
  3
SLDDIMSTYLE1
100
AcDbAlignedDimension
 13
99.9062727837
 23
117.3327415528
 33
0.0
 14
119.9062727837
 24
117.5327415528
 34
0.0
100
AcDbRotatedDimension
  0
DIMENSION
  5
25A
330
1F
100
AcDbEntity
  8
0
  6
Continuous
 62
     7
370
    18
100
AcDbDimension
  2
_D_11
 10
149.9385906845
 20
131.1861941927
 30
0.0
 11
134.9224317341
 21
131.1861941927
 31
0.0
 70
   160
  1
 K :180\PT,J:150
 71
     2
 42
-1.0
  3
SLDDIMSTYLE1
100
AcDbAlignedDimension
 13
119.9062727837
 23
117.5327415528
 33
0.0
 14
149.9385906845
 24
117.5327415528
 34
0.0
100
AcDbRotatedDimension
  0
DIMENSION
  5
265
330
1F
100
AcDbEntity
  8
0
  6
Continuous
 62
     7
370
    18
100
AcDbDimension
  2
_D_12
 10
263.1320157742
 20
148.134993001
 30
0.0
 11
191.5191442789
 21
148.134993001
 31
0.0
 70
   160
  1
L=100～10000
 71
     2
 42
-1.0
  3
SLDDIMSTYLE1
100
AcDbAlignedDimension
 13
119.9062727837
 23
117.5327415528
 33
0.0
 14
263.1320157742
 24
123.9598964843
 34
0.0
100
AcDbRotatedDimension
  0
INSERT
  5
274
330
1F
100
AcDbEntity
  8
0
  6
Continuous
 62
     7
370
    18
100
AcDbBlockReference
  2
SW_NOTE_0
 10
19.5218818381
 20
85.7501216084
 30
0.0
  0
LEADER
  5
276
330
1F
100
AcDbEntity
  8
0
  6
Continuous
 62
     7
370
    18
100
AcDbLeader
  3
SLDDIMSTYLE3
 76
     2
 10
27.6560929443
 20
111.2307116123
 30
0.0
 10
19.5218818381
 20
85.7501216084
 30
0.0
  0
INSERT
  5
27C
330
1F
100
AcDbEntity
  8
0
  6
Continuous
 62
     7
370
    18
100
AcDbBlockReference
  2
SW_NOTE_0_1
 10
49.2811816193
 20
85.7501216084
 30
0.0
  0
LEADER
  5
27D
330
1F
100
AcDbEntity
  8
0
  6
Continuous
 62
     7
370
    18
100
AcDbLeader
  3
SLDDIMSTYLE3
 76
     2
 10
40.0506487866
 20
109.8327415528
 30
0.0
 10
49.2811816193
 20
85.7501216084
 30
0.0
  0
INSERT
  5
283
330
1F
100
AcDbEntity
  8
0
  6
Continuous
 62
     7
370
    18
100
AcDbBlockReference
  2
SW_NOTE_0_2
 10
97.749452954
 20
85.7501216084
 30
0.0
  0
LEADER
  5
284
330
1F
100
AcDbEntity
  8
0
  6
Continuous
 62
     7
370
    18
100
AcDbLeader
  3
SLDDIMSTYLE3
 76
     2
 10
89.7941741099
 20
105.3327415528
 30
0.0
 10
97.749452954
 20
85.7501216084
 30
0.0
  0
INSERT
  5
28A
330
1F
100
AcDbEntity
  8
0
  6
Continuous
 62
     7
370
    18
100
AcDbBlockReference
  2
SW_NOTE_0_3
 10
114.7078774617
 20
95.7063579323
 30
0.0
  0
LEADER
  5
28B
330
1F
100
AcDbEntity
  8
0
  6
Continuous
 62
     7
370
    18
100
AcDbLeader
  3
SLDDIMSTYLE3
 76
     2
 10
109.8064985597
 20
107.3327415528
 30
0.0
 10
114.7078774617
 20
95.7063579323
 30
0.0
  0
INSERT
  5
291
330
1F
100
AcDbEntity
  8
0
  6
Continuous
 62
     7
370
    18
100
AcDbBlockReference
  2
SW_NOTE_0_4
 10
181.4474835886
 20
85.7501216084
 30
0.0
  0
LEADER
  5
292
330
1F
100
AcDbEntity
  8
0
  6
Continuous
 62
     7
370
    18
100
AcDbLeader
  3
SLDDIMSTYLE3
 76
     2
 10
171.9069203716
 20
109.9327415528
 30
0.0
 10
181.4474835886
 20
85.7501216084
 30
0.0
  0
INSERT
  5
298
330
1F
100
AcDbEntity
  8
0
  6
Continuous
 62
     7
370
    18
100
AcDbBlockReference
  2
SW_NOTE_0_5
 10
201.250547046
 20
95.7063579323
 30
0.0
  0
LEADER
  5
299
330
1F
100
AcDbEntity
  8
0
  6
Continuous
 62
     7
370
    18
100
AcDbLeader
  3
SLDDIMSTYLE3
 76
     2
 10
196.1418498598
 20
109.8327415528
 30
0.0
 10
201.250547046
 20
95.7063579323
 30
0.0
  0
INSERT
  5
29F
330
1F
100
AcDbEntity
  8
0
  6
Continuous
 62
     7
370
    18
100
AcDbBlockReference
  2
SW_NOTE_0_6
 10
254.3428591043
 20
85.7501216084
 30
0.0
  0
LEADER
  5
2A0
330
1F
100
AcDbEntity
  8
0
  6
Continuous
 62
     7
370
    18
100
AcDbLeader
  3
SLDDIMSTYLE3
 76
     2
 10
259.4439285453
 20
101.9056998177
 30
0.0
 10
254.3428591043
 20
85.7501216084
 30
0.0
  0
MTEXT
  5
2A1
330
1F
100
AcDbEntity
  8
0
  6
Continuous
 62
     7
370
    18
100
AcDbMText
 10
21.7537162122
 20
84.779327324
 30
0.0
 40
2.6458333333
 41
0.0
 71
     1
 72
     1
  1
(銀ろう付け)
  7
SLDTEXTSTYLE1
 73
     1
 44
1.0
  0
MTEXT
  5
2A2
330
1F
100
AcDbEntity
  8
0
  6
Continuous
 62
     7
370
    18
100
AcDbMText
 10
49.1608531689
 20
84.779327324
 30
0.0
 40
2.6458333333
 41
0.0
 71
     1
 72
     1
  1
(SUS304)
  7
SLDTEXTSTYLE0
 73
     1
 44
1.0
  0
MTEXT
  5
2A3
330
1F
100
AcDbEntity
  8
0
  6
Continuous
 62
     7
370
    18
100
AcDbMText
 10
69.6720807658
 20
94.8472398053
 30
0.0
 40
2.6458333333
 41
0.0
 71
     1
 72
     1
  1
(SUS304)
  7
SLDTEXTSTYLE0
 73
     1
 44
1.0
  0
MTEXT
  5
2A4
330
1F
100
AcDbEntity
  8
0
  6
Continuous
 62
     7
370
    18
100
AcDbMText
 10
101.8875011041
 20
84.779327324
 30
0.0
 40
2.6458333333
 41
0.0
 71
     1
 72
     1
  1
(SUS304)
  7
SLDTEXTSTYLE0
 73
     1
 44
1.0
  0
MTEXT
  5
2A5
330
1F
100
AcDbEntity
  8
0
  6
Continuous
 62
     7
370
    18
100
AcDbMText
 10
181.0101877574
 20
84.779327324
 30
0.0
 40
2.6458333333
 41
0.0
 71
     1
 72
     1
  1
(補償導線)
  7
SLDTEXTSTYLE1
 73
     1
 44
1.0
  0
MTEXT
  5
2A6
330
1F
100
AcDbEntity
  8
0
  6
Continuous
 62
     7
370
    18
100
AcDbMText
 10
269.8336827184
 20
121.3546534689
 30
0.0
 40
2.6458333333
 41
0.0
 71
     1
 72
     1
  1
赤（+）
  7
SLDTEXTSTYLE1
 73
     1
 44
1.0
  0
MTEXT
  5
2A7
330
1F
100
AcDbEntity
  8
0
  6
Continuous
 62
     7
370
    18
100
AcDbMText
 10
269.8336827184
 20
106.2652218968
 30
0.0
 40
2.6458333333
 41
0.0
 71
     1
 72
     1
  1
黒（-）
  7
SLDTEXTSTYLE1
 73
     1
 44
1.0
  0
INSERT
  5
2AD
330
1F
100
AcDbEntity
  8
0
  6
Continuous
 62
     7
370
    18
100
AcDbBlockReference
  2
SW_NOTE_0_7
 10
69.3030634573
 20
95.7063579323
 30
0.0
  0
LEADER
  5
2AE
330
1F
100
AcDbEntity
  8
0
  6
Continuous
 62
     7
370
    18
100
AcDbLeader
  3
SLDDIMSTYLE3
 76
     2
 10
63.5512210934
 20
109.3341642691
 30
0.0
 10
69.3030634573
 20
95.7063579323
 30
0.0
  0
INSERT
  5
2B4
330
1F
100
AcDbEntity
  8
0
  6
Continuous
 62
     7
370
    18
100
AcDbBlockReference
  2
SW_NOTE_0_8
 10
149.9376367615
 20
85.7501216084
 30
0.0
  0
LEADER
  5
2B5
330
1F
100
AcDbEntity
  8
0
  6
Continuous
 62
     7
370
    18
100
AcDbLeader
  3
SLDDIMSTYLE3
 76
     2
 10
141.9589858777
 20
107.1774624003
 30
0.0
 10
149.9376367615
 20
85.7501216084
 30
0.0
  0
MTEXT
  5
2B6
330
1F
100
AcDbEntity
  8
0
  6
Continuous
 62
     7
370
    18
100
AcDbMText
 10
150.2835505823
 20
84.779327324
 30
0.0
 40
2.6458333333
 41
0.0
 71
     1
 72
     1
  1
(SUS304)
  7
SLDTEXTSTYLE0
 73
     1
 44
1.0
  0
INSERT
  5
2C2
330
1F
100
AcDbEntity
  8
0
  6
Continuous
 62
     7
370
    18
100
AcDbBlockReference
  2
SW_CENTERMARKSYMBOL_0
 10
263.1320153638
 20
119.8597832674
 30
0.0
  0
INSERT
  5
2CE
330
1F
100
AcDbEntity
  8
0
  6
Continuous
 62
     7
370
    18
100
AcDbBlockReference
  2
SW_CENTERMARKSYMBOL_1
 10
263.1320153638
 20
104.8056998382
 30
0.0
  0
ARC
  5
2CF
330
1F
100
AcDbEntity
  8
0
  6
HIDDEN
 62
     7
370
    18
100
AcDbCircle
 10
52.510680843
 20
115.1702415528
 30
0.0
 40
7.377499999999984
100
AcDbArc
 50
157.380135052
 51
202.619864948
  0
ARC
  5
2D0
330
1F
100
AcDbEntity
  8
0
  6
HIDDEN
 62
     7
370
    18
100
AcDbCircle
 10
38.890680843
 20
109.4952415528
 30
0.0
 40
7.377499999999984
100
AcDbArc
 50
337.380135052
 51
22.619864948
  0
ARC
  5
2D1
330
1F
100
AcDbEntity
  8
0
  6
HIDDEN
 62
     7
370
    18
100
AcDbCircle
 10
55.510680843
 20
115.1702415528
 30
0.0
 40
7.377499999999984
100
AcDbArc
 50
157.380135052
 51
202.619864948
  0
ARC
  5
2D2
330
1F
100
AcDbEntity
  8
0
  6
HIDDEN
 62
     7
370
    18
100
AcDbCircle
 10
41.890680843
 20
109.4952415528
 30
0.0
 40
7.377499999999984
100
AcDbArc
 50
337.380135052
 51
22.619864948
  0
ARC
  5
2D3
330
1F
100
AcDbEntity
  8
0
  6
HIDDEN
 62
     7
370
    18
100
AcDbCircle
 10
72.878165358
 20
115.0031416805
 30
0.0
 40
7.811959668020346
100
AcDbArc
 50
157.380135052
 51
202.619864948
  0
ARC
  5
2D4
330
1F
100
AcDbEntity
  8
0
  6
HIDDEN
 62
     7
370
    18
100
AcDbCircle
 10
58.4560859709
 20
108.9939419358
 30
0.0
 40
7.811959668020353
100
AcDbArc
 50
337.380135052
 51
22.619864948
  0
ARC
  5
2D5
330
1F
100
AcDbEntity
  8
0
  6
HIDDEN
 62
     7
370
    18
100
AcDbCircle
 10
75.7960917168
 20
115.5689491182
 30
0.0
 40
7.723046556677796
100
AcDbArc
 50
157.380135052
 51
202.619864948
  0
ARC
  5
2D6
330
1F
100
AcDbEntity
  8
0
  6
HIDDEN
 62
     7
370
    18
100
AcDbCircle
 10
61.5381596121
 20
109.6281440746
 30
0.0
 40
7.723046556677803
100
AcDbArc
 50
337.380135052
 51
22.619864948
  0
ARC
  5
2D7
330
1F
100
AcDbEntity
  8
0
  6
HIDDEN
 62
     7
370
    18
100
AcDbCircle
 10
143.7280108802
 20
115.9165587671
 30
0.0
 40
9.902272483461683
100
AcDbArc
 50
157.380135052
 51
202.619864948
  0
ARC
  5
2D8
330
1F
100
AcDbEntity
  8
0
  6
HIDDEN
 62
     7
370
    18
100
AcDbCircle
 10
125.4468924492
 20
108.2994260875
 30
0.0
 40
9.902272483461708
100
AcDbArc
 50
337.380135052
 51
22.619864948
  0
ARC
  5
2D9
330
1F
100
AcDbEntity
  8
0
  6
HIDDEN
 62
     7
370
    18
100
AcDbCircle
 10
146.2223730435
 20
115.7624590233
 30
0.0
 40
9.354498160345958
100
AcDbArc
 50
157.380135052
 51
202.619864948
  0
ARC
  5
2DA
330
1F
100
AcDbEntity
  8
0
  6
HIDDEN
 62
     7
370
    18
100
AcDbCircle
 10
128.9525302859
 20
108.5666912077
 30
0.0
 40
9.354498160345939
100
AcDbArc
 50
337.380135052
 51
22.619864948
  0
ARC
  5
2DB
330
1F
100
AcDbEntity
  8
0
  6
HIDDEN
 62
     7
370
    18
100
AcDbCircle
 10
170.2722265152
 20
115.1202415528
 30
0.0
 40
7.247499999999996
100
AcDbArc
 50
157.380135052
 51
202.619864948
  0
ARC
  5
2DC
330
1F
100
AcDbEntity
  8
0
  6
HIDDEN
 62
     7
370
    18
100
AcDbCircle
 10
156.8922265152
 20
109.5452415528
 30
0.0
 40
7.247500000000001
100
AcDbArc
 50
337.380135052
 51
22.619864948
  0
ARC
  5
2DD
330
1F
100
AcDbEntity
  8
0
  6
HIDDEN
 62
     7
370
    18
100
AcDbCircle
 10
173.2722265152
 20
115.1202415528
 30
0.0
 40
7.247499999999996
100
AcDbArc
 50
157.380135052
 51
202.619864948
  0
ARC
  5
2DE
330
1F
100
AcDbEntity
  8
0
  6
HIDDEN
 62
     7
370
    18
100
AcDbCircle
 10
159.8922265152
 20
109.5452415528
 30
0.0
 40
7.247500000000001
100
AcDbArc
 50
337.380135052
 51
22.619864948
  0
ARC
  5
2DF
330
1F
100
AcDbEntity
  8
0
  6
HIDDEN
 62
     7
370
    18
100
AcDbCircle
 10
240.4195881159
 20
116.0802505905
 30
0.0
 40
9.74352349809269
100
AcDbArc
 50
157.380135052
 51
202.619864948
  0
ARC
  5
2E0
330
1F
100
AcDbEntity
  8
0
  6
HIDDEN
 62
     7
370
    18
100
AcDbCircle
 10
222.4315447348
 20
108.5852325151
 30
0.0
 40
9.743523498092669
100
AcDbArc
 50
337.380135052
 51
22.619864948
  0
ARC
  5
2E1
330
1F
100
AcDbEntity
  8
0
  6
HIDDEN
 62
     7
370
    18
100
AcDbCircle
 10
245.4538223743
 20
116.9278481982
 30
0.0
 40
11.94727727803918
100
AcDbArc
 50
157.380135052
 51
202.619864948
  0
ARC
  5
2E2
330
1F
100
AcDbEntity
  8
0
  6
HIDDEN
 62
     7
370
    18
100
AcDbCircle
 10
223.3973104764
 20
107.7376349074
 30
0.0
 40
11.94727727803916
100
AcDbArc
 50
337.380135052
 51
22.619864948
  0
LINE
  5
2E3
330
1F
100
AcDbEntity
  8
0
  6
CENTERX2
 62
     7
370
    18
100
AcDbLine
 10
23.8869700369
 20
112.3327415528
 30
0.0
 11
45.7006756004
 21
112.3327415528
 31
0.0
  0
LINE
  5
2E4
330
1F
100
AcDbEntity
  8
0
  6
CENTERX2
 62
     7
370
    18
100
AcDbLine
 10
48.7006737082
 20
112.3327415528
 30
0.0
 11
65.5367953865
 21
112.3327415528
 31
0.0
  0
LINE
  5
2E5
330
1F
100
AcDbEntity
  8
0
  6
CENTERX2
 62
     7
370
    18
100
AcDbLine
 10
68.7721478659
 20
112.3327415528
 30
0.0
 11
134.4970199186
 21
112.3327415528
 31
0.0
  0
LINE
  5
2E6
330
1F
100
AcDbEntity
  8
0
  6
CENTERX2
 62
     7
370
    18
100
AcDbLine
 10
137.5192889401
 20
112.3327415528
 30
0.0
 11
163.5822270919
 21
112.3327415528
 31
0.0
  0
LINE
  5
2E7
330
1F
100
AcDbEntity
  8
0
  6
CENTERX2
 62
     7
370
    18
100
AcDbLine
 10
166.5822294309
 20
112.3327415528
 30
0.0
 11
231.4255711391
 21
112.3327415528
 31
0.0
  0
LINE
  5
2E8
330
1F
100
AcDbEntity
  8
0
  6
CENTERX2
 62
     7
370
    18
100
AcDbLine
 10
234.4255690738
 20
112.3327415528
 30
0.0
 11
268.7280719443
 21
112.3327415528
 31
0.0
  0
ENDSEC
  0
SECTION
  2
OBJECTS
  0
DICTIONARY
  5
C
330
0
100
AcDbDictionary
281
     1
  3
ACAD_GROUP
350
D
  3
ACAD_LAYOUT
350
1A
  3
ACAD_MLINESTYLE
350
17
  3
ACAD_PLOTSETTINGS
350
19
  3
ACAD_PLOTSTYLENAME
350
E
  3
ACAD_SCALELIST
350
47
  3
DWGPROPS
350
2E9
  0
DICTIONARY
  5
D
102
{ACAD_REACTORS
330
C
102
}
330
C
100
AcDbDictionary
281
     1
  0
DICTIONARY
  5
1A
102
{ACAD_REACTORS
330
C
102
}
330
C
100
AcDbDictionary
281
     1
  3
Layout1
350
1E
  3
Layout2
350
26
  3
Model
350
22
  0
DICTIONARY
  5
17
102
{ACAD_REACTORS
330
C
102
}
330
C
100
AcDbDictionary
281
     1
  3
Standard
350
18
  0
DICTIONARY
  5
19
102
{ACAD_REACTORS
330
C
102
}
330
C
100
AcDbDictionary
281
     1
  0
ACDBDICTIONARYWDFLT
  5
E
102
{ACAD_REACTORS
330
C
102
}
330
C
100
AcDbDictionary
281
     1
  3
Normal
350
F
100
AcDbDictionaryWithDefault
340
F
  0
DICTIONARY
  5
47
102
{ACAD_REACTORS
330
C
102
}
330
C
100
AcDbDictionary
281
     1
  3
A0
350
48
  3
A1
350
49
  3
A2
350
4A
  3
A3
350
4B
  3
A4
350
4C
  3
A5
350
4D
  3
A6
350
4E
  3
A7
350
4F
  3
A8
350
50
  3
A9
350
51
  3
B0
350
52
  3
B1
350
53
  3
B2
350
54
  3
B3
350
55
  3
B4
350
56
  3
B5
350
57
  3
B6
350
58
  3
B7
350
59
  3
B8
350
5A
  3
B9
350
5B
  3
C0
350
5C
  3
C1
350
5D
  3
C2
350
5E
  3
C3
350
5F
  3
C4
350
60
  3
C5
350
61
  3
C6
350
62
  3
C7
350
63
  3
C8
350
64
  3
C9
350
65
  3
D0
350
66
  3
D1
350
67
  3
D2
350
68
  0
XRECORD
  5
2E9
102
{ACAD_REACTORS
330
C
102
}
330
C
100
AcDbXrecord
280
     1
  1
DWGPROPS COOKIE
  2

  3

  4

  6

  7

  8
p870382
  9

300
=
301
=
302
=
303
=
304
=
305
=
306
=
307
=
308
=
309
=
 40
0.0
 41
2460791.277938634
 42
2460791.277942245
  1

 90
        0
  0
LAYOUT
  5
1E
102
{ACAD_REACTORS
330
1A
102
}
330
1A
100
AcDbPlotSettings
  1

  2
none_device
  4

  6

 40
0.0
 41
0.0
 42
0.0
 43
0.0
 44
0.0
 45
0.0
 46
0.0
 47
0.0
 48
0.0
 49
0.0
140
0.0
141
0.0
142
1.0
143
1.0
 70
   688
 72
     1
 73
     0
 74
     5
  7

 75
    16
147
1.0
148
0.0
149
0.0
100
AcDbLayout
  1
Layout1
 70
     1
 71
     1
 10
0.0
 20
0.0
 11
420.0
 21
297.0
 12
0.0
 22
0.0
 32
0.0
 14
1.0000000000E+20
 24
1.0000000000E+20
 34
1.0000000000E+20
 15
-1.0000000000E+20
 25
-1.0000000000E+20
 35
-1.0000000000E+20
146
0.0
 13
0.0
 23
0.0
 33
0.0
 16
1.0
 26
0.0
 36
0.0
 17
0.0
 27
1.0
 37
0.0
 76
     0
330
1B
  0
LAYOUT
  5
26
102
{ACAD_REACTORS
330
1A
102
}
330
1A
100
AcDbPlotSettings
  1

  2
none_device
  4

  6

 40
0.0
 41
0.0
 42
0.0
 43
0.0
 44
0.0
 45
0.0
 46
0.0
 47
0.0
 48
0.0
 49
0.0
140
0.0
141
0.0
142
1.0
143
1.0
 70
   688
 72
     1
 73
     0
 74
     5
  7

 75
    16
147
1.0
148
0.0
149
0.0
100
AcDbLayout
  1
Layout2
 70
     1
 71
     2
 10
0.0
 20
0.0
 11
0.0
 21
0.0
 12
0.0
 22
0.0
 32
0.0
 14
0.0
 24
0.0
 34
0.0
 15
0.0
 25
0.0
 35
0.0
146
0.0
 13
0.0
 23
0.0
 33
0.0
 16
1.0
 26
0.0
 36
0.0
 17
0.0
 27
1.0
 37
0.0
 76
     0
330
23
  0
LAYOUT
  5
22
102
{ACAD_REACTORS
330
1A
102
}
330
1A
100
AcDbPlotSettings
  1

  2
none_device
  4
Letter_(8.50_x_11.00_Inches)
  6

 40
6.35
 41
6.35
 42
6.35000508
 43
6.35000508
 44
215.9
 45
279.4
 46
0.0
 47
0.0
 48
0.0
 49
0.0
140
0.0
141
0.0
142
1.0
143
1.0
 70
  1712
 72
     1
 73
     0
 74
     0
  7

 75
     0
147
1.0
148
0.0
149
0.0
100
AcDbLayout
  1
Model
 70
     1
 71
     0
 10
0.0
 20
0.0
 11
297.0
 21
210.0
 12
0.0
 22
0.0
 32
0.0
 14
0.0
 24
0.0
 34
0.0
 15
297.0
 25
210.0
 35
0.0
146
0.0
 13
0.0
 23
0.0
 33
0.0
 16
1.0
 26
0.0
 36
0.0
 17
0.0
 27
1.0
 37
0.0
 76
     0
330
1F
331
29
  0
MLINESTYLE
  5
18
102
{ACAD_REACTORS
330
17
102
}
330
17
100
AcDbMlineStyle
  2
Standard
 70
     0
  3

 62
   256
 51
90.0
 52
90.0
 71
     2
 49
0.5
 62
   256
  6
BYLAYER
 49
-0.5
 62
   256
  6
BYLAYER
  0
ACDBPLACEHOLDER
  5
F
102
{ACAD_REACTORS
330
E
102
}
330
E
  0
SCALE
  5
48
102
{ACAD_REACTORS
330
47
102
}
330
47
100
AcDbScale
 70
     0
300
1:1
140
1.0
141
1.0
290
     1
  0
SCALE
  5
49
102
{ACAD_REACTORS
330
47
102
}
330
47
100
AcDbScale
 70
     0
300
1:2
140
1.0
141
2.0
290
     0
  0
SCALE
  5
4A
102
{ACAD_REACTORS
330
47
102
}
330
47
100
AcDbScale
 70
     0
300
1:4
140
1.0
141
4.0
290
     0
  0
SCALE
  5
4B
102
{ACAD_REACTORS
330
47
102
}
330
47
100
AcDbScale
 70
     0
300
1:5
140
1.0
141
5.0
290
     0
  0
SCALE
  5
4C
102
{ACAD_REACTORS
330
47
102
}
330
47
100
AcDbScale
 70
     0
300
1:8
140
1.0
141
8.0
290
     0
  0
SCALE
  5
4D
102
{ACAD_REACTORS
330
47
102
}
330
47
100
AcDbScale
 70
     0
300
1:10
140
1.0
141
10.0
290
     0
  0
SCALE
  5
4E
102
{ACAD_REACTORS
330
47
102
}
330
47
100
AcDbScale
 70
     0
300
1:16
140
1.0
141
16.0
290
     0
  0
SCALE
  5
4F
102
{ACAD_REACTORS
330
47
102
}
330
47
100
AcDbScale
 70
     0
300
1:20
140
1.0
141
20.0
290
     0
  0
SCALE
  5
50
102
{ACAD_REACTORS
330
47
102
}
330
47
100
AcDbScale
 70
     0
300
1:30
140
1.0
141
30.0
290
     0
  0
SCALE
  5
51
102
{ACAD_REACTORS
330
47
102
}
330
47
100
AcDbScale
 70
     0
300
1:40
140
1.0
141
40.0
290
     0
  0
SCALE
  5
52
102
{ACAD_REACTORS
330
47
102
}
330
47
100
AcDbScale
 70
     0
300
1:50
140
1.0
141
50.0
290
     0
  0
SCALE
  5
53
102
{ACAD_REACTORS
330
47
102
}
330
47
100
AcDbScale
 70
     0
300
1:100
140
1.0
141
100.0
290
     0
  0
SCALE
  5
54
102
{ACAD_REACTORS
330
47
102
}
330
47
100
AcDbScale
 70
     0
300
2:1
140
2.0
141
1.0
290
     0
  0
SCALE
  5
55
102
{ACAD_REACTORS
330
47
102
}
330
47
100
AcDbScale
 70
     0
300
4:1
140
4.0
141
1.0
290
     0
  0
SCALE
  5
56
102
{ACAD_REACTORS
330
47
102
}
330
47
100
AcDbScale
 70
     0
300
8:1
140
8.0
141
1.0
290
     0
  0
SCALE
  5
57
102
{ACAD_REACTORS
330
47
102
}
330
47
100
AcDbScale
 70
     0
300
10:1
140
10.0
141
1.0
290
     0
  0
SCALE
  5
58
102
{ACAD_REACTORS
330
47
102
}
330
47
100
AcDbScale
 70
     0
300
100:1
140
100.0
141
1.0
290
     0
  0
SCALE
  5
59
102
{ACAD_REACTORS
330
47
102
}
330
47
100
AcDbScale
 70
     0
300
1/128" = 1'-0"
140
0.0078125
141
12.0
290
     0
  0
SCALE
  5
5A
102
{ACAD_REACTORS
330
47
102
}
330
47
100
AcDbScale
 70
     0
300
1/64" = 1'-0"
140
0.015625
141
12.0
290
     0
  0
SCALE
  5
5B
102
{ACAD_REACTORS
330
47
102
}
330
47
100
AcDbScale
 70
     0
300
1/32" = 1'-0"
140
0.03125
141
12.0
290
     0
  0
SCALE
  5
5C
102
{ACAD_REACTORS
330
47
102
}
330
47
100
AcDbScale
 70
     0
300
1/16" = 1'-0"
140
0.0625
141
12.0
290
     0
  0
SCALE
  5
5D
102
{ACAD_REACTORS
330
47
102
}
330
47
100
AcDbScale
 70
     0
300
3/32" = 1'-0"
140
0.09375
141
12.0
290
     0
  0
SCALE
  5
5E
102
{ACAD_REACTORS
330
47
102
}
330
47
100
AcDbScale
 70
     0
300
1/8" = 1'-0"
140
0.125
141
12.0
290
     0
  0
SCALE
  5
5F
102
{ACAD_REACTORS
330
47
102
}
330
47
100
AcDbScale
 70
     0
300
3/16" = 1'-0"
140
0.1875
141
12.0
290
     0
  0
SCALE
  5
60
102
{ACAD_REACTORS
330
47
102
}
330
47
100
AcDbScale
 70
     0
300
1/4" = 1'-0"
140
0.25
141
12.0
290
     0
  0
SCALE
  5
61
102
{ACAD_REACTORS
330
47
102
}
330
47
100
AcDbScale
 70
     0
300
3/8" = 1'-0"
140
0.375
141
12.0
290
     0
  0
SCALE
  5
62
102
{ACAD_REACTORS
330
47
102
}
330
47
100
AcDbScale
 70
     0
300
1/2" = 1'-0"
140
0.5
141
12.0
290
     0
  0
SCALE
  5
63
102
{ACAD_REACTORS
330
47
102
}
330
47
100
AcDbScale
 70
     0
300
3/4" = 1'-0"
140
0.75
141
12.0
290
     0
  0
SCALE
  5
64
102
{ACAD_REACTORS
330
47
102
}
330
47
100
AcDbScale
 70
     0
300
1" = 1'-0"
140
1.0
141
12.0
290
     0
  0
SCALE
  5
65
102
{ACAD_REACTORS
330
47
102
}
330
47
100
AcDbScale
 70
     0
300
1-1/2" = 1'-0"
140
1.5
141
12.0
290
     0
  0
SCALE
  5
66
102
{ACAD_REACTORS
330
47
102
}
330
47
100
AcDbScale
 70
     0
300
3" = 1'-0"
140
3.0
141
12.0
290
     0
  0
SCALE
  5
67
102
{ACAD_REACTORS
330
47
102
}
330
47
100
AcDbScale
 70
     0
300
6" = 1'-0"
140
6.0
141
12.0
290
     0
  0
SCALE
  5
68
102
{ACAD_REACTORS
330
47
102
}
330
47
100
AcDbScale
 70
     0
300
1'-0" = 1'-0"
140
12.0
141
12.0
290
     0
  0
ENDSEC
  0
EOF
