  0
SECTION
  2
HEADER
  9
$ACADVER
  1
AC1015
  9
$ACADMAINTVER
 70
     6
  9
$DWGCODEPAGE
  3
DOS932
  9
$INSBASE
 10
0.0
 20
0.0
 30
0.0
  9
$EXTMIN
 10
0.0
 20
0.0
 30
0.0
  9
$EXTMAX
 10
297.0
 20
210.0
 30
0.0
  9
$LIMMIN
 10
0.0
 20
0.0
  9
$LIMMAX
 10
297.0
 20
210.0
  9
$ORTHOMODE
 70
     0
  9
$REGENMODE
 70
     1
  9
$FILLMODE
 70
     1
  9
$QTEXTMODE
 70
     0
  9
$MIRRTEXT
 70
     1
  9
$LTSCALE
 40
1.0
  9
$ATTMODE
 70
     1
  9
$TEXTSIZE
 40
3.5277777778
  9
$TRACEWID
 40
1.0
  9
$TEXTSTYLE
  7
STANDARD
  9
$CLAYER
  8
0
  9
$CELTYPE
  6
ByLayer
  9
$CECOLOR
 62
   256
  9
$CELTSCALE
 40
1.0
  9
$DISPSILH
 70
     0
  9
$DIMSCALE
 40
1.0
  9
$DIMASZ
 40
3.0
  9
$DIMEXO
 40
1.0
  9
$DIMDLI
 40
3.75
  9
$DIMRND
 40
0.0
  9
$DIMDLE
 40
0.0
  9
$DIMEXE
 40
1.0
  9
$DIMTP
 40
0.0
  9
$DIMTM
 40
0.0
  9
$DIMTXT
 40
3.5277777778
  9
$DIMCEN
 40
2.5
  9
$DIMTSZ
 40
0.0
  9
$DIMTOL
 70
     0
  9
$DIMLIM
 70
     0
  9
$DIMTIH
 70
     1
  9
$DIMTOH
 70
     1
  9
$DIMSE1
 70
     0
  9
$DIMSE2
 70
     0
  9
$DIMTAD
 70
     1
  9
$DIMZIN
 70
     0
  9
$DIMBLK
  1

  9
$DIMASO
 70
     1
  9
$DIMSHO
 70
     1
  9
$DIMPOST
  1

  9
$DIMAPOST
  1

  9
$DIMALT
 70
     0
  9
$DIMALTD
 70
     3
  9
$DIMALTF
 40
0.0393700787
  9
$DIMLFAC
 40
5.0
  9
$DIMTOFL
 70
     1
  9
$DIMTVP
 40
0.0
  9
$DIMTIX
 70
     0
  9
$DIMSOXD
 70
     0
  9
$DIMSAH
 70
     0
  9
$DIMBLK1
  1

  9
$DIMBLK2
  1

  9
$DIMSTYLE
  2
ISO-25
  9
$DIMCLRD
 70
     0
  9
$DIMCLRE
 70
     0
  9
$DIMCLRT
 70
     0
  9
$DIMTFAC
 40
1.0
  9
$DIMGAP
 40
1.524
  9
$DIMJUST
 70
     0
  9
$DIMSD1
 70
     0
  9
$DIMSD2
 70
     0
  9
$DIMTOLJ
 70
     0
  9
$DIMTZIN
 70
     0
  9
$DIMALTZ
 70
     0
  9
$DIMALTTZ
 70
     0
  9
$DIMUPT
 70
     0
  9
$DIMDEC
 70
     2
  9
$DIMTDEC
 70
     2
  9
$DIMALTU
 70
     2
  9
$DIMALTTD
 70
     3
  9
$DIMTXSTY
  7
STANDARD
  9
$DIMAUNIT
 70
     0
  9
$DIMADEC
 70
     2
  9
$DIMALTRND
 40
0.0
  9
$DIMAZIN
 70
     0
  9
$DIMDSEP
 70
    44
  9
$DIMATFIT
 70
     3
  9
$DIMFRAC
 70
     0
  9
$DIMLDRBLK
  1

  9
$DIMLUNIT
 70
     2
  9
$DIMLWD
 70
    -2
  9
$DIMLWE
 70
    -2
  9
$DIMTMOVE
 70
     0
  9
$LUNITS
 70
     2
  9
$LUPREC
 70
     2
  9
$SKETCHINC
 40
1.0
  9
$FILLETRAD
 40
10.0
  9
$AUNITS
 70
     0
  9
$AUPREC
 70
     2
  9
$MENU
  1
.
  9
$ELEVATION
 40
0.0
  9
$PELEVATION
 40
0.0
  9
$THICKNESS
 40
0.0
  9
$LIMCHECK
 70
     0
  9
$CHAMFERA
 40
0.0
  9
$CHAMFERB
 40
0.0
  9
$CHAMFERC
 40
0.0
  9
$CHAMFERD
 40
0.0
  9
$SKPOLY
 70
     0
  9
$TDCREATE
 40
2460791.576993808
  9
$TDUCREATE
 40
2460791.201993808
  9
$TDUPDATE
 40
2460791.57699706
  9
$TDUUPDATE
 40
2460791.20199706
  9
$TDINDWG
 40
0.0000000116
  9
$TDUSRTIMER
 40
0.0000000116
  9
$USRTIMER
 70
     1
  9
$ANGBASE
 50
0.0
  9
$ANGDIR
 70
     0
  9
$PDMODE
 70
     0
  9
$PDSIZE
 40
-1.0
  9
$PLINEWID
 40
0.0
  9
$SPLFRAME
 70
     0
  9
$SPLINETYPE
 70
     6
  9
$SPLINESEGS
 70
     8
  9
$HANDSEED
  5
27A
  9
$SURFTAB1
 70
     6
  9
$SURFTAB2
 70
     6
  9
$SURFTYPE
 70
     6
  9
$SURFU
 70
     6
  9
$SURFV
 70
     6
  9
$UCSBASE
  2

  9
$UCSNAME
  2

  9
$UCSORG
 10
0.0
 20
0.0
 30
0.0
  9
$UCSXDIR
 10
1.0
 20
0.0
 30
0.0
  9
$UCSYDIR
 10
0.0
 20
1.0
 30
0.0
  9
$UCSORTHOREF
  2

  9
$UCSORTHOVIEW
 70
     0
  9
$UCSORGTOP
 10
0.0
 20
0.0
 30
0.0
  9
$UCSORGBOTTOM
 10
0.0
 20
0.0
 30
0.0
  9
$UCSORGLEFT
 10
0.0
 20
0.0
 30
0.0
  9
$UCSORGRIGHT
 10
0.0
 20
0.0
 30
0.0
  9
$UCSORGFRONT
 10
0.0
 20
0.0
 30
0.0
  9
$UCSORGBACK
 10
0.0
 20
0.0
 30
0.0
  9
$PUCSBASE
  2

  9
$PUCSNAME
  2

  9
$PUCSORG
 10
0.0
 20
0.0
 30
0.0
  9
$PUCSXDIR
 10
1.0
 20
0.0
 30
0.0
  9
$PUCSYDIR
 10
0.0
 20
1.0
 30
0.0
  9
$PUCSORTHOREF
  2

  9
$PUCSORTHOVIEW
 70
     0
  9
$PUCSORGTOP
 10
0.0
 20
0.0
 30
0.0
  9
$PUCSORGBOTTOM
 10
0.0
 20
0.0
 30
0.0
  9
$PUCSORGLEFT
 10
0.0
 20
0.0
 30
0.0
  9
$PUCSORGRIGHT
 10
0.0
 20
0.0
 30
0.0
  9
$PUCSORGFRONT
 10
0.0
 20
0.0
 30
0.0
  9
$PUCSORGBACK
 10
0.0
 20
0.0
 30
0.0
  9
$USERI1
 70
     0
  9
$USERI2
 70
     0
  9
$USERI3
 70
     0
  9
$USERI4
 70
     0
  9
$USERI5
 70
     0
  9
$USERR1
 40
0.0
  9
$USERR2
 40
0.0
  9
$USERR3
 40
0.0
  9
$USERR4
 40
0.0
  9
$USERR5
 40
0.0
  9
$WORLDVIEW
 70
     1
  9
$SHADEDGE
 70
     3
  9
$SHADEDIF
 70
    70
  9
$TILEMODE
 70
     1
  9
$MAXACTVP
 70
    64
  9
$PINSBASE
 10
0.0
 20
0.0
 30
0.0
  9
$PLIMCHECK
 70
     0
  9
$PEXTMIN
 10
1.0000000000E+20
 20
1.0000000000E+20
 30
1.0000000000E+20
  9
$PEXTMAX
 10
-1.0000000000E+20
 20
-1.0000000000E+20
 30
-1.0000000000E+20
  9
$PLIMMIN
 10
0.0
 20
0.0
  9
$PLIMMAX
 10
420.0
 20
297.0
  9
$UNITMODE
 70
     0
  9
$VISRETAIN
 70
     1
  9
$PLINEGEN
 70
     0
  9
$PSLTSCALE
 70
     1
  9
$TREEDEPTH
 70
  3020
  9
$CMLSTYLE
  2
Standard
  9
$CMLJUST
 70
     0
  9
$CMLSCALE
 40
20.0
  9
$PROXYGRAPHICS
 70
     1
  9
$MEASUREMENT
 70
     1
  9
$CELWEIGHT
370
    -1
  9
$ENDCAPS
280
     0
  9
$JOINSTYLE
280
     0
  9
$LWDISPLAY
290
     1
  9
$INSUNITS
 70
     4
  9
$HYPERLINKBASE
  1

  9
$STYLESHEET
  1

  9
$XEDIT
290
     1
  9
$CEPSNTYPE
380
     0
  9
$PSTYLEMODE
290
     1
  9
$FINGERPRINTGUID
  2
{c74714e9-2359-4006-8172-98f935942840}
  9
$VERSIONGUID
  2
{FAEB1C32-E019-11D5-929B-00C0DF256EC4}
  9
$EXTNAMES
290
     1
  9
$PSVPSCALE
 40
0.0
  9
$OLESTARTUP
290
     0
  0
ENDSEC
  0
SECTION
  2
CLASSES
  0
CLASS
  1
ACDBDICTIONARYWDFLT
  2
AcDbDictionaryWithDefault
  3
ObjectDBX Classes
 90
        0
280
     0
281
     0
  0
CLASS
  1
VISUALSTYLE
  2
AcDbVisualStyle
  3
ObjectDBX Classes
 90
     4095
280
     0
281
     0
  0
CLASS
  1
MATERIAL
  2
AcDbMaterial
  3
ObjectDBX Classes
 90
     1153
280
     0
281
     0
  0
CLASS
  1
SCALE
  2
AcDbScale
  3
ObjectDBX Classes
 90
     1153
280
     0
281
     0
  0
CLASS
  1
TABLESTYLE
  2
AcDbTableStyle
  3
ObjectDBX Classes
 90
     4095
280
     0
281
     0
  0
CLASS
  1
MLEADERSTYLE
  2
AcDbMLeaderStyle
  3
ACDB_MLEADERSTYLE_CLASS
 90
     4095
280
     0
281
     0
  0
CLASS
  1
SUN
  2
AcDbSun
  3
SCENEOE
 90
     1153
280
     0
281
     0
  0
CLASS
  1
ACDBPLACEHOLDER
  2
AcDbPlaceHolder
  3
ObjectDBX Classes
 90
        0
280
     0
281
     0
  0
CLASS
  1
LAYOUT
  2
AcDbLayout
  3
ObjectDBX Classes
 90
        0
280
     0
281
     0
  0
ENDSEC
  0
SECTION
  2
TABLES
  0
TABLE
  2
VPORT
  5
8
330
0
100
AcDbSymbolTable
 70
     1
  0
VPORT
  5
29
330
8
100
AcDbSymbolTableRecord
100
AcDbViewportTableRecord
  2
*Active
 70
     0
 10
0.0
 20
0.0
 11
1.0
 21
1.0
 12
148.5
 22
105.0
 13
0.0
 23
0.0
 14
10.0
 24
10.0
 15
10.0
 25
10.0
 16
0.0
 26
0.0
 36
1.0
 17
0.0
 27
0.0
 37
0.0
 40
210.0
 41
1.4142857143
 42
50.0
 43
0.0
 44
0.0
 50
0.0
 51
0.0
 71
     0
 72
  2000
 73
     1
 74
     3
 75
     0
 76
     0
 77
     0
 78
     0
281
     0
 65
     1
110
0.0
120
0.0
130
0.0
111
1.0
121
0.0
131
0.0
112
0.0
122
1.0
132
0.0
 79
     0
146
0.0
  0
ENDTAB
  0
TABLE
  2
LTYPE
  5
5
330
0
100
AcDbSymbolTable
 70
     6
  0
LTYPE
  5
14
330
5
100
AcDbSymbolTableRecord
100
AcDbLinetypeTableRecord
  2
ByBlock
 70
     0
  3

 72
    65
 73
     0
 40
0.0
  0
LTYPE
  5
15
330
5
100
AcDbSymbolTableRecord
100
AcDbLinetypeTableRecord
  2
ByLayer
 70
     0
  3

 72
    65
 73
     0
 40
0.0
  0
LTYPE
  5
16
330
5
100
AcDbSymbolTableRecord
100
AcDbLinetypeTableRecord
  2
Continuous
 70
     0
  3
Solid line
 72
    65
 73
     0
 40
0.0
  0
LTYPE
  5
6E
330
5
100
AcDbSymbolTableRecord
100
AcDbLinetypeTableRecord
  2
HIDDEN
 70
     0
  3
Hidden __ __ __ __ __ __ __ __ __ __ __ __ __ __
 72
    65
 73
     2
 40
1.905
 49
1.27
 74
     0
 49
-0.635
 74
     0
  0
LTYPE
  5
6F
330
5
100
AcDbSymbolTableRecord
100
AcDbLinetypeTableRecord
  2
PHANTOM
 70
     0
  3
Phantom ______  __  __  ______  __  __  ______
 72
    65
 73
     6
 40
12.7
 49
6.35
 74
     0
 49
-1.27
 74
     0
 49
1.27
 74
     0
 49
-1.27
 74
     0
 49
1.27
 74
     0
 49
-1.27
 74
     0
  0
LTYPE
  5
70
330
5
100
AcDbSymbolTableRecord
100
AcDbLinetypeTableRecord
  2
CENTER
 70
     0
  3
Center ____ _ ____ _ ____ _ ____ _ ____ _ ____
 72
    65
 73
     4
 40
10.16
 49
6.35
 74
     0
 49
-1.27
 74
     0
 49
1.27
 74
     0
 49
-1.27
 74
     0
  0
LTYPE
  5
71
330
5
100
AcDbSymbolTableRecord
100
AcDbLinetypeTableRecord
  2
CENTERX2
 70
     0
  3
Center (2x) ________  __  ________  __  _____
 72
    65
 73
     4
 40
20.32
 49
12.7
 74
     0
 49
-2.54
 74
     0
 49
2.54
 74
     0
 49
-2.54
 74
     0
  0
LTYPE
  5
72
330
5
100
AcDbSymbolTableRecord
100
AcDbLinetypeTableRecord
  2
DOT2
 70
     0
  3
Dot (.5x) ........................................
 72
    65
 73
     2
 40
0.635
 49
0.0
 74
     0
 49
-0.635
 74
     0
  0
ENDTAB
  0
TABLE
  2
LAYER
  5
2
330
0
100
AcDbSymbolTable
 70
     1
  0
LAYER
  5
10
330
2
100
AcDbSymbolTableRecord
100
AcDbLayerTableRecord
  2
0
 70
     0
 62
     7
  6
Continuous
370
    -3
390
F
  0
ENDTAB
  0
TABLE
  2
STYLE
  5
3
330
0
100
AcDbSymbolTable
 70
     3
  0
STYLE
  5
11
330
3
100
AcDbSymbolTableRecord
100
AcDbTextStyleTableRecord
  2
STANDARD
 70
     0
 40
0.0
 41
1.0
 50
0.0
 71
     0
 42
3.5277777778
  3
MSGOTHIC.TTC
  4

1001
ACAD
1000
MS UI GOTHIC
1071
    32818
  0
STYLE
  5
77
330
3
100
AcDbSymbolTableRecord
100
AcDbTextStyleTableRecord
  2
SLDTEXTSTYLE0
 70
     0
 40
0.0
 41
1.0
 50
0.0
 71
     0
 42
3.5277777778
  3
MSGOTHIC.TTC
  4

1001
ACAD
1000
MS UI Gothic
1071
      306
  0
STYLE
  5
79
330
3
100
AcDbSymbolTableRecord
100
AcDbTextStyleTableRecord
  2
SLDTEXTSTYLE1
 70
     0
 40
0.0
 41
1.0
 50
0.0
 71
     0
 42
3.5277777778
  3
MSGOTHIC.TTC
  4
bigfont
1001
ACAD
1000
MS UI Gothic
1071
      306
  0
ENDTAB
  0
TABLE
  2
VIEW
  5
6
330
0
100
AcDbSymbolTable
 70
     0
  0
ENDTAB
  0
TABLE
  2
UCS
  5
7
330
0
100
AcDbSymbolTable
 70
     0
  0
ENDTAB
  0
TABLE
  2
APPID
  5
9
330
0
100
AcDbSymbolTable
 70
     1
  0
APPID
  5
12
330
9
100
AcDbSymbolTableRecord
100
AcDbRegAppTableRecord
  2
ACAD
 70
     0
  0
ENDTAB
  0
TABLE
  2
DIMSTYLE
  5
A
330
0
100
AcDbSymbolTable
 70
     6
100
AcDbDimStyleTable
  0
DIMSTYLE
105
27
330
A
100
AcDbSymbolTableRecord
100
AcDbDimStyleTableRecord
  2
ISO-25
 70
     0
 41
2.5
 42
0.625
 43
3.75
 44
1.25
 73
     0
 74
     0
 77
     1
 78
     8
140
2.5
141
2.5
143
0.0393700787
147
0.625
171
     3
172
     1
178
     0
271
     2
272
     2
274
     3
278
    44
283
     0
284
     8
340
11
  0
DIMSTYLE
105
161
102
{ACAD_REACTORS
330
160
102
}
330
A
100
AcDbSymbolTableRecord
100
AcDbDimStyleTableRecord
  2
SLDDIMSTYLE0
 70
     0
 41
3.0
 44
0.0
 45
0.000000001
 73
     0
 74
     0
 77
     1
 78
    12
 79
     3
140
3.0316840278
147
0.7579210069
173
     1
178
     0
271
     1
272
     1
276
     2
284
    12
340
77
341
162
343
162
344
162
  0
DIMSTYLE
105
174
102
{ACAD_REACTORS
330
173
330
18B
330
197
330
1A1
330
1AB
330
1C1
330
1CD
330
1D9
330
1E3
102
}
330
A
100
AcDbSymbolTableRecord
100
AcDbDimStyleTableRecord
  2
SLDDIMSTYLE1
 70
     0
 41
3.0
 44
0.0
 45
0.000000001
 73
     0
 74
     0
 77
     1
 78
    12
 79
     3
140
3.0316840278
147
0.7579210069
173
     1
178
     0
271
     2
272
     2
276
     2
284
    12
340
77
341
162
343
162
344
162
  0
DIMSTYLE
105
17F
102
{ACAD_REACTORS
330
17E
330
1B6
102
}
330
A
100
AcDbSymbolTableRecord
100
AcDbDimStyleTableRecord
  2
SLDDIMSTYLE2
 70
     0
 41
3.0
 44
0.0
 45
0.000000001
 73
     0
 74
     0
 77
     1
 78
    12
 79
     3
140
3.0316840278
147
0.7579210069
172
     1
173
     1
178
     0
271
     2
272
     2
276
     2
284
    12
289
     0
340
77
341
162
343
162
344
162
  0
DIMSTYLE
105
1F0
102
{ACAD_REACTORS
330
1EF
102
}
330
A
100
AcDbSymbolTableRecord
100
AcDbDimStyleTableRecord
  2
SLDDIMSTYLE3
 70
     0
 41
3.0
 44
0.0
 45
0.000000001
 73
     0
 74
     0
 77
     1
 78
    12
 79
     3
140
3.0316840278
147
0.7579210069
172
     1
173
     1
178
     0
271
     0
272
     0
276
     2
284
    12
289
     0
340
77
341
162
343
162
344
162
  0
DIMSTYLE
105
202
330
A
100
AcDbSymbolTableRecord
100
AcDbDimStyleTableRecord
  2
SLDDIMSTYLE4
 70
     0
 41
3.0
 44
0.0
 45
0.000000001
146
3.0
147
0.0
173
     1
178
     0
271
     0
272
     0
276
     2
340
11
341
162
343
162
344
162
  0
ENDTAB
  0
TABLE
  2
BLOCK_RECORD
  5
1
330
0
100
AcDbSymbolTable
 70
    29
  0
BLOCK_RECORD
  5
1F
330
1
100
AcDbSymbolTableRecord
100
AcDbBlockTableRecord
  2
*Model_Space
340
22
  0
BLOCK_RECORD
  5
1B
330
1
100
AcDbSymbolTableRecord
100
AcDbBlockTableRecord
  2
*Paper_Space
340
1E
  0
BLOCK_RECORD
  5
23
330
1
100
AcDbSymbolTableRecord
100
AcDbBlockTableRecord
  2
*Paper_Space0
340
26
  0
BLOCK_RECORD
  5
7C
330
1
100
AcDbSymbolTableRecord
100
AcDbBlockTableRecord
  2
SW_TABLEANNOTATION_0
340
0
102
{BLKREFS
331
97
102
}
  0
BLOCK_RECORD
  5
98
330
1
100
AcDbSymbolTableRecord
100
AcDbBlockTableRecord
  2
SW_BROKEN_VIEW_0
340
0
102
{BLKREFS
331
9E
102
}
  0
BLOCK_RECORD
  5
162
330
1
100
AcDbSymbolTableRecord
100
AcDbBlockTableRecord
  2
_Open30
340
0
102
{BLKREFS
331
16B
331
16C
331
178
331
179
331
183
331
184
331
18F
331
190
331
19B
331
19C
331
1A5
331
1A6
331
1AF
331
1B0
331
1BA
331
1BB
331
1C7
331
1C8
331
1D1
331
1D2
331
1DD
331
1DE
331
1E9
331
1EA
331
1F4
331
1F5
102
}
  0
BLOCK_RECORD
  5
168
330
1
100
AcDbSymbolTableRecord
100
AcDbBlockTableRecord
  2
_D
340
0
  0
BLOCK_RECORD
  5
175
330
1
100
AcDbSymbolTableRecord
100
AcDbBlockTableRecord
  2
_D_1
340
0
  0
BLOCK_RECORD
  5
180
330
1
100
AcDbSymbolTableRecord
100
AcDbBlockTableRecord
  2
_D_2
340
0
  0
BLOCK_RECORD
  5
18C
330
1
100
AcDbSymbolTableRecord
100
AcDbBlockTableRecord
  2
_D_3
340
0
  0
BLOCK_RECORD
  5
198
330
1
100
AcDbSymbolTableRecord
100
AcDbBlockTableRecord
  2
_D_4
340
0
  0
BLOCK_RECORD
  5
1A2
330
1
100
AcDbSymbolTableRecord
100
AcDbBlockTableRecord
  2
_D_5
340
0
  0
BLOCK_RECORD
  5
1AC
330
1
100
AcDbSymbolTableRecord
100
AcDbBlockTableRecord
  2
_D_6
340
0
  0
BLOCK_RECORD
  5
1B7
330
1
100
AcDbSymbolTableRecord
100
AcDbBlockTableRecord
  2
_D_7
340
0
  0
BLOCK_RECORD
  5
1C2
330
1
100
AcDbSymbolTableRecord
100
AcDbBlockTableRecord
  2
_D_8
340
0
  0
BLOCK_RECORD
  5
1CE
330
1
100
AcDbSymbolTableRecord
100
AcDbBlockTableRecord
  2
_D_9
340
0
  0
BLOCK_RECORD
  5
1DA
330
1
100
AcDbSymbolTableRecord
100
AcDbBlockTableRecord
  2
_D_10
340
0
  0
BLOCK_RECORD
  5
1E4
330
1
100
AcDbSymbolTableRecord
100
AcDbBlockTableRecord
  2
_D_11
340
0
  0
BLOCK_RECORD
  5
1F1
330
1
100
AcDbSymbolTableRecord
100
AcDbBlockTableRecord
  2
_D_12
340
0
  0
BLOCK_RECORD
  5
1FC
330
1
100
AcDbSymbolTableRecord
100
AcDbBlockTableRecord
  2
SW_NOTE_0
340
0
102
{BLKREFS
331
201
102
}
  0
BLOCK_RECORD
  5
204
330
1
100
AcDbSymbolTableRecord
100
AcDbBlockTableRecord
  2
SW_NOTE_0_1
340
0
102
{BLKREFS
331
209
102
}
  0
BLOCK_RECORD
  5
20B
330
1
100
AcDbSymbolTableRecord
100
AcDbBlockTableRecord
  2
SW_NOTE_0_2
340
0
102
{BLKREFS
331
210
102
}
  0
BLOCK_RECORD
  5
212
330
1
100
AcDbSymbolTableRecord
100
AcDbBlockTableRecord
  2
SW_NOTE_0_3
340
0
102
{BLKREFS
331
217
102
}
  0
BLOCK_RECORD
  5
219
330
1
100
AcDbSymbolTableRecord
100
AcDbBlockTableRecord
  2
SW_NOTE_0_4
340
0
102
{BLKREFS
331
21E
102
}
  0
BLOCK_RECORD
  5
220
330
1
100
AcDbSymbolTableRecord
100
AcDbBlockTableRecord
  2
SW_NOTE_0_5
340
0
102
{BLKREFS
331
226
102
}
  0
BLOCK_RECORD
  5
228
330
1
100
AcDbSymbolTableRecord
100
AcDbBlockTableRecord
  2
SW_NOTE_0_6
340
0
102
{BLKREFS
331
22D
102
}
  0
BLOCK_RECORD
  5
22F
330
1
100
AcDbSymbolTableRecord
100
AcDbBlockTableRecord
  2
SW_NOTE_0_7
340
0
102
{BLKREFS
331
234
102
}
  0
BLOCK_RECORD
  5
236
330
1
100
AcDbSymbolTableRecord
100
AcDbBlockTableRecord
  2
SW_NOTE_0_8
340
0
102
{BLKREFS
331
23B
102
}
  0
BLOCK_RECORD
  5
245
330
1
100
AcDbSymbolTableRecord
100
AcDbBlockTableRecord
  2
SW_NOTE_0_9
340
0
102
{BLKREFS
331
24A
102
}
  0
BLOCK_RECORD
  5
24C
330
1
100
AcDbSymbolTableRecord
100
AcDbBlockTableRecord
  2
SW_CENTERMARKSYMBOL_0
340
0
102
{BLKREFS
331
257
102
}
  0
BLOCK_RECORD
  5
258
330
1
100
AcDbSymbolTableRecord
100
AcDbBlockTableRecord
  2
SW_CENTERMARKSYMBOL_1
340
0
102
{BLKREFS
331
263
102
}
  0
ENDTAB
  0
ENDSEC
  0
SECTION
  2
BLOCKS
  0
BLOCK
  5
20
330
1F
100
AcDbEntity
  8
0
100
AcDbBlockBegin
  2
*Model_Space
 70
     0
 10
0.0
 20
0.0
 30
0.0
  3
*Model_Space
  1

  0
ENDBLK
  5
21
330
1F
100
AcDbEntity
  8
0
100
AcDbBlockEnd
  0
BLOCK
  5
1C
330
1B
100
AcDbEntity
 67
     1
  8
0
100
AcDbBlockBegin
  2
*Paper_Space
 70
     0
 10
0.0
 20
0.0
 30
0.0
  3
*Paper_Space
  1

  0
ENDBLK
  5
1D
330
1B
100
AcDbEntity
 67
     1
  8
0
100
AcDbBlockEnd
  0
BLOCK
  5
24
330
23
100
AcDbEntity
  8
0
100
AcDbBlockBegin
  2
*Paper_Space0
 70
     0
 10
0.0
 20
0.0
 30
0.0
  3
*Paper_Space0
  1

  0
ENDBLK
  5
25
330
23
100
AcDbEntity
  8
0
100
AcDbBlockEnd
  0
BLOCK
  5
7D
330
7C
100
AcDbEntity
  8
0
100
AcDbBlockBegin
  2
SW_TABLEANNOTATION_0
 70
     0
 10
0.0
 20
0.0
 30
0.0
  3
SW_TABLEANNOTATION_0
  1

  0
LINE
  5
7F
330
7C
100
AcDbEntity
  8
0
  6
Continuous
 62
     0
370
    18
100
AcDbLine
 10
0.0
 20
0.0
 30
0.0
 11
0.0
 21
-8.0
 31
0.0
  0
LINE
  5
80
330
7C
100
AcDbEntity
  8
0
  6
Continuous
 62
     0
370
    18
100
AcDbLine
 10
35.0
 20
0.0
 30
0.0
 11
35.0
 21
-8.0
 31
0.0
  0
LINE
  5
81
330
7C
100
AcDbEntity
  8
0
  6
Continuous
 62
     0
370
    18
100
AcDbLine
 10
0.0
 20
-8.0
 30
0.0
 11
0.0
 21
-16.0
 31
0.0
  0
LINE
  5
82
330
7C
100
AcDbEntity
  8
0
  6
Continuous
 62
     0
370
    18
100
AcDbLine
 10
35.0
 20
-8.0
 30
0.0
 11
35.0
 21
-16.0
 31
0.0
  0
LINE
  5
83
330
7C
100
AcDbEntity
  8
0
  6
Continuous
 62
     0
370
    18
100
AcDbLine
 10
0.0
 20
-16.0
 30
0.0
 11
0.0
 21
-24.0
 31
0.0
  0
LINE
  5
84
330
7C
100
AcDbEntity
  8
0
  6
Continuous
 62
     0
370
    18
100
AcDbLine
 10
35.0
 20
-16.0
 30
0.0
 11
35.0
 21
-24.0
 31
0.0
  0
LINE
  5
85
330
7C
100
AcDbEntity
  8
0
  6
Continuous
 62
     0
370
    18
100
AcDbLine
 10
60.0
 20
0.0
 30
0.0
 11
60.0
 21
-8.0
 31
0.0
  0
LINE
  5
86
330
7C
100
AcDbEntity
  8
0
  6
Continuous
 62
     0
370
    18
100
AcDbLine
 10
60.0
 20
-8.0
 30
0.0
 11
60.0
 21
-16.0
 31
0.0
  0
LINE
  5
87
330
7C
100
AcDbEntity
  8
0
  6
Continuous
 62
     0
370
    18
100
AcDbLine
 10
60.0
 20
-16.0
 30
0.0
 11
60.0
 21
-24.0
 31
0.0
  0
LINE
  5
88
330
7C
100
AcDbEntity
  8
0
  6
Continuous
 62
     0
370
    18
100
AcDbLine
 10
0.0
 20
0.0
 30
0.0
 11
35.0
 21
0.0
 31
0.0
  0
LINE
  5
89
330
7C
100
AcDbEntity
  8
0
  6
Continuous
 62
     0
370
    18
100
AcDbLine
 10
0.0
 20
-8.0
 30
0.0
 11
35.0
 21
-8.0
 31
0.0
  0
LINE
  5
8A
330
7C
100
AcDbEntity
  8
0
  6
Continuous
 62
     0
370
    18
100
AcDbLine
 10
35.0
 20
0.0
 30
0.0
 11
60.0
 21
0.0
 31
0.0
  0
LINE
  5
8B
330
7C
100
AcDbEntity
  8
0
  6
Continuous
 62
     0
370
    18
100
AcDbLine
 10
35.0
 20
-8.0
 30
0.0
 11
60.0
 21
-8.0
 31
0.0
  0
LINE
  5
8C
330
7C
100
AcDbEntity
  8
0
  6
Continuous
 62
     0
370
    18
100
AcDbLine
 10
0.0
 20
-16.0
 30
0.0
 11
35.0
 21
-16.0
 31
0.0
  0
LINE
  5
8D
330
7C
100
AcDbEntity
  8
0
  6
Continuous
 62
     0
370
    18
100
AcDbLine
 10
35.0
 20
-16.0
 30
0.0
 11
60.0
 21
-16.0
 31
0.0
  0
LINE
  5
8E
330
7C
100
AcDbEntity
  8
0
  6
Continuous
 62
     0
370
    18
100
AcDbLine
 10
0.0
 20
-24.0
 30
0.0
 11
35.0
 21
-24.0
 31
0.0
  0
LINE
  5
8F
330
7C
100
AcDbEntity
  8
0
  6
Continuous
 62
     0
370
    18
100
AcDbLine
 10
35.0
 20
-24.0
 30
0.0
 11
60.0
 21
-24.0
 31
0.0
  0
MTEXT
  5
90
330
7C
100
AcDbEntity
  8
0
  6
Continuous
 62
     0
370
    18
100
AcDbMText
 10
9.1827743873
 20
-2.912562812
 30
0.0
 40
2.6458333333
 41
0.0
 71
     1
 72
     1
  1
ｹｰﾌﾞﾙ種類
  7
SLDTEXTSTYLE1
 73
     1
 44
1.0
  0
MTEXT
  5
91
330
7C
100
AcDbEntity
  8
0
  6
Continuous
 62
     0
370
    18
100
AcDbMText
 10
43.7100889534
 20
-2.912562812
 30
0.0
 40
2.6458333333
 41
0.0
 71
     1
 72
     1
  1
φD1
  7
SLDTEXTSTYLE1
 73
     1
 44
1.0
  0
MTEXT
  5
92
330
7C
100
AcDbEntity
  8
0
  6
Continuous
 62
     0
370
    18
100
AcDbMText
 10
4.3957754225
 20
-9.1486739444
 30
0.0
 40
2.6458333333
 41
0.0
 71
     1
 72
     1
  1
EXA、EXB、EXC、
  7
SLDTEXTSTYLE1
 73
     1
 44
1.0
  0
MTEXT
  5
93
330
7C
100
AcDbEntity
  8
0
  6
Continuous
 62
     0
370
    18
100
AcDbMText
 10
8.9206406102
 20
-12.6764516796
 30
0.0
 40
2.6458333333
 41
0.0
 71
     1
 72
     1
  1
EXD、EXF　
  7
SLDTEXTSTYLE1
 73
     1
 44
1.0
  0
MTEXT
  5
94
330
7C
100
AcDbEntity
  8
0
  6
Continuous
 62
     0
370
    18
100
AcDbMText
 10
42.174035348
 20
-10.912562812
 30
0.0
 40
2.6458333333
 41
0.0
 71
     1
 72
     1
  1
φ8ｘ40
  7
SLDTEXTSTYLE1
 73
     1
 44
1.0
  0
MTEXT
  5
95
330
7C
100
AcDbEntity
  8
0
  6
Continuous
 62
     0
370
    18
100
AcDbMText
 10
14.4401427079
 20
-18.912562812
 30
0.0
 40
2.6458333333
 41
0.0
 71
     1
 72
     1
  1
EXE
  7
SLDTEXTSTYLE0
 73
     1
 44
1.0
  0
MTEXT
  5
96
330
7C
100
AcDbEntity
  8
0
  6
Continuous
 62
     0
370
    18
100
AcDbMText
 10
41.2920914963
 20
-18.912562812
 30
0.0
 40
2.6458333333
 41
0.0
 71
     1
 72
     1
  1
φ10ｘ40
  7
SLDTEXTSTYLE1
 73
     1
 44
1.0
  0
ENDBLK
  5
7E
330
7C
100
AcDbEntity
  8
0
100
AcDbBlockEnd
  0
BLOCK
  5
99
330
98
100
AcDbEntity
  8
0
100
AcDbBlockBegin
  2
SW_BROKEN_VIEW_0
 70
     0
 10
0.0
 20
0.0
 30
0.0
  3
SW_BROKEN_VIEW_0
  1

  0
LINE
  5
9B
330
98
100
AcDbEntity
  8
0
  6
HIDDEN
 62
     0
100
AcDbLine
 10
0.0
 20
0.0
 30
0.0
 11
-11.9999945164
 21
0.0
 31
0.0
  0
LINE
  5
9C
330
98
100
AcDbEntity
  8
0
  6
HIDDEN
 62
     0
100
AcDbLine
 10
0.0
 20
-12.7999996766
 30
0.0
 11
-11.9999945164
 21
-12.7999996766
 31
0.0
  0
LINE
  5
9D
330
98
100
AcDbEntity
  8
0
  6
HIDDEN
 62
     0
100
AcDbLine
 10
0.0
 20
-12.7999996766
 30
0.0
 11
0.0
 21
0.0
 31
0.0
  0
ENDBLK
  5
9A
330
98
100
AcDbEntity
  8
0
100
AcDbBlockEnd
  0
BLOCK
  5
163
330
162
100
AcDbEntity
  8
0
100
AcDbBlockBegin
  2
_Open30
 70
     0
 10
0.0
 20
0.0
 30
0.0
  3
_Open30
  1

  0
LINE
  5
165
330
162
100
AcDbEntity
  8
0
  6
ByBlock
 62
     0
370
    -2
100
AcDbLine
 10
-1.0
 20
0.267949
 30
0.0
 11
0.0
 21
0.0
 31
0.0
  0
LINE
  5
166
330
162
100
AcDbEntity
  8
0
  6
ByBlock
 62
     0
370
    -2
100
AcDbLine
 10
0.0
 20
0.0
 30
0.0
 11
-1.0
 21
-0.267949
 31
0.0
  0
LINE
  5
167
330
162
100
AcDbEntity
  8
0
  6
ByBlock
 62
     0
370
    -2
100
AcDbLine
 10
0.0
 20
0.0
 30
0.0
 11
-1.0
 21
0.0
 31
0.0
  0
ENDBLK
  5
164
330
162
100
AcDbEntity
  8
0
100
AcDbBlockEnd
  0
BLOCK
  5
169
330
168
100
AcDbEntity
  8
0
100
AcDbBlockBegin
  2
_D
 70
     0
 10
0.0
 20
0.0
 30
0.0
  3
_D
  1

  0
INSERT
  5
16B
330
168
100
AcDbEntity
  8
0
  6
Continuous
 62
     7
370
    18
100
AcDbBlockReference
  2
_Open30
 10
85.8483826921
 20
107.4745518115
 30
0.0
 41
3.0
 42
3.0
 50
270.0
  0
INSERT
  5
16C
330
168
100
AcDbEntity
  8
0
  6
Continuous
 62
     7
370
    18
100
AcDbBlockReference
  2
_Open30
 10
85.8483826921
 20
120.2745518115
 30
0.0
 41
3.0
 42
3.0
 50
90.0
  0
LINE
  5
16D
330
168
100
AcDbEntity
  8
0
  6
Continuous
 62
     7
370
    18
100
AcDbLine
 10
88.9376209763
 20
107.4745518115
 30
0.0
 11
84.8483826921
 21
107.4745518115
 31
0.0
  0
LINE
  5
16E
330
168
100
AcDbEntity
  8
0
  6
Continuous
 62
     7
370
    18
100
AcDbLine
 10
88.9376209763
 20
120.2745518115
 30
0.0
 11
84.8483826921
 21
120.2745518115
 31
0.0
  0
LINE
  5
16F
330
168
100
AcDbEntity
  8
0
  6
Continuous
 62
     7
370
    18
100
AcDbLine
 10
85.8483826921
 20
107.4745518115
 30
0.0
 11
85.8483826921
 21
120.2745518115
 31
0.0
  0
LINE
  5
170
330
168
100
AcDbEntity
  8
0
  6
Continuous
 62
     7
370
    18
100
AcDbLine
 10
85.8483826921
 20
120.2745518115
 30
0.0
 11
85.8483826921
 21
132.2209911224
 31
0.0
  0
MTEXT
  5
171
330
168
100
AcDbEntity
  8
0
  6
Continuous
 62
     7
370
    18
100
AcDbMText
 10
82.7695946969
 20
122.8625803989
 30
0.0
 40
2.6458333333
 41
0.0
 71
     1
 72
     1
  1
%%c
  7
SLDTEXTSTYLE0
 11
6.123233995736766E-17
 21
1.0
 31
0.0
 73
     1
 44
1.0
  0
MTEXT
  5
172
330
168
100
AcDbEntity
  8
0
  6
Continuous
 62
     7
370
    18
100
AcDbMText
 10
82.7695946969
 20
126.2139693637
 30
0.0
 40
2.6458333333
 41
0.0
 71
     1
 72
     1
  1
12.8
  7
SLDTEXTSTYLE0
 11
6.123233995736766E-17
 21
1.0
 31
0.0
 73
     1
 44
1.0
  0
ENDBLK
  5
16A
330
168
100
AcDbEntity
  8
0
100
AcDbBlockEnd
  0
BLOCK
  5
176
330
175
100
AcDbEntity
  8
0
100
AcDbBlockBegin
  2
_D_1
 70
     0
 10
0.0
 20
0.0
 30
0.0
  3
_D_1
  1

  0
INSERT
  5
178
330
175
100
AcDbEntity
  8
0
  6
Continuous
 62
     7
370
    18
100
AcDbBlockReference
  2
_Open30
 10
28.8914890588
 20
152.3015935466
 30
0.0
 41
3.0
 42
3.0
 50
180.0
  0
INSERT
  5
179
330
175
100
AcDbEntity
  8
0
  6
Continuous
 62
     7
370
    18
100
AcDbBlockReference
  2
_Open30
 10
61.7508312586
 20
152.3015935466
 30
0.0
 41
3.0
 42
3.0
 50
0.0
  0
LINE
  5
17A
330
175
100
AcDbEntity
  8
0
  6
Continuous
 62
     7
370
    18
100
AcDbLine
 10
28.8914890588
 20
114.8745518115
 30
0.0
 11
28.8914890588
 21
153.3015935466
 31
0.0
  0
LINE
  5
17B
330
175
100
AcDbEntity
  8
0
  6
Continuous
 62
     7
370
    18
100
AcDbLine
 10
61.7508312586
 20
118.3745518115
 30
0.0
 11
61.7508312586
 21
153.3015935466
 31
0.0
  0
LINE
  5
17C
330
175
100
AcDbEntity
  8
0
  6
Continuous
 62
     7
370
    18
100
AcDbLine
 10
28.8914890588
 20
152.3015935466
 30
0.0
 11
61.7508312586
 21
152.3015935466
 31
0.0
  0
MTEXT
  5
17D
330
175
100
AcDbEntity
  8
0
  6
Continuous
 62
     7
370
    18
100
AcDbMText
 10
35.5511756377
 20
155.380381309
 30
0.0
 40
2.6458333333
 41
0.0
 71
     1
 72
     1
  1
L1=50～1000
  7
SLDTEXTSTYLE1
 73
     1
 44
1.0
  0
ENDBLK
  5
177
330
175
100
AcDbEntity
  8
0
100
AcDbBlockEnd
  0
BLOCK
  5
181
330
180
100
AcDbEntity
  8
0
100
AcDbBlockBegin
  2
_D_2
 70
     0
 10
0.0
 20
0.0
 30
0.0
  3
_D_2
  1

  0
INSERT
  5
183
330
180
100
AcDbEntity
  8
0
  6
Continuous
 62
     7
370
    18
100
AcDbBlockReference
  2
_Open30
 10
63.7508312586
 20
126.1470268344
 30
0.0
 41
3.0
 42
3.0
 50
180.0
  0
INSERT
  5
184
330
180
100
AcDbEntity
  8
0
  6
Continuous
 62
     7
370
    18
100
AcDbBlockReference
  2
_Open30
 10
61.7508312586
 20
126.1470268344
 30
0.0
 41
3.0
 42
3.0
 50
0.0
  0
LINE
  5
185
330
180
100
AcDbEntity
  8
0
  6
Continuous
 62
     7
370
    18
100
AcDbLine
 10
63.7508312586
 20
118.3745518115
 30
0.0
 11
63.7508312586
 21
127.1470268344
 31
0.0
  0
LINE
  5
186
330
180
100
AcDbEntity
  8
0
  6
Continuous
 62
     7
370
    18
100
AcDbLine
 10
61.7508312586
 20
118.3745518115
 30
0.0
 11
61.7508312586
 21
127.1470268344
 31
0.0
  0
LINE
  5
187
330
180
100
AcDbEntity
  8
0
  6
Continuous
 62
     7
370
    18
100
AcDbLine
 10
63.7508312586
 20
126.1470268344
 30
0.0
 11
67.2508312586
 21
126.1470268344
 31
0.0
  0
LINE
  5
188
330
180
100
AcDbEntity
  8
0
  6
Continuous
 62
     7
370
    18
100
AcDbLine
 10
63.7508312586
 20
126.1470268344
 30
0.0
 11
61.7508312586
 21
126.1470268344
 31
0.0
  0
LINE
  5
189
330
180
100
AcDbEntity
  8
0
  6
Continuous
 62
     7
370
    18
100
AcDbLine
 10
61.7508312586
 20
126.1470268344
 30
0.0
 11
55.6543319033
 21
126.1470268344
 31
0.0
  0
MTEXT
  5
18A
330
180
100
AcDbEntity
  8
0
  6
Continuous
 62
     7
370
    18
100
AcDbMText
 10
55.6543319033
 20
129.2258145968
 30
0.0
 40
2.6458333333
 41
0.0
 71
     1
 72
     1
  1
2
  7
SLDTEXTSTYLE0
 73
     1
 44
1.0
  0
ENDBLK
  5
182
330
180
100
AcDbEntity
  8
0
100
AcDbBlockEnd
  0
BLOCK
  5
18D
330
18C
100
AcDbEntity
  8
0
100
AcDbBlockBegin
  2
_D_3
 70
     0
 10
0.0
 20
0.0
 30
0.0
  3
_D_3
  1

  0
INSERT
  5
18F
330
18C
100
AcDbEntity
  8
0
  6
Continuous
 62
     7
370
    18
100
AcDbBlockReference
  2
_Open30
 10
57.4660236397
 20
117.3745518115
 30
0.0
 41
3.0
 42
3.0
 50
90.0
  0
INSERT
  5
190
330
18C
100
AcDbEntity
  8
0
  6
Continuous
 62
     7
370
    18
100
AcDbBlockReference
  2
_Open30
 10
57.4660236397
 20
110.3745518115
 30
0.0
 41
3.0
 42
3.0
 50
270.0
  0
LINE
  5
191
330
18C
100
AcDbEntity
  8
0
  6
Continuous
 62
     7
370
    18
100
AcDbLine
 10
60.7508312586
 20
117.3745518115
 30
0.0
 11
56.4660236397
 21
117.3745518115
 31
0.0
  0
LINE
  5
192
330
18C
100
AcDbEntity
  8
0
  6
Continuous
 62
     7
370
    18
100
AcDbLine
 10
60.7508312586
 20
110.3745518115
 30
0.0
 11
56.4660236397
 21
110.3745518115
 31
0.0
  0
LINE
  5
193
330
18C
100
AcDbEntity
  8
0
  6
Continuous
 62
     7
370
    18
100
AcDbLine
 10
57.4660236397
 20
117.3745518115
 30
0.0
 11
57.4660236397
 21
110.3745518115
 31
0.0
  0
LINE
  5
194
330
18C
100
AcDbEntity
  8
0
  6
Continuous
 62
     7
370
    18
100
AcDbLine
 10
57.4660236397
 20
110.3745518115
 30
0.0
 11
57.4660236397
 21
102.2025062683
 31
0.0
  0
MTEXT
  5
195
330
18C
100
AcDbEntity
  8
0
  6
Continuous
 62
     7
370
    18
100
AcDbMText
 10
54.3872356445
 20
102.2025062683
 30
0.0
 40
2.6458333333
 41
0.0
 71
     1
 72
     1
  1
%%c
  7
SLDTEXTSTYLE0
 11
-7.044195017643634E-15
 21
1.0
 31
0.0
 73
     1
 44
1.0
  0
MTEXT
  5
196
330
18C
100
AcDbEntity
  8
0
  6
Continuous
 62
     7
370
    18
100
AcDbMText
 10
54.3872356445
 20
105.5538952331
 30
0.0
 40
2.6458333333
 41
0.0
 71
     1
 72
     1
  1
7
  7
SLDTEXTSTYLE0
 11
-7.044195017643634E-15
 21
1.0
 31
0.0
 73
     1
 44
1.0
  0
ENDBLK
  5
18E
330
18C
100
AcDbEntity
  8
0
100
AcDbBlockEnd
  0
BLOCK
  5
199
330
198
100
AcDbEntity
  8
0
100
AcDbBlockBegin
  2
_D_4
 70
     0
 10
0.0
 20
0.0
 30
0.0
  3
_D_4
  1

  0
INSERT
  5
19B
330
198
100
AcDbEntity
  8
0
  6
Continuous
 62
     7
370
    18
100
AcDbBlockReference
  2
_Open30
 10
61.7508312586
 20
152.3015935466
 30
0.0
 41
3.0
 42
3.0
 50
180.0
  0
INSERT
  5
19C
330
198
100
AcDbEntity
  8
0
  6
Continuous
 62
     7
370
    18
100
AcDbBlockReference
  2
_Open30
 10
105.9664884897
 20
152.3015935466
 30
0.0
 41
3.0
 42
3.0
 50
0.0
  0
LINE
  5
19D
330
198
100
AcDbEntity
  8
0
  6
Continuous
 62
     7
370
    18
100
AcDbLine
 10
61.7508312586
 20
118.3745518115
 30
0.0
 11
61.7508312586
 21
153.3015935466
 31
0.0
  0
LINE
  5
19E
330
198
100
AcDbEntity
  8
0
  6
Continuous
 62
     7
370
    18
100
AcDbLine
 10
105.9664884897
 20
119.8745518115
 30
0.0
 11
105.9664884897
 21
153.3015935466
 31
0.0
  0
LINE
  5
19F
330
198
100
AcDbEntity
  8
0
  6
Continuous
 62
     7
370
    18
100
AcDbLine
 10
61.7508312586
 20
152.3015935466
 30
0.0
 11
105.9664884897
 21
152.3015935466
 31
0.0
  0
MTEXT
  5
1A0
330
198
100
AcDbEntity
  8
0
  6
Continuous
 62
     7
370
    18
100
AcDbMText
 10
82.0947710066
 20
155.380381309
 30
0.0
 40
2.6458333333
 41
0.0
 71
     1
 72
     1
  1
50
  7
SLDTEXTSTYLE0
 73
     1
 44
1.0
  0
ENDBLK
  5
19A
330
198
100
AcDbEntity
  8
0
100
AcDbBlockEnd
  0
BLOCK
  5
1A3
330
1A2
100
AcDbEntity
  8
0
100
AcDbBlockBegin
  2
_D_5
 70
     0
 10
0.0
 20
0.0
 30
0.0
  3
_D_5
  1

  0
INSERT
  5
1A5
330
1A2
100
AcDbEntity
  8
0
  6
Continuous
 62
     7
370
    18
100
AcDbBlockReference
  2
_Open30
 10
105.9664884897
 20
152.3015935466
 30
0.0
 41
3.0
 42
3.0
 50
180.0
  0
INSERT
  5
1A6
330
1A2
100
AcDbEntity
  8
0
  6
Continuous
 62
     7
370
    18
100
AcDbBlockReference
  2
_Open30
 10
145.9664884897
 20
152.3015935466
 30
0.0
 41
3.0
 42
3.0
 50
0.0
  0
LINE
  5
1A7
330
1A2
100
AcDbEntity
  8
0
  6
Continuous
 62
     7
370
    18
100
AcDbLine
 10
105.9664884897
 20
119.8745518115
 30
0.0
 11
105.9664884897
 21
153.3015935466
 31
0.0
  0
LINE
  5
1A8
330
1A2
100
AcDbEntity
  8
0
  6
Continuous
 62
     7
370
    18
100
AcDbLine
 10
145.9664884897
 20
118.8745518115
 30
0.0
 11
145.9664884897
 21
153.3015935466
 31
0.0
  0
LINE
  5
1A9
330
1A2
100
AcDbEntity
  8
0
  6
Continuous
 62
     7
370
    18
100
AcDbLine
 10
105.9664884897
 20
152.3015935466
 30
0.0
 11
145.9664884897
 21
152.3015935466
 31
0.0
  0
MTEXT
  5
1AA
330
1A2
100
AcDbEntity
  8
0
  6
Continuous
 62
     7
370
    18
100
AcDbMText
 10
124.2025996222
 20
155.380381309
 30
0.0
 40
2.6458333333
 41
0.0
 71
     1
 72
     1
  1
40
  7
SLDTEXTSTYLE0
 73
     1
 44
1.0
  0
ENDBLK
  5
1A4
330
1A2
100
AcDbEntity
  8
0
100
AcDbBlockEnd
  0
BLOCK
  5
1AD
330
1AC
100
AcDbEntity
  8
0
100
AcDbBlockBegin
  2
_D_6
 70
     0
 10
0.0
 20
0.0
 30
0.0
  3
_D_6
  1

  0
INSERT
  5
1AF
330
1AC
100
AcDbEntity
  8
0
  6
Continuous
 62
     7
370
    18
100
AcDbBlockReference
  2
_Open30
 10
137.8651472492
 20
109.8745518115
 30
0.0
 41
3.0
 42
3.0
 50
270.0
  0
INSERT
  5
1B0
330
1AC
100
AcDbEntity
  8
0
  6
Continuous
 62
     7
370
    18
100
AcDbBlockReference
  2
_Open30
 10
137.8651472492
 20
117.8745518115
 30
0.0
 41
3.0
 42
3.0
 50
90.0
  0
LINE
  5
1B1
330
1AC
100
AcDbEntity
  8
0
  6
Continuous
 62
     7
370
    18
100
AcDbLine
 10
137.8651472492
 20
109.8745518115
 30
0.0
 11
137.8651472492
 21
117.8745518115
 31
0.0
  0
LINE
  5
1B2
330
1AC
100
AcDbEntity
  8
0
  6
Continuous
 62
     7
370
    18
100
AcDbLine
 10
137.8651472492
 20
117.8745518115
 30
0.0
 11
137.8651472492
 21
139.4398414538
 31
0.0
  0
MTEXT
  5
1B3
330
1AC
100
AcDbEntity
  8
0
  6
Continuous
 62
     7
370
    18
100
AcDbMText
 10
134.7851783871
 20
123.6260879793
 30
0.0
 40
2.6458333333
 41
0.0
 71
     1
 72
     1
  1
%%c
  7
SLDTEXTSTYLE0
 11
6.123233995736766E-17
 21
1.0
 31
0.0
 73
     1
 44
1.0
  0
MTEXT
  5
1B4
330
1AC
100
AcDbEntity
  8
0
  6
Continuous
 62
     7
370
    18
100
AcDbMText
 10
134.7851783871
 20
126.9774769441
 30
0.0
 40
2.6458333333
 41
0.0
 71
     1
 72
     1
  1
D1　※1
  7
SLDTEXTSTYLE1
 11
6.123233995736766E-17
 21
1.0
 31
0.0
 73
     1
 44
1.0
  0
MTEXT
  5
1B5
330
1AC
100
AcDbEntity
  8
0
  6
Continuous
 62
     7
370
    18
100
AcDbMText
 10
138.3129563551
 20
122.8494864896
 30
0.0
 40
2.6458333333
 41
0.0
 71
     1
 72
     1
  1
（φ8,φ10）
  7
SLDTEXTSTYLE1
 11
6.123233995736766E-17
 21
1.0
 31
0.0
 73
     1
 44
1.0
  0
ENDBLK
  5
1AE
330
1AC
100
AcDbEntity
  8
0
100
AcDbBlockEnd
  0
BLOCK
  5
1B8
330
1B7
100
AcDbEntity
  8
0
100
AcDbBlockBegin
  2
_D_7
 70
     0
 10
0.0
 20
0.0
 30
0.0
  3
_D_7
  1

  0
INSERT
  5
1BA
330
1B7
100
AcDbEntity
  8
0
  6
Continuous
 62
     7
370
    18
100
AcDbBlockReference
  2
_Open30
 10
36.2128147207
 20
116.3745518115
 30
0.0
 41
3.0
 42
3.0
 50
270.0
  0
INSERT
  5
1BB
330
1B7
100
AcDbEntity
  8
0
  6
Continuous
 62
     7
370
    18
100
AcDbBlockReference
  2
_Open30
 10
36.2128147207
 20
111.3745518115
 30
0.0
 41
3.0
 42
3.0
 50
90.0
  0
LINE
  5
1BC
330
1B7
100
AcDbEntity
  8
0
  6
Continuous
 62
     7
370
    18
100
AcDbLine
 10
36.2128147207
 20
116.3745518115
 30
0.0
 11
36.2128147207
 21
128.704665867
 31
0.0
  0
LINE
  5
1BD
330
1B7
100
AcDbEntity
  8
0
  6
Continuous
 62
     7
370
    18
100
AcDbLine
 10
36.2128147207
 20
116.3745518115
 30
0.0
 11
36.2128147207
 21
111.3745518115
 31
0.0
  0
LINE
  5
1BE
330
1B7
100
AcDbEntity
  8
0
  6
Continuous
 62
     7
370
    18
100
AcDbLine
 10
36.2128147207
 20
111.3745518115
 30
0.0
 11
36.2128147207
 21
107.8745518115
 31
0.0
  0
MTEXT
  5
1BF
330
1B7
100
AcDbEntity
  8
0
  6
Continuous
 62
     7
370
    18
100
AcDbMText
 10
33.1340267255
 20
123.5893878018
 30
0.0
 40
2.6458333333
 41
0.0
 71
     1
 72
     1
  1
%%c
  7
SLDTEXTSTYLE0
 11
-7.044195017643634E-15
 21
1.0
 31
0.0
 73
     1
 44
1.0
  0
MTEXT
  5
1C0
330
1B7
100
AcDbEntity
  8
0
  6
Continuous
 62
     7
370
    18
100
AcDbMText
 10
33.1340267255
 20
126.9407767666
 30
0.0
 40
2.6458333333
 41
0.0
 71
     1
 72
     1
  1
5
  7
SLDTEXTSTYLE0
 11
-7.044195017643634E-15
 21
1.0
 31
0.0
 73
     1
 44
1.0
  0
ENDBLK
  5
1B9
330
1B7
100
AcDbEntity
  8
0
100
AcDbBlockEnd
  0
BLOCK
  5
1C3
330
1C2
100
AcDbEntity
  8
0
100
AcDbBlockBegin
  2
_D_8
 70
     0
 10
0.0
 20
0.0
 30
0.0
  3
_D_8
  1

  0
ARC
  5
1C5
330
1C2
100
AcDbEntity
  8
0
  6
Continuous
 62
     7
370
    18
100
AcDbCircle
 10
99.7303774446
 20
132.9085526064
 30
0.0
 40
3.944175412646004
100
AcDbArc
 50
153.4349488229
 51
206.5650511771
  0
ARC
  5
1C6
330
1C2
100
AcDbEntity
  8
0
  6
Continuous
 62
     7
370
    18
100
AcDbCircle
 10
96.2025997095
 20
132.9085526064
 30
0.0
 40
3.944175412646004
100
AcDbArc
 50
333.4349488229
 51
26.5650511771
  0
INSERT
  5
1C7
330
1C2
100
AcDbEntity
  8
0
  6
Continuous
 62
     7
370
    18
100
AcDbBlockReference
  2
_Open30
 10
89.9664884897
 20
131.1446639717
 30
0.0
 41
3.0
 42
3.0
 50
180.0
  0
INSERT
  5
1C8
330
1C2
100
AcDbEntity
  8
0
  6
Continuous
 62
     7
370
    18
100
AcDbBlockReference
  2
_Open30
 10
105.9664884897
 20
131.1446639717
 30
0.0
 41
3.0
 42
3.0
 50
0.0
  0
LINE
  5
1C9
330
1C2
100
AcDbEntity
  8
0
  6
Continuous
 62
     7
370
    18
100
AcDbLine
 10
89.9664884897
 20
121.8745518115
 30
0.0
 11
89.9664884897
 21
132.1446639717
 31
0.0
  0
LINE
  5
1CA
330
1C2
100
AcDbEntity
  8
0
  6
Continuous
 62
     7
370
    18
100
AcDbLine
 10
105.9664884897
 20
119.8745518115
 30
0.0
 11
105.9664884897
 21
132.1446639717
 31
0.0
  0
LINE
  5
1CB
330
1C2
100
AcDbEntity
  8
0
  6
Continuous
 62
     7
370
    18
100
AcDbLine
 10
89.9664884897
 20
131.1446639717
 30
0.0
 11
105.9664884897
 21
131.1446639717
 31
0.0
  0
MTEXT
  5
1CC
330
1C2
100
AcDbEntity
  8
0
  6
Continuous
 62
     7
370
    18
100
AcDbMText
 10
96.2025997095
 20
134.2234515012
 30
0.0
 40
2.6458333333
 41
0.0
 71
     1
 72
     1
  1
16
  7
SLDTEXTSTYLE0
 73
     1
 44
1.0
  0
ENDBLK
  5
1C4
330
1C2
100
AcDbEntity
  8
0
100
AcDbBlockEnd
  0
BLOCK
  5
1CF
330
1CE
100
AcDbEntity
  8
0
100
AcDbBlockBegin
  2
_D_9
 70
     0
 10
0.0
 20
0.0
 30
0.0
  3
_D_9
  1

  0
INSERT
  5
1D1
330
1CE
100
AcDbEntity
  8
0
  6
Continuous
 62
     7
370
    18
100
AcDbBlockReference
  2
_Open30
 10
81.2388387377
 20
106.8745518115
 30
0.0
 41
3.0
 42
3.0
 50
270.0
  0
INSERT
  5
1D2
330
1CE
100
AcDbEntity
  8
0
  6
Continuous
 62
     7
370
    18
100
AcDbBlockReference
  2
_Open30
 10
81.2388387377
 20
120.8745518115
 30
0.0
 41
3.0
 42
3.0
 50
90.0
  0
LINE
  5
1D3
330
1CE
100
AcDbEntity
  8
0
  6
Continuous
 62
     7
370
    18
100
AcDbLine
 10
88.9664884897
 20
106.8745518115
 30
0.0
 11
80.2388387377
 21
106.8745518115
 31
0.0
  0
LINE
  5
1D4
330
1CE
100
AcDbEntity
  8
0
  6
Continuous
 62
     7
370
    18
100
AcDbLine
 10
88.9664884897
 20
120.8745518115
 30
0.0
 11
80.2388387377
 21
120.8745518115
 31
0.0
  0
LINE
  5
1D5
330
1CE
100
AcDbEntity
  8
0
  6
Continuous
 62
     7
370
    18
100
AcDbLine
 10
81.2388387377
 20
106.8745518115
 30
0.0
 11
81.2388387377
 21
120.8745518115
 31
0.0
  0
LINE
  5
1D6
330
1CE
100
AcDbEntity
  8
0
  6
Continuous
 62
     7
370
    18
100
AcDbLine
 10
81.2388387377
 20
120.8745518115
 30
0.0
 11
81.2388387377
 21
129.5866101844
 31
0.0
  0
MTEXT
  5
1D7
330
1CE
100
AcDbEntity
  8
0
  6
Continuous
 62
     7
370
    18
100
AcDbMText
 10
78.1600507425
 20
122.7074434845
 30
0.0
 40
2.6458333333
 41
0.0
 71
     1
 72
     1
  1
%%c
  7
SLDTEXTSTYLE0
 11
6.123233995736766E-17
 21
1.0
 31
0.0
 73
     1
 44
1.0
  0
MTEXT
  5
1D8
330
1CE
100
AcDbEntity
  8
0
  6
Continuous
 62
     7
370
    18
100
AcDbMText
 10
78.1600507425
 20
126.0588324493
 30
0.0
 40
2.6458333333
 41
0.0
 71
     1
 72
     1
  1
14
  7
SLDTEXTSTYLE0
 11
6.123233995736766E-17
 21
1.0
 31
0.0
 73
     1
 44
1.0
  0
ENDBLK
  5
1D0
330
1CE
100
AcDbEntity
  8
0
100
AcDbBlockEnd
  0
BLOCK
  5
1DB
330
1DA
100
AcDbEntity
  8
0
100
AcDbBlockBegin
  2
_D_10
 70
     0
 10
0.0
 20
0.0
 30
0.0
  3
_D_10
  1

  0
INSERT
  5
1DD
330
1DA
100
AcDbEntity
  8
0
  6
Continuous
 62
     7
370
    18
100
AcDbBlockReference
  2
_Open30
 10
145.9664884897
 20
152.3015935466
 30
0.0
 41
3.0
 42
3.0
 50
180.0
  0
INSERT
  5
1DE
330
1DA
100
AcDbEntity
  8
0
  6
Continuous
 62
     7
370
    18
100
AcDbBlockReference
  2
_Open30
 10
262.022846827
 20
152.3015935466
 30
0.0
 41
3.0
 42
3.0
 50
0.0
  0
LINE
  5
1DF
330
1DA
100
AcDbEntity
  8
0
  6
Continuous
 62
     7
370
    18
100
AcDbLine
 10
145.9664884897
 20
118.8745518115
 30
0.0
 11
145.9664884897
 21
153.3015935466
 31
0.0
  0
LINE
  5
1E0
330
1DA
100
AcDbEntity
  8
0
  6
Continuous
 62
     7
370
    18
100
AcDbLine
 10
262.022846827
 20
126.501706743
 30
0.0
 11
262.022846827
 21
153.3015935466
 31
0.0
  0
LINE
  5
1E1
330
1DA
100
AcDbEntity
  8
0
  6
Continuous
 62
     7
370
    18
100
AcDbLine
 10
145.9664884897
 20
152.3015935466
 30
0.0
 11
262.022846827
 21
152.3015935466
 31
0.0
  0
MTEXT
  5
1E2
330
1DA
100
AcDbEntity
  8
0
  6
Continuous
 62
     7
370
    18
100
AcDbMText
 10
193.3427383544
 20
155.380381309
 30
0.0
 40
2.6458333333
 41
0.0
 71
     1
 72
     1
  1
L=100～10000
  7
SLDTEXTSTYLE1
 73
     1
 44
1.0
  0
ENDBLK
  5
1DC
330
1DA
100
AcDbEntity
  8
0
100
AcDbBlockEnd
  0
BLOCK
  5
1E5
330
1E4
100
AcDbEntity
  8
0
100
AcDbBlockBegin
  2
_D_11
 70
     0
 10
0.0
 20
0.0
 30
0.0
  3
_D_11
  1

  0
ARC
  5
1E7
330
1E4
100
AcDbEntity
  8
0
  6
Continuous
 62
     7
370
    18
100
AcDbCircle
 10
231.4672482287
 20
136.0654821814
 30
0.0
 40
3.944175412646004
100
AcDbArc
 50
153.4349488229
 51
206.5650511771
  0
ARC
  5
1E8
330
1E4
100
AcDbEntity
  8
0
  6
Continuous
 62
     7
370
    18
100
AcDbCircle
 10
227.9394704936
 20
136.0654821814
 30
0.0
 40
3.944175412646004
100
AcDbArc
 50
333.4349488229
 51
26.5650511771
  0
INSERT
  5
1E9
330
1E4
100
AcDbEntity
  8
0
  6
Continuous
 62
     7
370
    18
100
AcDbBlockReference
  2
_Open30
 10
197.3838717207
 20
134.3015935466
 30
0.0
 41
3.0
 42
3.0
 50
180.0
  0
INSERT
  5
1EA
330
1E4
100
AcDbEntity
  8
0
  6
Continuous
 62
     7
370
    18
100
AcDbBlockReference
  2
_Open30
 10
262.022846827
 20
134.3015935466
 30
0.0
 41
3.0
 42
3.0
 50
0.0
  0
LINE
  5
1EB
330
1E4
100
AcDbEntity
  8
0
  6
Continuous
 62
     7
370
    18
100
AcDbLine
 10
197.3838717207
 20
117.3745518115
 30
0.0
 11
197.3838717207
 21
135.3015935466
 31
0.0
  0
LINE
  5
1EC
330
1E4
100
AcDbEntity
  8
0
  6
Continuous
 62
     7
370
    18
100
AcDbLine
 10
262.022846827
 20
126.501706743
 30
0.0
 11
262.022846827
 21
135.3015935466
 31
0.0
  0
LINE
  5
1ED
330
1E4
100
AcDbEntity
  8
0
  6
Continuous
 62
     7
370
    18
100
AcDbLine
 10
197.3838717207
 20
134.3015935466
 30
0.0
 11
262.022846827
 21
134.3015935466
 31
0.0
  0
MTEXT
  5
1EE
330
1E4
100
AcDbEntity
  8
0
  6
Continuous
 62
     7
370
    18
100
AcDbMText
 10
227.9394704936
 20
137.3803810762
 30
0.0
 40
2.6458333333
 41
0.0
 71
     1
 72
     1
  1
80
  7
SLDTEXTSTYLE0
 73
     1
 44
1.0
  0
ENDBLK
  5
1E6
330
1E4
100
AcDbEntity
  8
0
100
AcDbBlockEnd
  0
BLOCK
  5
1F2
330
1F1
100
AcDbEntity
  8
0
100
AcDbBlockBegin
  2
_D_12
 70
     0
 10
0.0
 20
0.0
 30
0.0
  3
_D_12
  1

  0
INSERT
  5
1F4
330
1F1
100
AcDbEntity
  8
0
  6
Continuous
 62
     7
370
    18
100
AcDbBlockReference
  2
_Open30
 10
105.9664884897
 20
131.1446639717
 30
0.0
 41
3.0
 42
3.0
 50
0.0
  0
INSERT
  5
1F5
330
1F1
100
AcDbEntity
  8
0
  6
Continuous
 62
     7
370
    18
100
AcDbBlockReference
  2
_Open30
 10
111.1664884897
 20
131.1446639717
 30
0.0
 41
3.0
 42
3.0
 50
180.0
  0
LINE
  5
1F6
330
1F1
100
AcDbEntity
  8
0
  6
Continuous
 62
     7
370
    18
100
AcDbLine
 10
105.9664884897
 20
119.8745518115
 30
0.0
 11
105.9664884897
 21
132.1446639717
 31
0.0
  0
LINE
  5
1F7
330
1F1
100
AcDbEntity
  8
0
  6
Continuous
 62
     7
370
    18
100
AcDbLine
 10
111.1664884897
 20
118.8745518115
 30
0.0
 11
111.1664884897
 21
132.1446639717
 31
0.0
  0
LINE
  5
1F8
330
1F1
100
AcDbEntity
  8
0
  6
Continuous
 62
     7
370
    18
100
AcDbLine
 10
105.9664884897
 20
131.1446639717
 30
0.0
 11
102.4664884897
 21
131.1446639717
 31
0.0
  0
LINE
  5
1F9
330
1F1
100
AcDbEntity
  8
0
  6
Continuous
 62
     7
370
    18
100
AcDbLine
 10
105.9664884897
 20
131.1446639717
 30
0.0
 11
111.1664884897
 21
131.1446639717
 31
0.0
  0
LINE
  5
1FA
330
1F1
100
AcDbEntity
  8
0
  6
Continuous
 62
     7
370
    18
100
AcDbLine
 10
111.1664884897
 20
131.1446639717
 30
0.0
 11
114.6664884897
 21
131.1446639717
 31
0.0
  0
MTEXT
  5
1FB
330
1F1
100
AcDbEntity
  8
0
  6
Continuous
 62
     7
370
    18
100
AcDbMText
 10
107.684544056
 20
134.2234517341
 30
0.0
 40
2.6458333333
 41
0.0
 71
     1
 72
     1
  1
5
  7
SLDTEXTSTYLE0
 73
     1
 44
1.0
  0
ENDBLK
  5
1F3
330
1F1
100
AcDbEntity
  8
0
100
AcDbBlockEnd
  0
BLOCK
  5
1FD
330
1FC
100
AcDbEntity
  8
0
100
AcDbBlockBegin
  2
SW_NOTE_0
 70
     0
 10
0.0
 20
0.0
 30
0.0
  3
SW_NOTE_0
  1

  0
LINE
  5
1FF
330
1FC
100
AcDbEntity
  8
0
  6
Continuous
 62
     0
370
    18
100
AcDbLine
 10
20.3663993407
 20
0.0
 30
0.0
 11
0.0
 21
0.0
 31
0.0
  0
MTEXT
  5
200
330
1FC
100
AcDbEntity
  8
0
  6
Continuous
 62
     0
370
    18
100
AcDbMText
 10
0.4458205317
 20
3.0710792332
 30
0.0
 40
2.6458333333
 41
0.0
 71
     1
 72
     1
  1
 先端120°形
  7
SLDTEXTSTYLE1
 73
     1
 44
1.0
  0
ENDBLK
  5
1FE
330
1FC
100
AcDbEntity
  8
0
100
AcDbBlockEnd
  0
BLOCK
  5
205
330
204
100
AcDbEntity
  8
0
100
AcDbBlockBegin
  2
SW_NOTE_0_1
 70
     0
 10
0.0
 20
0.0
 30
0.0
  3
SW_NOTE_0_1
  1

  0
LINE
  5
207
330
204
100
AcDbEntity
  8
0
  6
Continuous
 62
     0
370
    18
100
AcDbLine
 10
12.6199878532
 20
0.0
 30
0.0
 11
0.0
 21
0.0
 31
0.0
  0
MTEXT
  5
208
330
204
100
AcDbEntity
  8
0
  6
Continuous
 62
     0
370
    18
100
AcDbMText
 10
0.4917731215
 20
3.0151604308
 30
0.0
 40
2.6458333333
 41
0.0
 71
     1
 72
     1
  1
 保護管 
  7
SLDTEXTSTYLE1
 73
     1
 44
1.0
  0
ENDBLK
  5
206
330
204
100
AcDbEntity
  8
0
100
AcDbBlockEnd
  0
BLOCK
  5
20C
330
20B
100
AcDbEntity
  8
0
100
AcDbBlockBegin
  2
SW_NOTE_0_2
 70
     0
 10
0.0
 20
0.0
 30
0.0
  3
SW_NOTE_0_2
  1

  0
LINE
  5
20E
330
20B
100
AcDbEntity
  8
0
  6
Continuous
 62
     0
370
    18
100
AcDbLine
 10
21.1846500415
 20
0.0
 30
0.0
 11
0.0
 21
0.0
 31
0.0
  0
MTEXT
  5
20F
330
20B
100
AcDbEntity
  8
0
  6
Continuous
 62
     0
370
    18
100
AcDbMText
 10
0.3931186698
 20
3.0057512404
 30
0.0
 40
2.6458333333
 41
0.0
 71
     1
 72
     1
  1
ﾊﾞｲﾖﾈｯﾄｷｬｯﾌﾟ
  7
SLDTEXTSTYLE1
 73
     1
 44
1.0
  0
ENDBLK
  5
20D
330
20B
100
AcDbEntity
  8
0
100
AcDbBlockEnd
  0
BLOCK
  5
213
330
212
100
AcDbEntity
  8
0
100
AcDbBlockBegin
  2
SW_NOTE_0_3
 70
     0
 10
0.0
 20
0.0
 30
0.0
  3
SW_NOTE_0_3
  1

  0
LINE
  5
215
330
212
100
AcDbEntity
  8
0
  6
Continuous
 62
     0
370
    18
100
AcDbLine
 10
12.806176931
 20
0.0
 30
0.0
 11
0.0
 21
0.0
 31
0.0
  0
MTEXT
  5
216
330
212
100
AcDbEntity
  8
0
  6
Continuous
 62
     0
370
    18
100
AcDbMText
 10
0.4010961661
 20
3.0815625269
 30
0.0
 40
2.6458333333
 41
0.0
 71
     1
 72
     1
  1
六角ｶｼﾒ
  7
SLDTEXTSTYLE1
 73
     1
 44
1.0
  0
ENDBLK
  5
214
330
212
100
AcDbEntity
  8
0
100
AcDbBlockEnd
  0
BLOCK
  5
21A
330
219
100
AcDbEntity
  8
0
100
AcDbBlockBegin
  2
SW_NOTE_0_4
 70
     0
 10
0.0
 20
0.0
 30
0.0
  3
SW_NOTE_0_4
  1

  0
LINE
  5
21C
330
219
100
AcDbEntity
  8
0
  6
Continuous
 62
     0
370
    18
100
AcDbLine
 10
9.0089168179
 20
0.0
 30
0.0
 11
0.0
 21
0.0
 31
0.0
  0
MTEXT
  5
21D
330
219
100
AcDbEntity
  8
0
  6
Continuous
 62
     0
370
    18
100
AcDbMText
 10
0.4961678816
 20
3.0889257654
 30
0.0
 40
2.6458333333
 41
0.0
 71
     1
 72
     1
  1
ｽﾘｰﾌﾞ
  7
SLDTEXTSTYLE1
 73
     1
 44
1.0
  0
ENDBLK
  5
21B
330
219
100
AcDbEntity
  8
0
100
AcDbBlockEnd
  0
BLOCK
  5
221
330
220
100
AcDbEntity
  8
0
100
AcDbBlockBegin
  2
SW_NOTE_0_5
 70
     0
 10
0.0
 20
0.0
 30
0.0
  3
SW_NOTE_0_5
  1

  0
LINE
  5
223
330
220
100
AcDbEntity
  8
0
  6
Continuous
 62
     0
370
    18
100
AcDbLine
 10
24.638929196
 20
0.0
 30
0.0
 11
0.0
 21
0.0
 31
0.0
  0
MTEXT
  5
224
330
220
100
AcDbEntity
  8
0
  6
Continuous
 62
     0
370
    18
100
AcDbMText
 10
0.4034225474
 20
6.5602128516
 30
0.0
 40
2.6458333333
 41
0.0
 71
     1
 72
     1
  1
ｽﾘｰﾌﾞ内
  7
SLDTEXTSTYLE1
 73
     1
 44
1.0
  0
MTEXT
  5
225
330
220
100
AcDbEntity
  8
0
  6
Continuous
 62
     0
370
    18
100
AcDbMText
 10
0.4034225474
 20
3.0324351165
 30
0.0
 40
2.6458333333
 41
0.0
 71
     1
 72
     1
  1
 ｴﾎﾟｷｼ樹脂充填
  7
SLDTEXTSTYLE1
 73
     1
 44
1.0
  0
ENDBLK
  5
222
330
220
100
AcDbEntity
  8
0
100
AcDbBlockEnd
  0
BLOCK
  5
229
330
228
100
AcDbEntity
  8
0
100
AcDbBlockBegin
  2
SW_NOTE_0_6
 70
     0
 10
0.0
 20
0.0
 30
0.0
  3
SW_NOTE_0_6
  1

  0
LINE
  5
22B
330
228
100
AcDbEntity
  8
0
  6
Continuous
 62
     0
370
    18
100
AcDbLine
 10
14.2809849012
 20
0.0
 30
0.0
 11
0.0
 21
0.0
 31
0.0
  0
MTEXT
  5
22C
330
228
100
AcDbEntity
  8
0
  6
Continuous
 62
     0
370
    18
100
AcDbMText
 10
0.4549302798
 20
3.0057514733
 30
0.0
 40
2.6458333333
 41
0.0
 71
     1
 72
     1
  1
  ﾘｰﾄﾞ線  
  7
SLDTEXTSTYLE1
 73
     1
 44
1.0
  0
ENDBLK
  5
22A
330
228
100
AcDbEntity
  8
0
100
AcDbBlockEnd
  0
BLOCK
  5
230
330
22F
100
AcDbEntity
  8
0
100
AcDbBlockBegin
  2
SW_NOTE_0_7
 70
     0
 10
0.0
 20
0.0
 30
0.0
  3
SW_NOTE_0_7
  1

  0
LINE
  5
232
330
22F
100
AcDbEntity
  8
0
  6
Continuous
 62
     0
370
    18
100
AcDbLine
 10
19.4452579844
 20
0.0
 30
0.0
 11
0.0
 21
0.0
 31
0.0
  0
MTEXT
  5
233
330
22F
100
AcDbEntity
  8
0
  6
Continuous
 62
     0
370
    18
100
AcDbMText
 10
0.424275995
 20
3.0889257654
 30
0.0
 40
2.6458333333
 41
0.0
 71
     1
 72
     1
  1
熱収縮ﾁｭｰﾌﾞ
  7
SLDTEXTSTYLE1
 73
     1
 44
1.0
  0
ENDBLK
  5
231
330
22F
100
AcDbEntity
  8
0
100
AcDbBlockEnd
  0
BLOCK
  5
237
330
236
100
AcDbEntity
  8
0
100
AcDbBlockBegin
  2
SW_NOTE_0_8
 70
     0
 10
0.0
 20
0.0
 30
0.0
  3
SW_NOTE_0_8
  1

  0
LINE
  5
239
330
236
100
AcDbEntity
  8
0
  6
Continuous
 62
     0
370
    18
100
AcDbLine
 10
-13.470867857
 20
0.0
 30
0.0
 11
0.0
 21
0.0
 31
0.0
  0
MTEXT
  5
23A
330
236
100
AcDbEntity
  8
0
  6
Continuous
 62
     0
370
    18
100
AcDbMText
 10
-13.9016005102
 20
3.0057514733
 30
0.0
 40
2.6458333333
 41
0.0
 71
     1
 72
     1
  1
Yﾗｸﾞ(M3)
  7
SLDTEXTSTYLE1
 73
     1
 44
1.0
  0
ENDBLK
  5
238
330
236
100
AcDbEntity
  8
0
100
AcDbBlockEnd
  0
BLOCK
  5
246
330
245
100
AcDbEntity
  8
0
100
AcDbBlockBegin
  2
SW_NOTE_0_9
 70
     0
 10
0.0
 20
0.0
 30
0.0
  3
SW_NOTE_0_9
  1

  0
LINE
  5
248
330
245
100
AcDbEntity
  8
0
  6
Continuous
 62
     0
370
    18
100
AcDbLine
 10
13.5950267095
 20
0.0
 30
0.0
 11
0.0
 21
0.0
 31
0.0
  0
MTEXT
  5
249
330
245
100
AcDbEntity
  8
0
  6
Continuous
 62
     0
370
    18
100
AcDbMText
 10
0.4107545788
 20
3.0889257654
 30
0.0
 40
2.6458333333
 41
0.0
 71
     1
 72
     1
  1
 ｽﾌﾟﾘﾝｸﾞ 
  7
SLDTEXTSTYLE1
 73
     1
 44
1.0
  0
ENDBLK
  5
247
330
245
100
AcDbEntity
  8
0
100
AcDbBlockEnd
  0
BLOCK
  5
24D
330
24C
100
AcDbEntity
  8
0
100
AcDbBlockBegin
  2
SW_CENTERMARKSYMBOL_0
 70
     0
 10
0.0
 20
0.0
 30
0.0
  3
SW_CENTERMARKSYMBOL_0
  1

  0
LINE
  5
24F
330
24C
100
AcDbEntity
  8
0
  6
Continuous
 62
     0
370
    18
100
AcDbLine
 10
0.0
 20
0.0
 30
0.0
 11
0.0
 21
2.4999999441
 31
0.0
  0
LINE
  5
250
330
24C
100
AcDbEntity
  8
0
  6
Continuous
 62
     0
370
    18
100
AcDbLine
 10
0.0
 20
0.0
 30
0.0
 11
-2.4999976158
 21
0.0
 31
0.0
  0
LINE
  5
251
330
24C
100
AcDbEntity
  8
0
  6
Continuous
 62
     0
370
    18
100
AcDbLine
 10
0.0
 20
0.0
 30
0.0
 11
0.0
 21
-2.4999999441
 31
0.0
  0
LINE
  5
252
330
24C
100
AcDbEntity
  8
0
  6
Continuous
 62
     0
370
    18
100
AcDbLine
 10
0.0
 20
0.0
 30
0.0
 11
2.4999976158
 21
0.0
 31
0.0
  0
LINE
  5
253
330
24C
100
AcDbEntity
  8
0
  6
Continuous
 62
     0
370
    18
100
AcDbLine
 10
0.0
 20
2.4999999441
 30
0.0
 11
0.0
 21
4.1001136415
 31
0.0
  0
LINE
  5
254
330
24C
100
AcDbEntity
  8
0
  6
Continuous
 62
     0
370
    18
100
AcDbLine
 10
-2.4999976158
 20
0.0
 30
0.0
 11
-15.218436718
 21
0.0
 31
0.0
  0
LINE
  5
255
330
24C
100
AcDbEntity
  8
0
  6
Continuous
 62
     0
370
    18
100
AcDbLine
 10
0.0
 20
-2.4999999441
 30
0.0
 11
0.0
 21
-4.1001131758
 31
0.0
  0
LINE
  5
256
330
24C
100
AcDbEntity
  8
0
  6
Continuous
 62
     0
370
    18
100
AcDbLine
 10
2.4999976158
 20
0.0
 30
0.0
 11
4.9100518227
 21
0.0
 31
0.0
  0
ENDBLK
  5
24E
330
24C
100
AcDbEntity
  8
0
100
AcDbBlockEnd
  0
BLOCK
  5
259
330
258
100
AcDbEntity
  8
0
100
AcDbBlockBegin
  2
SW_CENTERMARKSYMBOL_1
 70
     0
 10
0.0
 20
0.0
 30
0.0
  3
SW_CENTERMARKSYMBOL_1
  1

  0
LINE
  5
25B
330
258
100
AcDbEntity
  8
0
  6
Continuous
 62
     0
370
    18
100
AcDbLine
 10
0.0
 20
0.0
 30
0.0
 11
0.0
 21
2.4999999441
 31
0.0
  0
LINE
  5
25C
330
258
100
AcDbEntity
  8
0
  6
Continuous
 62
     0
370
    18
100
AcDbLine
 10
0.0
 20
0.0
 30
0.0
 11
-2.4999976158
 21
0.0
 31
0.0
  0
LINE
  5
25D
330
258
100
AcDbEntity
  8
0
  6
Continuous
 62
     0
370
    18
100
AcDbLine
 10
0.0
 20
0.0
 30
0.0
 11
0.0
 21
-2.4999999441
 31
0.0
  0
LINE
  5
25E
330
258
100
AcDbEntity
  8
0
  6
Continuous
 62
     0
370
    18
100
AcDbLine
 10
0.0
 20
0.0
 30
0.0
 11
2.4999976158
 21
0.0
 31
0.0
  0
LINE
  5
25F
330
258
100
AcDbEntity
  8
0
  6
Continuous
 62
     0
370
    18
100
AcDbLine
 10
0.0
 20
2.4999999441
 30
0.0
 11
0.0
 21
4.1001131758
 31
0.0
  0
LINE
  5
260
330
258
100
AcDbEntity
  8
0
  6
Continuous
 62
     0
370
    18
100
AcDbLine
 10
-2.4999976158
 20
0.0
 30
0.0
 11
-15.2788758278
 21
0.0
 31
0.0
  0
LINE
  5
261
330
258
100
AcDbEntity
  8
0
  6
Continuous
 62
     0
370
    18
100
AcDbLine
 10
0.0
 20
-2.4999999441
 30
0.0
 11
0.0
 21
-4.1001136415
 31
0.0
  0
LINE
  5
262
330
258
100
AcDbEntity
  8
0
  6
Continuous
 62
     0
370
    18
100
AcDbLine
 10
2.4999976158
 20
0.0
 30
0.0
 11
4.9704909325
 21
0.0
 31
0.0
  0
ENDBLK
  5
25A
330
258
100
AcDbEntity
  8
0
100
AcDbBlockEnd
  0
ENDSEC
  0
SECTION
  2
ENTITIES
  0
LINE
  5
73
330
1F
100
AcDbEntity
  8
0
  6
Continuous
 62
     7
370
    25
100
AcDbLine
 10
12.8700158558
 20
190.0085404097
 30
0.0
 11
12.8700749558
 21
18.0082352097
 31
0.0
  0
LINE
  5
74
330
1F
100
AcDbEntity
  8
0
  6
Continuous
 62
     7
370
    25
100
AcDbLine
 10
12.8700749558
 20
18.0082352097
 30
0.0
 11
282.5707921135
 21
18.0082352097
 31
0.0
  0
LINE
  5
75
330
1F
100
AcDbEntity
  8
0
  6
Continuous
 62
     7
370
    25
100
AcDbLine
 10
12.8700158558
 20
190.0085404097
 30
0.0
 11
282.5707921135
 21
190.0085404097
 31
0.0
  0
LINE
  5
76
330
1F
100
AcDbEntity
  8
0
  6
Continuous
 62
     7
370
    25
100
AcDbLine
 10
282.5707921135
 20
18.0082352097
 30
0.0
 11
282.5707921135
 21
190.0085404097
 31
0.0
  0
MTEXT
  5
78
330
1F
100
AcDbEntity
  8
0
  6
Continuous
 62
     7
370
    18
100
AcDbMText
 10
161.3643284109
 20
34.2512032074
 30
0.0
 40
4.7625
 41
0.0
 71
     1
 72
     1
  1
RKC INSTRUMENT INC.
  7
SLDTEXTSTYLE0
 73
     1
 44
1.0
  0
MTEXT
  5
7A
330
1F
100
AcDbEntity
  8
0
  6
Continuous
 62
     7
370
    18
100
AcDbMText
 10
161.3643284109
 20
42.2304589054
 30
0.0
 40
4.7625
 41
0.0
 71
     1
 72
     1
  1
MODEL：T-201-5-ﾛ-ﾛ-ﾛ-Y-ﾛ-ﾛ-ﾛ
  7
SLDTEXTSTYLE1
 73
     1
 44
1.0
  0
MTEXT
  5
7B
330
1F
100
AcDbEntity
  8
0
  6
Continuous
 62
     7
370
    18
100
AcDbMText
 10
59.247732547
 20
57.3463206753
 30
0.0
 40
2.6458333333
 41
0.0
 71
     1
 72
     1
  1
※1 ｽﾘｰﾌﾞ（φD1）寸法
  7
SLDTEXTSTYLE1
 73
     1
 44
1.0
  0
INSERT
  5
97
330
1F
100
AcDbEntity
  8
0
  6
Continuous
 62
     7
370
    18
100
AcDbBlockReference
  2
SW_TABLEANNOTATION_0
 10
58.0864998722
 20
52.3703634896
 30
0.0
  0
INSERT
  5
9E
330
1F
100
AcDbEntity
  8
0
  6
Continuous
 62
     7
100
AcDbBlockReference
  2
SW_BROKEN_VIEW_0
 10
101.9376209638
 20
120.2745516498
 30
0.0
  0
LINE
  5
9F
330
1F
100
AcDbEntity
  8
0
  6
Continuous
 62
     7
370
    25
100
AcDbLine
 10
255.7418723861
 20
123.6515938949
 30
0.0
 11
246.7418839494
 21
123.6515938949
 31
0.0
  0
LINE
  5
A0
330
1F
100
AcDbEntity
  8
0
  6
Continuous
 62
     7
370
    25
100
AcDbLine
 10
246.7418839494
 20
119.151593623
 30
0.0
 11
255.7418723861
 21
119.151593623
 31
0.0
  0
LINE
  5
A1
330
1F
100
AcDbEntity
  8
0
  6
Continuous
 62
     7
370
    25
100
AcDbLine
 10
255.7418723861
 20
108.59751
 30
0.0
 11
246.7418839494
 21
108.59751
 31
0.0
  0
LINE
  5
A2
330
1F
100
AcDbEntity
  8
0
  6
Continuous
 62
     7
370
    25
100
AcDbLine
 10
246.7418839494
 20
104.0975097281
 30
0.0
 11
255.7418723861
 21
104.0975097281
 31
0.0
  0
LINE
  5
A3
330
1F
100
AcDbEntity
  8
0
  6
Continuous
 62
     7
370
    25
100
AcDbLine
 10
246.7418839494
 20
106.7225099255
 30
0.0
 11
232.5855423967
 21
108.7120542948
 31
0.0
  0
LINE
  5
A4
330
1F
100
AcDbEntity
  8
0
  6
Continuous
 62
     7
370
    25
100
AcDbLine
 10
232.5184722701
 20
107.9714805533
 30
0.0
 11
246.7415859262
 21
105.9725517121
 31
0.0
  0
LINE
  5
A5
330
1F
100
AcDbEntity
  8
0
  6
Continuous
 62
     7
370
    25
100
AcDbLine
 10
230.8205743591
 20
118.7889994767
 30
0.0
 11
246.7418839494
 21
121.0265936975
 31
0.0
  0
LINE
  5
A6
330
1F
100
AcDbEntity
  8
0
  6
Continuous
 62
     7
370
    25
100
AcDbLine
 10
246.7415859262
 20
121.7765519109
 30
0.0
 11
230.873443679
 21
119.5464306225
 31
0.0
  0
LINE
  5
A7
330
1F
100
AcDbEntity
  8
0
  6
Continuous
 62
     7
370
    25
100
AcDbLine
 10
255.7418723861
 20
121.4015935261
 30
0.0
 11
255.7418723861
 21
123.6515938949
 31
0.0
  0
LINE
  5
A8
330
1F
100
AcDbEntity
  8
0
  6
Continuous
 62
     7
370
    25
100
AcDbLine
 10
255.7418723861
 20
119.151593623
 30
0.0
 11
255.7418723861
 21
121.4015935261
 31
0.0
  0
LINE
  5
A9
330
1F
100
AcDbEntity
  8
0
  6
Continuous
 62
     7
370
    25
100
AcDbLine
 10
246.7418839494
 20
121.4015935261
 30
0.0
 11
246.7418839494
 21
123.6515938949
 31
0.0
  0
LINE
  5
AA
330
1F
100
AcDbEntity
  8
0
  6
Continuous
 62
     7
370
    25
100
AcDbLine
 10
246.7418839494
 20
119.151593623
 30
0.0
 11
246.7418839494
 21
121.4015935261
 31
0.0
  0
LINE
  5
AB
330
1F
100
AcDbEntity
  8
0
  6
Continuous
 62
     7
370
    25
100
AcDbLine
 10
255.7418723861
 20
106.3475100969
 30
0.0
 11
255.7418723861
 21
108.59751
 31
0.0
  0
LINE
  5
AC
330
1F
100
AcDbEntity
  8
0
  6
Continuous
 62
     7
370
    25
100
AcDbLine
 10
255.7418723861
 20
104.0975097281
 30
0.0
 11
255.7418723861
 21
106.3475100969
 31
0.0
  0
LINE
  5
AD
330
1F
100
AcDbEntity
  8
0
  6
Continuous
 62
     7
370
    25
100
AcDbLine
 10
246.7418839494
 20
106.3475100969
 30
0.0
 11
246.7418839494
 21
108.59751
 31
0.0
  0
LINE
  5
AE
330
1F
100
AcDbEntity
  8
0
  6
Continuous
 62
     7
370
    25
100
AcDbLine
 10
246.7418839494
 20
104.0975097281
 30
0.0
 11
246.7418839494
 21
106.3475100969
 31
0.0
  0
ARC
  5
AF
330
1F
100
AcDbEntity
  8
0
  6
Continuous
 62
     7
370
    25
100
AcDbCircle
 10
258.3347561016
 20
120.5015607993
 30
0.0
 40
1.999967469129726
100
AcDbArc
 50
236.9758411078
 51
270.000221714
  0
LINE
  5
B0
330
1F
100
AcDbEntity
  8
0
  6
Continuous
 62
     7
370
    25
100
AcDbLine
 10
255.7418723861
 20
123.0015931365
 30
0.0
 11
257.2447886029
 21
123.9784806681
 31
0.0
  0
ARC
  5
B1
330
1F
100
AcDbEntity
  8
0
  6
Continuous
 62
     7
370
    25
100
AcDbCircle
 10
258.3347530248
 20
122.3016366321
 30
0.0
 40
1.999957090001304
100
AcDbArc
 50
89.9996901392
 51
123.0242470391
  0
ARC
  5
B2
330
1F
100
AcDbEntity
  8
0
  6
Continuous
 62
     7
370
    25
100
AcDbCircle
 10
266.4418718585
 20
124.0015858035
 30
0.0
 40
0.300007918641249
100
AcDbArc
 50
0.0014317694
 51
89.99945757
  0
LINE
  5
B3
330
1F
100
AcDbEntity
  8
0
  6
Continuous
 62
     7
370
    25
100
AcDbLine
 10
266.7418797771
 20
124.0015933004
 30
0.0
 11
266.7418797771
 21
123.3015935582
 31
0.0
  0
ARC
  5
B4
330
1F
100
AcDbEntity
  8
0
  6
Continuous
 62
     7
370
    25
100
AcDbCircle
 10
266.4418718585
 20
123.3016010551
 30
0.0
 40
0.3000079186411922
100
AcDbArc
 50
270.00054243
 51
359.9985682306
  0
LINE
  5
B5
330
1F
100
AcDbEntity
  8
0
  6
Continuous
 62
     7
370
    25
100
AcDbLine
 10
262.0418747226
 20
123.0015931365
 30
0.0
 11
266.4418746988
 21
123.0015931365
 31
0.0
  0
ARC
  5
B6
330
1F
100
AcDbEntity
  8
0
  6
Continuous
 62
     7
370
    25
100
AcDbCircle
 10
262.0228424833
 20
121.4015932933
 30
0.0
 40
1.600113034839278
100
AcDbArc
 50
89.3184902079
 51
270.6815097921
  0
ARC
  5
B7
330
1F
100
AcDbEntity
  8
0
  6
Continuous
 62
     7
370
    25
100
AcDbCircle
 10
266.4418726535
 20
119.5015863265
 30
0.0
 40
0.3000071236754648
100
AcDbArc
 50
0.0013688834
 51
89.9996093907
  0
ARC
  5
B8
330
1F
100
AcDbEntity
  8
0
  6
Continuous
 62
     7
370
    25
100
AcDbCircle
 10
266.4418726535
 20
118.8016004538
 30
0.0
 40
0.3000071236570902
100
AcDbArc
 50
270.0003906078
 51
359.9987200528
  0
LINE
  5
B9
330
1F
100
AcDbEntity
  8
0
  6
Continuous
 62
     7
370
    25
100
AcDbLine
 10
266.4418746988
 20
118.5015933302
 30
0.0
 11
258.3347638408
 21
118.5015933302
 31
0.0
  0
LINE
  5
BA
330
1F
100
AcDbEntity
  8
0
  6
Continuous
 62
     7
370
    25
100
AcDbLine
 10
266.7418797771
 20
119.5015934941
 30
0.0
 11
266.7418797771
 21
118.8015937519
 31
0.0
  0
LINE
  5
BB
330
1F
100
AcDbEntity
  8
0
  6
Continuous
 62
     7
370
    25
100
AcDbLine
 10
258.3347638408
 20
124.3015937221
 30
0.0
 11
266.4418746988
 21
124.3015937221
 31
0.0
  0
LINE
  5
BC
330
1F
100
AcDbEntity
  8
0
  6
Continuous
 62
     7
370
    25
100
AcDbLine
 10
266.4418746988
 20
119.8015934501
 30
0.0
 11
262.0418747226
 21
119.8015934501
 31
0.0
  0
LINE
  5
BD
330
1F
100
AcDbEntity
  8
0
  6
Continuous
 62
     7
370
    25
100
AcDbLine
 10
257.2447886029
 20
118.8247063842
 30
0.0
 11
255.7418723861
 21
119.8015934501
 31
0.0
  0
LINE
  5
BE
330
1F
100
AcDbEntity
  8
0
  6
Continuous
 62
     7
370
    25
100
AcDbLine
 10
257.2447886029
 20
103.770622955
 30
0.0
 11
255.7418723861
 21
104.7475104865
 31
0.0
  0
LINE
  5
BF
330
1F
100
AcDbEntity
  8
0
  6
Continuous
 62
     7
370
    25
100
AcDbLine
 10
266.7418797771
 20
108.9475098711
 30
0.0
 11
266.7418797771
 21
108.2475101289
 31
0.0
  0
LINE
  5
C0
330
1F
100
AcDbEntity
  8
0
  6
Continuous
 62
     7
370
    25
100
AcDbLine
 10
262.0418747226
 20
107.9475101729
 30
0.0
 11
266.4418746988
 21
107.9475101729
 31
0.0
  0
ARC
  5
C1
330
1F
100
AcDbEntity
  8
0
  6
Continuous
 62
     7
370
    25
100
AcDbCircle
 10
266.4418726535
 20
108.9475031692
 30
0.0
 40
0.3000071236570902
100
AcDbArc
 50
0.0012799472
 51
89.9996093922
  0
ARC
  5
C2
330
1F
100
AcDbEntity
  8
0
  6
Continuous
 62
     7
370
    25
100
AcDbCircle
 10
266.4418726535
 20
108.2475172965
 30
0.0
 40
0.3000071236754507
100
AcDbArc
 50
270.0003906093
 51
359.9986311166
  0
ARC
  5
C3
330
1F
100
AcDbEntity
  8
0
  6
Continuous
 62
     7
370
    25
100
AcDbCircle
 10
266.4418718585
 20
103.7475178195
 30
0.0
 40
0.3000079186412005
100
AcDbArc
 50
270.00054243
 51
359.9985682306
  0
ARC
  5
C4
330
1F
100
AcDbEntity
  8
0
  6
Continuous
 62
     7
370
    25
100
AcDbCircle
 10
258.3347530248
 20
105.4474669909
 30
0.0
 40
1.999957090001037
100
AcDbArc
 50
236.9757529609
 51
270.0003098608
  0
LINE
  5
C5
330
1F
100
AcDbEntity
  8
0
  6
Continuous
 62
     7
370
    25
100
AcDbLine
 10
266.4418746988
 20
104.7475104865
 30
0.0
 11
262.0418747226
 21
104.7475104865
 31
0.0
  0
ARC
  5
C6
330
1F
100
AcDbEntity
  8
0
  6
Continuous
 62
     7
370
    25
100
AcDbCircle
 10
262.0228424833
 20
106.3475103297
 30
0.0
 40
1.600113034839278
100
AcDbArc
 50
89.3184902079
 51
270.6815097921
  0
LINE
  5
C7
330
1F
100
AcDbEntity
  8
0
  6
Continuous
 62
     7
370
    25
100
AcDbLine
 10
266.4418746988
 20
103.4475099009
 30
0.0
 11
258.3347638408
 21
103.4475099009
 31
0.0
  0
ARC
  5
C8
330
1F
100
AcDbEntity
  8
0
  6
Continuous
 62
     7
370
    25
100
AcDbCircle
 10
266.4418718585
 20
104.4475025679
 30
0.0
 40
0.3000079186412147
100
AcDbArc
 50
0.0014317694
 51
89.99945757
  0
LINE
  5
C9
330
1F
100
AcDbEntity
  8
0
  6
Continuous
 62
     7
370
    25
100
AcDbLine
 10
258.3347638408
 20
109.2475102928
 30
0.0
 11
266.4418746988
 21
109.2475102928
 31
0.0
  0
LINE
  5
CA
330
1F
100
AcDbEntity
  8
0
  6
Continuous
 62
     7
370
    25
100
AcDbLine
 10
266.7418797771
 20
104.4475100648
 30
0.0
 11
266.7418797771
 21
103.7475103226
 31
0.0
  0
LINE
  5
CB
330
1F
100
AcDbEntity
  8
0
  6
Continuous
 62
     7
370
    25
100
AcDbLine
 10
255.7418723861
 20
107.9475101729
 30
0.0
 11
257.2447886029
 21
108.9243972388
 31
0.0
  0
ARC
  5
CC
330
1F
100
AcDbEntity
  8
0
  6
Continuous
 62
     7
370
    25
100
AcDbCircle
 10
258.3347561016
 20
107.2475428237
 30
0.0
 40
1.999967469129877
100
AcDbArc
 50
89.999778286
 51
123.0241588922
  0
LINE
  5
CD
330
1F
100
AcDbEntity
  8
0
  6
Continuous
 62
     7
370
    25
100
AcDbLine
 10
187.3838704858
 20
116.2745519255
 30
0.0
 11
165.100629333
 21
116.2745519255
 31
0.0
  0
LINE
  5
CE
330
1F
100
AcDbEntity
  8
0
  6
Continuous
 62
     7
370
    25
100
AcDbLine
 10
166.1948961053
 20
111.4745516975
 30
0.0
 11
187.3838704858
 21
111.4745516975
 31
0.0
  0
LINE
  5
CF
330
1F
100
AcDbEntity
  8
0
  6
Continuous
 62
     7
370
    25
100
AcDbLine
 10
197.3838758502
 20
111.3745518674
 30
0.0
 11
198.3838778768
 21
112.2945517714
 31
0.0
  0
LINE
  5
D0
330
1F
100
AcDbEntity
  8
0
  6
Continuous
 62
     7
370
    25
100
AcDbLine
 10
198.3838778768
 20
115.4545518516
 30
0.0
 11
197.3838758502
 21
116.3745517556
 31
0.0
  0
LINE
  5
D1
330
1F
100
AcDbEntity
  8
0
  6
Continuous
 62
     7
370
    25
100
AcDbLine
 10
187.3838704858
 20
111.3745518674
 30
0.0
 11
197.3838758502
 21
111.3745518674
 31
0.0
  0
LINE
  5
D2
330
1F
100
AcDbEntity
  8
0
  6
Continuous
 62
     7
370
    25
100
AcDbLine
 10
197.3838758502
 20
116.3745517556
 30
0.0
 11
187.3838704858
 21
116.3745517556
 31
0.0
  0
LINE
  5
D3
330
1F
100
AcDbEntity
  8
0
  6
Continuous
 62
     7
370
    25
100
AcDbLine
 10
198.3838778768
 20
112.2945517714
 30
0.0
 11
206.3838642869
 21
112.2945517714
 31
0.0
  0
LINE
  5
D4
330
1F
100
AcDbEntity
  8
0
  6
Continuous
 62
     7
370
    25
100
AcDbLine
 10
206.3838642869
 20
115.4545518516
 30
0.0
 11
198.3838778768
 21
115.4545518516
 31
0.0
  0
LINE
  5
D5
330
1F
100
AcDbEntity
  8
0
  6
Continuous
 62
     7
370
    25
100
AcDbLine
 10
229.4249039922
 20
110.5113471572
 30
0.0
 11
206.3846242461
 21
113.7494468572
 31
0.0
  0
LINE
  5
D6
330
1F
100
AcDbEntity
  8
0
  6
Continuous
 62
     7
370
    25
100
AcDbLine
 10
206.3838642869
 20
112.9995517845
 30
0.0
 11
229.4133853946
 21
109.7629642759
 31
0.0
  0
LINE
  5
D7
330
1F
100
AcDbEntity
  8
0
  6
Continuous
 62
     7
370
    25
100
AcDbLine
 10
206.3846242461
 20
113.9996567659
 30
0.0
 11
228.000159267
 21
117.0375230436
 31
0.0
  0
LINE
  5
D8
330
1F
100
AcDbEntity
  8
0
  6
Continuous
 62
     7
370
    25
100
AcDbLine
 10
227.9956591163
 20
117.7868907985
 30
0.0
 11
206.3838642869
 21
114.7495518385
 31
0.0
  0
LINE
  5
D9
330
1F
100
AcDbEntity
  8
0
  6
Continuous
 62
     7
370
    25
100
AcDbLine
 10
187.3838704858
 20
113.8745518115
 30
0.0
 11
187.3838704858
 21
116.3745517556
 31
0.0
  0
LINE
  5
DA
330
1F
100
AcDbEntity
  8
0
  6
Continuous
 62
     7
370
    25
100
AcDbLine
 10
187.3838704858
 20
111.3745518674
 30
0.0
 11
187.3838704858
 21
113.8745518115
 31
0.0
  0
LINE
  5
DB
330
1F
100
AcDbEntity
  8
0
  6
Continuous
 62
     7
370
    25
100
AcDbLine
 10
206.3838642869
 20
113.8745518115
 30
0.0
 11
206.3838642869
 21
115.4545518516
 31
0.0
  0
LINE
  5
DC
330
1F
100
AcDbEntity
  8
0
  6
Continuous
 62
     7
370
    25
100
AcDbLine
 10
206.3838642869
 20
112.2945517714
 30
0.0
 11
206.3838642869
 21
113.8745518115
 31
0.0
  0
LINE
  5
DD
330
1F
100
AcDbEntity
  8
0
  6
Continuous
 62
     7
370
    25
100
AcDbLine
 10
162.1006271503
 20
116.2745519255
 30
0.0
 11
145.9664917252
 21
116.2745519255
 31
0.0
  0
LINE
  5
DE
330
1F
100
AcDbEntity
  8
0
  6
Continuous
 62
     7
370
    25
100
AcDbLine
 10
145.9664917252
 20
111.4745516975
 30
0.0
 11
163.1948939226
 21
111.4745516975
 31
0.0
  0
SPLINE
  5
DF
330
1F
100
AcDbEntity
  8
0
  6
Continuous
 62
     7
370
    25
100
AcDbSpline
210
0.0
220
0.0
230
1.0
 70
     8
 71
     3
 72
    11
 73
     7
 74
     0
 42
0.00000001
 43
0.00000001
 40
0.0
 40
0.0
 40
0.0
 40
0.0
 40
0.0153981942661316
 40
0.3456754264560232
 40
0.7627306898887845
 40
0.9999999999999999
 40
0.9999999999999999
 40
0.9999999999999999
 40
0.9999999999999999
 10
74.37446626642273
 20
116.2442974459998
 30
0.0
 10
74.37647327027886
 20
116.2367962449645
 30
0.0
 10
74.42152867754766
 20
116.0684011187565
 30
0.0
 10
74.48675533829915
 20
115.6886153349022
 30
0.0
 10
74.56687728830055
 20
115.1988818821717
 30
0.0
 10
74.61218949032117
 20
114.8720182667734
 30
0.0
 10
74.628620471745
 20
114.7534919150792
 30
0.0
  0
SPLINE
  5
E0
330
1F
100
AcDbEntity
  8
0
  6
Continuous
 62
     7
370
    25
100
AcDbSpline
210
0.0
220
0.0
230
1.0
 70
     8
 71
     3
 72
    11
 73
     7
 74
     0
 42
0.00000001
 43
0.00000001
 40
0.0
 40
0.0
 40
0.0
 40
0.0
 40
0.1680245791638539
 40
0.4101054062153225
 40
0.933702475695332
 40
0.9999999999999999
 40
0.9999999999999999
 40
0.9999999999999999
 40
0.9999999999999999
 10
75.48934134462402
 20
110.7246398173891
 30
0.0
 10
75.54815604961772
 20
110.6990068231528
 30
0.0
 10
75.69170783592716
 20
110.6364431817732
 30
0.0
 10
76.03633016327967
 20
110.8201331878814
 30
0.0
 10
76.11909533520767
 20
111.1396011972465
 30
0.0
 10
76.16603265991125
 20
111.3508139294615
 30
0.0
 10
76.17130788782165
 20
111.3745518673829
 30
0.0
  0
SPLINE
  5
E1
330
1F
100
AcDbEntity
  8
0
  6
Continuous
 62
     7
370
    25
100
AcDbSpline
210
0.0
220
0.0
230
1.0
 70
     8
 71
     3
 72
    23
 73
    19
 74
     0
 42
0.00000001
 43
0.00000001
 40
0.0
 40
0.0
 40
0.0
 40
0.0
 40
0.0006755205558286
 40
0.0156014310826001
 40
0.0615428429821844
 40
0.1310081371187515
 40
0.2167045982570058
 40
0.3127299727326905
 40
0.4147694333972213
 40
0.5189624367329196
 40
0.6186306662220016
 40
0.7061419307886969
 40
0.8196893737562688
 40
0.8527856420285949
 40
0.8771210393498788
 40
0.9043341235207631
 40
0.940933980677347
 40
1.0
 40
1.0
 40
1.0
 40
1.0
 10
76.75813051679657
 20
116.4990002003185
 30
0.0
 10
76.75652098188522
 20
116.4993101196873
 30
0.0
 10
76.7193480967998
 20
116.5064678377343
 30
0.0
 10
76.85621575578524
 20
116.2705107251544
 30
0.0
 10
76.83807797487025
 20
116.0630080072205
 30
0.0
 10
76.96642966339326
 20
115.5512313505775
 30
0.0
 10
77.0388252429901
 20
114.9851326991
 30
0.0
 10
77.13585101052101
 20
114.3190562680701
 30
0.0
 10
77.22774731413118
 20
113.6164312271763
 30
0.0
 10
77.32567082208391
 20
112.9044747664665
 30
0.0
 10
77.4228417435672
 20
112.2243841865297
 30
0.0
 10
77.5551264150377
 20
111.5382576414725
 30
0.0
 10
77.6531897035194
 20
110.9680421738492
 30
0.0
 10
77.96283736358876
 20
110.6777567317995
 30
0.0
 10
78.17292110713427
 20
110.6598576465287
 30
0.0
 10
78.36566913177245
 20
110.7608510720376
 30
0.0
 10
78.52081378111434
 20
111.0167131843092
 30
0.0
 10
78.56482692888645
 20
111.237953614907
 30
0.0
 10
78.59200152376219
 20
111.3745518673829
 30
0.0
  0
SPLINE
  5
E2
330
1F
100
AcDbEntity
  8
0
  6
Continuous
 62
     7
370
    25
100
AcDbSpline
210
0.0
220
0.0
230
1.0
 70
     8
 71
     3
 72
    21
 73
    17
 74
     0
 42
0.00000001
 43
0.00000001
 40
0.0
 40
0.0
 40
0.0
 40
0.0
 40
0.0042497169121388
 40
0.0379017467617085
 40
0.0961674775230999
 40
0.1727639503996753
 40
0.2636085924005512
 40
0.3640777334570453
 40
0.4696110186488812
 40
0.5736479826777661
 40
0.6685326459806133
 40
0.8023546036496589
 40
0.8420790646111997
 40
0.8645220918449503
 40
0.9054228950528911
 40
1.0
 40
1.0
 40
1.0
 40
1.0
 10
79.23412236192749
 20
116.4642371882371
 30
0.0
 10
79.22350208630267
 20
116.4632859367282
 30
0.0
 10
79.12878354255169
 20
116.4548020554384
 30
0.0
 10
79.35503159496798
 20
116.1305077535269
 30
0.0
 10
79.32796370310407
 20
115.8086915614068
 30
0.0
 10
79.4564221176377
 20
115.2597269629862
 30
0.0
 10
79.53107323749977
 20
114.6479474546156
 30
0.0
 10
79.62854682859482
 20
113.9557016476724
 30
0.0
 10
79.7237726786006
 20
113.236886889757
 30
0.0
 10
79.82140498685645
 20
112.5292667405779
 30
0.0
 10
79.95227234176167
 20
111.7635971870926
 30
0.0
 10
80.05372773358413
 20
111.1322783365769
 30
0.0
 10
80.32009975667611
 20
110.7372171651424
 30
0.0
 10
80.55505798628671
 20
110.638616063075
 30
0.0
 10
80.93851392431097
 20
110.8119512180092
 30
0.0
 10
81.01027063009575
 20
111.14326309892
 30
0.0
 10
81.06036397436188
 20
111.3745518673829
 30
0.0
  0
SPLINE
  5
E3
330
1F
100
AcDbEntity
  8
0
  6
Continuous
 62
     7
370
    25
100
AcDbSpline
210
0.0
220
0.0
230
1.0
 70
     8
 71
     3
 72
    23
 73
    19
 74
     0
 42
0.00000001
 43
0.00000001
 40
0.0
 40
0.0
 40
0.0
 40
0.0
 40
0.0033478845252828
 40
0.0373693870365221
 40
0.0918561110851871
 40
0.1652107270386225
 40
0.2552045181542218
 40
0.3552659336551969
 40
0.4590136683512263
 40
0.5602022686977792
 40
0.6517935576139721
 40
0.7244104076571889
 40
0.8155879712942975
 40
0.8515349605873864
 40
0.8829035009241882
 40
0.912898737854775
 40
0.9529315106038482
 40
1.0
 40
1.0
 40
1.0
 40
1.0
 10
81.67010458925293
 20
116.4608348340414
 30
0.0
 10
81.66326363969048
 20
116.4565072920699
 30
0.0
 10
81.58690434773588
 20
116.408202880843
 30
0.0
 10
81.78832051841214
 20
116.1509178990451
 30
0.0
 10
81.77495554262123
 20
115.8090991205868
 30
0.0
 10
81.894792796177
 20
115.2944244804912
 30
0.0
 10
81.96996329093392
 20
114.6895147885542
 30
0.0
 10
82.06620048849797
 20
114.0075840577662
 30
0.0
 10
82.1588410536499
 20
113.3011036300882
 30
0.0
 10
82.25591569920705
 20
112.6152493066942
 30
0.0
 10
82.34838587261031
 20
111.9999790614823
 30
0.0
 10
82.46952187421356
 20
111.4205941278345
 30
0.0
 10
82.56387871602992
 20
110.9449215701194
 30
0.0
 10
82.84539544428094
 20
110.6726388418191
 30
0.0
 10
83.0936137879381
 20
110.657828267753
 30
0.0
 10
83.29504365506477
 20
110.8056881931839
 30
0.0
 10
83.42069092718388
 20
111.0551561131519
 30
0.0
 10
83.47096618679635
 20
111.2524035057211
 30
0.0
 10
83.49813434103058
 20
111.3589936581127
 30
0.0
  0
SPLINE
  5
E4
330
1F
100
AcDbEntity
  8
0
  6
Continuous
 62
     7
370
    25
100
AcDbSpline
210
0.0
220
0.0
230
1.0
 70
     8
 71
     3
 72
    22
 73
    18
 74
     0
 42
0.00000001
 43
0.00000001
 40
0.0
 40
0.0
 40
0.0
 40
0.0
 40
0.0027377977913057
 40
0.0162995703440283
 40
0.0607694665794103
 40
0.1284328895969448
 40
0.2188072937747763
 40
0.3218026464058824
 40
0.4291740267289282
 40
0.5338912434198639
 40
0.6284601476427938
 40
0.7037418906114893
 40
0.8003663755359133
 40
0.8434162335845085
 40
0.876885329610916
 40
0.9279268989292638
 40
0.9999999999999999
 40
0.9999999999999999
 40
0.9999999999999999
 40
0.9999999999999999
 10
84.08805641153381
 20
116.4881786976628
 30
0.0
 10
84.08743683946244
 20
116.4817480071882
 30
0.0
 10
84.08374819649818
 20
116.4434626772474
 30
0.0
 10
84.15415016069149
 20
116.3113025207216
 30
0.0
 10
84.19428739314841
 20
116.0202773109015
 30
0.0
 10
84.29299948065346
 20
115.5551884280815
 30
0.0
 10
84.37961426941284
 20
114.9494993291982
 30
0.0
 10
84.4776990573436
 20
114.2514892687828
 30
0.0
 10
84.57415854297014
 20
113.5192414864097
 30
0.0
 10
84.67246936130265
 20
112.8074595911771
 30
0.0
 10
84.7652793588742
 20
112.1699384866072
 30
0.0
 10
84.88256457268622
 20
111.5581925097345
 30
0.0
 10
84.97346883328852
 20
111.0560810171547
 30
0.0
 10
85.22102086948142
 20
110.7108526911456
 30
0.0
 10
85.54221532743915
 20
110.6291341239069
 30
0.0
 10
85.85189216382147
 20
110.9194824971519
 30
0.0
 10
85.89921552836965
 20
111.2065174640514
 30
0.0
 10
85.92691930749939
 20
111.3745518673829
 30
0.0
  0
SPLINE
  5
E5
330
1F
100
AcDbEntity
  8
0
  6
Continuous
 62
     7
370
    25
100
AcDbSpline
210
0.0
220
0.0
230
1.0
 70
     8
 71
     3
 72
    24
 73
    20
 74
     0
 42
0.00000001
 43
0.00000001
 40
0.0
 40
0.0
 40
0.0
 40
0.0
 40
0.0000635043883851
 40
0.0059337688727741
 40
0.036929469947277
 40
0.092136833312204
 40
0.1727032833418277
 40
0.268740915277135
 40
0.3708810734722511
 40
0.4724665055667123
 40
0.5673403105770016
 40
0.6492187586606496
 40
0.7664036613547318
 40
0.8106673077540255
 40
0.8564828383537338
 40
0.8877498717190656
 40
0.9130586824304229
 40
0.9959974182217001
 40
1.0
 40
1.0
 40
1.0
 40
1.0
 10
86.52096899965332
 20
116.5135935594015
 30
0.0
 10
86.52082890829796
 20
116.5136499293933
 30
0.0
 10
86.50773895112984
 20
116.5189170693718
 30
0.0
 10
86.59154121459365
 20
116.370507628475
 30
0.0
 10
86.57921487373275
 20
116.2437499638057
 30
0.0
 10
86.70130128772689
 20
115.8055832389359
 30
0.0
 10
86.77082042723991
 20
115.2906337377328
 30
0.0
 10
86.87149281130145
 20
114.6318739809961
 30
0.0
 10
86.96340706840083
 20
113.9342969410163
 30
0.0
 10
87.0572295755149
 20
113.2361954113284
 30
0.0
 10
87.1477366026441
 20
112.5865418187275
 30
0.0
 10
87.25671264860635
 20
111.9029979108883
 30
0.0
 10
87.3611921591349
 20
111.3366624735098
 30
0.0
 10
87.52503584514812
 20
110.8759325183883
 30
0.0
 10
87.75202441588758
 20
110.6573532610956
 30
0.0
 10
88.01627961747796
 20
110.6722807016415
 30
0.0
 10
88.27582056148961
 20
110.8919586336436
 30
0.0
 10
88.3499851726218
 20
111.1651543738865
 30
0.0
 10
88.39259016369641
 20
111.3653359595771
 30
0.0
 10
88.39455160120056
 20
111.3745518673829
 30
0.0
  0
SPLINE
  5
E6
330
1F
100
AcDbEntity
  8
0
  6
Continuous
 62
     7
370
    25
100
AcDbSpline
210
0.0
220
0.0
230
1.0
 70
     8
 71
     3
 72
    18
 73
    14
 74
     0
 42
0.00000001
 43
0.00000001
 40
0.0
 40
0.0
 40
0.0
 40
0.0
 40
0.0094098808633002
 40
0.0491418127259467
 40
0.125145958749571
 40
0.2323906035340068
 40
0.3543885433190371
 40
0.4824119457948748
 40
0.60828073630615
 40
0.724849093920183
 40
0.8269749290509008
 40
0.9112597722924924
 40
1.0
 40
1.0
 40
1.0
 40
1.0
 10
89.01058050611542
 20
116.4763343699895
 30
0.0
 10
89.00837922868271
 20
116.4587704395036
 30
0.0
 10
88.99688335908267
 20
116.3670452205336
 30
0.0
 10
89.08266905094602
 20
116.1402069104989
 30
0.0
 10
89.14120174250519
 20
115.7296996556094
 30
0.0
 10
89.24102422641272
 20
115.1659836398156
 30
0.0
 10
89.3313265477101
 20
114.5038647639465
 30
0.0
 10
89.42523577470176
 20
113.8066204807883
 30
0.0
 10
89.51785966194973
 20
113.1197571616627
 30
0.0
 10
89.60636734789814
 20
112.4805707264549
 30
0.0
 10
89.70362752093136
 20
111.9232227928549
 30
0.0
 10
89.781113117553
 20
111.410258420644
 30
0.0
 10
89.92156232576181
 20
111.1163834767983
 30
0.0
 10
89.99359520891235
 20
110.9656623744093
 30
0.0
  0
SPLINE
  5
E7
330
1F
100
AcDbEntity
  8
0
  6
Continuous
 62
     7
370
    25
100
AcDbSpline
210
0.0
220
0.0
230
1.0
 70
     8
 71
     3
 72
    14
 73
    10
 74
     0
 42
0.00000001
 43
0.00000001
 40
0.0
 40
0.0
 40
0.0
 40
0.0
 40
0.0003764347824651
 40
0.0423194322964848
 40
0.1729656669059951
 40
0.3939547950640611
 40
0.6566922667548586
 40
0.9377994930072839
 40
0.9999999999999999
 40
0.9999999999999999
 40
0.9999999999999999
 40
0.9999999999999999
 10
91.44510241964386
 20
116.4819600240014
 30
0.0
 10
91.44477789187782
 20
116.4819408946653
 30
0.0
 10
91.40829393379865
 20
116.4797903424818
 30
0.0
 10
91.51786236127596
 20
116.2482545192524
 30
0.0
 10
91.52038460071084
 20
116.0048355961056
 30
0.0
 10
91.6510168539289
 20
115.4367479069409
 30
0.0
 10
91.7321398690882
 20
114.804232712046
 30
0.0
 10
91.80588320504567
 20
114.2835898233137
 30
0.0
 10
91.84500901900412
 20
113.9913355047688
 30
0.0
 10
91.85209783533142
 20
113.9383848572186
 30
0.0
  0
SPLINE
  5
E8
330
1F
100
AcDbEntity
  8
0
  6
Continuous
 62
     7
370
    25
100
AcDbSpline
210
0.0
220
0.0
230
1.0
 70
     8
 71
     3
 72
     9
 73
     5
 74
     0
 42
0.00000001
 43
0.00000001
 40
0.0
 40
0.0
 40
0.0
 40
0.0
 40
0.404790911933698
 40
1.0
 40
1.0
 40
1.0
 40
1.0
 10
93.02434238412903
 20
110.8117005501561
 30
0.0
 10
93.0799863832213
 20
110.8767842031771
 30
0.0
 10
93.21744994144807
 20
111.0375675881354
 30
0.0
 10
93.24900236519076
 20
111.2488153059227
 30
0.0
 10
93.26778265455292
 20
111.3745518673829
 30
0.0
  0
SPLINE
  5
E9
330
1F
100
AcDbEntity
  8
0
  6
Continuous
 62
     7
370
    25
100
AcDbSpline
210
0.0
220
0.0
230
1.0
 70
     8
 71
     3
 72
    14
 73
    10
 74
     0
 42
0.00000001
 43
0.00000001
 40
0.0
 40
0.0
 40
0.0
 40
0.0
 40
0.0081386594376544
 40
0.0670968184129024
 40
0.225778735682851
 40
0.4508307138152476
 40
0.7117143081057217
 40
0.986568888735976
 40
1.0
 40
1.0
 40
1.0
 40
1.0
 10
93.89384004095123
 20
116.4860794965796
 30
0.0
 10
93.8862076834258
 20
116.4866254886664
 30
0.0
 10
93.82328492435619
 20
116.4911267621484
 30
0.0
 10
93.99868851037454
 20
116.1960894450958
 30
0.0
 10
93.97704590847793
 20
115.9077185603048
 30
0.0
 10
94.11642135008059
 20
115.3138641093811
 30
0.0
 10
94.19408978975864
 20
114.674338306684
 30
0.0
 10
94.26163898241104
 20
114.1980691629823
 30
0.0
 10
94.29497586927
 20
113.9499448657024
 30
0.0
 10
94.29652902105377
 20
113.9383848572186
 30
0.0
  0
SPLINE
  5
EA
330
1F
100
AcDbEntity
  8
0
  6
Continuous
 62
     7
370
    25
100
AcDbSpline
210
0.0
220
0.0
230
1.0
 70
     8
 71
     3
 72
    14
 73
    10
 74
     0
 42
0.00000001
 43
0.00000001
 40
0.0
 40
0.0
 40
0.0
 40
0.0
 40
0.0188433449664869
 40
0.2426959294271294
 40
0.4011239770784351
 40
0.5705543537227585
 40
0.65884400987473
 40
0.7865014292207364
 40
1.0
 40
1.0
 40
1.0
 40
1.0
 10
94.57914444425627
 20
111.9905702949188
 30
0.0
 10
94.58159761282437
 20
111.9751831698279
 30
0.0
 10
94.6131935968035
 20
111.7770021870035
 30
0.0
 10
94.68221423839928
 20
111.4489473197741
 30
0.0
 10
94.79330385324884
 20
111.0174128619782
 30
0.0
 10
94.99006737038945
 20
110.6813315061615
 30
0.0
 10
95.3396966997964
 20
110.6533226654588
 30
0.0
 10
95.62569767195883
 20
110.9194070869901
 30
0.0
 10
95.68602880896547
 20
111.1993567694592
 30
0.0
 10
95.72378459194229
 20
111.3745518673829
 30
0.0
  0
SPLINE
  5
EB
330
1F
100
AcDbEntity
  8
0
  6
Continuous
 62
     7
370
    25
100
AcDbSpline
210
0.0
220
0.0
230
1.0
 70
     8
 71
     3
 72
    22
 73
    18
 74
     0
 42
0.00000001
 43
0.00000001
 40
0.0
 40
0.0
 40
0.0
 40
0.0
 40
0.0013253938946808
 40
0.0245733181402885
 40
0.0856115024915493
 40
0.1699103543625151
 40
0.2666774909422122
 40
0.3673720964802976
 40
0.4699809311527626
 40
0.571569112243606
 40
0.6654213642148514
 40
0.7437607868490126
 40
0.8312424476295158
 40
0.8594731641663808
 40
0.8940191596938779
 40
0.9716318204161873
 40
1.0
 40
1.0
 40
1.0
 40
1.0
 10
96.31866874912308
 20
116.4968013477199
 30
0.0
 10
96.31555466453332
 20
116.4960290122898
 30
0.0
 10
96.2578183254369
 20
116.4817096131218
 30
0.0
 10
96.45726351527831
 20
116.2058173768096
 30
0.0
 10
96.41914746450907
 20
115.8855344247071
 30
0.0
 10
96.5659464047206
 20
115.2925630418935
 30
0.0
 10
96.64188298518803
 20
114.6472499233158
 30
0.0
 10
96.74132896009753
 20
113.9449673625773
 30
0.0
 10
96.83443155822664
 20
113.2347979058301
 30
0.0
 10
96.93283769149923
 20
112.5418594569628
 30
0.0
 10
97.03303610313715
 20
111.9018367393988
 30
0.0
 10
97.15788383594915
 20
111.3166884279765
 30
0.0
 10
97.28088683071617
 20
110.8373063898201
 30
0.0
 10
97.6002994073665
 20
110.6426385541914
 30
0.0
 10
97.95923111810933
 20
110.7171524244873
 30
0.0
 10
98.09887893207281
 20
111.0712969103052
 30
0.0
 10
98.15518550368249
 20
111.3105187163476
 30
0.0
 10
98.17025723674818
 20
111.3745518673829
 30
0.0
  0
LINE
  5
EC
330
1F
100
AcDbEntity
  8
0
  6
Continuous
 62
     7
370
    25
100
AcDbLine
 10
98.8604343198
 20
116.0483788413
 30
0.0
 11
98.8820410035
 21
115.9426185482
 31
0.0
  0
LINE
  5
ED
330
1F
100
AcDbEntity
  8
0
  6
Continuous
 62
     7
370
    25
100
AcDbLine
 10
98.4837925694
 20
116.6332463913
 30
0.0
 11
98.3913904689
 21
116.3745517556
 31
0.0
  0
SPLINE
  5
EE
330
1F
100
AcDbEntity
  8
0
  6
Continuous
 62
     7
370
    25
100
AcDbSpline
210
0.0
220
0.0
230
1.0
 70
     8
 71
     3
 72
    23
 73
    19
 74
     0
 42
0.00000001
 43
0.00000001
 40
0.0
 40
0.0
 40
0.0
 40
0.0
 40
0.000201028442974
 40
0.0051950349998704
 40
0.0564204000334172
 40
0.1141377053643115
 40
0.1920915916578043
 40
0.2861662123163206
 40
0.3879874398857345
 40
0.4916217806024866
 40
0.5905414891375715
 40
0.6745989606821813
 40
0.7384394175162996
 40
0.8233446473498668
 40
0.8623868643714219
 40
0.889226864375108
 40
0.9465533944606753
 40
0.9999999999999999
 40
0.9999999999999999
 40
0.9999999999999999
 40
0.9999999999999999
 10
97.78768482425735
 20
111.2607447144262
 30
0.0
 10
97.7881673648342
 20
111.2607493748727
 30
0.0
 10
97.80063731758545
 20
111.2608698114746
 30
0.0
 10
97.70389207179804
 20
111.4579823554198
 30
0.0
 10
97.70851312889859
 20
111.6302633589757
 30
0.0
 10
97.59703402438359
 20
112.101732703625
 30
0.0
 10
97.5245942878625
 20
112.6192846925005
 30
0.0
 10
97.43057758544418
 20
113.2615330471915
 30
0.0
 10
97.33871903319233
 20
113.9569684942046
 30
0.0
 10
97.24360117434813
 20
114.6661422459833
 30
0.0
 10
97.1475271039514
 20
115.3312887805749
 30
0.0
 10
97.05613269336355
 20
115.9062918099666
 30
0.0
 10
96.93961309002762
 20
116.4331901940989
 30
0.0
 10
96.83582971184191
 20
116.8895839150303
 30
0.0
 10
96.51304669395442
 20
117.1029467485848
 30
0.0
 10
96.2066436418543
 20
117.0511340729447
 30
0.0
 10
96.01978011282401
 20
116.7434163445988
 30
0.0
 10
95.95750203188119
 20
116.4946016354047
 30
0.0
 10
95.92745366313979
 20
116.3745517556242
 30
0.0
  0
SPLINE
  5
EF
330
1F
100
AcDbEntity
  8
0
  6
Continuous
 62
     7
370
    25
100
AcDbSpline
210
0.0
220
0.0
230
1.0
 70
     8
 71
     3
 72
    11
 73
     7
 74
     0
 42
0.00000001
 43
0.00000001
 40
0.0
 40
0.0
 40
0.0
 40
0.0
 40
0.0071335556960786
 40
0.2343150916871167
 40
0.6894182594722653
 40
1.0
 40
1.0
 40
1.0
 40
1.0
 10
95.35267862299011
 20
111.2380285926781
 30
0.0
 10
95.35444770357535
 20
111.2381388714044
 30
0.0
 10
95.41255649212161
 20
111.2417611841701
 30
0.0
 10
95.22104502536536
 20
111.4934212884167
 30
0.0
 10
95.25120376975788
 20
111.6763413012952
 30
0.0
 10
95.20907359628606
 20
111.8663277769366
 30
0.0
 10
95.19198450067566
 20
111.9433912395186
 30
0.0
  0
SPLINE
  5
F0
330
1F
100
AcDbEntity
  8
0
  6
Continuous
 62
     7
370
    25
100
AcDbSpline
210
0.0
220
0.0
230
1.0
 70
     8
 71
     3
 72
    16
 73
    12
 74
     0
 42
0.00000001
 43
0.00000001
 40
0.0
 40
0.0
 40
0.0
 40
0.0
 40
0.0832952796077682
 40
0.2438542415919345
 40
0.3859995014540731
 40
0.5026070655745433
 40
0.6628362475018666
 40
0.7388941451913738
 40
0.7999465346470664
 40
0.8884288505005288
 40
1.0
 40
1.0
 40
1.0
 40
1.0
 10
94.89647957304047
 20
113.9383848572186
 30
0.0
 10
94.88061211505087
 20
114.0570962204418
 30
0.0
 10
94.83415873915406
 20
114.4046341551659
 30
0.0
 10
94.75820960164977
 20
114.9543446975308
 30
0.0
 10
94.67073755035423
 20
115.5511508019626
 30
0.0
 10
94.56085188315042
 20
116.1429191293933
 30
0.0
 10
94.46903003505352
 20
116.6443749729993
 30
0.0
 10
94.23639617270024
 20
117.0244849211847
 30
0.0
 10
93.88495267847416
 20
117.1314312344071
 30
0.0
 10
93.57756807789201
 20
116.8152525875788
 30
0.0
 10
93.52917947004222
 20
116.5323361412699
 30
0.0
 10
93.50219282129333
 20
116.3745517556242
 30
0.0
  0
SPLINE
  5
F1
330
1F
100
AcDbEntity
  8
0
  6
Continuous
 62
     7
370
    25
100
AcDbSpline
210
0.0
220
0.0
230
1.0
 70
     8
 71
     3
 72
    17
 73
    13
 74
     0
 42
0.00000001
 43
0.00000001
 40
0.0
 40
0.0
 40
0.0
 40
0.0
 40
0.110603416335172
 40
0.2671060069255169
 40
0.4059206020863152
 40
0.522343883483987
 40
0.6134766964995697
 40
0.6913619993340703
 40
0.7619462353648337
 40
0.8142126446859281
 40
0.8656605403189361
 40
1.0
 40
1.0
 40
1.0
 40
1.0
 10
92.45195898035095
 20
113.9383848572186
 30
0.0
 10
92.43084575105813
 20
114.0963350501119
 30
0.0
 10
92.37985753969386
 20
114.4777829901014
 30
0.0
 10
92.29955170699442
 20
115.0570822769582
 30
0.0
 10
92.2098620949075
 20
115.6435557282014
 30
0.0
 10
92.12061390655704
 20
116.1345778769662
 30
0.0
 10
92.02736327263091
 20
116.5356203511748
 30
0.0
 10
91.91149138667224
 20
116.8616919507072
 30
0.0
 10
91.69121092552768
 20
117.0854302556374
 30
0.0
 10
91.4146944356245
 20
117.083301228305
 30
0.0
 10
91.14541851640298
 20
116.8403746834133
 30
0.0
 10
91.08918462231539
 20
116.5700317888329
 30
0.0
 10
91.0485229156308
 20
116.3745517556242
 30
0.0
  0
SPLINE
  5
F2
330
1F
100
AcDbEntity
  8
0
  6
Continuous
 62
     7
370
    25
100
AcDbSpline
210
0.0
220
0.0
230
1.0
 70
     8
 71
     3
 72
    18
 73
    14
 74
     0
 42
0.00000001
 43
0.00000001
 40
0.0
 40
0.0
 40
0.0
 40
0.0
 40
0.0808955613846122
 40
0.2351373826186725
 40
0.3770770261477217
 40
0.5011491068826778
 40
0.6022330727252422
 40
0.7247122407877908
 40
0.7643429415817983
 40
0.813641921444268
 40
0.8866147285571971
 40
0.9614834803949641
 40
1.0
 40
1.0
 40
1.0
 40
1.0
 10
90.03110143163727
 20
113.7641568571132
 30
0.0
 10
90.01494672441046
 20
113.8844334715193
 30
0.0
 10
89.96799018551927
 20
114.2340389111455
 30
0.0
 10
89.8923598868172
 20
114.7948539549689
 30
0.0
 10
89.80092637457545
 20
115.4179894110524
 30
0.0
 10
89.71056138541725
 20
115.9634178269223
 30
0.0
 10
89.59944080744235
 20
116.4667599486705
 30
0.0
 10
89.48873691119424
 20
116.8675390706992
 30
0.0
 10
89.23620532387736
 20
117.0779924260558
 30
0.0
 10
88.96980158195495
 20
117.0909491933104
 30
0.0
 10
88.73947624437672
 20
116.8609794612558
 30
0.0
 10
88.64671233477692
 20
116.5967120438543
 30
0.0
 10
88.6084585978084
 20
116.430883159211
 30
0.0
 10
88.59546395757721
 20
116.3745517556242
 30
0.0
  0
SPLINE
  5
F3
330
1F
100
AcDbEntity
  8
0
  6
Continuous
 62
     7
370
    25
100
AcDbSpline
210
0.0
220
0.0
230
1.0
 70
     8
 71
     3
 72
    22
 73
    18
 74
     0
 42
0.00000001
 43
0.00000001
 40
0.0
 40
0.0
 40
0.0
 40
0.0
 40
0.0108761452882475
 40
0.0559089999477971
 40
0.1326894055429702
 40
0.2253519816778241
 40
0.3257915748874448
 40
0.4264482947240784
 40
0.5247848978363977
 40
0.6180456420877117
 40
0.700413274333902
 40
0.8050837341519554
 40
0.8325749708040306
 40
0.8601234103488602
 40
0.9001537233923377
 40
0.944517340827452
 40
1.0
 40
1.0
 40
1.0
 40
1.0
 10
87.99528988817261
 20
111.2627375119053
 30
0.0
 10
87.99321329375373
 20
111.2883820451605
 30
0.0
 10
87.98253852671276
 20
111.4202081812067
 30
0.0
 10
87.88251133379491
 20
111.7203207792905
 30
0.0
 10
87.80939404723966
 20
112.222286042091
 30
0.0
 10
87.70893878428751
 20
112.8517893003425
 30
0.0
 10
87.61657141918045
 20
113.539719993604
 30
0.0
 10
87.52302340025244
 20
114.2410576921929
 30
0.0
 10
87.4290590432783
 20
114.9246441519157
 30
0.0
 10
87.33552549024829
 20
115.5667756880684
 30
0.0
 10
87.21103687898389
 20
116.2119051153147
 30
0.0
 10
87.11492942225077
 20
116.7278998398215
 30
0.0
 10
86.87286162130114
 20
117.028181034037
 30
0.0
 10
86.64716690385188
 20
117.1132238509654
 30
0.0
 10
86.38178087354511
 20
116.9830630548804
 30
0.0
 10
86.2192588702854
 20
116.6844936192247
 30
0.0
 10
86.17279740201317
 20
116.4527295819571
 30
0.0
 10
86.14697965601012
 20
116.3239427555971
 30
0.0
  0
SPLINE
  5
F4
330
1F
100
AcDbEntity
  8
0
  6
Continuous
 62
     7
370
    25
100
AcDbSpline
210
0.0
220
0.0
230
1.0
 70
     8
 71
     3
 72
    21
 73
    17
 74
     0
 42
0.00000001
 43
0.00000001
 40
0.0
 40
0.0
 40
0.0
 40
0.0
 40
0.0121047028556022
 40
0.06045670112899
 40
0.1397572441581072
 40
0.2346687363360401
 40
0.3357736448951572
 40
0.4375934509672094
 40
0.5400779543309202
 40
0.6371560735653584
 40
0.721541106963602
 40
0.7831230652700557
 40
0.8484206700995811
 40
0.880089018787928
 40
0.9213129450805115
 40
1.0
 40
1.0
 40
1.0
 40
1.0
 10
85.56449326494263
 20
111.247098277571
 30
0.0
 10
85.55877564221551
 20
111.2749577578502
 30
0.0
 10
85.53021908758494
 20
111.414101385987
 30
0.0
 10
85.44109888865825
 20
111.7305402009515
 30
0.0
 10
85.35865065017201
 20
112.2476453340182
 30
0.0
 10
85.26038477166162
 20
112.8866747527533
 30
0.0
 10
85.16654187426354
 20
113.5802065806422
 30
0.0
 10
85.07184410737817
 20
114.2912689873318
 30
0.0
 10
84.97523488919255
 20
114.993200329248
 30
0.0
 10
84.87583440836895
 20
115.6511826165725
 30
0.0
 10
84.76866780322727
 20
116.2173327494941
 30
0.0
 10
84.65510284195744
 20
116.6866215443893
 30
0.0
 10
84.45724828979655
 20
117.0625699678021
 30
0.0
 10
84.10100535835382
 20
117.0963517209469
 30
0.0
 10
83.8067572804291
 20
116.8428317983415
 30
0.0
 10
83.74875875101282
 20
116.5600902340339
 30
0.0
 10
83.71069940546082
 20
116.3745517556242
 30
0.0
  0
SPLINE
  5
F5
330
1F
100
AcDbEntity
  8
0
  6
Continuous
 62
     7
370
    25
100
AcDbSpline
210
0.0
220
0.0
230
1.0
 70
     8
 71
     3
 72
    23
 73
    19
 74
     0
 42
0.00000001
 43
0.00000001
 40
0.0
 40
0.0
 40
0.0
 40
0.0
 40
0.0014487029944617
 40
0.0247348998591035
 40
0.0803635841995956
 40
0.1568003850045923
 40
0.2474265420999104
 40
0.345896598890658
 40
0.4491649365287088
 40
0.5524923256428106
 40
0.6489036383523813
 40
0.7303067984359173
 40
0.830076907052919
 40
0.8600505029641887
 40
0.8866328957009023
 40
0.9174557769150208
 40
0.9575598647424474
 40
1.0
 40
1.0
 40
1.0
 40
1.0
 10
83.11356517293976
 20
111.2562222120039
 30
0.0
 10
83.11670993832129
 20
111.2577370029991
 30
0.0
 10
83.17040310875723
 20
111.283600277748
 30
0.0
 10
82.99025492295227
 20
111.5213481079857
 30
0.0
 10
83.01419644350483
 20
111.8345348373719
 30
0.0
 10
82.88193524088902
 20
112.3703958317023
 30
0.0
 10
82.80714627781794
 20
112.9805851475237
 30
0.0
 10
82.7097705821753
 20
113.6632059121235
 30
0.0
 10
82.61686088717451
 20
114.3733465178091
 30
0.0
 10
82.51819755039779
 20
115.0771727993907
 30
0.0
 10
82.4193314165722
 20
115.7345558585062
 30
0.0
 10
82.29041527126651
 20
116.3596117962568
 30
0.0
 10
82.17525416267496
 20
116.8897767140291
 30
0.0
 10
81.84386414624917
 20
117.0945094105187
 30
0.0
 10
81.62565280847024
 20
117.0690597786757
 30
0.0
 10
81.44664457057583
 20
116.9099414056637
 30
0.0
 10
81.33446325270607
 20
116.6631080586159
 30
0.0
 10
81.29756349878659
 20
116.4725349648097
 30
0.0
 10
81.27859148004578
 20
116.3745517556242
 30
0.0
  0
SPLINE
  5
F6
330
1F
100
AcDbEntity
  8
0
  6
Continuous
 62
     7
370
    25
100
AcDbSpline
210
0.0
220
0.0
230
1.0
 70
     8
 71
     3
 72
    22
 73
    18
 74
     0
 42
0.00000001
 43
0.00000001
 40
0.0
 40
0.0
 40
0.0
 40
0.0
 40
0.009649687505782
 40
0.0531240101060388
 40
0.1186440950898545
 40
0.2011937652747732
 40
0.2958501659224184
 40
0.3984899455752692
 40
0.504158402940071
 40
0.6059391831520033
 40
0.6957884240004468
 40
0.815760483764946
 40
0.8492292984899469
 40
0.8685180288412512
 40
0.8866191191733832
 40
0.9165711769017576
 40
1.0
 40
1.0
 40
1.0
 40
1.0
 10
80.66983434179352
 20
111.2624613747619
 30
0.0
 10
80.66722016730708
 20
111.2849277077131
 30
0.0
 10
80.65282846480343
 20
111.4086106454278
 30
0.0
 10
80.56148332728985
 20
111.6733087468699
 30
0.0
 10
80.49404971493712
 20
112.1175137364491
 30
0.0
 10
80.40103324199613
 20
112.6780087295679
 30
0.0
 10
80.31185635347603
 20
113.3273596752973
 30
0.0
 10
80.21767530878022
 20
114.0306337715663
 30
0.0
 10
80.12015533400405
 20
114.7497199188249
 30
0.0
 10
80.02232718382598
 20
115.440758600016
 30
0.0
 10
79.89118599539003
 20
116.1527225936884
 30
0.0
 10
79.78949492165944
 20
116.7345775612384
 30
0.0
 10
79.5026151359958
 20
117.0480504116137
 30
0.0
 10
79.33511175547255
 20
117.0872779322484
 30
0.0
 10
79.17553068149839
 20
117.0580651685219
 30
0.0
 10
78.9333129190733
 20
116.8415904711105
 30
0.0
 10
78.87854383575413
 20
116.5725322901065
 30
0.0
 10
78.83824321249054
 20
116.3745517556242
 30
0.0
  0
SPLINE
  5
F7
330
1F
100
AcDbEntity
  8
0
  6
Continuous
 62
     7
370
    25
100
AcDbSpline
210
0.0
220
0.0
230
1.0
 70
     8
 71
     3
 72
    23
 73
    19
 74
     0
 42
0.00000001
 43
0.00000001
 40
0.0
 40
0.0
 40
0.0
 40
0.0
 40
0.0015084715280618
 40
0.0117423703098522
 40
0.0537897862096031
 40
0.1153083719894024
 40
0.1949096645551764
 40
0.2890133327422002
 40
0.3907799500527947
 40
0.494188975921122
 40
0.5928502716185757
 40
0.6790311182949281
 40
0.7453794924932718
 40
0.8284053482312425
 40
0.8618923293610189
 40
0.8910008434074792
 40
0.9684552122875456
 40
1.0
 40
1.0
 40
1.0
 40
1.0
 10
78.22088810422943
 20
111.2761771951489
 30
0.0
 10
78.22399171048936
 20
111.2781685016233
 30
0.0
 10
78.24815106207274
 20
111.2936693961298
 30
0.0
 10
78.14854285704878
 20
111.43946473311
 30
0.0
 10
78.14982225194377
 20
111.6723512861679
 30
0.0
 10
78.0386574802883
 20
112.1075450941503
 30
0.0
 10
77.96592977727641
 20
112.6459151444587
 30
0.0
 10
77.87164895085598
 20
113.2861199968245
 30
0.0
 10
77.78017272564834
 20
113.9796018054008
 30
0.0
 10
77.68534976269518
 20
114.6847725177819
 30
0.0
 10
77.58855704230436
 20
115.3511393005508
 30
0.0
 10
77.49534300945469
 20
115.9349311614848
 30
0.0
 10
77.37508941450403
 20
116.4633539083778
 30
0.0
 10
77.26363481711469
 20
116.9104412716376
 30
0.0
 10
76.94962614336055
 20
117.0991511651364
 30
0.0
 10
76.60086611247078
 20
117.0368671801915
 30
0.0
 10
76.44934183001605
 20
116.6898393328771
 30
0.0
 10
76.39325125322577
 20
116.4453173780208
 30
0.0
 10
76.37701841810272
 20
116.3745517556242
 30
0.0
  0
SPLINE
  5
F8
330
1F
100
AcDbEntity
  8
0
  6
Continuous
 62
     7
370
    25
100
AcDbSpline
210
0.0
220
0.0
230
1.0
 70
     8
 71
     3
 72
    21
 73
    17
 74
     0
 42
0.00000001
 43
0.00000001
 40
0.0
 40
0.0
 40
0.0
 40
0.0
 40
0.0020995292173704
 40
0.0265840038694392
 40
0.0736427045548897
 40
0.1427271259876423
 40
0.2348520657067993
 40
0.3436461751240439
 40
0.4602499614518206
 40
0.5777909944946833
 40
0.6886377339907505
 40
0.7805098343003637
 40
0.8984868657634857
 40
0.9446898294493714
 40
0.986696078750954
 40
1.0
 40
1.0
 40
1.0
 40
1.0
 10
75.77784272649811
 20
111.2709280282877
 30
0.0
 10
75.78240884646914
 20
111.2704736582571
 30
0.0
 10
75.84022454628123
 20
111.2647204758048
 30
0.0
 10
75.68085909164098
 20
111.5029050873828
 30
0.0
 10
75.69741166097522
 20
111.7220105664825
 30
0.0
 10
75.58172476500637
 20
112.1757397376081
 30
0.0
 10
75.51197710157545
 20
112.7142348932329
 30
0.0
 10
75.41594930290017
 20
113.3677171289615
 30
0.0
 10
75.32418071242107
 20
114.0682787095445
 30
0.0
 10
75.22787117617321
 20
114.7741024388821
 30
0.0
 10
75.13431470456352
 20
115.4293836305959
 30
0.0
 10
75.01850908140254
 20
116.0786378249178
 30
0.0
 10
74.92077293968765
 20
116.6077731990329
 30
0.0
 10
74.71390394876353
 20
116.9800221642965
 30
0.0
 10
74.50162611815458
 20
117.1019984228204
 30
0.0
 10
74.39155441245069
 20
117.0650104638867
 30
0.0
 10
74.36507853487059
 20
117.0561136391632
 30
0.0
  0
LINE
  5
F9
330
1F
100
AcDbEntity
  8
0
  6
Continuous
 62
     7
370
    25
100
AcDbLine
 10
103.9664885662
 20
120.8745520276
 30
0.0
 11
89.9664899967
 21
120.8745520276
 31
0.0
  0
LINE
  5
FA
330
1F
100
AcDbEntity
  8
0
  6
Continuous
 62
     7
370
    25
100
AcDbLine
 10
89.9664899967
 20
106.8745515954
 30
0.0
 11
103.9664885662
 21
106.8745515954
 31
0.0
  0
LINE
  5
FB
330
1F
100
AcDbEntity
  8
0
  6
Continuous
 62
     7
370
    25
100
AcDbLine
 10
103.9664885662
 20
106.8745515954
 30
0.0
 11
104.4664895795
 21
107.3745516774
 31
0.0
  0
LINE
  5
FC
330
1F
100
AcDbEntity
  8
0
  6
Continuous
 62
     7
370
    25
100
AcDbLine
 10
104.4664895795
 20
120.3745519456
 30
0.0
 11
103.9664885662
 21
120.8745520276
 31
0.0
  0
LINE
  5
FD
330
1F
100
AcDbEntity
  8
0
  6
Continuous
 62
     7
370
    25
100
AcDbLine
 10
104.4664895795
 20
108.8745519233
 30
0.0
 11
105.9664851687
 21
108.8745519233
 31
0.0
  0
LINE
  5
FE
330
1F
100
AcDbEntity
  8
0
  6
Continuous
 62
     7
370
    25
100
AcDbLine
 10
105.9664851687
 20
118.8745516997
 30
0.0
 11
104.4664895795
 21
118.8745516997
 31
0.0
  0
LINE
  5
FF
330
1F
100
AcDbEntity
  8
0
  6
Continuous
 62
     7
370
    25
100
AcDbLine
 10
111.1664912365
 20
117.8745520015
 30
0.0
 11
110.7165506742
 21
117.4246174928
 31
0.0
  0
LINE
  5
100
330
1F
100
AcDbEntity
  8
0
  6
Continuous
 62
     7
370
    25
100
AcDbLine
 10
110.7165506742
 20
110.3244861302
 30
0.0
 11
111.1664912365
 21
109.8745516215
 31
0.0
  0
LINE
  5
101
330
1F
100
AcDbEntity
  8
0
  6
Continuous
 62
     7
370
    25
100
AcDbLine
 10
111.1664912365
 20
109.8745516215
 30
0.0
 11
145.9664917252
 21
109.8745516215
 31
0.0
  0
LINE
  5
102
330
1F
100
AcDbEntity
  8
0
  6
Continuous
 62
     7
370
    25
100
AcDbLine
 10
145.9664917252
 20
117.8745520015
 30
0.0
 11
111.1664912365
 21
117.8745520015
 31
0.0
  0
ARC
  5
103
330
1F
100
AcDbEntity
  8
0
  6
Continuous
 62
     7
370
    25
100
AcDbCircle
 10
109.466486233
 20
109.3357035088
 30
0.0
 40
1.59384822979342
100
AcDbArc
 50
38.343479484
 51
90.0000511145
  0
ARC
  5
104
330
1F
100
AcDbEntity
  8
0
  6
Continuous
 62
     7
370
    25
100
AcDbCircle
 10
109.466486233
 20
118.4134001142
 30
0.0
 40
1.593848229793404
100
AcDbArc
 50
269.9999488855
 51
321.656520516
  0
LINE
  5
105
330
1F
100
AcDbEntity
  8
0
  6
Continuous
 62
     7
370
    25
100
AcDbLine
 10
75.787498679
 20
111.3745518674
 30
0.0
 11
77.6195517443
 21
111.3745518674
 31
0.0
  0
LINE
  5
106
330
1F
100
AcDbEntity
  8
0
  6
Continuous
 62
     7
370
    25
100
AcDbLine
 10
78.2054803036
 20
111.3745518674
 30
0.0
 11
80.0701520107
 21
111.3745518674
 31
0.0
  0
LINE
  5
107
330
1F
100
AcDbEntity
  8
0
  6
Continuous
 62
     7
370
    25
100
AcDbLine
 10
80.6496879719
 20
111.3745518674
 30
0.0
 11
82.4907711408
 21
111.3745518674
 31
0.0
  0
LINE
  5
108
330
1F
100
AcDbEntity
  8
0
  6
Continuous
 62
     7
370
    25
100
AcDbLine
 10
83.0914518497
 20
111.3745518674
 30
0.0
 11
84.9402985237
 21
111.3745518674
 31
0.0
  0
LINE
  5
109
330
1F
100
AcDbEntity
  8
0
  6
Continuous
 62
     7
370
    25
100
AcDbLine
 10
85.5361512564
 20
111.3745518674
 30
0.0
 11
87.37960371
 21
111.3745518674
 31
0.0
  0
LINE
  5
10A
330
1F
100
AcDbEntity
  8
0
  6
Continuous
 62
     7
370
    25
100
AcDbLine
 10
87.9794350527
 20
111.3745518674
 30
0.0
 11
89.8228428028
 21
111.3745518674
 31
0.0
  0
LINE
  5
10B
330
1F
100
AcDbEntity
  8
0
  6
Continuous
 62
     7
370
    25
100
AcDbLine
 10
93.3862319849
 20
111.3745518674
 30
0.0
 11
94.7050890587
 21
111.3745518674
 31
0.0
  0
LINE
  5
10C
330
1F
100
AcDbEntity
  8
0
  6
Continuous
 62
     7
370
    25
100
AcDbLine
 10
95.3499442599
 20
111.3745518674
 30
0.0
 11
97.1495574973
 21
111.3745518674
 31
0.0
  0
LINE
  5
10D
330
1F
100
AcDbEntity
  8
0
  6
Continuous
 62
     7
370
    25
100
AcDbLine
 10
97.7867386005
 20
111.3745518674
 30
0.0
 11
98.966485884
 21
111.3745518674
 31
0.0
  0
LINE
  5
10E
330
1F
100
AcDbEntity
  8
0
  6
Continuous
 62
     7
370
    25
100
AcDbLine
 10
98.7102902196
 20
116.3745517556
 30
0.0
 11
96.9520351551
 21
116.3745517556
 31
0.0
  0
LINE
  5
10F
330
1F
100
AcDbEntity
  8
0
  6
Continuous
 62
     7
370
    25
100
AcDbLine
 10
96.330679085
 20
116.3745517556
 30
0.0
 11
94.4924643896
 21
116.3745517556
 31
0.0
  0
LINE
  5
110
330
1F
100
AcDbEntity
  8
0
  6
Continuous
 62
     7
370
    25
100
AcDbLine
 10
93.899115052
 20
116.3745517556
 30
0.0
 11
92.0590749643
 21
116.3745517556
 31
0.0
  0
LINE
  5
111
330
1F
100
AcDbEntity
  8
0
  6
Continuous
 62
     7
370
    25
100
AcDbLine
 10
91.4480379484
 20
116.3745517556
 30
0.0
 11
89.6159550808
 21
116.3745517556
 31
0.0
  0
LINE
  5
112
330
1F
100
AcDbEntity
  8
0
  6
Continuous
 62
     7
370
    25
100
AcDbLine
 10
89.0160939358
 20
116.3745517556
 30
0.0
 11
87.1525994203
 21
116.3745517556
 31
0.0
  0
LINE
  5
113
330
1F
100
AcDbEntity
  8
0
  6
Continuous
 62
     7
370
    25
100
AcDbLine
 10
86.4942214153
 20
116.3745517556
 30
0.0
 11
84.72299489
 21
116.3745517556
 31
0.0
  0
LINE
  5
114
330
1F
100
AcDbEntity
  8
0
  6
Continuous
 62
     7
370
    25
100
AcDbLine
 10
84.1165474317
 20
116.3745517556
 30
0.0
 11
82.2756877802
 21
116.3745517556
 31
0.0
  0
LINE
  5
115
330
1F
100
AcDbEntity
  8
0
  6
Continuous
 62
     7
370
    25
100
AcDbLine
 10
81.6707453392
 20
116.3745517556
 30
0.0
 11
79.8081746958
 21
116.3745517556
 31
0.0
  0
LINE
  5
116
330
1F
100
AcDbEntity
  8
0
  6
Continuous
 62
     7
370
    25
100
AcDbLine
 10
79.2275956533
 20
116.3745517556
 30
0.0
 11
77.3933521173
 21
116.3745517556
 31
0.0
  0
LINE
  5
117
330
1F
100
AcDbEntity
  8
0
  6
Continuous
 62
     7
370
    25
100
AcDbLine
 10
76.7451814077
 20
116.3745517556
 30
0.0
 11
74.9355098865
 21
116.3745517556
 31
0.0
  0
LINE
  5
118
330
1F
100
AcDbEntity
  8
0
  6
Continuous
 62
     7
370
    25
100
AcDbLine
 10
89.9664899967
 20
117.3191251878
 30
0.0
 11
97.2164860628
 21
117.3191251878
 31
0.0
  0
LINE
  5
119
330
1F
100
AcDbEntity
  8
0
  6
Continuous
 62
     7
370
    25
100
AcDbLine
 10
95.4664862416
 20
113.9383848572
 30
0.0
 11
89.9664899967
 21
113.9383848572
 31
0.0
  0
LINE
  5
11A
330
1F
100
AcDbEntity
  8
0
  6
Continuous
 62
     7
370
    25
100
AcDbLine
 10
95.4664862416
 20
113.9383848572
 30
0.0
 11
95.4664862416
 21
112.001235801
 31
0.0
  0
LINE
  5
11B
330
1F
100
AcDbEntity
  8
0
  6
Continuous
 62
     7
370
    25
100
AcDbLine
 10
95.4664862416
 20
112.001235801
 30
0.0
 11
94.716488447
 21
112.001235801
 31
0.0
  0
SPLINE
  5
11C
330
1F
100
AcDbEntity
  8
0
  6
Continuous
 62
     7
370
    25
100
AcDbSpline
210
0.0
220
0.0
230
1.0
 70
     8
 71
     3
 72
    17
 73
    13
 74
     0
 42
0.00000001
 43
0.00000001
 40
0.0
 40
0.0
 40
0.0
 40
0.0
 40
0.1127178304380685
 40
0.2242711817021461
 40
0.3353612329602072
 40
0.4431616033120145
 40
0.5430399480298083
 40
0.6373418671815786
 40
0.7342047743421639
 40
0.8401844055891277
 40
0.9537971047444181
 40
1.0
 40
1.0
 40
1.0
 40
1.0
 10
94.71648844697997
 20
112.0012358010433
 30
0.0
 10
94.52343531203152
 20
111.9826501718289
 30
0.0
 10
94.13932345911594
 20
111.9456709200957
 30
0.0
 10
93.6256114991871
 20
111.6625731098757
 30
0.0
 10
93.22639449794431
 20
111.2545432308064
 30
0.0
 10
92.9866334189215
 20
110.754095588833
 30
0.0
 10
92.94071844758903
 20
110.2285488473636
 30
0.0
 10
93.09795823167418
 20
109.7434482683689
 30
0.0
 10
93.4379671780213
 20
109.3511462273359
 30
0.0
 10
93.91753439391834
 20
109.0859418751211
 30
0.0
 10
94.36517833198643
 20
108.9808690867955
 30
0.0
 10
94.63770161347027
 20
108.9725516461357
 30
0.0
 10
94.71648844697998
 20
108.9701470632724
 30
0.0
  0
LINE
  5
11D
330
1F
100
AcDbEntity
  8
0
  6
Continuous
 62
     7
370
    25
100
AcDbLine
 10
94.716488447
 20
108.9701470633
 30
0.0
 11
97.2164860628
 21
108.9701470633
 31
0.0
  0
SPLINE
  5
11E
330
1F
100
AcDbEntity
  8
0
  6
Continuous
 62
     7
370
    25
100
AcDbSpline
210
0.0
220
0.0
230
1.0
 70
     8
 71
     3
 72
    12
 73
     8
 74
     0
 42
0.00000001
 43
0.00000001
 40
0.0
 40
0.0
 40
0.0
 40
0.0
 40
0.2302615203182236
 40
0.4491773464137329
 40
0.6574357726353106
 40
0.8597898677737441
 40
1.0
 40
1.0
 40
1.0
 40
1.0
 10
97.21648606279419
 20
108.9701470632724
 30
0.0
 10
97.40804586700703
 20
108.9833001679386
 30
0.0
 10
97.78172673394886
 20
109.0089582832976
 30
0.0
 10
98.29657836082755
 20
109.2188627776911
 30
0.0
 10
98.70576240745342
 20
109.5561080397314
 30
0.0
 10
98.93470325786721
 20
109.9726621594261
 30
0.0
 10
98.95725538919262
 20
110.2578326089464
 30
0.0
 10
98.96648588398025
 20
110.3745517034702
 30
0.0
  0
LINE
  5
11F
330
1F
100
AcDbEntity
  8
0
  6
Continuous
 62
     7
370
    25
100
AcDbLine
 10
98.966485884
 20
110.3745517035
 30
0.0
 11
98.966485884
 21
115.6862851645
 31
0.0
  0
SPLINE
  5
120
330
1F
100
AcDbEntity
  8
0
  6
Continuous
 62
     7
370
    25
100
AcDbSpline
210
0.0
220
0.0
230
1.0
 70
     8
 71
     3
 72
    12
 73
     8
 74
     0
 42
0.00000001
 43
0.00000001
 40
0.0
 40
0.0
 40
0.0
 40
0.0
 40
0.2168148240434114
 40
0.4286757863128203
 40
0.6395589841261483
 40
0.8522304573503355
 40
1.0
 40
1.0
 40
1.0
 40
1.0
 10
97.21648606279419
 20
117.3191251878313
 30
0.0
 10
97.40896005669232
 20
117.3026774675992
 30
0.0
 10
97.78951033060959
 20
117.2701578304633
 30
0.0
 10
98.30767721271644
 20
117.0099015263409
 30
0.0
 10
98.7118842219236
 20
116.608226155775
 30
0.0
 10
98.93438843572282
 20
116.1366893392265
 30
0.0
 10
98.95715308841022
 20
115.8172466681022
 30
0.0
 10
98.96648588398025
 20
115.6862851644553
 30
0.0
  0
LINE
  5
121
330
1F
100
AcDbEntity
  8
0
  6
Continuous
 62
     7
370
    25
100
AcDbLine
 10
103.9664885662
 20
110.3745517035
 30
0.0
 11
103.9664885662
 21
120.8745520276
 31
0.0
  0
LINE
  5
122
330
1F
100
AcDbEntity
  8
0
  6
Continuous
 62
     7
370
    25
100
AcDbLine
 10
103.9664885662
 20
106.8745515954
 30
0.0
 11
103.9664885662
 21
110.3745517035
 31
0.0
  0
LINE
  5
123
330
1F
100
AcDbEntity
  8
0
  6
Continuous
 62
     7
370
    25
100
AcDbLine
 10
89.9664899967
 20
117.3191251878
 30
0.0
 11
89.9664899967
 21
120.8745520276
 31
0.0
  0
LINE
  5
124
330
1F
100
AcDbEntity
  8
0
  6
Continuous
 62
     7
370
    25
100
AcDbLine
 10
89.9664899967
 20
106.8745515954
 30
0.0
 11
89.9664899967
 21
113.9383848572
 31
0.0
  0
LINE
  5
125
330
1F
100
AcDbEntity
  8
0
  6
Continuous
 62
     7
370
    25
100
AcDbLine
 10
104.4664895795
 20
110.6245517444
 30
0.0
 11
104.4664895795
 21
107.3745516774
 31
0.0
  0
LINE
  5
126
330
1F
100
AcDbEntity
  8
0
  6
Continuous
 62
     7
370
    25
100
AcDbLine
 10
104.4664895795
 20
120.3745519456
 30
0.0
 11
104.4664895795
 21
110.6245517444
 31
0.0
  0
SPLINE
  5
127
330
1F
100
AcDbEntity
  8
0
  6
Continuous
 62
     7
370
    25
100
AcDbSpline
210
0.0
220
0.0
230
1.0
 70
     8
 71
     3
 72
    12
 73
     8
 74
     0
 42
0.00000001
 43
0.00000001
 40
0.0
 40
0.0
 40
0.0
 40
0.0
 40
0.2299427292583575
 40
0.4479960499351236
 40
0.6557055056594155
 40
0.8581457311839161
 40
1.0
 40
1.0
 40
1.0
 40
1.0
 10
97.21648606279417
 20
109.2809601400666
 30
0.0
 10
97.40727586079215
 20
109.2937587214063
 30
0.0
 10
97.7789904879373
 20
109.3186941212056
 30
0.0
 10
98.2924524925631
 20
109.5234940113258
 30
0.0
 10
98.70286353133854
 20
109.8554615193
 30
0.0
 10
98.93430144266266
 20
110.270809742057
 30
0.0
 10
98.95709472486114
 20
110.5567432052502
 30
0.0
 10
98.96648588398025
 20
110.6745518923424
 30
0.0
  0
LINE
  5
128
330
1F
100
AcDbEntity
  8
0
  6
Continuous
 62
     7
370
    25
100
AcDbLine
 10
94.716488447
 20
109.2809601401
 30
0.0
 11
97.2164860628
 21
109.2809601401
 31
0.0
  0
SPLINE
  5
129
330
1F
100
AcDbEntity
  8
0
  6
Continuous
 62
     7
370
    25
100
AcDbSpline
210
0.0
220
0.0
230
1.0
 70
     8
 71
     3
 72
    12
 73
     8
 74
     0
 42
0.00000001
 43
0.00000001
 40
0.0
 40
0.0
 40
0.0
 40
0.0
 40
0.1828384950754557
 40
0.3984595681546348
 40
0.6357490147347025
 40
0.8915717933411119
 40
1.0
 40
1.0
 40
1.0
 40
1.0
 10
92.99407812574432
 20
110.4673985105626
 30
0.0
 10
93.02663706439168
 20
110.3309446327004
 30
0.0
 10
93.09759269453751
 20
110.0335709684535
 30
0.0
 10
93.4343791727151
 20
109.662545641855
 30
0.0
 10
93.9072797462459
 20
109.3978776175141
 30
0.0
 10
94.3584229826944
 20
109.292150438433
 30
0.0
 10
94.63435156255119
 20
109.2835270903461
 30
0.0
 10
94.71648844697997
 20
109.2809601400666
 30
0.0
  0
LINE
  5
12A
330
1F
100
AcDbEntity
  8
0
  6
Continuous
 62
     7
370
    25
100
AcDbLine
 10
89.9664899967
 20
117.1582364191
 30
0.0
 11
97.2164860628
 21
117.1582364191
 31
0.0
  0
SPLINE
  5
12B
330
1F
100
AcDbEntity
  8
0
  6
Continuous
 62
     7
370
    25
100
AcDbSpline
210
0.0
220
0.0
230
1.0
 70
     8
 71
     3
 72
    12
 73
     8
 74
     0
 42
0.00000001
 43
0.00000001
 40
0.0
 40
0.0
 40
0.0
 40
0.0
 40
0.2190197540636512
 40
0.4326032600641009
 40
0.6457014034004314
 40
0.8613755170639026
 40
1.0
 40
1.0
 40
1.0
 40
1.0
 10
97.21648606279419
 20
117.1582364190988
 30
0.0
 10
97.40820629785536
 20
117.1420532242625
 30
0.0
 10
97.78688811613378
 20
117.1100885146207
 30
0.0
 10
98.30378543367613
 20
116.853639282084
 30
0.0
 10
98.70918183569854
 20
116.4554970053777
 30
0.0
 10
98.92868204863066
 20
115.9944779679067
 30
0.0
 10
98.95560799056763
 20
115.685458996919
 30
0.0
 10
98.9661431572728
 20
115.5645508265741
 30
0.0
  0
LINE
  5
12C
330
1F
100
AcDbEntity
  8
0
  6
Continuous
 62
     7
370
    25
100
AcDbLine
 10
89.9664899967
 20
117.1582364191
 30
0.0
 11
89.9664899967
 21
116.3745517556
 31
0.0
  0
LINE
  5
12D
330
1F
100
AcDbEntity
  8
0
  6
Continuous
 62
     7
370
    25
100
AcDbLine
 10
98.9661431573
 20
115.5645508266
 30
0.0
 11
98.966485884
 21
115.5399674031
 31
0.0
  0
LINE
  5
12E
330
1F
100
AcDbEntity
  8
0
  6
Continuous
 62
     7
370
    25
100
AcDbLine
 10
105.9664851687
 20
118.8745516997
 30
0.0
 11
105.9664851687
 21
108.8745519233
 31
0.0
  0
LINE
  5
12F
330
1F
100
AcDbEntity
  8
0
  6
Continuous
 62
     7
370
    25
100
AcDbLine
 10
89.9664899967
 20
117.3191251878
 30
0.0
 11
89.9664899967
 21
117.1582364191
 31
0.0
  0
LINE
  5
130
330
1F
100
AcDbEntity
  8
0
  6
Continuous
 62
     7
370
    25
100
AcDbLine
 10
111.1664912365
 20
117.8745520015
 30
0.0
 11
111.1664912365
 21
109.8745516215
 31
0.0
  0
LINE
  5
131
330
1F
100
AcDbEntity
  8
0
  6
Continuous
 62
     7
370
    25
100
AcDbLine
 10
145.9664917252
 20
113.8745518115
 30
0.0
 11
145.9664917252
 21
117.8745520015
 31
0.0
  0
LINE
  5
132
330
1F
100
AcDbEntity
  8
0
  6
Continuous
 62
     7
370
    25
100
AcDbLine
 10
145.9664917252
 20
109.8745516215
 30
0.0
 11
145.9664917252
 21
113.8745518115
 31
0.0
  0
LINE
  5
133
330
1F
100
AcDbEntity
  8
0
  6
Continuous
 62
     7
370
    25
100
AcDbLine
 10
109.4664848111
 20
110.9295517386
 30
0.0
 11
109.4664848111
 21
112.4020524735
 31
0.0
  0
LINE
  5
134
330
1F
100
AcDbEntity
  8
0
  6
Continuous
 62
     7
370
    25
100
AcDbLine
 10
109.4664848111
 20
112.4020524735
 30
0.0
 11
109.4664848111
 21
115.3470511495
 31
0.0
  0
LINE
  5
135
330
1F
100
AcDbEntity
  8
0
  6
Continuous
 62
     7
370
    25
100
AcDbLine
 10
109.4664848111
 20
115.3470511495
 30
0.0
 11
109.4664848111
 21
116.8195518844
 31
0.0
  0
LINE
  5
136
330
1F
100
AcDbEntity
  8
0
  6
Continuous
 62
     7
370
    25
100
AcDbLine
 10
109.4664848111
 20
112.402051775
 30
0.0
 11
108.9664912484
 21
112.402051775
 31
0.0
  0
LINE
  5
137
330
1F
100
AcDbEntity
  8
0
  6
Continuous
 62
     7
370
    25
100
AcDbLine
 10
109.4664848111
 20
115.347051848
 30
0.0
 11
108.9664912484
 21
115.347051848
 31
0.0
  0
LINE
  5
138
330
1F
100
AcDbEntity
  8
0
  6
Continuous
 62
     7
370
    25
100
AcDbLine
 10
108.9664912484
 20
116.8195518844
 30
0.0
 11
109.4664848111
 21
116.8195518844
 31
0.0
  0
LINE
  5
139
330
1F
100
AcDbEntity
  8
0
  6
Continuous
 62
     7
370
    25
100
AcDbLine
 10
109.4664848111
 20
110.9295517386
 30
0.0
 11
108.9664912484
 21
110.9295517386
 31
0.0
  0
LINE
  5
13A
330
1F
100
AcDbEntity
  8
0
  6
Continuous
 62
     7
370
    25
100
AcDbLine
 10
105.9664851687
 20
110.9295517386
 30
0.0
 11
108.9664912484
 21
110.9295517386
 31
0.0
  0
LINE
  5
13B
330
1F
100
AcDbEntity
  8
0
  6
Continuous
 62
     7
370
    25
100
AcDbLine
 10
105.9664851687
 20
112.402051775
 30
0.0
 11
108.9664912484
 21
112.402051775
 31
0.0
  0
LINE
  5
13C
330
1F
100
AcDbEntity
  8
0
  6
Continuous
 62
     7
370
    25
100
AcDbLine
 10
105.9664851687
 20
115.347051848
 30
0.0
 11
108.9664912484
 21
115.347051848
 31
0.0
  0
LINE
  5
13D
330
1F
100
AcDbEntity
  8
0
  6
Continuous
 62
     7
370
    25
100
AcDbLine
 10
105.9664851687
 20
116.8195518844
 30
0.0
 11
108.9664912484
 21
116.8195518844
 31
0.0
  0
SPLINE
  5
13E
330
1F
100
AcDbEntity
  8
0
  6
Continuous
 62
     7
370
    25
100
AcDbSpline
210
0.0
220
0.0
230
1.0
 70
     8
 71
     3
 72
    24
 73
    20
 74
     0
 42
0.00000001
 43
0.00000001
 40
0.0
 40
0.0
 40
0.0
 40
0.0
 40
0.0003649883298141
 40
0.0062165382844745
 40
0.0340022686714313
 40
0.0763729870659562
 40
0.1301649477083787
 40
0.2606758299279068
 40
0.4142550652824432
 40
0.5628118640779501
 40
0.696285236972218
 40
0.7982709632425687
 40
0.8416978228520534
 40
0.857449371852454
 40
0.8775595830024777
 40
0.8913287903355401
 40
0.9059750920728427
 40
0.9323772465306028
 40
1.0
 40
1.0
 40
1.0
 40
1.0
 10
64.81278857514211
 20
111.1803843819223
 30
0.0
 10
64.8135424412061
 20
111.1799158372362
 30
0.0
 10
64.82638240584417
 20
111.1719355109037
 30
0.0
 10
64.7837535096776
 20
111.3149071685413
 30
0.0
 10
64.79981638972514
 20
111.4176041858637
 30
0.0
 10
64.75474676901166
 20
111.7430993103151
 30
0.0
 10
64.72595413086898
 20
112.2480831683403
 30
0.0
 10
64.6773860064874
 20
113.043211897155
 30
0.0
 10
64.6198397220432
 20
114.0413883256955
 30
0.0
 10
64.56534252213915
 20
115.0500149725344
 30
0.0
 10
64.50468252633112
 20
115.9454410537474
 30
0.0
 10
64.45757726223329
 20
116.5756073483892
 30
0.0
 10
64.34821855405049
 20
116.9624899770439
 30
0.0
 10
64.18793907332821
 20
117.0646570487577
 30
0.0
 10
64.06961589929482
 20
117.0820382008453
 30
0.0
 10
63.95895428142045
 20
117.0533114150202
 30
0.0
 10
63.84981295293042
 20
116.9825159706682
 30
0.0
 10
63.72221615029527
 20
116.7536735838046
 30
0.0
 10
63.70896421374396
 20
116.5331514019192
 30
0.0
 10
63.69943341538257
 20
116.3745517556242
 30
0.0
  0
SPLINE
  5
13F
330
1F
100
AcDbEntity
  8
0
  6
Continuous
 62
     7
370
    25
100
AcDbSpline
210
0.0
220
0.0
230
1.0
 70
     8
 71
     3
 72
    22
 73
    18
 74
     0
 42
0.00000001
 43
0.00000001
 40
0.0
 40
0.0
 40
0.0
 40
0.0
 40
0.0004623156583853
 40
0.0119930138927545
 40
0.0382543346824194
 40
0.0808175161490391
 40
0.2025307769085886
 40
0.3458543348074036
 40
0.4929197636393836
 40
0.6314510462981242
 40
0.7498135093517838
 40
0.8272199509590725
 40
0.8539488725750118
 40
0.8741444765898642
 40
0.8930695309088095
 40
0.9257320211177205
 40
0.9999999999999999
 40
0.9999999999999999
 40
0.9999999999999999
 40
0.9999999999999999
 10
63.84290179535695
 20
116.5858294994257
 30
0.0
 10
63.84206792200606
 20
116.586561413967
 30
0.0
 10
63.82043626298557
 20
116.6055481411162
 30
0.0
 10
63.87556889392164
 20
116.4288951410793
 30
0.0
 10
63.86118341037399
 20
116.3157013297704
 30
0.0
 10
63.92830788422725
 20
115.8238391144678
 30
0.0
 10
63.95302169074998
 20
115.1502782779124
 30
0.0
 10
64.01310292978543
 20
114.1821392850492
 30
0.0
 10
64.07045034488428
 20
113.1954014539197
 30
0.0
 10
64.11809376669723
 20
112.257414553405
 30
0.0
 10
64.18456446391399
 20
111.4927011775126
 30
0.0
 10
64.22805922140925
 20
110.9660770669282
 30
0.0
 10
64.40059880617412
 20
110.7184028025539
 30
0.0
 10
64.55070240532206
 20
110.6641995673693
 30
0.0
 10
64.72581664624518
 20
110.6908781256974
 30
0.0
 10
64.89765958129641
 20
110.9598580468916
 30
0.0
 10
64.9281505663966
 20
111.2045809197986
 30
0.0
 10
64.94932791516132
 20
111.3745518673829
 30
0.0
  0
SPLINE
  5
140
330
1F
100
AcDbEntity
  8
0
  6
Continuous
 62
     7
370
    25
100
AcDbSpline
210
0.0
220
0.0
230
1.0
 70
     8
 71
     3
 72
     9
 73
     5
 74
     0
 42
0.00000001
 43
0.00000001
 40
0.0
 40
0.0
 40
0.0
 40
0.0
 40
0.3076294375025367
 40
0.9999999999999999
 40
0.9999999999999999
 40
0.9999999999999999
 40
0.9999999999999999
 10
63.75082752034017
 20
110.7772760738305
 30
0.0
 10
63.7798381583623
 20
110.8077020970178
 30
0.0
 10
63.87414200086075
 20
110.9066068814048
 30
0.0
 10
63.88615633970514
 20
111.0466664163849
 30
0.0
 10
63.89447471424886
 20
111.1436395154021
 30
0.0
  0
SPLINE
  5
141
330
1F
100
AcDbEntity
  8
0
  6
Continuous
 62
     7
370
    25
100
AcDbSpline
210
0.0
220
0.0
230
1.0
 70
     8
 71
     3
 72
    13
 73
     9
 74
     0
 42
0.00000001
 43
0.00000001
 40
0.0
 40
0.0
 40
0.0
 40
0.0
 40
0.0018677091056239
 40
0.0318111134273433
 40
0.1739942902141299
 40
0.3908136712777437
 40
0.6660765399628598
 40
1.0
 40
1.0
 40
1.0
 40
1.0
 10
63.81278654858419
 20
111.1803843819223
 30
0.0
 10
63.81354041494401
 20
111.1799158369805
 30
0.0
 10
63.82638038462112
 20
111.1719355062937
 30
0.0
 10
63.78375041744755
 20
111.3149073182277
 30
0.0
 10
63.79984557569642
 20
111.4175772527633
 30
0.0
 10
63.75471453385131
 20
111.743282610704
 30
0.0
 10
63.7343433497332
 20
112.1017433816844
 30
0.0
 10
63.71757857097793
 20
112.3800798401746
 30
0.0
 10
63.70838901326009
 20
112.5326490441955
 30
0.0
  0
SPLINE
  5
142
330
1F
100
AcDbEntity
  8
0
  6
Continuous
 62
     7
370
    25
100
AcDbSpline
210
0.0
220
0.0
230
1.0
 70
     8
 71
     3
 72
    23
 73
    19
 74
     0
 42
0.00000001
 43
0.00000001
 40
0.0
 40
0.0
 40
0.0
 40
0.0
 40
0.0040369681879622
 40
0.0403946691440363
 40
0.0967003959079396
 40
0.171805073612943
 40
0.2631740772287566
 40
0.3639277836202034
 40
0.4677919966695242
 40
0.5684401929898768
 40
0.6585430567032937
 40
0.7291420749577052
 40
0.8176365429831594
 40
0.8535732322190848
 40
0.8843921436430026
 40
0.9148938605388504
 40
0.9566936281318142
 40
1.0
 40
1.0
 40
1.0
 40
1.0
 10
65.4543878726656
 20
116.4543099880837
 30
0.0
 10
65.44878039272177
 20
116.4464983342329
 30
0.0
 10
65.39267088516166
 20
116.3683334446236
 30
0.0
 10
65.56527498075633
 20
116.1334672165507
 30
0.0
 10
65.57329280463104
 20
115.7579155826603
 30
0.0
 10
65.68489948056785
 20
115.2406042565226
 30
0.0
 10
65.76394214407543
 20
114.6241415454901
 30
0.0
 10
65.85945443206002
 20
113.9386635948965
 30
0.0
 10
65.95271662914091
 20
113.231826437424
 30
0.0
 10
66.04994786690068
 20
112.5512859545927
 30
0.0
 10
66.142440508517
 20
111.9456218684504
 30
0.0
 10
66.26366066637122
 20
111.3826925018344
 30
0.0
 10
66.36083384949289
 20
110.9150252461501
 30
0.0
 10
66.65608943722602
 20
110.666215315403
 30
0.0
 10
66.90383074080313
 20
110.6711633526889
 30
0.0
 10
67.09699476438482
 20
110.8344232343707
 30
0.0
 10
67.21297750374535
 20
111.0832559997315
 30
0.0
 10
67.26021407525037
 20
111.2763140318513
 30
0.0
 10
67.2842504672701
 20
111.3745518673829
 30
0.0
  0
SPLINE
  5
143
330
1F
100
AcDbEntity
  8
0
  6
Continuous
 62
     7
370
    25
100
AcDbSpline
210
0.0
220
0.0
230
1.0
 70
     8
 71
     3
 72
    23
 73
    19
 74
     0
 42
0.00000001
 43
0.00000001
 40
0.0
 40
0.0
 40
0.0
 40
0.0
 40
0.0001072794560837
 40
0.0062861875949605
 40
0.0217349723857226
 40
0.0692083562394584
 40
0.1401063329238224
 40
0.2329989853413269
 40
0.3370892049589111
 40
0.444605358980276
 40
0.5484940854080481
 40
0.6408527195215795
 40
0.713319564880336
 40
0.8068538255914652
 40
0.849950438935699
 40
0.881300620667422
 40
0.9336328784262685
 40
1.0
 40
1.0
 40
1.0
 40
1.0
 10
67.86877831742116
 20
116.4892746315025
 30
0.0
 10
67.86852722686749
 20
116.4893151260998
 30
0.0
 10
67.85381422978988
 20
116.4916879628471
 30
0.0
 10
67.90045242105681
 20
116.4065516375211
 30
0.0
 10
67.91238046771741
 20
116.2952135103616
 30
0.0
 10
68.00954772499198
 20
115.9516284383206
 30
0.0
 10
68.08086285317188
 20
115.4837468282166
 30
0.0
 10
68.1798101337466
 20
114.8557041520912
 30
0.0
 10
68.27452693386014
 20
114.1517179152259
 30
0.0
 10
68.37222221275594
 20
113.4185136161834
 30
0.0
 10
68.47034684201073
 20
112.7144904830052
 30
0.0
 10
68.56264420294625
 20
112.0909623791474
 30
0.0
 10
68.6807642232154
 20
111.5001527452242
 30
0.0
 10
68.77044572490443
 20
111.008995343813
 30
0.0
 10
69.04218940523869
 20
110.6911871249346
 30
0.0
 10
69.3655214034233
 20
110.6491338730933
 30
0.0
 10
69.63728710349604
 20
110.9469714179843
 30
0.0
 10
69.68287012121287
 20
111.2212162635388
 30
0.0
 10
69.70835646912404
 20
111.3745518673829
 30
0.0
  0
SPLINE
  5
144
330
1F
100
AcDbEntity
  8
0
  6
Continuous
 62
     7
370
    25
100
AcDbSpline
210
0.0
220
0.0
230
1.0
 70
     8
 71
     3
 72
    23
 73
    19
 74
     0
 42
0.00000001
 43
0.00000001
 40
0.0
 40
0.0
 40
0.0
 40
0.0
 40
0.0007975829952867
 40
0.0095575956483405
 40
0.044526930087151
 40
0.1042578989714546
 40
0.1887268223951528
 40
0.2865232316196349
 40
0.3892467766531469
 40
0.4902867313155828
 40
0.5834367456232743
 40
0.662755754533682
 40
0.7744616796097621
 40
0.8199366133893492
 40
0.8639469372243022
 40
0.8933393566537294
 40
0.9191327047730312
 40
0.9999999999999999
 40
0.9999999999999999
 40
0.9999999999999999
 40
0.9999999999999999
 10
70.3105421952898
 20
116.503720608788
 30
0.0
 10
70.30855996111237
 20
116.5036862465325
 30
0.0
 10
70.28480645475598
 20
116.5032744767919
 30
0.0
 10
70.39421775124185
 20
116.3549021588652
 30
0.0
 10
70.3712912863337
 20
116.1723580976832
 30
0.0
 10
70.50215518095911
 20
115.7267165978824
 30
0.0
 10
70.57100079091354
 20
115.1787674791052
 30
0.0
 10
70.67251166672392
 20
114.5103955513061
 30
0.0
 10
70.76432509995234
 20
113.8088743104072
 30
0.0
 10
70.8581195474062
 20
113.1165613384213
 30
0.0
 10
70.94796588081928
 20
112.4795943158694
 30
0.0
 10
71.05725052414867
 20
111.8207268180162
 30
0.0
 10
71.15848272521605
 20
111.2718373119378
 30
0.0
 10
71.33875244069037
 20
110.8298277316512
 30
0.0
 10
71.5912082867988
 20
110.6452222857663
 30
0.0
 10
71.83865116222591
 20
110.6975524291947
 30
0.0
 10
72.0715612205468
 20
110.9311071558634
 30
0.0
 10
72.12805810980379
 20
111.183326097633
 30
0.0
 10
72.17089256569692
 20
111.3745518673829
 30
0.0
  0
SPLINE
  5
145
330
1F
100
AcDbEntity
  8
0
  6
Continuous
 62
     7
370
    25
100
AcDbSpline
210
0.0
220
0.0
230
1.0
 70
     8
 71
     3
 72
    22
 73
    18
 74
     0
 42
0.00000001
 43
0.00000001
 40
0.0
 40
0.0
 40
0.0
 40
0.0
 40
0.0024680671300042
 40
0.0230564678479352
 40
0.0803992845947665
 40
0.1635788441371867
 40
0.2602760122385643
 40
0.3623340390314826
 40
0.4629429699492727
 40
0.5610117692437336
 40
0.6521679135863883
 40
0.7303567984509028
 40
0.7868708741590228
 40
0.8475611759763856
 40
0.8779768745600536
 40
0.9228128041191059
 40
0.9999999999999999
 40
0.9999999999999999
 40
0.9999999999999999
 40
0.9999999999999999
 10
71.76881453320333
 20
111.2669468571119
 30
0.0
 10
71.7749817017909
 20
111.2671238113482
 30
0.0
 10
71.83259485279625
 20
111.2687769023887
 30
0.0
 10
71.66792819856842
 20
111.544992585626
 30
0.0
 10
71.68602864743355
 20
111.8335597559237
 30
0.0
 10
71.54733586413191
 20
112.4211267669688
 30
0.0
 10
71.46887344986735
 20
113.0617555212433
 30
0.0
 10
71.37015976049699
 20
113.7612944425764
 30
0.0
 10
71.27826027237052
 20
114.4589716099227
 30
0.0
 10
71.18364215530028
 20
115.1325703912262
 30
0.0
 10
71.08746013888225
 20
115.7507109410951
 30
0.0
 10
70.98474992703228
 20
116.2743421436039
 30
0.0
 10
70.87325820946923
 20
116.7081269488987
 30
0.0
 10
70.68665733213385
 20
117.0487455090325
 30
0.0
 10
70.34077965051284
 20
117.0970145524444
 30
0.0
 10
70.03933018357776
 20
116.8399449042819
 30
0.0
 10
69.97820105164543
 20
116.5548757061549
 30
0.0
 10
69.9395330838854
 20
116.3745517556242
 30
0.0
  0
SPLINE
  5
146
330
1F
100
AcDbEntity
  8
0
  6
Continuous
 62
     7
370
    25
100
AcDbSpline
210
0.0
220
0.0
230
1.0
 70
     8
 71
     3
 72
    22
 73
    18
 74
     0
 42
0.00000001
 43
0.00000001
 40
0.0
 40
0.0
 40
0.0
 40
0.0
 40
0.0012994245910881
 40
0.0241951848192248
 40
0.0860790739589806
 40
0.1720885844236205
 40
0.2703634358136734
 40
0.3718508673444688
 40
0.474606880917099
 40
0.5761234654851048
 40
0.6696919463067176
 40
0.7475357417190072
 40
0.8325765158517641
 40
0.8602086698824577
 40
0.8960347991867277
 40
0.9762815415766177
 40
1.0
 40
1.0
 40
1.0
 40
1.0
 10
69.34216043278524
 20
111.2583817162238
 30
0.0
 10
69.34526552905058
 20
111.2588739597406
 30
0.0
 10
69.40308218000256
 20
111.2680394957379
 30
0.0
 10
69.20187242709147
 20
111.5543745232067
 30
0.0
 10
69.24248392349666
 20
111.869026769119
 30
0.0
 10
69.09252021150357
 20
112.4745776791456
 30
0.0
 10
69.01619801541746
 20
113.1258944683179
 30
0.0
 10
68.91604563719372
 20
113.8323557252675
 30
0.0
 10
68.82267098579774
 20
114.5424675806837
 30
0.0
 10
68.72405128779492
 20
115.2329618807297
 30
0.0
 10
68.6231497192603
 20
115.8691167101601
 30
0.0
 10
68.49886984260607
 20
116.4449595811728
 30
0.0
 10
68.37290687972876
 20
116.9131334218697
 30
0.0
 10
68.05593437655186
 20
117.1010344648633
 30
0.0
 10
67.6898284165939
 20
117.0170806238867
 30
0.0
 10
67.55911109131796
 20
116.662700222227
 30
0.0
 10
67.50443212668354
 20
116.4280780836269
 30
0.0
 10
67.49195775315114
 20
116.3745517556242
 30
0.0
  0
SPLINE
  5
147
330
1F
100
AcDbEntity
  8
0
  6
Continuous
 62
     7
370
    25
100
AcDbSpline
210
0.0
220
0.0
230
1.0
 70
     8
 71
     3
 72
    23
 73
    19
 74
     0
 42
0.00000001
 43
0.00000001
 40
0.0
 40
0.0
 40
0.0
 40
0.0
 40
0.0059673830751239
 40
0.0422830898508249
 40
0.1072312785630215
 40
0.1901124409833402
 40
0.2847366852001765
 40
0.3854975182237316
 40
0.4897677654518185
 40
0.5914706208360284
 40
0.6832028964832014
 40
0.8070887944700604
 40
0.8432357335569458
 40
0.8705369147459571
 40
0.8973852174686905
 40
0.9241792071701395
 40
0.9762225502220431
 40
1.0
 40
1.0
 40
1.0
 40
1.0
 10
66.90003892704792
 20
111.2603044316791
 30
0.0
 10
66.8993456813183
 20
111.2742998634071
 30
0.0
 10
66.89443354963421
 20
111.3734673024348
 30
0.0
 10
66.79957336180969
 20
111.61121053294
 30
0.0
 10
66.73808172483186
 20
112.0389878212445
 30
0.0
 10
66.64102560901232
 20
112.5988984973489
 30
0.0
 10
66.55209367799657
 20
113.2452492429454
 30
0.0
 10
66.45823532137827
 20
113.9414547109883
 30
0.0
 10
66.36199092730521
 20
114.6537489379811
 30
0.0
 10
66.26537333884717
 20
115.3460122591076
 30
0.0
 10
66.13363668183253
 20
116.0745477976237
 30
0.0
 10
66.0383990184393
 20
116.6704619821011
 30
0.0
 10
65.7601741434989
 20
117.0360698470871
 30
0.0
 10
65.5421524204523
 20
117.0936175716862
 30
0.0
 10
65.35202391118382
 20
117.0290002203598
 30
0.0
 10
65.18875554728172
 20
116.8335895776787
 30
0.0
 10
65.10723753689577
 20
116.602974103728
 30
0.0
 10
65.07128764873796
 20
116.4290838514523
 30
0.0
 10
65.06001374050923
 20
116.3745517556242
 30
0.0
  0
LINE
  5
148
330
1F
100
AcDbEntity
  8
0
  6
Continuous
 62
     7
370
    25
100
AcDbLine
 10
63.7508275203
 20
117.3745519195
 30
0.0
 11
61.7508383684
 21
117.3745519195
 31
0.0
  0
LINE
  5
149
330
1F
100
AcDbEntity
  8
0
  6
Continuous
 62
     7
370
    25
100
AcDbLine
 10
61.7508383684
 20
110.3745517035
 30
0.0
 11
63.7508275203
 21
110.3745517035
 31
0.0
  0
LINE
  5
14A
330
1F
100
AcDbEntity
  8
0
  6
Continuous
 62
     7
370
    25
100
AcDbLine
 10
46.192357152
 20
111.3745518674
 30
0.0
 11
61.7508383684
 21
111.3745518674
 31
0.0
  0
LINE
  5
14B
330
1F
100
AcDbEntity
  8
0
  6
Continuous
 62
     7
370
    25
100
AcDbLine
 10
63.7947561435
 20
111.3745518674
 30
0.0
 11
64.196551054
 21
111.3745518674
 31
0.0
  0
LINE
  5
14C
330
1F
100
AcDbEntity
  8
0
  6
Continuous
 62
     7
370
    25
100
AcDbLine
 10
64.7947581701
 20
111.3745518674
 30
0.0
 11
66.2721039943
 21
111.3745518674
 31
0.0
  0
LINE
  5
14D
330
1F
100
AcDbEntity
  8
0
  6
Continuous
 62
     7
370
    25
100
AcDbLine
 10
66.8781938247
 20
111.3745518674
 30
0.0
 11
68.7245222025
 21
111.3745518674
 31
0.0
  0
LINE
  5
14E
330
1F
100
AcDbEntity
  8
0
  6
Continuous
 62
     7
370
    25
100
AcDbLine
 10
69.3359615497
 20
111.3745518674
 30
0.0
 11
71.1668970279
 21
111.3745518674
 31
0.0
  0
LINE
  5
14F
330
1F
100
AcDbEntity
  8
0
  6
Continuous
 62
     7
370
    25
100
AcDbLine
 10
71.7730911665
 20
111.3745518674
 30
0.0
 11
72.4852921657
 21
111.3745518674
 31
0.0
  0
LINE
  5
150
330
1F
100
AcDbEntity
  8
0
  6
Continuous
 62
     7
370
    25
100
AcDbLine
 10
71.3335069112
 20
116.3745517556
 30
0.0
 11
70.9535123996
 21
116.3745517556
 31
0.0
  0
LINE
  5
151
330
1F
100
AcDbEntity
  8
0
  6
Continuous
 62
     7
370
    25
100
AcDbLine
 10
70.3114213638
 20
116.3745517556
 30
0.0
 11
68.5092302255
 21
116.3745517556
 31
0.0
  0
LINE
  5
152
330
1F
100
AcDbEntity
  8
0
  6
Continuous
 62
     7
370
    25
100
AcDbLine
 10
67.8596588068
 20
116.3745517556
 30
0.0
 11
66.0375895195
 21
116.3745517556
 31
0.0
  0
LINE
  5
153
330
1F
100
AcDbEntity
  8
0
  6
Continuous
 62
     7
370
    25
100
AcDbLine
 10
65.4539110355
 20
116.3745517556
 30
0.0
 11
64.4539537124
 21
116.3745517556
 31
0.0
  0
LINE
  5
154
330
1F
100
AcDbEntity
  8
0
  6
Continuous
 62
     7
370
    25
100
AcDbLine
 10
63.8639720373
 20
116.3745517556
 30
0.0
 11
63.4539516859
 21
116.3745517556
 31
0.0
  0
LINE
  5
155
330
1F
100
AcDbEntity
  8
0
  6
Continuous
 62
     7
370
    25
100
AcDbLine
 10
61.7508383684
 20
116.3745517556
 30
0.0
 11
45.0728180103
 21
116.3745517556
 31
0.0
  0
LINE
  5
156
330
1F
100
AcDbEntity
  8
0
  6
Continuous
 62
     7
370
    25
100
AcDbLine
 10
63.7508275203
 20
116.3531611387
 30
0.0
 11
63.7508275203
 21
117.3745519195
 31
0.0
  0
LINE
  5
157
330
1F
100
AcDbEntity
  8
0
  6
Continuous
 62
     7
370
    25
100
AcDbLine
 10
63.7508275203
 20
110.3745517035
 30
0.0
 11
63.7508275203
 21
116.3531611387
 31
0.0
  0
LINE
  5
158
330
1F
100
AcDbEntity
  8
0
  6
Continuous
 62
     7
370
    25
100
AcDbLine
 10
61.7508383684
 20
116.3531611387
 30
0.0
 11
61.7508383684
 21
117.3745519195
 31
0.0
  0
LINE
  5
159
330
1F
100
AcDbEntity
  8
0
  6
Continuous
 62
     7
370
    25
100
AcDbLine
 10
61.7508383684
 20
110.3745517035
 30
0.0
 11
61.7508383684
 21
116.3531611387
 31
0.0
  0
LINE
  5
15A
330
1F
100
AcDbEntity
  8
0
  6
Continuous
 62
     7
370
    25
100
AcDbLine
 10
30.3348599206
 20
111.3745518674
 30
0.0
 11
43.1923715602
 21
111.3745518674
 31
0.0
  0
LINE
  5
15B
330
1F
100
AcDbEntity
  8
0
  6
Continuous
 62
     7
370
    25
100
AcDbLine
 10
42.0728175174
 20
116.3745517556
 30
0.0
 11
30.3348599206
 21
116.3745517556
 31
0.0
  0
LINE
  5
15C
330
1F
100
AcDbEntity
  8
0
  6
Continuous
 62
     7
370
    25
100
AcDbLine
 10
30.3348599206
 20
116.3745517556
 30
0.0
 11
28.8914887439
 21
113.8745518115
 31
0.0
  0
LINE
  5
15D
330
1F
100
AcDbEntity
  8
0
  6
Continuous
 62
     7
370
    25
100
AcDbLine
 10
28.8914887439
 20
113.8745518115
 30
0.0
 11
30.3348599206
 21
111.3745518674
 31
0.0
  0
LINE
  5
15E
330
1F
100
AcDbEntity
  8
0
  6
Continuous
 62
     7
370
    25
100
AcDbLine
 10
30.3348599206
 20
113.8745518115
 30
0.0
 11
30.3348599206
 21
116.3745517556
 31
0.0
  0
LINE
  5
15F
330
1F
100
AcDbEntity
  8
0
  6
Continuous
 62
     7
370
    25
100
AcDbLine
 10
30.3348599206
 20
111.3745518674
 30
0.0
 11
30.3348599206
 21
113.8745518115
 31
0.0
  0
DIMENSION
  5
160
330
1F
100
AcDbEntity
  8
0
  6
Continuous
 62
     7
370
    18
100
AcDbDimension
  2
_D
 10
85.8483826921
 20
120.2745518115
 30
0.0
 11
85.8483826921
 21
127.5417857607
 31
0.0
 70
   160
  1
%%c<>
 71
     2
 42
-1.0
  3
SLDDIMSTYLE0
100
AcDbAlignedDimension
 13
89.9376209763
 23
107.4745518115
 33
0.0
 14
89.9376209763
 24
120.2745518115
 34
0.0
 50
90.0
100
AcDbRotatedDimension
  0
DIMENSION
  5
173
330
1F
100
AcDbEntity
  8
0
  6
Continuous
 62
     7
370
    18
100
AcDbDimension
  2
_D_1
 10
61.7508312586
 20
152.3015935466
 30
0.0
 11
45.3211601587
 21
152.3015935466
 31
0.0
 70
   160
  1
L1=50～1000
 71
     2
 42
-1.0
  3
SLDDIMSTYLE1
100
AcDbAlignedDimension
 13
28.8914890588
 23
113.8745518115
 33
0.0
 14
61.7508312586
 24
117.3745518115
 34
0.0
100
AcDbRotatedDimension
  0
DIMENSION
  5
17E
330
1F
100
AcDbEntity
  8
0
  6
Continuous
 62
     7
370
    18
100
AcDbDimension
  2
_D_2
 10
61.7508312586
 20
126.1470268344
 30
0.0
 11
56.5362763371
 21
126.1470268344
 31
0.0
 70
   160
  1
<>
 71
     2
 42
-1.0
  3
SLDDIMSTYLE2
100
AcDbAlignedDimension
 13
63.7508312586
 23
117.3745518115
 33
0.0
 14
61.7508312586
 24
117.3745518115
 34
0.0
100
AcDbRotatedDimension
  0
DIMENSION
  5
18B
330
1F
100
AcDbEntity
  8
0
  6
Continuous
 62
     7
370
    18
100
AcDbDimension
  2
_D_3
 10
57.4660236397
 20
110.3745518115
 30
0.0
 11
57.4660236397
 21
104.7601453009
 31
0.0
 70
   160
  1
%%c<>
 71
     2
 42
-1.0
  3
SLDDIMSTYLE1
100
AcDbAlignedDimension
 13
61.7508312586
 23
117.3745518115
 33
0.0
 14
61.7508312586
 24
110.3745518115
 34
0.0
 50
90.0
100
AcDbRotatedDimension
  0
DIMENSION
  5
197
330
1F
100
AcDbEntity
  8
0
  6
Continuous
 62
     7
370
    18
100
AcDbDimension
  2
_D_4
 10
105.9664884897
 20
152.3015935466
 30
0.0
 11
83.8586598742
 21
152.3015935466
 31
0.0
 70
   160
  1
50
 71
     2
 42
-1.0
  3
SLDDIMSTYLE1
100
AcDbAlignedDimension
 13
61.7508312586
 23
117.3745518115
 33
0.0
 14
105.9664884897
 24
118.8745518115
 34
0.0
100
AcDbRotatedDimension
  0
DIMENSION
  5
1A1
330
1F
100
AcDbEntity
  8
0
  6
Continuous
 62
     7
370
    18
100
AcDbDimension
  2
_D_5
 10
145.9664884897
 20
152.3015935466
 30
0.0
 11
125.9664884897
 21
152.3015935466
 31
0.0
 70
   160
  1
<>
 71
     2
 42
-1.0
  3
SLDDIMSTYLE1
100
AcDbAlignedDimension
 13
105.9664884897
 23
118.8745518115
 33
0.0
 14
145.9664884897
 24
117.8745518115
 34
0.0
100
AcDbRotatedDimension
  0
DIMENSION
  5
1AB
330
1F
100
AcDbEntity
  8
0
  6
Continuous
 62
     7
370
    18
100
AcDbDimension
  2
_D_6
 10
141.3917441175
 20
117.8745518115
 30
0.0
 11
141.3917441175
 21
131.1446639717
 31
0.0
 70
   160
  1
%%c<>
 71
     2
 42
-1.0
  3
SLDDIMSTYLE1
100
AcDbAlignedDimension
 13
145.9664884897
 23
109.8745518115
 33
0.0
 14
145.9664884897
 24
117.8745518115
 34
0.0
 50
90.0
100
AcDbRotatedDimension
  0
DIMENSION
  5
1B6
330
1F
100
AcDbEntity
  8
0
  6
Continuous
 62
     7
370
    18
100
AcDbDimension
  2
_D_7
 10
36.2128147207
 20
111.3745518115
 30
0.0
 11
36.2128147207
 21
126.1470268344
 31
0.0
 70
   160
  1
%%c<>
 71
     2
 42
-1.0
  3
SLDDIMSTYLE2
100
AcDbAlignedDimension
 13
30.3348647317
 23
116.3745518115
 33
0.0
 14
30.3348647317
 24
111.3745518115
 34
0.0
 50
90.0
100
AcDbRotatedDimension
  0
DIMENSION
  5
1C1
330
1F
100
AcDbEntity
  8
0
  6
Continuous
 62
     7
370
    18
100
AcDbDimension
  2
_D_8
 10
105.9664884897
 20
131.1446639717
 30
0.0
 11
97.9664884897
 21
131.1446639717
 31
0.0
 70
   160
  1
(<>)
 71
     2
 42
-1.0
  3
SLDDIMSTYLE1
100
AcDbAlignedDimension
 13
89.9664884897
 23
120.8745518115
 33
0.0
 14
105.9664884897
 24
118.8745518115
 34
0.0
100
AcDbRotatedDimension
  0
DIMENSION
  5
1CD
330
1F
100
AcDbEntity
  8
0
  6
Continuous
 62
     7
370
    18
100
AcDbDimension
  2
_D_9
 10
81.2388387377
 20
120.8745518115
 30
0.0
 11
81.2388387377
 21
126.1470268344
 31
0.0
 70
   160
  1
%%c<>
 71
     2
 42
-1.0
  3
SLDDIMSTYLE1
100
AcDbAlignedDimension
 13
89.9664884897
 23
106.8745518115
 33
0.0
 14
89.9664884897
 24
120.8745518115
 34
0.0
 50
90.0
100
AcDbRotatedDimension
  0
DIMENSION
  5
1D9
330
1F
100
AcDbEntity
  8
0
  6
Continuous
 62
     7
370
    18
100
AcDbDimension
  2
_D_10
 10
262.022846827
 20
152.3015935466
 30
0.0
 11
203.9946676584
 21
152.3015935466
 31
0.0
 70
   160
  1
L=100～10000
 71
     2
 42
-1.0
  3
SLDDIMSTYLE1
100
AcDbAlignedDimension
 13
145.9664884897
 23
117.8745518115
 33
0.0
 14
262.022846827
 24
125.501706743
 34
0.0
100
AcDbRotatedDimension
  0
DIMENSION
  5
1E3
330
1F
100
AcDbEntity
  8
0
  6
Continuous
 62
     7
370
    18
100
AcDbDimension
  2
_D_11
 10
262.022846827
 20
134.3015935466
 30
0.0
 11
229.7033592738
 21
134.3015935466
 31
0.0
 70
   160
  1
(80)
 71
     2
 42
-1.0
  3
SLDDIMSTYLE1
100
AcDbAlignedDimension
 13
197.3838717207
 23
116.3745518115
 33
0.0
 14
262.022846827
 24
125.501706743
 34
0.0
100
AcDbRotatedDimension
  0
DIMENSION
  5
1EF
330
1F
100
AcDbEntity
  8
0
  6
Continuous
 62
     7
370
    18
100
AcDbDimension
  2
_D_12
 10
111.1664884897
 20
131.1446639717
 30
0.0
 11
108.5664884897
 21
131.1446639717
 31
0.0
 70
   160
  1
<>
 71
     2
 42
-1.0
  3
SLDDIMSTYLE3
100
AcDbAlignedDimension
 13
105.9664884897
 23
118.8745518115
 33
0.0
 14
111.1664884897
 24
117.8745518115
 34
0.0
100
AcDbRotatedDimension
  0
INSERT
  5
201
330
1F
100
AcDbEntity
  8
0
  6
Continuous
 62
     7
370
    18
100
AcDbBlockReference
  2
SW_NOTE_0
 10
22.3665207877
 20
87.2818502736
 30
0.0
  0
LEADER
  5
203
330
1F
100
AcDbEntity
  8
0
  6
Continuous
 62
     7
370
    18
100
AcDbLeader
  3
SLDDIMSTYLE4
 76
     2
 10
29.5277463415
 20
112.772521871
 30
0.0
 10
22.3665207877
 20
87.2818502736
 30
0.0
  0
INSERT
  5
209
330
1F
100
AcDbEntity
  8
0
  6
Continuous
 62
     7
370
    18
100
AcDbBlockReference
  2
SW_NOTE_0_1
 10
51.6881838074
 20
87.2818502736
 30
0.0
  0
LEADER
  5
20A
330
1F
100
AcDbEntity
  8
0
  6
Continuous
 62
     7
370
    18
100
AcDbLeader
  3
SLDDIMSTYLE4
 76
     2
 10
39.8968605367
 20
111.3745518115
 30
0.0
 10
51.6881838074
 20
87.2818502736
 30
0.0
  0
INSERT
  5
210
330
1F
100
AcDbEntity
  8
0
  6
Continuous
 62
     7
370
    18
100
AcDbBlockReference
  2
SW_NOTE_0_2
 10
102.8916849015
 20
87.391259464
 30
0.0
  0
LEADER
  5
211
330
1F
100
AcDbEntity
  8
0
  6
Continuous
 62
     7
370
    18
100
AcDbLeader
  3
SLDDIMSTYLE4
 76
     2
 10
94.2418243641
 20
106.8745518115
 30
0.0
 10
102.8916849015
 20
87.391259464
 30
0.0
  0
INSERT
  5
217
330
1F
100
AcDbEntity
  8
0
  6
Continuous
 62
     7
370
    18
100
AcDbBlockReference
  2
SW_NOTE_0_3
 10
113.0667396061
 20
97.7851325493
 30
0.0
  0
LEADER
  5
218
330
1F
100
AcDbEntity
  8
0
  6
Continuous
 62
     7
370
    18
100
AcDbLeader
  3
SLDDIMSTYLE4
 76
     2
 10
107.3929545764
 20
110.9295518115
 30
0.0
 10
113.0667396061
 20
97.7851325493
 30
0.0
  0
INSERT
  5
21E
330
1F
100
AcDbEntity
  8
0
  6
Continuous
 62
     7
370
    18
100
AcDbBlockReference
  2
SW_NOTE_0_4
 10
133.8544857768
 20
98.2227693108
 30
0.0
  0
LEADER
  5
21F
330
1F
100
AcDbEntity
  8
0
  6
Continuous
 62
     7
370
    18
100
AcDbLeader
  3
SLDDIMSTYLE4
 76
     2
 10
129.3173225387
 20
109.8868562584
 30
0.0
 10
133.8544857768
 20
98.2227693108
 30
0.0
  0
INSERT
  5
226
330
1F
100
AcDbEntity
  8
0
  6
Continuous
 62
     7
370
    18
100
AcDbBlockReference
  2
SW_NOTE_0_5
 10
156.5021881838
 20
87.3645758207
 30
0.0
  0
LEADER
  5
227
330
1F
100
AcDbEntity
  8
0
  6
Continuous
 62
     7
370
    18
100
AcDbLeader
  3
SLDDIMSTYLE4
 76
     2
 10
145.9664884897
 20
109.8745518115
 30
0.0
 10
156.5021881838
 20
87.3645758207
 30
0.0
  0
INSERT
  5
22D
330
1F
100
AcDbEntity
  8
0
  6
Continuous
 62
     7
370
    18
100
AcDbBlockReference
  2
SW_NOTE_0_6
 10
192.3884026258
 20
87.391259464
 30
0.0
  0
LEADER
  5
22E
330
1F
100
AcDbEntity
  8
0
  6
Continuous
 62
     7
370
    18
100
AcDbLeader
  3
SLDDIMSTYLE4
 76
     2
 10
179.643592388
 20
111.4745518115
 30
0.0
 10
192.3884026258
 20
87.391259464
 30
0.0
  0
INSERT
  5
234
330
1F
100
AcDbEntity
  8
0
  6
Continuous
 62
     7
370
    18
100
AcDbBlockReference
  2
SW_NOTE_0_7
 10
203.329321663
 20
98.2227693108
 30
0.0
  0
LEADER
  5
235
330
1F
100
AcDbEntity
  8
0
  6
Continuous
 62
     7
370
    18
100
AcDbLeader
  3
SLDDIMSTYLE4
 76
     2
 10
195.6127324622
 20
111.3745518115
 30
0.0
 10
203.329321663
 20
98.2227693108
 30
0.0
  0
INSERT
  5
23B
330
1F
100
AcDbEntity
  8
0
  6
Continuous
 62
     7
370
    18
100
AcDbBlockReference
  2
SW_NOTE_0_8
 10
253.4675855813
 20
87.391259464
 30
0.0
  0
LEADER
  5
23C
330
1F
100
AcDbEntity
  8
0
  6
Continuous
 62
     7
370
    18
100
AcDbLeader
  3
SLDDIMSTYLE4
 76
     2
 10
258.3347595982
 20
103.4475100764
 30
0.0
 10
253.4675855813
 20
87.391259464
 30
0.0
  0
MTEXT
  5
23D
330
1F
100
AcDbEntity
  8
0
  6
Continuous
 62
     7
370
    18
100
AcDbMText
 10
23.8358717763
 20
86.070927483
 30
0.0
 40
2.6458333333
 41
0.0
 71
     1
 72
     1
  1
(ｱﾙｺﾞﾝ溶接)
  7
SLDTEXTSTYLE1
 73
     1
 44
1.0
  0
MTEXT
  5
23E
330
1F
100
AcDbEntity
  8
0
  6
Continuous
 62
     7
370
    18
100
AcDbMText
 10
51.5322560611
 20
86.070927483
 30
0.0
 40
2.6458333333
 41
0.0
 71
     1
 72
     1
  1
(SUS304)
  7
SLDTEXTSTYLE0
 73
     1
 44
1.0
  0
MTEXT
  5
23F
330
1F
100
AcDbEntity
  8
0
  6
Continuous
 62
     7
370
    18
100
AcDbMText
 10
72.4011705953
 20
97.21181812
 30
0.0
 40
2.6458333333
 41
0.0
 71
     1
 72
     1
  1
(SUS304)
  7
SLDTEXTSTYLE0
 73
     1
 44
1.0
  0
MTEXT
  5
240
330
1F
100
AcDbEntity
  8
0
  6
Continuous
 62
     7
370
    18
100
AcDbMText
 10
106.9235070837
 20
86.070927483
 30
0.0
 40
2.6458333333
 41
0.0
 71
     1
 72
     1
  1
(SUS304)
  7
SLDTEXTSTYLE0
 73
     1
 44
1.0
  0
MTEXT
  5
241
330
1F
100
AcDbEntity
  8
0
  6
Continuous
 62
     7
370
    18
100
AcDbMText
 10
156.7029546096
 20
86.070927483
 30
0.0
 40
2.6458333333
 41
0.0
 71
     1
 72
     1
  1
(耐熱温度120℃)
  7
SLDTEXTSTYLE1
 73
     1
 44
1.0
  0
MTEXT
  5
242
330
1F
100
AcDbEntity
  8
0
  6
Continuous
 62
     7
370
    18
100
AcDbMText
 10
191.8931005681
 20
86.070927483
 30
0.0
 40
2.6458333333
 41
0.0
 71
     1
 72
     1
  1
(補償導線)
  7
SLDTEXTSTYLE1
 73
     1
 44
1.0
  0
MTEXT
  5
243
330
1F
100
AcDbEntity
  8
0
  6
Continuous
 62
     7
370
    18
100
AcDbMText
 10
269.2647092431
 20
123.2139839424
 30
0.0
 40
2.6458333333
 41
0.0
 71
     1
 72
     1
  1
赤（+）
  7
SLDTEXTSTYLE1
 73
     1
 44
1.0
  0
MTEXT
  5
244
330
1F
100
AcDbEntity
  8
0
  6
Continuous
 62
     7
370
    18
100
AcDbMText
 10
269.2647092431
 20
107.8715523409
 30
0.0
 40
2.6458333333
 41
0.0
 71
     1
 72
     1
  1
黒（-）
  7
SLDTEXTSTYLE1
 73
     1
 44
1.0
  0
INSERT
  5
24A
330
1F
100
AcDbEntity
  8
0
  6
Continuous
 62
     7
370
    18
100
AcDbBlockReference
  2
SW_NOTE_0_9
 10
72.147702407
 20
98.2227693108
 30
0.0
  0
LEADER
  5
24B
330
1F
100
AcDbEntity
  8
0
  6
Continuous
 62
     7
370
    18
100
AcDbLeader
  3
SLDDIMSTYLE4
 76
     2
 10
66.9840119295
 20
110.8759745278
 30
0.0
 10
72.147702407
 20
98.2227693108
 30
0.0
  0
INSERT
  5
257
330
1F
100
AcDbEntity
  8
0
  6
Continuous
 62
     7
370
    18
100
AcDbBlockReference
  2
SW_CENTERMARKSYMBOL_0
 10
262.0228459398
 20
121.4015935261
 30
0.0
  0
INSERT
  5
263
330
1F
100
AcDbEntity
  8
0
  6
Continuous
 62
     7
370
    18
100
AcDbBlockReference
  2
SW_CENTERMARKSYMBOL_1
 10
262.0228459398
 20
106.3475100969
 30
0.0
  0
ARC
  5
264
330
1F
100
AcDbEntity
  8
0
  6
HIDDEN
 62
     7
370
    18
100
AcDbCircle
 10
49.4425884785
 20
116.7120518115
 30
0.0
 40
7.377499999999984
100
AcDbArc
 50
157.380135052
 51
202.619864948
  0
ARC
  5
265
330
1F
100
AcDbEntity
  8
0
  6
HIDDEN
 62
     7
370
    18
100
AcDbCircle
 10
35.8225884785
 20
111.0370518115
 30
0.0
 40
7.377499999999984
100
AcDbArc
 50
337.380135052
 51
22.619864948
  0
ARC
  5
266
330
1F
100
AcDbEntity
  8
0
  6
HIDDEN
 62
     7
370
    18
100
AcDbCircle
 10
52.4425884785
 20
116.7120518115
 30
0.0
 40
7.377499999999991
100
AcDbArc
 50
157.380135052
 51
202.619864948
  0
ARC
  5
267
330
1F
100
AcDbEntity
  8
0
  6
HIDDEN
 62
     7
370
    18
100
AcDbCircle
 10
38.8225884785
 20
111.0370518115
 30
0.0
 40
7.377499999999984
100
AcDbArc
 50
337.380135052
 51
22.619864948
  0
ARC
  5
268
330
1F
100
AcDbEntity
  8
0
  6
HIDDEN
 62
     7
370
    18
100
AcDbCircle
 10
79.0809099657
 20
116.5688438899
 30
0.0
 40
7.749840596130547
100
AcDbArc
 50
157.380135052
 51
202.619864948
  0
ARC
  5
269
330
1F
100
AcDbEntity
  8
0
  6
HIDDEN
 62
     7
370
    18
100
AcDbCircle
 10
64.7735119421
 20
110.6074280467
 30
0.0
 40
7.749840596130548
100
AcDbArc
 50
337.380135052
 51
22.619864948
  0
ARC
  5
26A
330
1F
100
AcDbEntity
  8
0
  6
HIDDEN
 62
     7
370
    18
100
AcDbCircle
 10
81.756093573
 20
116.7356550853
 30
0.0
 40
7.397956170632547
100
AcDbArc
 50
157.380135052
 51
202.619864948
  0
ARC
  5
26B
330
1F
100
AcDbEntity
  8
0
  6
HIDDEN
 62
     7
370
    18
100
AcDbCircle
 10
68.0983283349
 20
111.0449195694
 30
0.0
 40
7.397956170632566
100
AcDbArc
 50
337.380135052
 51
22.619864948
  0
ARC
  5
26C
330
1F
100
AcDbEntity
  8
0
  6
HIDDEN
 62
     7
370
    18
100
AcDbCircle
 10
169.3377621075
 20
116.6620518115
 30
0.0
 40
7.247499999999996
100
AcDbArc
 50
157.380135052
 51
202.619864948
  0
ARC
  5
26D
330
1F
100
AcDbEntity
  8
0
  6
HIDDEN
 62
     7
370
    18
100
AcDbCircle
 10
155.9577621075
 20
111.0870518115
 30
0.0
 40
7.247500000000001
100
AcDbArc
 50
337.380135052
 51
22.619864948
  0
ARC
  5
26E
330
1F
100
AcDbEntity
  8
0
  6
HIDDEN
 62
     7
370
    18
100
AcDbCircle
 10
172.3377621075
 20
116.6620518115
 30
0.0
 40
7.247499999999996
100
AcDbArc
 50
157.380135052
 51
202.619864948
  0
ARC
  5
26F
330
1F
100
AcDbEntity
  8
0
  6
HIDDEN
 62
     7
370
    18
100
AcDbCircle
 10
158.9577621075
 20
111.0870518115
 30
0.0
 40
7.247500000000001
100
AcDbArc
 50
337.380135052
 51
22.619864948
  0
ARC
  5
270
330
1F
100
AcDbEntity
  8
0
  6
HIDDEN
 62
     7
370
    18
100
AcDbCircle
 10
237.334094169
 20
117.4683469054
 30
0.0
 40
9.343867244050223
100
AcDbArc
 50
157.380135052
 51
202.619864948
  0
ARC
  5
271
330
1F
100
AcDbEntity
  8
0
  6
HIDDEN
 62
     7
370
    18
100
AcDbCircle
 10
220.0838777184
 20
110.2807567176
 30
0.0
 40
9.343867244050223
100
AcDbArc
 50
337.380135052
 51
22.619864948
  0
ARC
  5
272
330
1F
100
AcDbEntity
  8
0
  6
HIDDEN
 62
     7
370
    18
100
AcDbCircle
 10
242.4661535421
 20
118.3567049775
 30
0.0
 40
11.65359823164613
100
AcDbArc
 50
157.380135052
 51
202.619864948
  0
ARC
  5
273
330
1F
100
AcDbEntity
  8
0
  6
HIDDEN
 62
     7
370
    18
100
AcDbCircle
 10
220.9518183452
 20
109.3923986455
 30
0.0
 40
11.65359823164613
100
AcDbArc
 50
337.380135052
 51
22.619864948
  0
LINE
  5
274
330
1F
100
AcDbEntity
  8
0
  6
CENTERX2
 62
     7
370
    18
100
AcDbLine
 10
25.6449429523
 20
113.8745518115
 30
0.0
 11
42.6325945388
 21
113.8745518115
 31
0.0
  0
LINE
  5
275
330
1F
100
AcDbEntity
  8
0
  6
CENTERX2
 62
     7
370
    18
100
AcDbLine
 10
45.6325950317
 20
113.8745518115
 30
0.0
 11
71.8144865923
 21
113.8745518115
 31
0.0
  0
LINE
  5
276
330
1F
100
AcDbEntity
  8
0
  6
CENTERX2
 62
     7
370
    18
100
AcDbLine
 10
74.9337515495
 20
113.8745518115
 30
0.0
 11
162.6477605365
 21
113.8745518115
 31
0.0
  0
LINE
  5
277
330
1F
100
AcDbEntity
  8
0
  6
CENTERX2
 62
     7
370
    18
100
AcDbLine
 10
165.6477627192
 20
113.8745518115
 30
0.0
 11
228.7089926038
 21
113.8745518115
 31
0.0
  0
LINE
  5
278
330
1F
100
AcDbEntity
  8
0
  6
CENTERX2
 62
     7
370
    18
100
AcDbLine
 10
231.7089815894
 20
113.8745518115
 30
0.0
 11
269.1221912662
 21
113.8745518115
 31
0.0
  0
ENDSEC
  0
SECTION
  2
OBJECTS
  0
DICTIONARY
  5
C
330
0
100
AcDbDictionary
281
     1
  3
ACAD_GROUP
350
D
  3
ACAD_LAYOUT
350
1A
  3
ACAD_MLINESTYLE
350
17
  3
ACAD_PLOTSETTINGS
350
19
  3
ACAD_PLOTSTYLENAME
350
E
  3
ACAD_SCALELIST
350
47
  3
DWGPROPS
350
279
  0
DICTIONARY
  5
D
102
{ACAD_REACTORS
330
C
102
}
330
C
100
AcDbDictionary
281
     1
  0
DICTIONARY
  5
1A
102
{ACAD_REACTORS
330
C
102
}
330
C
100
AcDbDictionary
281
     1
  3
Layout1
350
1E
  3
Layout2
350
26
  3
Model
350
22
  0
DICTIONARY
  5
17
102
{ACAD_REACTORS
330
C
102
}
330
C
100
AcDbDictionary
281
     1
  3
Standard
350
18
  0
DICTIONARY
  5
19
102
{ACAD_REACTORS
330
C
102
}
330
C
100
AcDbDictionary
281
     1
  0
ACDBDICTIONARYWDFLT
  5
E
102
{ACAD_REACTORS
330
C
102
}
330
C
100
AcDbDictionary
281
     1
  3
Normal
350
F
100
AcDbDictionaryWithDefault
340
F
  0
DICTIONARY
  5
47
102
{ACAD_REACTORS
330
C
102
}
330
C
100
AcDbDictionary
281
     1
  3
A0
350
48
  3
A1
350
49
  3
A2
350
4A
  3
A3
350
4B
  3
A4
350
4C
  3
A5
350
4D
  3
A6
350
4E
  3
A7
350
4F
  3
A8
350
50
  3
A9
350
51
  3
B0
350
52
  3
B1
350
53
  3
B2
350
54
  3
B3
350
55
  3
B4
350
56
  3
B5
350
57
  3
B6
350
58
  3
B7
350
59
  3
B8
350
5A
  3
B9
350
5B
  3
C0
350
5C
  3
C1
350
5D
  3
C2
350
5E
  3
C3
350
5F
  3
C4
350
60
  3
C5
350
61
  3
C6
350
62
  3
C7
350
63
  3
C8
350
64
  3
C9
350
65
  3
D0
350
66
  3
D1
350
67
  3
D2
350
68
  0
XRECORD
  5
279
102
{ACAD_REACTORS
330
C
102
}
330
C
100
AcDbXrecord
280
     1
  1
DWGPROPS COOKIE
  2

  3

  4

  6

  7

  8
p870382
  9

300
=
301
=
302
=
303
=
304
=
305
=
306
=
307
=
308
=
309
=
 40
0.0
 41
2460791.201993808
 42
2460791.20199706
  1

 90
        0
  0
LAYOUT
  5
1E
102
{ACAD_REACTORS
330
1A
102
}
330
1A
100
AcDbPlotSettings
  1

  2
none_device
  4

  6

 40
0.0
 41
0.0
 42
0.0
 43
0.0
 44
0.0
 45
0.0
 46
0.0
 47
0.0
 48
0.0
 49
0.0
140
0.0
141
0.0
142
1.0
143
1.0
 70
   688
 72
     1
 73
     0
 74
     5
  7

 75
    16
147
1.0
148
0.0
149
0.0
100
AcDbLayout
  1
Layout1
 70
     1
 71
     1
 10
0.0
 20
0.0
 11
420.0
 21
297.0
 12
0.0
 22
0.0
 32
0.0
 14
1.0000000000E+20
 24
1.0000000000E+20
 34
1.0000000000E+20
 15
-1.0000000000E+20
 25
-1.0000000000E+20
 35
-1.0000000000E+20
146
0.0
 13
0.0
 23
0.0
 33
0.0
 16
1.0
 26
0.0
 36
0.0
 17
0.0
 27
1.0
 37
0.0
 76
     0
330
1B
  0
LAYOUT
  5
26
102
{ACAD_REACTORS
330
1A
102
}
330
1A
100
AcDbPlotSettings
  1

  2
none_device
  4

  6

 40
0.0
 41
0.0
 42
0.0
 43
0.0
 44
0.0
 45
0.0
 46
0.0
 47
0.0
 48
0.0
 49
0.0
140
0.0
141
0.0
142
1.0
143
1.0
 70
   688
 72
     1
 73
     0
 74
     5
  7

 75
    16
147
1.0
148
0.0
149
0.0
100
AcDbLayout
  1
Layout2
 70
     1
 71
     2
 10
0.0
 20
0.0
 11
0.0
 21
0.0
 12
0.0
 22
0.0
 32
0.0
 14
0.0
 24
0.0
 34
0.0
 15
0.0
 25
0.0
 35
0.0
146
0.0
 13
0.0
 23
0.0
 33
0.0
 16
1.0
 26
0.0
 36
0.0
 17
0.0
 27
1.0
 37
0.0
 76
     0
330
23
  0
LAYOUT
  5
22
102
{ACAD_REACTORS
330
1A
102
}
330
1A
100
AcDbPlotSettings
  1

  2
none_device
  4
Letter_(8.50_x_11.00_Inches)
  6

 40
6.35
 41
6.35
 42
6.35000508
 43
6.35000508
 44
215.9
 45
279.4
 46
0.0
 47
0.0
 48
0.0
 49
0.0
140
0.0
141
0.0
142
1.0
143
1.0
 70
  1712
 72
     1
 73
     0
 74
     0
  7

 75
     0
147
1.0
148
0.0
149
0.0
100
AcDbLayout
  1
Model
 70
     1
 71
     0
 10
0.0
 20
0.0
 11
297.0
 21
210.0
 12
0.0
 22
0.0
 32
0.0
 14
0.0
 24
0.0
 34
0.0
 15
297.0
 25
210.0
 35
0.0
146
0.0
 13
0.0
 23
0.0
 33
0.0
 16
1.0
 26
0.0
 36
0.0
 17
0.0
 27
1.0
 37
0.0
 76
     0
330
1F
331
29
  0
MLINESTYLE
  5
18
102
{ACAD_REACTORS
330
17
102
}
330
17
100
AcDbMlineStyle
  2
Standard
 70
     0
  3

 62
   256
 51
90.0
 52
90.0
 71
     2
 49
0.5
 62
   256
  6
BYLAYER
 49
-0.5
 62
   256
  6
BYLAYER
  0
ACDBPLACEHOLDER
  5
F
102
{ACAD_REACTORS
330
E
102
}
330
E
  0
SCALE
  5
48
102
{ACAD_REACTORS
330
47
102
}
330
47
100
AcDbScale
 70
     0
300
1:1
140
1.0
141
1.0
290
     1
  0
SCALE
  5
49
102
{ACAD_REACTORS
330
47
102
}
330
47
100
AcDbScale
 70
     0
300
1:2
140
1.0
141
2.0
290
     0
  0
SCALE
  5
4A
102
{ACAD_REACTORS
330
47
102
}
330
47
100
AcDbScale
 70
     0
300
1:4
140
1.0
141
4.0
290
     0
  0
SCALE
  5
4B
102
{ACAD_REACTORS
330
47
102
}
330
47
100
AcDbScale
 70
     0
300
1:5
140
1.0
141
5.0
290
     0
  0
SCALE
  5
4C
102
{ACAD_REACTORS
330
47
102
}
330
47
100
AcDbScale
 70
     0
300
1:8
140
1.0
141
8.0
290
     0
  0
SCALE
  5
4D
102
{ACAD_REACTORS
330
47
102
}
330
47
100
AcDbScale
 70
     0
300
1:10
140
1.0
141
10.0
290
     0
  0
SCALE
  5
4E
102
{ACAD_REACTORS
330
47
102
}
330
47
100
AcDbScale
 70
     0
300
1:16
140
1.0
141
16.0
290
     0
  0
SCALE
  5
4F
102
{ACAD_REACTORS
330
47
102
}
330
47
100
AcDbScale
 70
     0
300
1:20
140
1.0
141
20.0
290
     0
  0
SCALE
  5
50
102
{ACAD_REACTORS
330
47
102
}
330
47
100
AcDbScale
 70
     0
300
1:30
140
1.0
141
30.0
290
     0
  0
SCALE
  5
51
102
{ACAD_REACTORS
330
47
102
}
330
47
100
AcDbScale
 70
     0
300
1:40
140
1.0
141
40.0
290
     0
  0
SCALE
  5
52
102
{ACAD_REACTORS
330
47
102
}
330
47
100
AcDbScale
 70
     0
300
1:50
140
1.0
141
50.0
290
     0
  0
SCALE
  5
53
102
{ACAD_REACTORS
330
47
102
}
330
47
100
AcDbScale
 70
     0
300
1:100
140
1.0
141
100.0
290
     0
  0
SCALE
  5
54
102
{ACAD_REACTORS
330
47
102
}
330
47
100
AcDbScale
 70
     0
300
2:1
140
2.0
141
1.0
290
     0
  0
SCALE
  5
55
102
{ACAD_REACTORS
330
47
102
}
330
47
100
AcDbScale
 70
     0
300
4:1
140
4.0
141
1.0
290
     0
  0
SCALE
  5
56
102
{ACAD_REACTORS
330
47
102
}
330
47
100
AcDbScale
 70
     0
300
8:1
140
8.0
141
1.0
290
     0
  0
SCALE
  5
57
102
{ACAD_REACTORS
330
47
102
}
330
47
100
AcDbScale
 70
     0
300
10:1
140
10.0
141
1.0
290
     0
  0
SCALE
  5
58
102
{ACAD_REACTORS
330
47
102
}
330
47
100
AcDbScale
 70
     0
300
100:1
140
100.0
141
1.0
290
     0
  0
SCALE
  5
59
102
{ACAD_REACTORS
330
47
102
}
330
47
100
AcDbScale
 70
     0
300
1/128" = 1'-0"
140
0.0078125
141
12.0
290
     0
  0
SCALE
  5
5A
102
{ACAD_REACTORS
330
47
102
}
330
47
100
AcDbScale
 70
     0
300
1/64" = 1'-0"
140
0.015625
141
12.0
290
     0
  0
SCALE
  5
5B
102
{ACAD_REACTORS
330
47
102
}
330
47
100
AcDbScale
 70
     0
300
1/32" = 1'-0"
140
0.03125
141
12.0
290
     0
  0
SCALE
  5
5C
102
{ACAD_REACTORS
330
47
102
}
330
47
100
AcDbScale
 70
     0
300
1/16" = 1'-0"
140
0.0625
141
12.0
290
     0
  0
SCALE
  5
5D
102
{ACAD_REACTORS
330
47
102
}
330
47
100
AcDbScale
 70
     0
300
3/32" = 1'-0"
140
0.09375
141
12.0
290
     0
  0
SCALE
  5
5E
102
{ACAD_REACTORS
330
47
102
}
330
47
100
AcDbScale
 70
     0
300
1/8" = 1'-0"
140
0.125
141
12.0
290
     0
  0
SCALE
  5
5F
102
{ACAD_REACTORS
330
47
102
}
330
47
100
AcDbScale
 70
     0
300
3/16" = 1'-0"
140
0.1875
141
12.0
290
     0
  0
SCALE
  5
60
102
{ACAD_REACTORS
330
47
102
}
330
47
100
AcDbScale
 70
     0
300
1/4" = 1'-0"
140
0.25
141
12.0
290
     0
  0
SCALE
  5
61
102
{ACAD_REACTORS
330
47
102
}
330
47
100
AcDbScale
 70
     0
300
3/8" = 1'-0"
140
0.375
141
12.0
290
     0
  0
SCALE
  5
62
102
{ACAD_REACTORS
330
47
102
}
330
47
100
AcDbScale
 70
     0
300
1/2" = 1'-0"
140
0.5
141
12.0
290
     0
  0
SCALE
  5
63
102
{ACAD_REACTORS
330
47
102
}
330
47
100
AcDbScale
 70
     0
300
3/4" = 1'-0"
140
0.75
141
12.0
290
     0
  0
SCALE
  5
64
102
{ACAD_REACTORS
330
47
102
}
330
47
100
AcDbScale
 70
     0
300
1" = 1'-0"
140
1.0
141
12.0
290
     0
  0
SCALE
  5
65
102
{ACAD_REACTORS
330
47
102
}
330
47
100
AcDbScale
 70
     0
300
1-1/2" = 1'-0"
140
1.5
141
12.0
290
     0
  0
SCALE
  5
66
102
{ACAD_REACTORS
330
47
102
}
330
47
100
AcDbScale
 70
     0
300
3" = 1'-0"
140
3.0
141
12.0
290
     0
  0
SCALE
  5
67
102
{ACAD_REACTORS
330
47
102
}
330
47
100
AcDbScale
 70
     0
300
6" = 1'-0"
140
6.0
141
12.0
290
     0
  0
SCALE
  5
68
102
{ACAD_REACTORS
330
47
102
}
330
47
100
AcDbScale
 70
     0
300
1'-0" = 1'-0"
140
12.0
141
12.0
290
     0
  0
ENDSEC
  0
EOF
