  0
SECTION
  2
HEADER
  9
$ACADVER
  1
AC1015
  9
$ACADMAINTVER
 70
     6
  9
$DWGCODEPAGE
  3
DOS932
  9
$INSBASE
 10
0.0
 20
0.0
 30
0.0
  9
$EXTMIN
 10
0.0
 20
0.0
 30
0.0
  9
$EXTMAX
 10
297.0
 20
210.0
 30
0.0
  9
$LIMMIN
 10
0.0
 20
0.0
  9
$LIMMAX
 10
297.0
 20
210.0
  9
$ORTHOMODE
 70
     0
  9
$REGENMODE
 70
     1
  9
$FILLMODE
 70
     1
  9
$QTEXTMODE
 70
     0
  9
$MIRRTEXT
 70
     1
  9
$LTSCALE
 40
1.0
  9
$ATTMODE
 70
     1
  9
$TEXTSIZE
 40
3.5277777778
  9
$TRACEWID
 40
1.0
  9
$TEXTSTYLE
  7
STANDARD
  9
$CLAYER
  8
0
  9
$CELTYPE
  6
ByLayer
  9
$CECOLOR
 62
   256
  9
$CELTSCALE
 40
1.0
  9
$DISPSILH
 70
     0
  9
$DIMSCALE
 40
1.0
  9
$DIMASZ
 40
3.0
  9
$DIMEXO
 40
1.0
  9
$DIMDLI
 40
3.75
  9
$DIMRND
 40
0.0
  9
$DIMDLE
 40
0.0
  9
$DIMEXE
 40
1.0
  9
$DIMTP
 40
0.0
  9
$DIMTM
 40
0.0
  9
$DIMTXT
 40
3.5277777778
  9
$DIMCEN
 40
2.5
  9
$DIMTSZ
 40
0.0
  9
$DIMTOL
 70
     0
  9
$DIMLIM
 70
     0
  9
$DIMTIH
 70
     1
  9
$DIMTOH
 70
     1
  9
$DIMSE1
 70
     0
  9
$DIMSE2
 70
     0
  9
$DIMTAD
 70
     1
  9
$DIMZIN
 70
     0
  9
$DIMBLK
  1

  9
$DIMASO
 70
     1
  9
$DIMSHO
 70
     1
  9
$DIMPOST
  1

  9
$DIMAPOST
  1

  9
$DIMALT
 70
     0
  9
$DIMALTD
 70
     3
  9
$DIMALTF
 40
0.0393700787
  9
$DIMLFAC
 40
5.0
  9
$DIMTOFL
 70
     1
  9
$DIMTVP
 40
0.0
  9
$DIMTIX
 70
     0
  9
$DIMSOXD
 70
     0
  9
$DIMSAH
 70
     0
  9
$DIMBLK1
  1

  9
$DIMBLK2
  1

  9
$DIMSTYLE
  2
ISO-25
  9
$DIMCLRD
 70
     0
  9
$DIMCLRE
 70
     0
  9
$DIMCLRT
 70
     0
  9
$DIMTFAC
 40
1.0
  9
$DIMGAP
 40
1.524
  9
$DIMJUST
 70
     0
  9
$DIMSD1
 70
     0
  9
$DIMSD2
 70
     0
  9
$DIMTOLJ
 70
     0
  9
$DIMTZIN
 70
     0
  9
$DIMALTZ
 70
     0
  9
$DIMALTTZ
 70
     0
  9
$DIMUPT
 70
     0
  9
$DIMDEC
 70
     2
  9
$DIMTDEC
 70
     2
  9
$DIMALTU
 70
     2
  9
$DIMALTTD
 70
     3
  9
$DIMTXSTY
  7
STANDARD
  9
$DIMAUNIT
 70
     0
  9
$DIMADEC
 70
     2
  9
$DIMALTRND
 40
0.0
  9
$DIMAZIN
 70
     0
  9
$DIMDSEP
 70
    44
  9
$DIMATFIT
 70
     3
  9
$DIMFRAC
 70
     0
  9
$DIMLDRBLK
  1

  9
$DIMLUNIT
 70
     2
  9
$DIMLWD
 70
    -2
  9
$DIMLWE
 70
    -2
  9
$DIMTMOVE
 70
     0
  9
$LUNITS
 70
     2
  9
$LUPREC
 70
     2
  9
$SKETCHINC
 40
1.0
  9
$FILLETRAD
 40
10.0
  9
$AUNITS
 70
     0
  9
$AUPREC
 70
     2
  9
$MENU
  1
.
  9
$ELEVATION
 40
0.0
  9
$PELEVATION
 40
0.0
  9
$THICKNESS
 40
0.0
  9
$LIMCHECK
 70
     0
  9
$CHAMFERA
 40
0.0
  9
$CHAMFERB
 40
0.0
  9
$CHAMFERC
 40
0.0
  9
$CHAMFERD
 40
0.0
  9
$SKPOLY
 70
     0
  9
$TDCREATE
 40
2460791.673333669
  9
$TDUCREATE
 40
2460791.298333669
  9
$TDUPDATE
 40
2460791.673337836
  9
$TDUUPDATE
 40
2460791.298337836
  9
$TDINDWG
 40
0.0000000116
  9
$TDUSRTIMER
 40
0.0000000116
  9
$USRTIMER
 70
     1
  9
$ANGBASE
 50
0.0
  9
$ANGDIR
 70
     0
  9
$PDMODE
 70
     0
  9
$PDSIZE
 40
-1.0
  9
$PLINEWID
 40
0.0
  9
$SPLFRAME
 70
     0
  9
$SPLINETYPE
 70
     6
  9
$SPLINESEGS
 70
     8
  9
$HANDSEED
  5
311
  9
$SURFTAB1
 70
     6
  9
$SURFTAB2
 70
     6
  9
$SURFTYPE
 70
     6
  9
$SURFU
 70
     6
  9
$SURFV
 70
     6
  9
$UCSBASE
  2

  9
$UCSNAME
  2

  9
$UCSORG
 10
0.0
 20
0.0
 30
0.0
  9
$UCSXDIR
 10
1.0
 20
0.0
 30
0.0
  9
$UCSYDIR
 10
0.0
 20
1.0
 30
0.0
  9
$UCSORTHOREF
  2

  9
$UCSORTHOVIEW
 70
     0
  9
$UCSORGTOP
 10
0.0
 20
0.0
 30
0.0
  9
$UCSORGBOTTOM
 10
0.0
 20
0.0
 30
0.0
  9
$UCSORGLEFT
 10
0.0
 20
0.0
 30
0.0
  9
$UCSORGRIGHT
 10
0.0
 20
0.0
 30
0.0
  9
$UCSORGFRONT
 10
0.0
 20
0.0
 30
0.0
  9
$UCSORGBACK
 10
0.0
 20
0.0
 30
0.0
  9
$PUCSBASE
  2

  9
$PUCSNAME
  2

  9
$PUCSORG
 10
0.0
 20
0.0
 30
0.0
  9
$PUCSXDIR
 10
1.0
 20
0.0
 30
0.0
  9
$PUCSYDIR
 10
0.0
 20
1.0
 30
0.0
  9
$PUCSORTHOREF
  2

  9
$PUCSORTHOVIEW
 70
     0
  9
$PUCSORGTOP
 10
0.0
 20
0.0
 30
0.0
  9
$PUCSORGBOTTOM
 10
0.0
 20
0.0
 30
0.0
  9
$PUCSORGLEFT
 10
0.0
 20
0.0
 30
0.0
  9
$PUCSORGRIGHT
 10
0.0
 20
0.0
 30
0.0
  9
$PUCSORGFRONT
 10
0.0
 20
0.0
 30
0.0
  9
$PUCSORGBACK
 10
0.0
 20
0.0
 30
0.0
  9
$USERI1
 70
     0
  9
$USERI2
 70
     0
  9
$USERI3
 70
     0
  9
$USERI4
 70
     0
  9
$USERI5
 70
     0
  9
$USERR1
 40
0.0
  9
$USERR2
 40
0.0
  9
$USERR3
 40
0.0
  9
$USERR4
 40
0.0
  9
$USERR5
 40
0.0
  9
$WORLDVIEW
 70
     1
  9
$SHADEDGE
 70
     3
  9
$SHADEDIF
 70
    70
  9
$TILEMODE
 70
     1
  9
$MAXACTVP
 70
    64
  9
$PINSBASE
 10
0.0
 20
0.0
 30
0.0
  9
$PLIMCHECK
 70
     0
  9
$PEXTMIN
 10
1.0000000000E+20
 20
1.0000000000E+20
 30
1.0000000000E+20
  9
$PEXTMAX
 10
-1.0000000000E+20
 20
-1.0000000000E+20
 30
-1.0000000000E+20
  9
$PLIMMIN
 10
0.0
 20
0.0
  9
$PLIMMAX
 10
420.0
 20
297.0
  9
$UNITMODE
 70
     0
  9
$VISRETAIN
 70
     1
  9
$PLINEGEN
 70
     0
  9
$PSLTSCALE
 70
     1
  9
$TREEDEPTH
 70
  3020
  9
$CMLSTYLE
  2
Standard
  9
$CMLJUST
 70
     0
  9
$CMLSCALE
 40
20.0
  9
$PROXYGRAPHICS
 70
     1
  9
$MEASUREMENT
 70
     1
  9
$CELWEIGHT
370
    -1
  9
$ENDCAPS
280
     0
  9
$JOINSTYLE
280
     0
  9
$LWDISPLAY
290
     1
  9
$INSUNITS
 70
     4
  9
$HYPERLINKBASE
  1

  9
$STYLESHEET
  1

  9
$XEDIT
290
     1
  9
$CEPSNTYPE
380
     0
  9
$PSTYLEMODE
290
     1
  9
$FINGERPRINTGUID
  2
{325b4cd9-afd6-41f4-9628-a1eb0ef5b3ae}
  9
$VERSIONGUID
  2
{FAEB1C32-E019-11D5-929B-00C0DF256EC4}
  9
$EXTNAMES
290
     1
  9
$PSVPSCALE
 40
0.0
  9
$OLESTARTUP
290
     0
  0
ENDSEC
  0
SECTION
  2
CLASSES
  0
CLASS
  1
ACDBDICTIONARYWDFLT
  2
AcDbDictionaryWithDefault
  3
ObjectDBX Classes
 90
        0
280
     0
281
     0
  0
CLASS
  1
VISUALSTYLE
  2
AcDbVisualStyle
  3
ObjectDBX Classes
 90
     4095
280
     0
281
     0
  0
CLASS
  1
MATERIAL
  2
AcDbMaterial
  3
ObjectDBX Classes
 90
     1153
280
     0
281
     0
  0
CLASS
  1
SCALE
  2
AcDbScale
  3
ObjectDBX Classes
 90
     1153
280
     0
281
     0
  0
CLASS
  1
TABLESTYLE
  2
AcDbTableStyle
  3
ObjectDBX Classes
 90
     4095
280
     0
281
     0
  0
CLASS
  1
MLEADERSTYLE
  2
AcDbMLeaderStyle
  3
ACDB_MLEADERSTYLE_CLASS
 90
     4095
280
     0
281
     0
  0
CLASS
  1
SUN
  2
AcDbSun
  3
SCENEOE
 90
     1153
280
     0
281
     0
  0
CLASS
  1
ACDBPLACEHOLDER
  2
AcDbPlaceHolder
  3
ObjectDBX Classes
 90
        0
280
     0
281
     0
  0
CLASS
  1
LAYOUT
  2
AcDbLayout
  3
ObjectDBX Classes
 90
        0
280
     0
281
     0
  0
ENDSEC
  0
SECTION
  2
TABLES
  0
TABLE
  2
VPORT
  5
8
330
0
100
AcDbSymbolTable
 70
     1
  0
VPORT
  5
29
330
8
100
AcDbSymbolTableRecord
100
AcDbViewportTableRecord
  2
*Active
 70
     0
 10
0.0
 20
0.0
 11
1.0
 21
1.0
 12
148.5
 22
105.0
 13
0.0
 23
0.0
 14
10.0
 24
10.0
 15
10.0
 25
10.0
 16
0.0
 26
0.0
 36
1.0
 17
0.0
 27
0.0
 37
0.0
 40
210.0
 41
1.4142857143
 42
50.0
 43
0.0
 44
0.0
 50
0.0
 51
0.0
 71
     0
 72
  2000
 73
     1
 74
     3
 75
     0
 76
     0
 77
     0
 78
     0
281
     0
 65
     1
110
0.0
120
0.0
130
0.0
111
1.0
121
0.0
131
0.0
112
0.0
122
1.0
132
0.0
 79
     0
146
0.0
  0
ENDTAB
  0
TABLE
  2
LTYPE
  5
5
330
0
100
AcDbSymbolTable
 70
     6
  0
LTYPE
  5
14
330
5
100
AcDbSymbolTableRecord
100
AcDbLinetypeTableRecord
  2
ByBlock
 70
     0
  3

 72
    65
 73
     0
 40
0.0
  0
LTYPE
  5
15
330
5
100
AcDbSymbolTableRecord
100
AcDbLinetypeTableRecord
  2
ByLayer
 70
     0
  3

 72
    65
 73
     0
 40
0.0
  0
LTYPE
  5
16
330
5
100
AcDbSymbolTableRecord
100
AcDbLinetypeTableRecord
  2
Continuous
 70
     0
  3
Solid line
 72
    65
 73
     0
 40
0.0
  0
LTYPE
  5
6E
330
5
100
AcDbSymbolTableRecord
100
AcDbLinetypeTableRecord
  2
HIDDEN
 70
     0
  3
Hidden __ __ __ __ __ __ __ __ __ __ __ __ __ __
 72
    65
 73
     2
 40
1.905
 49
1.27
 74
     0
 49
-0.635
 74
     0
  0
LTYPE
  5
6F
330
5
100
AcDbSymbolTableRecord
100
AcDbLinetypeTableRecord
  2
PHANTOM
 70
     0
  3
Phantom ______  __  __  ______  __  __  ______
 72
    65
 73
     6
 40
12.7
 49
6.35
 74
     0
 49
-1.27
 74
     0
 49
1.27
 74
     0
 49
-1.27
 74
     0
 49
1.27
 74
     0
 49
-1.27
 74
     0
  0
LTYPE
  5
70
330
5
100
AcDbSymbolTableRecord
100
AcDbLinetypeTableRecord
  2
CENTER
 70
     0
  3
Center ____ _ ____ _ ____ _ ____ _ ____ _ ____
 72
    65
 73
     4
 40
10.16
 49
6.35
 74
     0
 49
-1.27
 74
     0
 49
1.27
 74
     0
 49
-1.27
 74
     0
  0
LTYPE
  5
71
330
5
100
AcDbSymbolTableRecord
100
AcDbLinetypeTableRecord
  2
CENTERX2
 70
     0
  3
Center (2x) ________  __  ________  __  _____
 72
    65
 73
     4
 40
20.32
 49
12.7
 74
     0
 49
-2.54
 74
     0
 49
2.54
 74
     0
 49
-2.54
 74
     0
  0
LTYPE
  5
72
330
5
100
AcDbSymbolTableRecord
100
AcDbLinetypeTableRecord
  2
DOT2
 70
     0
  3
Dot (.5x) ........................................
 72
    65
 73
     2
 40
0.635
 49
0.0
 74
     0
 49
-0.635
 74
     0
  0
ENDTAB
  0
TABLE
  2
LAYER
  5
2
330
0
100
AcDbSymbolTable
 70
     1
  0
LAYER
  5
10
330
2
100
AcDbSymbolTableRecord
100
AcDbLayerTableRecord
  2
0
 70
     0
 62
     7
  6
Continuous
370
    -3
390
F
  0
ENDTAB
  0
TABLE
  2
STYLE
  5
3
330
0
100
AcDbSymbolTable
 70
     3
  0
STYLE
  5
11
330
3
100
AcDbSymbolTableRecord
100
AcDbTextStyleTableRecord
  2
STANDARD
 70
     0
 40
0.0
 41
1.0
 50
0.0
 71
     0
 42
3.5277777778
  3
MSGOTHIC.TTC
  4

1001
ACAD
1000
MS UI GOTHIC
1071
    32818
  0
STYLE
  5
77
330
3
100
AcDbSymbolTableRecord
100
AcDbTextStyleTableRecord
  2
SLDTEXTSTYLE0
 70
     0
 40
0.0
 41
1.0
 50
0.0
 71
     0
 42
3.5277777778
  3
MSGOTHIC.TTC
  4

1001
ACAD
1000
MS UI Gothic
1071
      306
  0
STYLE
  5
79
330
3
100
AcDbSymbolTableRecord
100
AcDbTextStyleTableRecord
  2
SLDTEXTSTYLE1
 70
     0
 40
0.0
 41
1.0
 50
0.0
 71
     0
 42
3.5277777778
  3
MSGOTHIC.TTC
  4
bigfont
1001
ACAD
1000
MS UI Gothic
1071
      306
  0
ENDTAB
  0
TABLE
  2
VIEW
  5
6
330
0
100
AcDbSymbolTable
 70
     0
  0
ENDTAB
  0
TABLE
  2
UCS
  5
7
330
0
100
AcDbSymbolTable
 70
     0
  0
ENDTAB
  0
TABLE
  2
APPID
  5
9
330
0
100
AcDbSymbolTable
 70
     1
  0
APPID
  5
12
330
9
100
AcDbSymbolTableRecord
100
AcDbRegAppTableRecord
  2
ACAD
 70
     0
  0
ENDTAB
  0
TABLE
  2
DIMSTYLE
  5
A
330
0
100
AcDbSymbolTable
 70
     6
100
AcDbDimStyleTable
  0
DIMSTYLE
105
27
330
A
100
AcDbSymbolTableRecord
100
AcDbDimStyleTableRecord
  2
ISO-25
 70
     0
 41
2.5
 42
0.625
 43
3.75
 44
1.25
 73
     0
 74
     0
 77
     1
 78
     8
140
2.5
141
2.5
143
0.0393700787
147
0.625
171
     3
172
     1
178
     0
271
     2
272
     2
274
     3
278
    44
283
     0
284
     8
340
11
  0
DIMSTYLE
105
1E0
102
{ACAD_REACTORS
330
1DF
102
}
330
A
100
AcDbSymbolTableRecord
100
AcDbDimStyleTableRecord
  2
SLDDIMSTYLE0
 70
     0
 41
3.0
 44
0.0
 45
0.000000001
 73
     0
 74
     0
 77
     1
 78
    12
 79
     3
140
3.0316840278
147
0.7579210069
173
     1
178
     0
271
     1
272
     2
276
     2
284
    12
340
77
341
1E1
343
1E1
344
1E1
  0
DIMSTYLE
105
1F3
102
{ACAD_REACTORS
330
1F2
330
1FD
330
22A
330
236
330
242
330
24E
330
25A
330
264
330
26E
330
278
330
282
102
}
330
A
100
AcDbSymbolTableRecord
100
AcDbDimStyleTableRecord
  2
SLDDIMSTYLE1
 70
     0
 41
3.0
 44
0.0
 45
0.000000001
 73
     0
 74
     0
 77
     1
 78
    12
 79
     3
140
3.0316840278
147
0.7579210069
173
     1
178
     0
271
     2
272
     2
276
     2
284
    12
340
77
341
1E1
343
1E1
344
1E1
  0
DIMSTYLE
105
208
102
{ACAD_REACTORS
330
207
330
21F
102
}
330
A
100
AcDbSymbolTableRecord
100
AcDbDimStyleTableRecord
  2
SLDDIMSTYLE2
 70
     0
 41
3.0
 44
0.0
 45
0.000000001
 73
     0
 74
     0
 77
     1
 78
    12
 79
     3
140
3.0316840278
147
0.7579210069
172
     1
173
     1
178
     0
271
     2
272
     2
276
     2
284
    12
289
     0
340
77
341
1E1
343
1E1
344
1E1
  0
DIMSTYLE
105
215
102
{ACAD_REACTORS
330
214
102
}
330
A
100
AcDbSymbolTableRecord
100
AcDbDimStyleTableRecord
  2
SLDDIMSTYLE3
 70
     0
 41
3.0
 44
0.0
 45
0.000000001
 73
     0
 74
     0
 77
     1
 78
    12
 79
     3
140
3.0316840278
147
0.7579210069
173
     1
178
     0
271
     0
272
     0
276
     2
284
    12
340
77
341
1E1
343
1E1
344
1E1
  0
DIMSTYLE
105
293
330
A
100
AcDbSymbolTableRecord
100
AcDbDimStyleTableRecord
  2
SLDDIMSTYLE4
 70
     0
 41
3.0
 44
0.0
 45
0.000000001
146
3.0
147
0.0
173
     1
178
     0
271
     0
272
     0
276
     2
340
11
341
1E1
343
1E1
344
1E1
  0
ENDTAB
  0
TABLE
  2
BLOCK_RECORD
  5
1
330
0
100
AcDbSymbolTable
 70
    30
  0
BLOCK_RECORD
  5
1F
330
1
100
AcDbSymbolTableRecord
100
AcDbBlockTableRecord
  2
*Model_Space
340
22
  0
BLOCK_RECORD
  5
1B
330
1
100
AcDbSymbolTableRecord
100
AcDbBlockTableRecord
  2
*Paper_Space
340
1E
  0
BLOCK_RECORD
  5
23
330
1
100
AcDbSymbolTableRecord
100
AcDbBlockTableRecord
  2
*Paper_Space0
340
26
  0
BLOCK_RECORD
  5
7B
330
1
100
AcDbSymbolTableRecord
100
AcDbBlockTableRecord
  2
SW_BROKEN_VIEW_0
340
0
102
{BLKREFS
331
81
102
}
  0
BLOCK_RECORD
  5
1E1
330
1
100
AcDbSymbolTableRecord
100
AcDbBlockTableRecord
  2
_Open30
340
0
102
{BLKREFS
331
1EA
331
1EB
331
1F7
331
1F8
331
201
331
202
331
20C
331
20D
331
219
331
21A
331
223
331
224
331
22E
331
22F
331
23C
331
23D
331
248
331
249
331
252
331
253
331
25E
331
25F
331
268
331
269
331
272
331
273
331
27C
331
27D
331
286
331
287
102
}
  0
BLOCK_RECORD
  5
1E7
330
1
100
AcDbSymbolTableRecord
100
AcDbBlockTableRecord
  2
_D
340
0
  0
BLOCK_RECORD
  5
1F4
330
1
100
AcDbSymbolTableRecord
100
AcDbBlockTableRecord
  2
_D_1
340
0
  0
BLOCK_RECORD
  5
1FE
330
1
100
AcDbSymbolTableRecord
100
AcDbBlockTableRecord
  2
_D_2
340
0
  0
BLOCK_RECORD
  5
209
330
1
100
AcDbSymbolTableRecord
100
AcDbBlockTableRecord
  2
_D_3
340
0
  0
BLOCK_RECORD
  5
216
330
1
100
AcDbSymbolTableRecord
100
AcDbBlockTableRecord
  2
_D_4
340
0
  0
BLOCK_RECORD
  5
220
330
1
100
AcDbSymbolTableRecord
100
AcDbBlockTableRecord
  2
_D_5
340
0
  0
BLOCK_RECORD
  5
22B
330
1
100
AcDbSymbolTableRecord
100
AcDbBlockTableRecord
  2
_D_6
340
0
  0
BLOCK_RECORD
  5
237
330
1
100
AcDbSymbolTableRecord
100
AcDbBlockTableRecord
  2
_D_7
340
0
  0
BLOCK_RECORD
  5
243
330
1
100
AcDbSymbolTableRecord
100
AcDbBlockTableRecord
  2
_D_8
340
0
  0
BLOCK_RECORD
  5
24F
330
1
100
AcDbSymbolTableRecord
100
AcDbBlockTableRecord
  2
_D_9
340
0
  0
BLOCK_RECORD
  5
25B
330
1
100
AcDbSymbolTableRecord
100
AcDbBlockTableRecord
  2
_D_10
340
0
  0
BLOCK_RECORD
  5
265
330
1
100
AcDbSymbolTableRecord
100
AcDbBlockTableRecord
  2
_D_11
340
0
  0
BLOCK_RECORD
  5
26F
330
1
100
AcDbSymbolTableRecord
100
AcDbBlockTableRecord
  2
_D_12
340
0
  0
BLOCK_RECORD
  5
279
330
1
100
AcDbSymbolTableRecord
100
AcDbBlockTableRecord
  2
_D_13
340
0
  0
BLOCK_RECORD
  5
283
330
1
100
AcDbSymbolTableRecord
100
AcDbBlockTableRecord
  2
_D_14
340
0
  0
BLOCK_RECORD
  5
28D
330
1
100
AcDbSymbolTableRecord
100
AcDbBlockTableRecord
  2
SW_NOTE_0
340
0
102
{BLKREFS
331
292
102
}
  0
BLOCK_RECORD
  5
295
330
1
100
AcDbSymbolTableRecord
100
AcDbBlockTableRecord
  2
SW_NOTE_0_1
340
0
102
{BLKREFS
331
29A
102
}
  0
BLOCK_RECORD
  5
29C
330
1
100
AcDbSymbolTableRecord
100
AcDbBlockTableRecord
  2
SW_NOTE_0_2
340
0
102
{BLKREFS
331
2A1
102
}
  0
BLOCK_RECORD
  5
2A3
330
1
100
AcDbSymbolTableRecord
100
AcDbBlockTableRecord
  2
SW_NOTE_0_3
340
0
102
{BLKREFS
331
2A8
102
}
  0
BLOCK_RECORD
  5
2AA
330
1
100
AcDbSymbolTableRecord
100
AcDbBlockTableRecord
  2
SW_NOTE_0_4
340
0
102
{BLKREFS
331
2AF
102
}
  0
BLOCK_RECORD
  5
2B1
330
1
100
AcDbSymbolTableRecord
100
AcDbBlockTableRecord
  2
SW_NOTE_0_5
340
0
102
{BLKREFS
331
2B6
102
}
  0
BLOCK_RECORD
  5
2B8
330
1
100
AcDbSymbolTableRecord
100
AcDbBlockTableRecord
  2
SW_NOTE_0_6
340
0
102
{BLKREFS
331
2BD
102
}
  0
BLOCK_RECORD
  5
2BF
330
1
100
AcDbSymbolTableRecord
100
AcDbBlockTableRecord
  2
SW_NOTE_0_7
340
0
102
{BLKREFS
331
2C4
102
}
  0
BLOCK_RECORD
  5
2CE
330
1
100
AcDbSymbolTableRecord
100
AcDbBlockTableRecord
  2
SW_NOTE_0_8
340
0
102
{BLKREFS
331
2D3
102
}
  0
BLOCK_RECORD
  5
2D5
330
1
100
AcDbSymbolTableRecord
100
AcDbBlockTableRecord
  2
SW_NOTE_0_9
340
0
102
{BLKREFS
331
2DA
102
}
  0
BLOCK_RECORD
  5
2DC
330
1
100
AcDbSymbolTableRecord
100
AcDbBlockTableRecord
  2
SW_CENTERMARKSYMBOL_0
340
0
102
{BLKREFS
331
2E7
102
}
  0
BLOCK_RECORD
  5
2E8
330
1
100
AcDbSymbolTableRecord
100
AcDbBlockTableRecord
  2
SW_CENTERMARKSYMBOL_1
340
0
102
{BLKREFS
331
2F3
102
}
  0
ENDTAB
  0
ENDSEC
  0
SECTION
  2
BLOCKS
  0
BLOCK
  5
20
330
1F
100
AcDbEntity
  8
0
100
AcDbBlockBegin
  2
*Model_Space
 70
     0
 10
0.0
 20
0.0
 30
0.0
  3
*Model_Space
  1

  0
ENDBLK
  5
21
330
1F
100
AcDbEntity
  8
0
100
AcDbBlockEnd
  0
BLOCK
  5
1C
330
1B
100
AcDbEntity
 67
     1
  8
0
100
AcDbBlockBegin
  2
*Paper_Space
 70
     0
 10
0.0
 20
0.0
 30
0.0
  3
*Paper_Space
  1

  0
ENDBLK
  5
1D
330
1B
100
AcDbEntity
 67
     1
  8
0
100
AcDbBlockEnd
  0
BLOCK
  5
24
330
23
100
AcDbEntity
  8
0
100
AcDbBlockBegin
  2
*Paper_Space0
 70
     0
 10
0.0
 20
0.0
 30
0.0
  3
*Paper_Space0
  1

  0
ENDBLK
  5
25
330
23
100
AcDbEntity
  8
0
100
AcDbBlockEnd
  0
BLOCK
  5
7C
330
7B
100
AcDbEntity
  8
0
100
AcDbBlockBegin
  2
SW_BROKEN_VIEW_0
 70
     0
 10
0.0
 20
0.0
 30
0.0
  3
SW_BROKEN_VIEW_0
  1

  0
LINE
  5
7E
330
7B
100
AcDbEntity
  8
0
  6
HIDDEN
 62
     0
100
AcDbLine
 10
0.0
 20
0.0
 30
0.0
 11
-12.7999931574
 21
0.0
 31
0.0
  0
LINE
  5
7F
330
7B
100
AcDbEntity
  8
0
  6
HIDDEN
 62
     0
100
AcDbLine
 10
-12.7999931574
 20
0.0
 30
0.0
 11
-12.7999931574
 21
-12.0000001043
 31
0.0
  0
LINE
  5
80
330
7B
100
AcDbEntity
  8
0
  6
HIDDEN
 62
     0
100
AcDbLine
 10
0.0
 20
0.0
 30
0.0
 11
0.0
 21
-12.0000001043
 31
0.0
  0
ENDBLK
  5
7D
330
7B
100
AcDbEntity
  8
0
100
AcDbBlockEnd
  0
BLOCK
  5
1E2
330
1E1
100
AcDbEntity
  8
0
100
AcDbBlockBegin
  2
_Open30
 70
     0
 10
0.0
 20
0.0
 30
0.0
  3
_Open30
  1

  0
LINE
  5
1E4
330
1E1
100
AcDbEntity
  8
0
  6
ByBlock
 62
     0
370
    -2
100
AcDbLine
 10
-1.0
 20
0.267949
 30
0.0
 11
0.0
 21
0.0
 31
0.0
  0
LINE
  5
1E5
330
1E1
100
AcDbEntity
  8
0
  6
ByBlock
 62
     0
370
    -2
100
AcDbLine
 10
0.0
 20
0.0
 30
0.0
 11
-1.0
 21
-0.267949
 31
0.0
  0
LINE
  5
1E6
330
1E1
100
AcDbEntity
  8
0
  6
ByBlock
 62
     0
370
    -2
100
AcDbLine
 10
0.0
 20
0.0
 30
0.0
 11
-1.0
 21
0.0
 31
0.0
  0
ENDBLK
  5
1E3
330
1E1
100
AcDbEntity
  8
0
100
AcDbBlockEnd
  0
BLOCK
  5
1E8
330
1E7
100
AcDbEntity
  8
0
100
AcDbBlockBegin
  2
_D
 70
     0
 10
0.0
 20
0.0
 30
0.0
  3
_D
  1

  0
INSERT
  5
1EA
330
1E7
100
AcDbEntity
  8
0
  6
Continuous
 62
     7
370
    18
100
AcDbBlockReference
  2
_Open30
 10
51.4645199387
 20
101.8956251806
 30
0.0
 41
3.0
 42
3.0
 50
180.0
  0
INSERT
  5
1EB
330
1E7
100
AcDbEntity
  8
0
  6
Continuous
 62
     7
370
    18
100
AcDbBlockReference
  2
_Open30
 10
64.2645199387
 20
101.8956251806
 30
0.0
 41
3.0
 42
3.0
 50
0.0
  0
LINE
  5
1EC
330
1E7
100
AcDbEntity
  8
0
  6
Continuous
 62
     7
370
    18
100
AcDbLine
 10
51.4645199387
 20
106.5511621624
 30
0.0
 11
51.4645199387
 21
100.8956251806
 31
0.0
  0
LINE
  5
1ED
330
1E7
100
AcDbEntity
  8
0
  6
Continuous
 62
     7
370
    18
100
AcDbLine
 10
64.2645199387
 20
106.5511621624
 30
0.0
 11
64.2645199387
 21
100.8956251806
 31
0.0
  0
LINE
  5
1EE
330
1E7
100
AcDbEntity
  8
0
  6
Continuous
 62
     7
370
    18
100
AcDbLine
 10
51.4645199387
 20
101.8956251806
 30
0.0
 11
39.7136122881
 21
101.8956251806
 31
0.0
  0
LINE
  5
1EF
330
1E7
100
AcDbEntity
  8
0
  6
Continuous
 62
     7
370
    18
100
AcDbLine
 10
51.4645199387
 20
101.8956251806
 30
0.0
 11
64.2645199387
 21
101.8956251806
 31
0.0
  0
MTEXT
  5
1F0
330
1E7
100
AcDbEntity
  8
0
  6
Continuous
 62
     7
370
    18
100
AcDbMText
 10
39.7136122881
 20
104.9744131758
 30
0.0
 40
2.6458333333
 41
0.0
 71
     1
 72
     1
  1
%%c
  7
SLDTEXTSTYLE0
 73
     1
 44
1.0
  0
MTEXT
  5
1F1
330
1E7
100
AcDbEntity
  8
0
  6
Continuous
 62
     7
370
    18
100
AcDbMText
 10
43.0650012529
 20
104.9744131758
 30
0.0
 40
2.6458333333
 41
0.0
 71
     1
 72
     1
  1
12.8
  7
SLDTEXTSTYLE0
 73
     1
 44
1.0
  0
ENDBLK
  5
1E9
330
1E7
100
AcDbEntity
  8
0
100
AcDbBlockEnd
  0
BLOCK
  5
1F5
330
1F4
100
AcDbEntity
  8
0
100
AcDbBlockBegin
  2
_D_1
 70
     0
 10
0.0
 20
0.0
 30
0.0
  3
_D_1
  1

  0
INSERT
  5
1F7
330
1F4
100
AcDbEntity
  8
0
  6
Continuous
 62
     7
370
    18
100
AcDbBlockReference
  2
_Open30
 10
32.6284688417
 20
36.0912020793
 30
0.0
 41
3.0
 42
3.0
 50
270.0
  0
INSERT
  5
1F8
330
1F4
100
AcDbEntity
  8
0
  6
Continuous
 62
     7
370
    18
100
AcDbBlockReference
  2
_Open30
 10
32.6284688417
 20
73.8013477303
 30
0.0
 41
3.0
 42
3.0
 50
90.0
  0
LINE
  5
1F9
330
1F4
100
AcDbEntity
  8
0
  6
Continuous
 62
     7
370
    18
100
AcDbLine
 10
56.8645199387
 20
36.0912020793
 30
0.0
 11
31.6284688417
 21
36.0912020793
 31
0.0
  0
LINE
  5
1FA
330
1F4
100
AcDbEntity
  8
0
  6
Continuous
 62
     7
370
    18
100
AcDbLine
 10
53.3645199387
 20
73.8013477303
 30
0.0
 11
31.6284688417
 21
73.8013477303
 31
0.0
  0
LINE
  5
1FB
330
1F4
100
AcDbEntity
  8
0
  6
Continuous
 62
     7
370
    18
100
AcDbLine
 10
32.6284688417
 20
36.0912020793
 30
0.0
 11
32.6284688417
 21
73.8013477303
 31
0.0
  0
MTEXT
  5
1FC
330
1F4
100
AcDbEntity
  8
0
  6
Continuous
 62
     7
370
    18
100
AcDbMText
 10
29.5496810794
 20
45.1762903838
 30
0.0
 40
2.6458333333
 41
0.0
 71
     1
 72
     1
  1
L1=50～1000
  7
SLDTEXTSTYLE1
 11
6.123233995736766E-17
 21
1.0
 31
0.0
 73
     1
 44
1.0
  0
ENDBLK
  5
1F6
330
1F4
100
AcDbEntity
  8
0
100
AcDbBlockEnd
  0
BLOCK
  5
1FF
330
1FE
100
AcDbEntity
  8
0
100
AcDbBlockBegin
  2
_D_2
 70
     0
 10
0.0
 20
0.0
 30
0.0
  3
_D_2
  1

  0
INSERT
  5
201
330
1FE
100
AcDbEntity
  8
0
  6
Continuous
 62
     7
370
    18
100
AcDbBlockReference
  2
_Open30
 10
32.6284688417
 20
125.5511621624
 30
0.0
 41
3.0
 42
3.0
 50
90.0
  0
INSERT
  5
202
330
1FE
100
AcDbEntity
  8
0
  6
Continuous
 62
     7
370
    18
100
AcDbBlockReference
  2
_Open30
 10
32.6284688417
 20
73.8013477303
 30
0.0
 41
3.0
 42
3.0
 50
270.0
  0
LINE
  5
203
330
1FE
100
AcDbEntity
  8
0
  6
Continuous
 62
     7
370
    18
100
AcDbLine
 10
53.3645199387
 20
125.5511621624
 30
0.0
 11
31.6284688417
 21
125.5511621624
 31
0.0
  0
LINE
  5
204
330
1FE
100
AcDbEntity
  8
0
  6
Continuous
 62
     7
370
    18
100
AcDbLine
 10
53.3645199387
 20
73.8013477303
 30
0.0
 11
31.6284688417
 21
73.8013477303
 31
0.0
  0
LINE
  5
205
330
1FE
100
AcDbEntity
  8
0
  6
Continuous
 62
     7
370
    18
100
AcDbLine
 10
32.6284688417
 20
125.5511621624
 30
0.0
 11
32.6284688417
 21
73.8013477303
 31
0.0
  0
MTEXT
  5
206
330
1FE
100
AcDbEntity
  8
0
  6
Continuous
 62
     7
370
    18
100
AcDbMText
 10
29.5496810794
 20
97.9123660788
 30
0.0
 40
2.6458333333
 41
0.0
 71
     1
 72
     1
  1
50
  7
SLDTEXTSTYLE0
 11
-7.044195017643634E-15
 21
1.0
 31
0.0
 73
     1
 44
1.0
  0
ENDBLK
  5
200
330
1FE
100
AcDbEntity
  8
0
100
AcDbBlockEnd
  0
BLOCK
  5
20A
330
209
100
AcDbEntity
  8
0
100
AcDbBlockBegin
  2
_D_3
 70
     0
 10
0.0
 20
0.0
 30
0.0
  3
_D_3
  1

  0
INSERT
  5
20C
330
209
100
AcDbEntity
  8
0
  6
Continuous
 62
     7
370
    18
100
AcDbBlockReference
  2
_Open30
 10
47.83101164
 20
75.8013477303
 30
0.0
 41
3.0
 42
3.0
 50
270.0
  0
INSERT
  5
20D
330
209
100
AcDbEntity
  8
0
  6
Continuous
 62
     7
370
    18
100
AcDbBlockReference
  2
_Open30
 10
47.83101164
 20
73.8013477303
 30
0.0
 41
3.0
 42
3.0
 50
90.0
  0
LINE
  5
20E
330
209
100
AcDbEntity
  8
0
  6
Continuous
 62
     7
370
    18
100
AcDbLine
 10
53.3645199387
 20
75.8013477303
 30
0.0
 11
46.83101164
 21
75.8013477303
 31
0.0
  0
LINE
  5
20F
330
209
100
AcDbEntity
  8
0
  6
Continuous
 62
     7
370
    18
100
AcDbLine
 10
53.3645199387
 20
73.8013477303
 30
0.0
 11
46.83101164
 21
73.8013477303
 31
0.0
  0
LINE
  5
210
330
209
100
AcDbEntity
  8
0
  6
Continuous
 62
     7
370
    18
100
AcDbLine
 10
47.83101164
 20
75.8013477303
 30
0.0
 11
47.83101164
 21
79.3013477303
 31
0.0
  0
LINE
  5
211
330
209
100
AcDbEntity
  8
0
  6
Continuous
 62
     7
370
    18
100
AcDbLine
 10
47.83101164
 20
75.8013477303
 30
0.0
 11
47.83101164
 21
73.8013477303
 31
0.0
  0
LINE
  5
212
330
209
100
AcDbEntity
  8
0
  6
Continuous
 62
     7
370
    18
100
AcDbLine
 10
47.83101164
 20
73.8013477303
 30
0.0
 11
47.83101164
 21
67.4459277101
 31
0.0
  0
MTEXT
  5
213
330
209
100
AcDbEntity
  8
0
  6
Continuous
 62
     7
370
    18
100
AcDbMText
 10
44.7522238777
 20
67.4459277101
 30
0.0
 40
2.6458333333
 41
0.0
 71
     1
 72
     1
  1
2
  7
SLDTEXTSTYLE0
 11
-7.044195017643634E-15
 21
1.0
 31
0.0
 73
     1
 44
1.0
  0
ENDBLK
  5
20B
330
209
100
AcDbEntity
  8
0
100
AcDbBlockEnd
  0
BLOCK
  5
217
330
216
100
AcDbEntity
  8
0
100
AcDbBlockBegin
  2
_D_4
 70
     0
 10
0.0
 20
0.0
 30
0.0
  3
_D_4
  1

  0
INSERT
  5
219
330
216
100
AcDbEntity
  8
0
  6
Continuous
 62
     7
370
    18
100
AcDbBlockReference
  2
_Open30
 10
32.6284688417
 20
125.5511621624
 30
0.0
 41
3.0
 42
3.0
 50
270.0
  0
INSERT
  5
21A
330
216
100
AcDbEntity
  8
0
  6
Continuous
 62
     7
370
    18
100
AcDbBlockReference
  2
_Open30
 10
32.6284688417
 20
142.6511621624
 30
0.0
 41
3.0
 42
3.0
 50
90.0
  0
LINE
  5
21B
330
216
100
AcDbEntity
  8
0
  6
Continuous
 62
     7
370
    18
100
AcDbLine
 10
53.3645199387
 20
125.5511621624
 30
0.0
 11
31.6284688417
 21
125.5511621624
 31
0.0
  0
LINE
  5
21C
330
216
100
AcDbEntity
  8
0
  6
Continuous
 62
     7
370
    18
100
AcDbLine
 10
66.8645199387
 20
142.6511621624
 30
0.0
 11
31.6284688417
 21
142.6511621624
 31
0.0
  0
LINE
  5
21D
330
216
100
AcDbEntity
  8
0
  6
Continuous
 62
     7
370
    18
100
AcDbLine
 10
32.6284688417
 20
125.5511621624
 30
0.0
 11
32.6284688417
 21
142.6511621624
 31
0.0
  0
MTEXT
  5
21E
330
216
100
AcDbEntity
  8
0
  6
Continuous
 62
     7
370
    18
100
AcDbMText
 10
29.5496810794
 20
132.3372732948
 30
0.0
 40
2.6458333333
 41
0.0
 71
     1
 72
     1
  1
17
  7
SLDTEXTSTYLE0
 11
6.123233995736766E-17
 21
1.0
 31
0.0
 73
     1
 44
1.0
  0
ENDBLK
  5
218
330
216
100
AcDbEntity
  8
0
100
AcDbBlockEnd
  0
BLOCK
  5
221
330
220
100
AcDbEntity
  8
0
100
AcDbBlockBegin
  2
_D_5
 70
     0
 10
0.0
 20
0.0
 30
0.0
  3
_D_5
  1

  0
INSERT
  5
223
330
220
100
AcDbEntity
  8
0
  6
Continuous
 62
     7
370
    18
100
AcDbBlockReference
  2
_Open30
 10
55.3645199387
 20
43.6639597686
 30
0.0
 41
3.0
 42
3.0
 50
0.0
  0
INSERT
  5
224
330
220
100
AcDbEntity
  8
0
  6
Continuous
 62
     7
370
    18
100
AcDbBlockReference
  2
_Open30
 10
60.3645199387
 20
43.6639597686
 30
0.0
 41
3.0
 42
3.0
 50
180.0
  0
LINE
  5
225
330
220
100
AcDbEntity
  8
0
  6
Continuous
 62
     7
370
    18
100
AcDbLine
 10
55.3645199387
 20
43.6639597686
 30
0.0
 11
45.2733726074
 21
43.6639597686
 31
0.0
  0
LINE
  5
226
330
220
100
AcDbEntity
  8
0
  6
Continuous
 62
     7
370
    18
100
AcDbLine
 10
55.3645199387
 20
43.6639597686
 30
0.0
 11
60.3645199387
 21
43.6639597686
 31
0.0
  0
LINE
  5
227
330
220
100
AcDbEntity
  8
0
  6
Continuous
 62
     7
370
    18
100
AcDbLine
 10
60.3645199387
 20
43.6639597686
 30
0.0
 11
63.8645199387
 21
43.6639597686
 31
0.0
  0
MTEXT
  5
228
330
220
100
AcDbEntity
  8
0
  6
Continuous
 62
     7
370
    18
100
AcDbMText
 10
45.2733726074
 20
46.7427477638
 30
0.0
 40
2.6458333333
 41
0.0
 71
     1
 72
     1
  1
%%c
  7
SLDTEXTSTYLE0
 73
     1
 44
1.0
  0
MTEXT
  5
229
330
220
100
AcDbEntity
  8
0
  6
Continuous
 62
     7
370
    18
100
AcDbMText
 10
48.6247615722
 20
46.7427477638
 30
0.0
 40
2.6458333333
 41
0.0
 71
     1
 72
     1
  1
5
  7
SLDTEXTSTYLE0
 73
     1
 44
1.0
  0
ENDBLK
  5
222
330
220
100
AcDbEntity
  8
0
100
AcDbBlockEnd
  0
BLOCK
  5
22C
330
22B
100
AcDbEntity
  8
0
100
AcDbBlockBegin
  2
_D_6
 70
     0
 10
0.0
 20
0.0
 30
0.0
  3
_D_6
  1

  0
INSERT
  5
22E
330
22B
100
AcDbEntity
  8
0
  6
Continuous
 62
     7
370
    18
100
AcDbBlockReference
  2
_Open30
 10
54.3645199387
 20
68.3278721439
 30
0.0
 41
3.0
 42
3.0
 50
180.0
  0
INSERT
  5
22F
330
22B
100
AcDbEntity
  8
0
  6
Continuous
 62
     7
370
    18
100
AcDbBlockReference
  2
_Open30
 10
61.3645199387
 20
68.3278721439
 30
0.0
 41
3.0
 42
3.0
 50
0.0
  0
LINE
  5
230
330
22B
100
AcDbEntity
  8
0
  6
Continuous
 62
     7
370
    18
100
AcDbLine
 10
54.3645199387
 20
72.8013477303
 30
0.0
 11
54.3645199387
 21
67.3278721439
 31
0.0
  0
LINE
  5
231
330
22B
100
AcDbEntity
  8
0
  6
Continuous
 62
     7
370
    18
100
AcDbLine
 10
61.3645199387
 20
72.8013477303
 30
0.0
 11
61.3645199387
 21
67.3278721439
 31
0.0
  0
LINE
  5
232
330
22B
100
AcDbEntity
  8
0
  6
Continuous
 62
     7
370
    18
100
AcDbLine
 10
54.3645199387
 20
68.3278721439
 30
0.0
 11
61.3645199387
 21
68.3278721439
 31
0.0
  0
LINE
  5
233
330
22B
100
AcDbEntity
  8
0
  6
Continuous
 62
     7
370
    18
100
AcDbLine
 10
61.3645199387
 20
68.3278721439
 30
0.0
 11
69.9429437851
 21
68.3278721439
 31
0.0
  0
MTEXT
  5
234
330
22B
100
AcDbEntity
  8
0
  6
Continuous
 62
     7
370
    18
100
AcDbMText
 10
64.8276657199
 20
71.4066601391
 30
0.0
 40
2.6458333333
 41
0.0
 71
     1
 72
     1
  1
%%c
  7
SLDTEXTSTYLE0
 73
     1
 44
1.0
  0
MTEXT
  5
235
330
22B
100
AcDbEntity
  8
0
  6
Continuous
 62
     7
370
    18
100
AcDbMText
 10
68.1790546847
 20
71.4066601391
 30
0.0
 40
2.6458333333
 41
0.0
 71
     1
 72
     1
  1
7
  7
SLDTEXTSTYLE0
 73
     1
 44
1.0
  0
ENDBLK
  5
22D
330
22B
100
AcDbEntity
  8
0
100
AcDbBlockEnd
  0
BLOCK
  5
238
330
237
100
AcDbEntity
  8
0
100
AcDbBlockBegin
  2
_D_7
 70
     0
 10
0.0
 20
0.0
 30
0.0
  3
_D_7
  1

  0
ARC
  5
23A
330
237
100
AcDbEntity
  8
0
  6
Continuous
 62
     7
370
    18
100
AcDbCircle
 10
227.1601185716
 20
160.6576080905
 30
0.0
 40
3.944175412646004
100
AcDbArc
 50
153.4349488229
 51
206.5650511771
  0
ARC
  5
23B
330
237
100
AcDbEntity
  8
0
  6
Continuous
 62
     7
370
    18
100
AcDbCircle
 10
223.6323408364
 20
160.6576080905
 30
0.0
 40
3.944175412646004
100
AcDbArc
 50
333.4349488229
 51
26.5650511771
  0
INSERT
  5
23C
330
237
100
AcDbEntity
  8
0
  6
Continuous
 62
     7
370
    18
100
AcDbBlockReference
  2
_Open30
 10
192.4778704126
 20
158.8937194558
 30
0.0
 41
3.0
 42
3.0
 50
180.0
  0
INSERT
  5
23D
330
237
100
AcDbEntity
  8
0
  6
Continuous
 62
     7
370
    18
100
AcDbBlockReference
  2
_Open30
 10
258.3145888208
 20
158.8937194558
 30
0.0
 41
3.0
 42
3.0
 50
0.0
  0
LINE
  5
23E
330
237
100
AcDbEntity
  8
0
  6
Continuous
 62
     7
370
    18
100
AcDbLine
 10
192.4778704126
 20
146.1511621624
 30
0.0
 11
192.4778704126
 21
159.8937194558
 31
0.0
  0
LINE
  5
23F
330
237
100
AcDbEntity
  8
0
  6
Continuous
 62
     7
370
    18
100
AcDbLine
 10
258.3145888208
 20
155.2783170939
 30
0.0
 11
258.3145888208
 21
159.8937194558
 31
0.0
  0
LINE
  5
240
330
237
100
AcDbEntity
  8
0
  6
Continuous
 62
     7
370
    18
100
AcDbLine
 10
192.4778704126
 20
158.8937194558
 30
0.0
 11
258.3145888208
 21
158.8937194558
 31
0.0
  0
MTEXT
  5
241
330
237
100
AcDbEntity
  8
0
  6
Continuous
 62
     7
370
    18
100
AcDbMText
 10
223.6323408364
 20
161.9725069853
 30
0.0
 40
2.6458333333
 41
0.0
 71
     1
 72
     1
  1
80
  7
SLDTEXTSTYLE0
 73
     1
 44
1.0
  0
ENDBLK
  5
239
330
237
100
AcDbEntity
  8
0
100
AcDbBlockEnd
  0
BLOCK
  5
244
330
243
100
AcDbEntity
  8
0
100
AcDbBlockBegin
  2
_D_8
 70
     0
 10
0.0
 20
0.0
 30
0.0
  3
_D_8
  1

  0
ARC
  5
246
330
243
100
AcDbEntity
  8
0
  6
Continuous
 62
     7
370
    18
100
AcDbCircle
 10
42.6289290151
 20
117.3150511173
 30
0.0
 40
3.944175412646004
100
AcDbArc
 50
243.4349488229
 51
296.5650511771
  0
ARC
  5
247
330
243
100
AcDbEntity
  8
0
  6
Continuous
 62
     7
370
    18
100
AcDbCircle
 10
42.6289290151
 20
113.7872733821
 30
0.0
 40
3.944175412646004
100
AcDbArc
 50
63.4349488229
 51
116.5650511771
  0
INSERT
  5
248
330
243
100
AcDbEntity
  8
0
  6
Continuous
 62
     7
370
    18
100
AcDbBlockReference
  2
_Open30
 10
44.3928176498
 20
107.5511621624
 30
0.0
 41
3.0
 42
3.0
 50
270.0
  0
INSERT
  5
249
330
243
100
AcDbEntity
  8
0
  6
Continuous
 62
     7
370
    18
100
AcDbBlockReference
  2
_Open30
 10
44.3928176498
 20
123.5511621624
 30
0.0
 41
3.0
 42
3.0
 50
90.0
  0
LINE
  5
24A
330
243
100
AcDbEntity
  8
0
  6
Continuous
 62
     7
370
    18
100
AcDbLine
 10
49.8645199387
 20
107.5511621624
 30
0.0
 11
43.3928176498
 21
107.5511621624
 31
0.0
  0
LINE
  5
24B
330
243
100
AcDbEntity
  8
0
  6
Continuous
 62
     7
370
    18
100
AcDbLine
 10
51.8645199387
 20
123.5511621624
 30
0.0
 11
43.3928176498
 21
123.5511621624
 31
0.0
  0
LINE
  5
24C
330
243
100
AcDbEntity
  8
0
  6
Continuous
 62
     7
370
    18
100
AcDbLine
 10
44.3928176498
 20
107.5511621624
 30
0.0
 11
44.3928176498
 21
123.5511621624
 31
0.0
  0
MTEXT
  5
24D
330
243
100
AcDbEntity
  8
0
  6
Continuous
 62
     7
370
    18
100
AcDbMText
 10
41.3140301203
 20
113.7872733821
 30
0.0
 40
2.6458333333
 41
0.0
 71
     1
 72
     1
  1
16
  7
SLDTEXTSTYLE0
 11
6.123233995736766E-17
 21
1.0
 31
0.0
 73
     1
 44
1.0
  0
ENDBLK
  5
245
330
243
100
AcDbEntity
  8
0
100
AcDbBlockEnd
  0
BLOCK
  5
250
330
24F
100
AcDbEntity
  8
0
100
AcDbBlockBegin
  2
_D_9
 70
     0
 10
0.0
 20
0.0
 30
0.0
  3
_D_9
  1

  0
INSERT
  5
252
330
24F
100
AcDbEntity
  8
0
  6
Continuous
 62
     7
370
    18
100
AcDbBlockReference
  2
_Open30
 10
50.8645199387
 20
96.9828893482
 30
0.0
 41
3.0
 42
3.0
 50
180.0
  0
INSERT
  5
253
330
24F
100
AcDbEntity
  8
0
  6
Continuous
 62
     7
370
    18
100
AcDbBlockReference
  2
_Open30
 10
64.8645199387
 20
96.9828893482
 30
0.0
 41
3.0
 42
3.0
 50
0.0
  0
LINE
  5
254
330
24F
100
AcDbEntity
  8
0
  6
Continuous
 62
     7
370
    18
100
AcDbLine
 10
50.8645199387
 20
106.5511621624
 30
0.0
 11
50.8645199387
 21
95.9828893482
 31
0.0
  0
LINE
  5
255
330
24F
100
AcDbEntity
  8
0
  6
Continuous
 62
     7
370
    18
100
AcDbLine
 10
64.8645199387
 20
106.5511621624
 30
0.0
 11
64.8645199387
 21
95.9828893482
 31
0.0
  0
LINE
  5
256
330
24F
100
AcDbEntity
  8
0
  6
Continuous
 62
     7
370
    18
100
AcDbLine
 10
50.8645199387
 20
96.9828893482
 30
0.0
 11
39.5835204134
 21
96.9828893482
 31
0.0
  0
LINE
  5
257
330
24F
100
AcDbEntity
  8
0
  6
Continuous
 62
     7
370
    18
100
AcDbLine
 10
50.8645199387
 20
96.9828893482
 30
0.0
 11
64.8645199387
 21
96.9828893482
 31
0.0
  0
MTEXT
  5
258
330
24F
100
AcDbEntity
  8
0
  6
Continuous
 62
     7
370
    18
100
AcDbMText
 10
39.5835204134
 20
100.0616773434
 30
0.0
 40
2.6458333333
 41
0.0
 71
     1
 72
     1
  1
%%c
  7
SLDTEXTSTYLE0
 73
     1
 44
1.0
  0
MTEXT
  5
259
330
24F
100
AcDbEntity
  8
0
  6
Continuous
 62
     7
370
    18
100
AcDbMText
 10
42.9349093782
 20
100.0616773434
 30
0.0
 40
2.6458333333
 41
0.0
 71
     1
 72
     1
  1
14
  7
SLDTEXTSTYLE0
 73
     1
 44
1.0
  0
ENDBLK
  5
251
330
24F
100
AcDbEntity
  8
0
100
AcDbBlockEnd
  0
BLOCK
  5
25C
330
25B
100
AcDbEntity
  8
0
100
AcDbBlockBegin
  2
_D_10
 70
     0
 10
0.0
 20
0.0
 30
0.0
  3
_D_10
  1

  0
INSERT
  5
25E
330
25B
100
AcDbEntity
  8
0
  6
Continuous
 62
     7
370
    18
100
AcDbBlockReference
  2
_Open30
 10
57.8645199387
 20
172.2592876408
 30
0.0
 41
3.0
 42
3.0
 50
180.0
  0
INSERT
  5
25F
330
25B
100
AcDbEntity
  8
0
  6
Continuous
 62
     7
370
    18
100
AcDbBlockReference
  2
_Open30
 10
82.8645199387
 20
172.2592876408
 30
0.0
 41
3.0
 42
3.0
 50
0.0
  0
LINE
  5
260
330
25B
100
AcDbEntity
  8
0
  6
Continuous
 62
     7
370
    18
100
AcDbLine
 10
57.8645199387
 20
133.6511621624
 30
0.0
 11
57.8645199387
 21
173.2592876408
 31
0.0
  0
LINE
  5
261
330
25B
100
AcDbEntity
  8
0
  6
Continuous
 62
     7
370
    18
100
AcDbLine
 10
82.8645199387
 20
147.6511621624
 30
0.0
 11
82.8645199387
 21
173.2592876408
 31
0.0
  0
LINE
  5
262
330
25B
100
AcDbEntity
  8
0
  6
Continuous
 62
     7
370
    18
100
AcDbLine
 10
57.8645199387
 20
172.2592876408
 30
0.0
 11
82.8645199387
 21
172.2592876408
 31
0.0
  0
MTEXT
  5
263
330
25B
100
AcDbEntity
  8
0
  6
Continuous
 62
     7
370
    18
100
AcDbMText
 10
68.6006310711
 20
175.3380754032
 30
0.0
 40
2.6458333333
 41
0.0
 71
     1
 72
     1
  1
25
  7
SLDTEXTSTYLE0
 73
     1
 44
1.0
  0
ENDBLK
  5
25D
330
25B
100
AcDbEntity
  8
0
100
AcDbBlockEnd
  0
BLOCK
  5
266
330
265
100
AcDbEntity
  8
0
100
AcDbBlockBegin
  2
_D_11
 70
     0
 10
0.0
 20
0.0
 30
0.0
  3
_D_11
  1

  0
INSERT
  5
268
330
265
100
AcDbEntity
  8
0
  6
Continuous
 62
     7
370
    18
100
AcDbBlockReference
  2
_Open30
 10
82.8645199387
 20
172.2592876408
 30
0.0
 41
3.0
 42
3.0
 50
180.0
  0
INSERT
  5
269
330
265
100
AcDbEntity
  8
0
  6
Continuous
 62
     7
370
    18
100
AcDbBlockReference
  2
_Open30
 10
102.8645199387
 20
172.2592876408
 30
0.0
 41
3.0
 42
3.0
 50
0.0
  0
LINE
  5
26A
330
265
100
AcDbEntity
  8
0
  6
Continuous
 62
     7
370
    18
100
AcDbLine
 10
82.8645199387
 20
147.6511621624
 30
0.0
 11
82.8645199387
 21
173.2592876408
 31
0.0
  0
LINE
  5
26B
330
265
100
AcDbEntity
  8
0
  6
Continuous
 62
     7
370
    18
100
AcDbLine
 10
102.8645199387
 20
148.8511621624
 30
0.0
 11
102.8645199387
 21
173.2592876408
 31
0.0
  0
LINE
  5
26C
330
265
100
AcDbEntity
  8
0
  6
Continuous
 62
     7
370
    18
100
AcDbLine
 10
82.8645199387
 20
172.2592876408
 30
0.0
 11
102.8645199387
 21
172.2592876408
 31
0.0
  0
MTEXT
  5
26D
330
265
100
AcDbEntity
  8
0
  6
Continuous
 62
     7
370
    18
100
AcDbMText
 10
91.1006310711
 20
175.3380754032
 30
0.0
 40
2.6458333333
 41
0.0
 71
     1
 72
     1
  1
20
  7
SLDTEXTSTYLE0
 73
     1
 44
1.0
  0
ENDBLK
  5
267
330
265
100
AcDbEntity
  8
0
100
AcDbBlockEnd
  0
BLOCK
  5
270
330
26F
100
AcDbEntity
  8
0
100
AcDbBlockBegin
  2
_D_12
 70
     0
 10
0.0
 20
0.0
 30
0.0
  3
_D_12
  1

  0
INSERT
  5
272
330
26F
100
AcDbEntity
  8
0
  6
Continuous
 62
     7
370
    18
100
AcDbBlockReference
  2
_Open30
 10
102.8645199387
 20
172.2592876408
 30
0.0
 41
3.0
 42
3.0
 50
180.0
  0
INSERT
  5
273
330
26F
100
AcDbEntity
  8
0
  6
Continuous
 62
     7
370
    18
100
AcDbBlockReference
  2
_Open30
 10
258.3145888208
 20
172.2592876408
 30
0.0
 41
3.0
 42
3.0
 50
0.0
  0
LINE
  5
274
330
26F
100
AcDbEntity
  8
0
  6
Continuous
 62
     7
370
    18
100
AcDbLine
 10
102.8645199387
 20
148.8511621624
 30
0.0
 11
102.8645199387
 21
173.2592876408
 31
0.0
  0
LINE
  5
275
330
26F
100
AcDbEntity
  8
0
  6
Continuous
 62
     7
370
    18
100
AcDbLine
 10
258.3145888208
 20
155.2783170939
 30
0.0
 11
258.3145888208
 21
173.2592876408
 31
0.0
  0
LINE
  5
276
330
26F
100
AcDbEntity
  8
0
  6
Continuous
 62
     7
370
    18
100
AcDbLine
 10
102.8645199387
 20
172.2592876408
 30
0.0
 11
258.3145888208
 21
172.2592876408
 31
0.0
  0
MTEXT
  5
277
330
26F
100
AcDbEntity
  8
0
  6
Continuous
 62
     7
370
    18
100
AcDbMText
 10
169.9376250757
 20
175.3380754032
 30
0.0
 40
2.6458333333
 41
0.0
 71
     1
 72
     1
  1
L=100～10000
  7
SLDTEXTSTYLE1
 73
     1
 44
1.0
  0
ENDBLK
  5
271
330
26F
100
AcDbEntity
  8
0
100
AcDbBlockEnd
  0
BLOCK
  5
27A
330
279
100
AcDbEntity
  8
0
100
AcDbBlockBegin
  2
_D_13
 70
     0
 10
0.0
 20
0.0
 30
0.0
  3
_D_13
  1

  0
INSERT
  5
27C
330
279
100
AcDbEntity
  8
0
  6
Continuous
 62
     7
370
    18
100
AcDbBlockReference
  2
_Open30
 10
98.5068746399
 20
137.6511621624
 30
0.0
 41
3.0
 42
3.0
 50
270.0
  0
INSERT
  5
27D
330
279
100
AcDbEntity
  8
0
  6
Continuous
 62
     7
370
    18
100
AcDbBlockReference
  2
_Open30
 10
98.5068746399
 20
147.6511621624
 30
0.0
 41
3.0
 42
3.0
 50
90.0
  0
LINE
  5
27E
330
279
100
AcDbEntity
  8
0
  6
Continuous
 62
     7
370
    18
100
AcDbLine
 10
98.5068746399
 20
137.6511621624
 30
0.0
 11
98.5068746399
 21
147.6511621624
 31
0.0
  0
LINE
  5
27F
330
279
100
AcDbEntity
  8
0
  6
Continuous
 62
     7
370
    18
100
AcDbLine
 10
98.5068746399
 20
147.6511621624
 30
0.0
 11
98.5068746399
 21
157.3349515744
 31
0.0
  0
MTEXT
  5
280
330
279
100
AcDbEntity
  8
0
  6
Continuous
 62
     7
370
    18
100
AcDbMText
 10
95.4280866447
 20
150.4557848745
 30
0.0
 40
2.6458333333
 41
0.0
 71
     1
 72
     1
  1
%%c
  7
SLDTEXTSTYLE0
 11
6.123233995736766E-17
 21
1.0
 31
0.0
 73
     1
 44
1.0
  0
MTEXT
  5
281
330
279
100
AcDbEntity
  8
0
  6
Continuous
 62
     7
370
    18
100
AcDbMText
 10
95.4280866447
 20
153.8071738393
 30
0.0
 40
2.6458333333
 41
0.0
 71
     1
 72
     1
  1
10
  7
SLDTEXTSTYLE0
 11
6.123233995736766E-17
 21
1.0
 31
0.0
 73
     1
 44
1.0
  0
ENDBLK
  5
27B
330
279
100
AcDbEntity
  8
0
100
AcDbBlockEnd
  0
BLOCK
  5
284
330
283
100
AcDbEntity
  8
0
100
AcDbBlockBegin
  2
_D_14
 70
     0
 10
0.0
 20
0.0
 30
0.0
  3
_D_14
  1

  0
INSERT
  5
286
330
283
100
AcDbEntity
  8
0
  6
Continuous
 62
     7
370
    18
100
AcDbBlockReference
  2
_Open30
 10
102.8645199387
 20
158.8937194558
 30
0.0
 41
3.0
 42
3.0
 50
180.0
  0
INSERT
  5
287
330
283
100
AcDbEntity
  8
0
  6
Continuous
 62
     7
370
    18
100
AcDbBlockReference
  2
_Open30
 10
132.3587746651
 20
158.8937194558
 30
0.0
 41
3.0
 42
3.0
 50
0.0
  0
LINE
  5
288
330
283
100
AcDbEntity
  8
0
  6
Continuous
 62
     7
370
    18
100
AcDbLine
 10
102.8645199387
 20
148.8511621624
 30
0.0
 11
102.8645199387
 21
159.8937194558
 31
0.0
  0
LINE
  5
289
330
283
100
AcDbEntity
  8
0
  6
Continuous
 62
     7
370
    18
100
AcDbLine
 10
132.3587746651
 20
148.8511621624
 30
0.0
 11
132.3587746651
 21
159.8937194558
 31
0.0
  0
LINE
  5
28A
330
283
100
AcDbEntity
  8
0
  6
Continuous
 62
     7
370
    18
100
AcDbLine
 10
102.8645199387
 20
158.8937194558
 30
0.0
 11
132.3587746651
 21
158.8937194558
 31
0.0
  0
MTEXT
  5
28B
330
283
100
AcDbEntity
  8
0
  6
Continuous
 62
     7
370
    18
100
AcDbMText
 10
112.4816706381
 20
165.5002849533
 30
0.0
 40
2.6458333333
 41
0.0
 71
     1
 72
     1
  1
 K :180
  7
SLDTEXTSTYLE0
 73
     1
 44
1.0
  0
MTEXT
  5
28C
330
283
100
AcDbEntity
  8
0
  6
Continuous
 62
     7
370
    18
100
AcDbMText
 10
112.2513852991
 20
161.9725072181
 30
0.0
 40
2.6458333333
 41
0.0
 71
     1
 72
     1
  1
T,J:150
  7
SLDTEXTSTYLE0
 73
     1
 44
1.0
  0
ENDBLK
  5
285
330
283
100
AcDbEntity
  8
0
100
AcDbBlockEnd
  0
BLOCK
  5
28E
330
28D
100
AcDbEntity
  8
0
100
AcDbBlockBegin
  2
SW_NOTE_0
 70
     0
 10
0.0
 20
0.0
 30
0.0
  3
SW_NOTE_0
  1

  0
LINE
  5
290
330
28D
100
AcDbEntity
  8
0
  6
Continuous
 62
     0
370
    18
100
AcDbLine
 10
19.2933667231
 20
0.0
 30
0.0
 11
0.0
 21
0.0
 31
0.0
  0
MTEXT
  5
291
330
28D
100
AcDbEntity
  8
0
  6
Continuous
 62
     0
370
    18
100
AcDbMText
 10
0.486665276
 20
3.0344468195
 30
0.0
 40
2.6458333333
 41
0.0
 71
     1
 72
     1
  1
先端120°形
  7
SLDTEXTSTYLE1
 73
     1
 44
1.0
  0
ENDBLK
  5
28F
330
28D
100
AcDbEntity
  8
0
100
AcDbBlockEnd
  0
BLOCK
  5
296
330
295
100
AcDbEntity
  8
0
100
AcDbBlockBegin
  2
SW_NOTE_0_1
 70
     0
 10
0.0
 20
0.0
 30
0.0
  3
SW_NOTE_0_1
  1

  0
LINE
  5
298
330
295
100
AcDbEntity
  8
0
  6
Continuous
 62
     0
370
    18
100
AcDbLine
 10
12.6199878532
 20
0.0
 30
0.0
 11
0.0
 21
0.0
 31
0.0
  0
MTEXT
  5
299
330
295
100
AcDbEntity
  8
0
  6
Continuous
 62
     0
370
    18
100
AcDbMText
 10
0.486665276
 20
2.9832460496
 30
0.0
 40
2.6458333333
 41
0.0
 71
     1
 72
     1
  1
 保護管 
  7
SLDTEXTSTYLE1
 73
     1
 44
1.0
  0
ENDBLK
  5
297
330
295
100
AcDbEntity
  8
0
100
AcDbBlockEnd
  0
BLOCK
  5
29D
330
29C
100
AcDbEntity
  8
0
100
AcDbBlockBegin
  2
SW_NOTE_0_2
 70
     0
 10
0.0
 20
0.0
 30
0.0
  3
SW_NOTE_0_2
  1

  0
LINE
  5
29F
330
29C
100
AcDbEntity
  8
0
  6
Continuous
 62
     0
370
    18
100
AcDbLine
 10
11.448963337
 20
0.0
 30
0.0
 11
0.0
 21
0.0
 31
0.0
  0
MTEXT
  5
2A0
330
29C
100
AcDbEntity
  8
0
  6
Continuous
 62
     0
370
    18
100
AcDbMText
 10
0.486665276
 20
3.0514098183
 30
0.0
 40
2.6458333333
 41
0.0
 71
     1
 72
     1
  1
ｽﾌﾟﾘﾝｸﾞ
  7
SLDTEXTSTYLE1
 73
     1
 44
1.0
  0
ENDBLK
  5
29E
330
29C
100
AcDbEntity
  8
0
100
AcDbBlockEnd
  0
BLOCK
  5
2A4
330
2A3
100
AcDbEntity
  8
0
100
AcDbBlockBegin
  2
SW_NOTE_0_3
 70
     0
 10
0.0
 20
0.0
 30
0.0
  3
SW_NOTE_0_3
  1

  0
LINE
  5
2A6
330
2A3
100
AcDbEntity
  8
0
  6
Continuous
 62
     0
370
    18
100
AcDbLine
 10
21.1846500415
 20
0.0
 30
0.0
 11
0.0
 21
0.0
 31
0.0
  0
MTEXT
  5
2A7
330
2A3
100
AcDbEntity
  8
0
  6
Continuous
 62
     0
370
    18
100
AcDbMText
 10
0.486665276
 20
3.1189919478
 30
0.0
 40
2.6458333333
 41
0.0
 71
     1
 72
     1
  1
ﾊﾞｲﾖﾈｯﾄｷｬｯﾌﾟ
  7
SLDTEXTSTYLE1
 73
     1
 44
1.0
  0
ENDBLK
  5
2A5
330
2A3
100
AcDbEntity
  8
0
100
AcDbBlockEnd
  0
BLOCK
  5
2AB
330
2AA
100
AcDbEntity
  8
0
100
AcDbBlockBegin
  2
SW_NOTE_0_4
 70
     0
 10
0.0
 20
0.0
 30
0.0
  3
SW_NOTE_0_4
  1

  0
LINE
  5
2AD
330
2AA
100
AcDbEntity
  8
0
  6
Continuous
 62
     0
370
    18
100
AcDbLine
 10
9.0089168179
 20
0.0
 30
0.0
 11
0.0
 21
0.0
 31
0.0
  0
MTEXT
  5
2AE
330
2AA
100
AcDbEntity
  8
0
  6
Continuous
 62
     0
370
    18
100
AcDbMText
 10
0.4291941148
 20
3.1108683614
 30
0.0
 40
2.6458333333
 41
0.0
 71
     1
 72
     1
  1
ｽﾘｰﾌﾞ
  7
SLDTEXTSTYLE1
 73
     1
 44
1.0
  0
ENDBLK
  5
2AC
330
2AA
100
AcDbEntity
  8
0
100
AcDbBlockEnd
  0
BLOCK
  5
2B2
330
2B1
100
AcDbEntity
  8
0
100
AcDbBlockBegin
  2
SW_NOTE_0_5
 70
     0
 10
0.0
 20
0.0
 30
0.0
  3
SW_NOTE_0_5
  1

  0
LINE
  5
2B4
330
2B1
100
AcDbEntity
  8
0
  6
Continuous
 62
     0
370
    18
100
AcDbLine
 10
14.2809849012
 20
0.0
 30
0.0
 11
0.0
 21
0.0
 31
0.0
  0
MTEXT
  5
2B5
330
2B1
100
AcDbEntity
  8
0
  6
Continuous
 62
     0
370
    18
100
AcDbMText
 10
0.4334608766
 20
3.1108683614
 30
0.0
 40
2.6458333333
 41
0.0
 71
     1
 72
     1
  1
  ﾘｰﾄﾞ線  
  7
SLDTEXTSTYLE1
 73
     1
 44
1.0
  0
ENDBLK
  5
2B3
330
2B1
100
AcDbEntity
  8
0
100
AcDbBlockEnd
  0
BLOCK
  5
2B9
330
2B8
100
AcDbEntity
  8
0
100
AcDbBlockBegin
  2
SW_NOTE_0_6
 70
     0
 10
0.0
 20
0.0
 30
0.0
  3
SW_NOTE_0_6
  1

  0
LINE
  5
2BB
330
2B8
100
AcDbEntity
  8
0
  6
Continuous
 62
     0
370
    18
100
AcDbLine
 10
19.4452579844
 20
0.0
 30
0.0
 11
0.0
 21
0.0
 31
0.0
  0
MTEXT
  5
2BC
330
2B8
100
AcDbEntity
  8
0
  6
Continuous
 62
     0
370
    18
100
AcDbMText
 10
0.4707710113
 20
3.1108683614
 30
0.0
 40
2.6458333333
 41
0.0
 71
     1
 72
     1
  1
熱収縮ﾁｭｰﾌﾞ
  7
SLDTEXTSTYLE1
 73
     1
 44
1.0
  0
ENDBLK
  5
2BA
330
2B8
100
AcDbEntity
  8
0
100
AcDbBlockEnd
  0
BLOCK
  5
2C0
330
2BF
100
AcDbEntity
  8
0
100
AcDbBlockBegin
  2
SW_NOTE_0_7
 70
     0
 10
0.0
 20
0.0
 30
0.0
  3
SW_NOTE_0_7
  1

  0
LINE
  5
2C2
330
2BF
100
AcDbEntity
  8
0
  6
Continuous
 62
     0
370
    18
100
AcDbLine
 10
-13.470867857
 20
0.0
 30
0.0
 11
0.0
 21
0.0
 31
0.0
  0
MTEXT
  5
2C3
330
2BF
100
AcDbEntity
  8
0
  6
Continuous
 62
     0
370
    18
100
AcDbMText
 10
-13.8991496592
 20
3.1115624163
 30
0.0
 40
2.6458333333
 41
0.0
 71
     1
 72
     1
  1
Yﾗｸﾞ(M3)
  7
SLDTEXTSTYLE1
 73
     1
 44
1.0
  0
ENDBLK
  5
2C1
330
2BF
100
AcDbEntity
  8
0
100
AcDbBlockEnd
  0
BLOCK
  5
2CF
330
2CE
100
AcDbEntity
  8
0
100
AcDbBlockBegin
  2
SW_NOTE_0_8
 70
     0
 10
0.0
 20
0.0
 30
0.0
  3
SW_NOTE_0_8
  1

  0
LINE
  5
2D1
330
2CE
100
AcDbEntity
  8
0
  6
Continuous
 62
     0
370
    18
100
AcDbLine
 10
-7.9881131869
 20
0.0
 30
0.0
 11
0.0
 21
0.0
 31
0.0
  0
MTEXT
  5
2D2
330
2CE
100
AcDbEntity
  8
0
  6
Continuous
 62
     0
370
    18
100
AcDbMText
 10
-8.4066387826
 20
3.1459817316
 30
0.0
 40
2.6458333333
 41
0.0
 71
     1
 72
     1
  1
(R20)
  7
SLDTEXTSTYLE0
 73
     1
 44
1.0
  0
ENDBLK
  5
2D0
330
2CE
100
AcDbEntity
  8
0
100
AcDbBlockEnd
  0
BLOCK
  5
2D6
330
2D5
100
AcDbEntity
  8
0
100
AcDbBlockBegin
  2
SW_NOTE_0_9
 70
     0
 10
0.0
 20
0.0
 30
0.0
  3
SW_NOTE_0_9
  1

  0
LINE
  5
2D8
330
2D5
100
AcDbEntity
  8
0
  6
Continuous
 62
     0
370
    18
100
AcDbLine
 10
11.448963337
 20
0.0
 30
0.0
 11
0.0
 21
0.0
 31
0.0
  0
MTEXT
  5
2D9
330
2D5
100
AcDbEntity
  8
0
  6
Continuous
 62
     0
370
    18
100
AcDbMText
 10
0.4710406878
 20
3.1108683614
 30
0.0
 40
2.6458333333
 41
0.0
 71
     1
 72
     1
  1
ｽﾌﾟﾘﾝｸﾞ
  7
SLDTEXTSTYLE1
 73
     1
 44
1.0
  0
ENDBLK
  5
2D7
330
2D5
100
AcDbEntity
  8
0
100
AcDbBlockEnd
  0
BLOCK
  5
2DD
330
2DC
100
AcDbEntity
  8
0
100
AcDbBlockBegin
  2
SW_CENTERMARKSYMBOL_0
 70
     0
 10
0.0
 20
0.0
 30
0.0
  3
SW_CENTERMARKSYMBOL_0
  1

  0
LINE
  5
2DF
330
2DC
100
AcDbEntity
  8
0
  6
Continuous
 62
     0
370
    18
100
AcDbLine
 10
0.0
 20
0.0
 30
0.0
 11
0.0
 21
2.4999976158
 31
0.0
  0
LINE
  5
2E0
330
2DC
100
AcDbEntity
  8
0
  6
Continuous
 62
     0
370
    18
100
AcDbLine
 10
0.0
 20
0.0
 30
0.0
 11
-2.4999976158
 21
0.0
 31
0.0
  0
LINE
  5
2E1
330
2DC
100
AcDbEntity
  8
0
  6
Continuous
 62
     0
370
    18
100
AcDbLine
 10
0.0
 20
0.0
 30
0.0
 11
0.0
 21
-2.5000013411
 31
0.0
  0
LINE
  5
2E2
330
2DC
100
AcDbEntity
  8
0
  6
Continuous
 62
     0
370
    18
100
AcDbLine
 10
0.0
 20
0.0
 30
0.0
 11
2.500012517
 21
0.0
 31
0.0
  0
LINE
  5
2E3
330
2DC
100
AcDbEntity
  8
0
  6
Continuous
 62
     0
370
    18
100
AcDbLine
 10
0.0
 20
2.4999976158
 30
0.0
 11
0.0
 21
4.1001141071
 31
0.0
  0
LINE
  5
2E4
330
2DC
100
AcDbEntity
  8
0
  6
Continuous
 62
     0
370
    18
100
AcDbLine
 10
-2.4999976158
 20
0.0
 30
0.0
 11
-15.2212381363
 21
0.0
 31
0.0
  0
LINE
  5
2E5
330
2DC
100
AcDbEntity
  8
0
  6
Continuous
 62
     0
370
    18
100
AcDbLine
 10
0.0
 20
-2.5000013411
 30
0.0
 11
0.0
 21
-4.1001141071
 31
0.0
  0
LINE
  5
2E6
330
2DC
100
AcDbEntity
  8
0
  6
Continuous
 62
     0
370
    18
100
AcDbLine
 10
2.500012517
 20
0.0
 30
0.0
 11
4.1001141071
 21
0.0
 31
0.0
  0
ENDBLK
  5
2DE
330
2DC
100
AcDbEntity
  8
0
100
AcDbBlockEnd
  0
BLOCK
  5
2E9
330
2E8
100
AcDbEntity
  8
0
100
AcDbBlockBegin
  2
SW_CENTERMARKSYMBOL_1
 70
     0
 10
0.0
 20
0.0
 30
0.0
  3
SW_CENTERMARKSYMBOL_1
  1

  0
LINE
  5
2EB
330
2E8
100
AcDbEntity
  8
0
  6
Continuous
 62
     0
370
    18
100
AcDbLine
 10
0.0
 20
0.0
 30
0.0
 11
0.0
 21
2.5000013411
 31
0.0
  0
LINE
  5
2EC
330
2E8
100
AcDbEntity
  8
0
  6
Continuous
 62
     0
370
    18
100
AcDbLine
 10
0.0
 20
0.0
 30
0.0
 11
-2.4999976158
 21
0.0
 31
0.0
  0
LINE
  5
2ED
330
2E8
100
AcDbEntity
  8
0
  6
Continuous
 62
     0
370
    18
100
AcDbLine
 10
0.0
 20
0.0
 30
0.0
 11
0.0
 21
-2.5000013411
 31
0.0
  0
LINE
  5
2EE
330
2E8
100
AcDbEntity
  8
0
  6
Continuous
 62
     0
370
    18
100
AcDbLine
 10
0.0
 20
0.0
 30
0.0
 11
2.500012517
 21
0.0
 31
0.0
  0
LINE
  5
2EF
330
2E8
100
AcDbEntity
  8
0
  6
Continuous
 62
     0
370
    18
100
AcDbLine
 10
0.0
 20
2.5000013411
 30
0.0
 11
0.0
 21
4.1001141071
 31
0.0
  0
LINE
  5
2F0
330
2E8
100
AcDbEntity
  8
0
  6
Continuous
 62
     0
370
    18
100
AcDbLine
 10
-2.4999976158
 20
0.0
 30
0.0
 11
-15.2700692415
 21
0.0
 31
0.0
  0
LINE
  5
2F1
330
2E8
100
AcDbEntity
  8
0
  6
Continuous
 62
     0
370
    18
100
AcDbLine
 10
0.0
 20
-2.5000013411
 30
0.0
 11
0.0
 21
-4.1001141071
 31
0.0
  0
LINE
  5
2F2
330
2E8
100
AcDbEntity
  8
0
  6
Continuous
 62
     0
370
    18
100
AcDbLine
 10
2.500012517
 20
0.0
 30
0.0
 11
4.1001141071
 21
0.0
 31
0.0
  0
ENDBLK
  5
2EA
330
2E8
100
AcDbEntity
  8
0
100
AcDbBlockEnd
  0
ENDSEC
  0
SECTION
  2
ENTITIES
  0
LINE
  5
73
330
1F
100
AcDbEntity
  8
0
  6
Continuous
 62
     7
370
    25
100
AcDbLine
 10
12.8700158558
 20
190.0085404097
 30
0.0
 11
12.8700749558
 21
18.0082352097
 31
0.0
  0
LINE
  5
74
330
1F
100
AcDbEntity
  8
0
  6
Continuous
 62
     7
370
    25
100
AcDbLine
 10
12.8700749558
 20
18.0082352097
 30
0.0
 11
282.5707921135
 21
18.0082352097
 31
0.0
  0
LINE
  5
75
330
1F
100
AcDbEntity
  8
0
  6
Continuous
 62
     7
370
    25
100
AcDbLine
 10
12.8700158558
 20
190.0085404097
 30
0.0
 11
282.5707921135
 21
190.0085404097
 31
0.0
  0
LINE
  5
76
330
1F
100
AcDbEntity
  8
0
  6
Continuous
 62
     7
370
    25
100
AcDbLine
 10
282.5707921135
 20
18.0082352097
 30
0.0
 11
282.5707921135
 21
190.0085404097
 31
0.0
  0
MTEXT
  5
78
330
1F
100
AcDbEntity
  8
0
  6
Continuous
 62
     7
370
    18
100
AcDbMText
 10
161.3643284109
 20
34.9989493968
 30
0.0
 40
4.7625
 41
0.0
 71
     1
 72
     1
  1
RKC INSTRUMENT INC.
  7
SLDTEXTSTYLE0
 73
     1
 44
1.0
  0
MTEXT
  5
7A
330
1F
100
AcDbEntity
  8
0
  6
Continuous
 62
     7
370
    18
100
AcDbMText
 10
161.3643284109
 20
43.1308647811
 30
0.0
 40
4.7625
 41
0.0
 71
     1
 72
     1
  1
MODEL：T-210-5-ﾛ-ﾛ-ﾛ-Y-ﾛ-ﾛ-ﾛ
  7
SLDTEXTSTYLE1
 73
     1
 44
1.0
  0
INSERT
  5
81
330
1F
100
AcDbEntity
  8
0
  6
Continuous
 62
     7
100
AcDbBlockReference
  2
SW_BROKEN_VIEW_0
 10
64.2645157353
 20
119.5511625557
 30
0.0
  0
LINE
  5
82
330
1F
100
AcDbEntity
  8
0
  6
Continuous
 62
     7
370
    25
100
AcDbLine
 10
252.033623833
 20
137.3741210847
 30
0.0
 11
243.0336204951
 21
137.3741210847
 31
0.0
  0
LINE
  5
83
330
1F
100
AcDbEntity
  8
0
  6
Continuous
 62
     7
370
    25
100
AcDbLine
 10
243.0336204951
 20
132.8741194157
 30
0.0
 11
252.033623833
 21
132.8741194157
 31
0.0
  0
LINE
  5
84
330
1F
100
AcDbEntity
  8
0
  6
Continuous
 62
     7
370
    25
100
AcDbLine
 10
252.033623833
 20
152.4282054453
 30
0.0
 11
243.0336204951
 21
152.4282054453
 31
0.0
  0
LINE
  5
85
330
1F
100
AcDbEntity
  8
0
  6
Continuous
 62
     7
370
    25
100
AcDbLine
 10
243.0336204951
 20
147.9282037763
 30
0.0
 11
252.033623833
 21
147.9282037763
 31
0.0
  0
LINE
  5
86
330
1F
100
AcDbEntity
  8
0
  6
Continuous
 62
     7
370
    25
100
AcDbLine
 10
230.262118358
 20
148.0082863419
 30
0.0
 11
243.0336204951
 21
149.8032057135
 31
0.0
  0
LINE
  5
87
330
1F
100
AcDbEntity
  8
0
  6
Continuous
 62
     7
370
    25
100
AcDbLine
 10
243.0333224719
 20
150.5531625299
 30
0.0
 11
230.3263125604
 21
148.7673067896
 31
0.0
  0
LINE
  5
88
330
1F
100
AcDbEntity
  8
0
  6
Continuous
 62
     7
370
    25
100
AcDbLine
 10
243.0336204951
 20
135.4991191475
 30
0.0
 11
232.0933965629
 21
137.0366693883
 31
0.0
  0
LINE
  5
89
330
1F
100
AcDbEntity
  8
0
  6
Continuous
 62
     7
370
    25
100
AcDbLine
 10
232.0157317107
 20
136.2975829689
 30
0.0
 11
243.0333224719
 21
134.7491623311
 31
0.0
  0
LINE
  5
8A
330
1F
100
AcDbEntity
  8
0
  6
Continuous
 62
     7
370
    25
100
AcDbLine
 10
252.033623833
 20
132.8741194157
 30
0.0
 11
252.033623833
 21
137.3741210847
 31
0.0
  0
LINE
  5
8B
330
1F
100
AcDbEntity
  8
0
  6
Continuous
 62
     7
370
    25
100
AcDbLine
 10
243.0336204951
 20
132.8741194157
 30
0.0
 11
243.0336204951
 21
137.3741210847
 31
0.0
  0
LINE
  5
8C
330
1F
100
AcDbEntity
  8
0
  6
Continuous
 62
     7
370
    25
100
AcDbLine
 10
252.033623833
 20
147.9282037763
 30
0.0
 11
252.033623833
 21
152.4282054453
 31
0.0
  0
LINE
  5
8D
330
1F
100
AcDbEntity
  8
0
  6
Continuous
 62
     7
370
    25
100
AcDbLine
 10
243.0336204951
 20
147.9282037763
 30
0.0
 11
243.0336204951
 21
152.4282054453
 31
0.0
  0
LINE
  5
8E
330
1F
100
AcDbEntity
  8
0
  6
Continuous
 62
     7
370
    25
100
AcDbLine
 10
262.7336261457
 20
136.7241212575
 30
0.0
 11
258.3336261695
 21
136.7241212575
 31
0.0
  0
ARC
  5
8F
330
1F
100
AcDbEntity
  8
0
  6
Continuous
 62
     7
370
    25
100
AcDbCircle
 10
258.3145950806
 20
135.1241202502
 30
0.0
 40
1.600114185227494
100
AcDbArc
 50
89.3185318931
 51
270.6814681069
  0
LINE
  5
90
330
1F
100
AcDbEntity
  8
0
  6
Continuous
 62
     7
370
    25
100
AcDbLine
 10
258.3336261695
 20
133.5241192429
 30
0.0
 11
262.7336261457
 21
133.5241192429
 31
0.0
  0
ARC
  5
91
330
1F
100
AcDbEntity
  8
0
  6
Continuous
 62
     7
370
    25
100
AcDbCircle
 10
262.733633842
 20
133.2241367618
 30
0.0
 40
0.2999824811830131
100
AcDbArc
 50
359.9971070338
 51
90.0014699812
  0
ARC
  5
92
330
1F
100
AcDbEntity
  8
0
  6
Continuous
 62
     7
370
    25
100
AcDbCircle
 10
262.7336338419
 20
132.52410207
 30
0.0
 40
0.2999824815435539
100
AcDbArc
 50
269.9985300474
 51
0.0036044169
  0
LINE
  5
93
330
1F
100
AcDbEntity
  8
0
  6
Continuous
 62
     7
370
    25
100
AcDbLine
 10
254.6265003865
 20
132.2241195886
 30
0.0
 11
262.7336261457
 21
132.2241195886
 31
0.0
  0
ARC
  5
94
330
1F
100
AcDbEntity
  8
0
  6
Continuous
 62
     7
370
    25
100
AcDbCircle
 10
254.6264834171
 20
134.2240559206
 30
0.0
 40
1.999936332087402
100
AcDbArc
 50
236.9755766672
 51
270.0004861546
  0
ARC
  5
95
330
1F
100
AcDbEntity
  8
0
  6
Continuous
 62
     7
370
    25
100
AcDbCircle
 10
254.6264834171
 20
136.0241845798
 30
0.0
 40
1.999936332087296
100
AcDbArc
 50
89.9995138454
 51
123.0244233328
  0
ARC
  5
96
330
1F
100
AcDbEntity
  8
0
  6
Continuous
 62
     7
370
    25
100
AcDbCircle
 10
262.7336338419
 20
137.7241384304
 30
0.0
 40
0.2999824815436025
100
AcDbArc
 50
359.9963955831
 51
90.0014699526
  0
LINE
  5
97
330
1F
100
AcDbEntity
  8
0
  6
Continuous
 62
     7
370
    25
100
AcDbLine
 10
262.7336261457
 20
138.0241209118
 30
0.0
 11
254.6265003865
 21
138.0241209118
 31
0.0
  0
LINE
  5
98
330
1F
100
AcDbEntity
  8
0
  6
Continuous
 62
     7
370
    25
100
AcDbLine
 10
252.033623833
 20
133.5241192429
 30
0.0
 11
253.5365251487
 21
132.5472326426
 31
0.0
  0
LINE
  5
99
330
1F
100
AcDbEntity
  8
0
  6
Continuous
 62
     7
370
    25
100
AcDbLine
 10
263.0336163228
 20
137.0241188853
 30
0.0
 11
263.0336163228
 21
137.7241195588
 31
0.0
  0
ARC
  5
9A
330
1F
100
AcDbEntity
  8
0
  6
Continuous
 62
     7
370
    25
100
AcDbCircle
 10
262.733633842
 20
137.0241037386
 30
0.0
 40
0.2999824811830131
100
AcDbArc
 50
269.9985300188
 51
0.0028929662
  0
LINE
  5
9B
330
1F
100
AcDbEntity
  8
0
  6
Continuous
 62
     7
370
    25
100
AcDbLine
 10
263.0336163228
 20
132.5241209416
 30
0.0
 11
263.0336163228
 21
133.2241216152
 31
0.0
  0
LINE
  5
9C
330
1F
100
AcDbEntity
  8
0
  6
Continuous
 62
     7
370
    25
100
AcDbLine
 10
253.5365251487
 20
137.7010078578
 30
0.0
 11
252.033623833
 21
136.7241212575
 31
0.0
  0
ARC
  5
9D
330
1F
100
AcDbEntity
  8
0
  6
Continuous
 62
     7
370
    25
100
AcDbCircle
 10
262.7336274829
 20
152.0781907332
 30
0.0
 40
0.2999888403898541
100
AcDbArc
 50
269.9997446033
 51
0.0031013313
  0
LINE
  5
9E
330
1F
100
AcDbEntity
  8
0
  6
Continuous
 62
     7
370
    25
100
AcDbLine
 10
262.7336261457
 20
151.7782018928
 30
0.0
 11
258.3336261695
 21
151.7782018928
 31
0.0
  0
ARC
  5
9F
330
1F
100
AcDbEntity
  8
0
  6
Continuous
 62
     7
370
    25
100
AcDbCircle
 10
258.3145932399
 20
150.1782027482
 30
0.0
 40
1.600112344606762
100
AcDbArc
 50
89.3184651967
 51
270.6815348033
  0
LINE
  5
A0
330
1F
100
AcDbEntity
  8
0
  6
Continuous
 62
     7
370
    25
100
AcDbLine
 10
258.3336261695
 20
148.5782036035
 30
0.0
 11
262.7336261457
 21
148.5782036035
 31
0.0
  0
ARC
  5
A1
330
1F
100
AcDbEntity
  8
0
  6
Continuous
 62
     7
370
    25
100
AcDbCircle
 10
262.7336338419
 20
148.278221122
 30
0.0
 40
0.2999824815435823
100
AcDbArc
 50
359.9963955831
 51
90.0014699526
  0
LINE
  5
A2
330
1F
100
AcDbEntity
  8
0
  6
Continuous
 62
     7
370
    25
100
AcDbLine
 10
263.0336163228
 20
147.5782053022
 30
0.0
 11
263.0336163228
 21
148.2782022505
 31
0.0
  0
ARC
  5
A3
330
1F
100
AcDbEntity
  8
0
  6
Continuous
 62
     7
370
    25
100
AcDbCircle
 10
262.7336338419
 20
147.5781864306
 30
0.0
 40
0.2999824815435539
100
AcDbArc
 50
269.9985300474
 51
0.0036044169
  0
ARC
  5
A4
330
1F
100
AcDbEntity
  8
0
  6
Continuous
 62
     7
370
    25
100
AcDbCircle
 10
254.6264834171
 20
149.2781402812
 30
0.0
 40
1.999936332087345
100
AcDbArc
 50
236.9755766672
 51
270.0004861546
  0
LINE
  5
A5
330
1F
100
AcDbEntity
  8
0
  6
Continuous
 62
     7
370
    25
100
AcDbLine
 10
253.5365251487
 20
152.7550922184
 30
0.0
 11
252.033623833
 21
151.7782018928
 31
0.0
  0
ARC
  5
A6
330
1F
100
AcDbEntity
  8
0
  6
Continuous
 62
     7
370
    25
100
AcDbCircle
 10
254.6264889116
 20
151.0782273468
 30
0.0
 40
1.99997420032097
100
AcDbArc
 50
89.9996712641
 51
123.0239059024
  0
ARC
  5
A7
330
1F
100
AcDbEntity
  8
0
  6
Continuous
 62
     7
370
    25
100
AcDbCircle
 10
262.7336402007
 20
152.7782254245
 30
0.0
 40
0.2999761229109763
100
AcDbArc
 50
359.9958924913
 51
90.0026845237
  0
LINE
  5
A8
330
1F
100
AcDbEntity
  8
0
  6
Continuous
 62
     7
370
    25
100
AcDbLine
 10
252.033623833
 20
148.5782036035
 30
0.0
 11
253.5365251487
 21
147.6013170032
 31
0.0
  0
LINE
  5
A9
330
1F
100
AcDbEntity
  8
0
  6
Continuous
 62
     7
370
    25
100
AcDbLine
 10
262.7336261457
 20
153.0782015471
 30
0.0
 11
254.6265003865
 21
153.0782015471
 31
0.0
  0
LINE
  5
AA
330
1F
100
AcDbEntity
  8
0
  6
Continuous
 62
     7
370
    25
100
AcDbLine
 10
263.0336163228
 20
152.0782069712
 30
0.0
 11
263.0336163228
 21
152.7782039194
 31
0.0
  0
LINE
  5
AB
330
1F
100
AcDbEntity
  8
0
  6
Continuous
 62
     7
370
    25
100
AcDbLine
 10
254.6265003865
 20
147.2782039492
 30
0.0
 11
262.7336261457
 21
147.2782039492
 31
0.0
  0
LINE
  5
AC
330
1F
100
AcDbEntity
  8
0
  6
Continuous
 62
     7
370
    25
100
AcDbLine
 10
192.4778690941
 20
140.1511610894
 30
0.0
 11
193.4778711207
 21
141.0711625068
 31
0.0
  0
LINE
  5
AD
330
1F
100
AcDbEntity
  8
0
  6
Continuous
 62
     7
370
    25
100
AcDbLine
 10
193.4778711207
 20
144.2311623542
 30
0.0
 11
192.4778690941
 21
145.1511637716
 31
0.0
  0
LINE
  5
AE
330
1F
100
AcDbEntity
  8
0
  6
Continuous
 62
     7
370
    25
100
AcDbLine
 10
182.4778711803
 20
140.1511610894
 30
0.0
 11
192.4778690941
 21
140.1511610894
 31
0.0
  0
LINE
  5
AF
330
1F
100
AcDbEntity
  8
0
  6
Continuous
 62
     7
370
    25
100
AcDbLine
 10
192.4778690941
 20
145.1511637716
 30
0.0
 11
182.4778711803
 21
145.1511637716
 31
0.0
  0
LINE
  5
B0
330
1F
100
AcDbEntity
  8
0
  6
Continuous
 62
     7
370
    25
100
AcDbLine
 10
193.4778711207
 20
141.0711625068
 30
0.0
 11
201.477872432
 21
141.0711625068
 31
0.0
  0
LINE
  5
B1
330
1F
100
AcDbEntity
  8
0
  6
Continuous
 62
     7
370
    25
100
AcDbLine
 10
201.477872432
 20
144.2311623542
 30
0.0
 11
193.4778711207
 21
144.2311623542
 31
0.0
  0
LINE
  5
B2
330
1F
100
AcDbEntity
  8
0
  6
Continuous
 62
     7
370
    25
100
AcDbLine
 10
201.4786174901
 20
142.7762688546
 30
0.0
 11
227.4064889557
 21
146.4201913624
 31
0.0
  0
LINE
  5
B3
330
1F
100
AcDbEntity
  8
0
  6
Continuous
 62
     7
370
    25
100
AcDbLine
 10
227.4245640643
 20
147.1727335303
 30
0.0
 11
201.477872432
 21
143.5261623411
 31
0.0
  0
LINE
  5
B4
330
1F
100
AcDbEntity
  8
0
  6
Continuous
 62
     7
370
    25
100
AcDbLine
 10
228.9659699805
 20
138.6629597692
 30
0.0
 11
201.4786174901
 21
142.5260560064
 31
0.0
  0
LINE
  5
B5
330
1F
100
AcDbEntity
  8
0
  6
Continuous
 62
     7
370
    25
100
AcDbLine
 10
201.477872432
 20
141.7761625199
 30
0.0
 11
228.9321890481
 21
137.9177117197
 31
0.0
  0
LINE
  5
B6
330
1F
100
AcDbEntity
  8
0
  6
Continuous
 62
     7
370
    25
100
AcDbLine
 10
182.4778711803
 20
145.0511620788
 30
0.0
 11
152.6342539496
 21
145.0511620788
 31
0.0
  0
LINE
  5
B7
330
1F
100
AcDbEntity
  8
0
  6
Continuous
 62
     7
370
    25
100
AcDbLine
 10
153.7285207219
 20
140.2511627822
 30
0.0
 11
182.4778711803
 21
140.2511627822
 31
0.0
  0
LINE
  5
B8
330
1F
100
AcDbEntity
  8
0
  6
Continuous
 62
     7
370
    25
100
AcDbLine
 10
182.4778711803
 20
140.1511610894
 30
0.0
 11
182.4778711803
 21
145.1511637716
 31
0.0
  0
LINE
  5
B9
330
1F
100
AcDbEntity
  8
0
  6
Continuous
 62
     7
370
    25
100
AcDbLine
 10
201.477872432
 20
141.0711625068
 30
0.0
 11
201.477872432
 21
144.2311623542
 31
0.0
  0
SPLINE
  5
BA
330
1F
100
AcDbEntity
  8
0
  6
Continuous
 62
     7
370
    25
100
AcDbSpline
210
0.0
220
0.0
230
1.0
 70
     8
 71
     3
 72
    12
 73
     8
 74
     0
 42
0.00000001
 43
0.00000001
 40
0.0
 40
0.0
 40
0.0
 40
0.0
 40
0.0939834433290657
 40
0.3255042959848683
 40
0.630128555770234
 40
0.9384752469444434
 40
1.0
 40
1.0
 40
1.0
 40
1.0
 10
131.8015370625877
 20
137.207801774009
 30
0.0
 10
131.8550425933012
 20
137.2901007018816
 30
0.0
 10
132.0403548088283
 20
137.575136593615
 30
0.0
 10
132.0875129987547
 20
138.2488233044233
 30
0.0
 10
132.2142469450488
 20
139.1048351412386
 30
0.0
 10
132.2579827660466
 20
139.8049113667129
 30
0.0
 10
132.2717098960818
 20
140.1875194113958
 30
0.0
 10
132.2739932793999
 20
140.2511627821762
 30
0.0
  0
SPLINE
  5
BB
330
1F
100
AcDbEntity
  8
0
  6
Continuous
 62
     7
370
    25
100
AcDbSpline
210
0.0
220
0.0
230
1.0
 70
     8
 71
     3
 72
    11
 73
     7
 74
     0
 42
0.00000001
 43
0.00000001
 40
0.0
 40
0.0
 40
0.0
 40
0.0
 40
0.4251388021706222
 40
0.6809040143000268
 40
0.8876169183369699
 40
1.0
 40
1.0
 40
1.0
 40
1.0
 10
132.436356331768
 20
145.0511620788414
 30
0.0
 10
132.4492719127505
 20
145.3891001983302
 30
0.0
 10
132.4699575591632
 20
145.9303432487649
 30
0.0
 10
132.4828218676925
 20
146.6317803520789
 30
0.0
 10
132.5185747908733
 20
147.0958969309468
 30
0.0
 10
132.4376690965629
 20
147.3379614062319
 30
0.0
 10
132.4091747511053
 20
147.423214599355
 30
0.0
  0
SPLINE
  5
BC
330
1F
100
AcDbEntity
  8
0
  6
Continuous
 62
     7
370
    25
100
AcDbSpline
210
0.0
220
0.0
230
1.0
 70
     8
 71
     3
 72
    13
 73
     9
 74
     0
 42
0.00000001
 43
0.00000001
 40
0.0
 40
0.0
 40
0.0
 40
0.0
 40
0.0714862566681264
 40
0.3797789395148833
 40
0.6601166381527618
 40
0.8126682123809049
 40
0.9535603862787224
 40
1.0
 40
1.0
 40
1.0
 40
1.0
 10
118.8497495014095
 20
142.9328092782337
 30
0.0
 10
118.846084806715
 20
143.0484955278048
 30
0.0
 10
118.8266156957333
 20
143.663092000278
 30
0.0
 10
118.7864157882353
 20
144.7301029757847
 30
0.0
 10
118.7685796335813
 20
145.9335346916565
 30
0.0
 10
118.6785045223671
 20
146.8530414672365
 30
0.0
 10
118.5811080694882
 20
147.4088625351418
 30
0.0
 10
118.4211671676396
 20
147.6678912008923
 30
0.0
 10
118.3815177637959
 20
147.7321044950325
 30
0.0
  0
LWPOLYLINE
  5
BD
330
1F
100
AcDbEntity
  8
0
  6
Continuous
 62
     7
370
    25
100
AcDbPolyline
 90
       15
 70
   128
 43
0.0
 10
120.1032221425
 20
137.5037127583
 10
120.0581070144
 20
137.7334663122
 10
120.0118780244
 20
138.3721747844
 10
119.9714604873
 20
139.2299936561
 10
119.9396912116
 20
140.1254603116
 10
119.8870901126
 20
141.7677768915
 10
119.8386259485
 20
143.2798424213
 10
119.7906591106
 20
144.7764628975
 10
119.74137352
 20
146.1371810584
 10
119.6663983274
 20
146.8743266015
 10
119.4939378757
 20
147.5365565567
 10
119.2724414278
 20
147.9218335299
 10
119.1442262489
 20
147.9073048978
 10
119.1381856907
 20
147.7335163801
 10
119.1381856907
 20
147.7335163801
  0
LWPOLYLINE
  5
BE
330
1F
100
AcDbEntity
  8
0
  6
Continuous
 62
     7
370
    25
100
AcDbPolyline
 90
       15
 70
   128
 43
0.0
 10
121.1032223064
 20
137.5037127583
 10
121.0581071783
 20
137.7334663122
 10
121.0118781883
 20
138.3721747844
 10
120.9714606512
 20
139.2299936561
 10
120.9396913756
 20
140.1254603116
 10
120.8870902765
 20
141.7677768915
 10
120.8386261124
 20
143.2798424213
 10
120.7906592745
 20
144.7764628975
 10
120.7413736839
 20
146.1371810584
 10
120.6663984913
 20
146.8743266015
 10
120.4939380396
 20
147.5365565567
 10
120.2724415917
 20
147.9218335299
 10
120.1442264128
 20
147.9073048978
 10
120.1381858546
 20
147.7335163801
 10
120.1381858546
 20
147.7335163801
  0
LWPOLYLINE
  5
BF
330
1F
100
AcDbEntity
  8
0
  6
Continuous
 62
     7
370
    25
100
AcDbPolyline
 90
       15
 70
   128
 43
0.0
 10
122.1032224703
 20
137.5037127583
 10
122.0581073422
 20
137.7334663122
 10
122.0118783522
 20
138.3721747844
 10
121.9714608151
 20
139.2299936561
 10
121.9396915395
 20
140.1254603116
 10
121.8870904405
 20
141.7677768915
 10
121.8386262763
 20
143.2798424213
 10
121.7906594384
 20
144.7764628975
 10
121.7413719851
 20
146.1371810584
 10
121.6663986552
 20
146.8743266015
 10
121.4939382035
 20
147.5365565567
 10
121.2724417556
 20
147.9218335299
 10
121.1442265767
 20
147.9073048978
 10
121.1381860185
 20
147.7335163801
 10
121.1381860185
 20
147.7335163801
  0
LWPOLYLINE
  5
C0
330
1F
100
AcDbEntity
  8
0
  6
Continuous
 62
     7
370
    25
100
AcDbPolyline
 90
       15
 70
   128
 43
0.0
 10
123.1032226343
 20
137.5037127583
 10
123.0581075061
 20
137.7334663122
 10
123.0118785161
 20
138.3721747844
 10
122.9714591164
 20
139.2299936561
 10
122.9396917034
 20
140.1254603116
 10
122.8870906044
 20
141.7677768915
 10
122.8386264402
 20
143.2798424213
 10
122.7906596023
 20
144.7764628975
 10
122.7413721491
 20
146.1371810584
 10
122.6663988192
 20
146.8743266015
 10
122.4939383674
 20
147.5365565567
 10
122.2724419195
 20
147.9218335299
 10
122.1442267407
 20
147.9073048978
 10
122.1381861824
 20
147.7335163801
 10
122.1381861824
 20
147.7335163801
  0
LWPOLYLINE
  5
C1
330
1F
100
AcDbEntity
  8
0
  6
Continuous
 62
     7
370
    25
100
AcDbPolyline
 90
       15
 70
   128
 43
0.0
 10
124.1032227982
 20
137.5037127583
 10
124.05810767
 20
137.7334663122
 10
124.0118786801
 20
138.3721747844
 10
123.9714592803
 20
139.2299936561
 10
123.9396918673
 20
140.1254603116
 10
123.8870907683
 20
141.7677768915
 10
123.8386266041
 20
143.2798424213
 10
123.7906597663
 20
144.7764628975
 10
123.741372313
 20
146.1371810584
 10
123.6663989831
 20
146.8743266015
 10
123.4939385313
 20
147.5365565567
 10
123.2724420834
 20
147.9218335299
 10
123.1442269046
 20
147.9073048978
 10
123.1381863464
 20
147.7335163801
 10
123.1381863464
 20
147.7335163801
  0
LWPOLYLINE
  5
C2
330
1F
100
AcDbEntity
  8
0
  6
Continuous
 62
     7
370
    25
100
AcDbPolyline
 90
       15
 70
   128
 43
0.0
 10
125.1032229621
 20
137.5037127583
 10
125.0581059713
 20
137.7334663122
 10
125.011878844
 20
138.3721747844
 10
124.9714594442
 20
139.2299936561
 10
124.9396920312
 20
140.1254603116
 10
124.8870909322
 20
141.7677768915
 10
124.8386249054
 20
143.2798424213
 10
124.7906599302
 20
144.7764628975
 10
124.7413724769
 20
146.1371810584
 10
124.666399147
 20
146.8743266015
 10
124.4939368326
 20
147.5365565567
 10
124.2724422473
 20
147.9218335299
 10
124.1442270685
 20
147.9073048978
 10
124.1381865103
 20
147.7335163801
 10
124.1381865103
 20
147.7335163801
  0
LWPOLYLINE
  5
C3
330
1F
100
AcDbEntity
  8
0
  6
Continuous
 62
     7
370
    25
100
AcDbPolyline
 90
       15
 70
   128
 43
0.0
 10
126.103223126
 20
137.5037127583
 10
126.0581061352
 20
137.7334663122
 10
126.0118790079
 20
138.3721747844
 10
125.9714596081
 20
139.2299936561
 10
125.9396921951
 20
140.1254603116
 10
125.8870910961
 20
141.7677768915
 10
125.8386250693
 20
143.2798424213
 10
125.7906600941
 20
144.7764628975
 10
125.7413726408
 20
146.1371810584
 10
125.6663993109
 20
146.8743266015
 10
125.4939369965
 20
147.5365565567
 10
125.2724424112
 20
147.9218335299
 10
125.1442272324
 20
147.9073048978
 10
125.1381866742
 20
147.7335163801
 10
125.1381866742
 20
147.7335163801
  0
LWPOLYLINE
  5
C4
330
1F
100
AcDbEntity
  8
0
  6
Continuous
 62
     7
370
    25
100
AcDbPolyline
 90
       15
 70
   128
 43
0.0
 10
127.1032214273
 20
137.5037127583
 10
127.0581062991
 20
137.7334663122
 10
127.0118791718
 20
138.3721747844
 10
126.9714597721
 20
139.2299936561
 10
126.939692359
 20
140.1254603116
 10
126.88709126
 20
141.7677768915
 10
126.8386252332
 20
143.2798424213
 10
126.790660258
 20
144.7764628975
 10
126.7413728047
 20
146.1371810584
 10
126.6663976122
 20
146.8743266015
 10
126.4939371604
 20
147.5365565567
 10
126.2724425752
 20
147.9218335299
 10
126.1442273963
 20
147.9073048978
 10
126.1381868381
 20
147.7335163801
 10
126.1381868381
 20
147.7335163801
  0
LWPOLYLINE
  5
C5
330
1F
100
AcDbEntity
  8
0
  6
Continuous
 62
     7
370
    25
100
AcDbPolyline
 90
       15
 70
   128
 43
0.0
 10
128.1032215912
 20
137.5037127583
 10
128.058106463
 20
137.7334663122
 10
128.0118793357
 20
138.3721747844
 10
127.971459936
 20
139.2299936561
 10
127.9396925229
 20
140.1254603116
 10
127.8870914239
 20
141.7677768915
 10
127.8386253971
 20
143.2798424213
 10
127.7906604219
 20
144.7764628975
 10
127.7413729686
 20
146.1371810584
 10
127.6663977761
 20
146.8743266015
 10
127.4939373243
 20
147.5365565567
 10
127.2724427391
 20
147.9218335299
 10
127.1442275602
 20
147.9073048978
 10
127.138187002
 20
147.7335163801
 10
127.138187002
 20
147.7335163801
  0
LWPOLYLINE
  5
C6
330
1F
100
AcDbEntity
  8
0
  6
Continuous
 62
     7
370
    25
100
AcDbPolyline
 90
       15
 70
   128
 43
0.0
 10
129.1032217551
 20
137.5037127583
 10
129.0581066269
 20
137.7334663122
 10
129.0118794996
 20
138.3721747844
 10
128.9714600999
 20
139.2299936561
 10
128.9396926869
 20
140.1254603116
 10
128.8870897252
 20
141.7677768915
 10
128.8386255611
 20
143.2798424213
 10
128.7906605858
 20
144.7764628975
 10
128.7413731325
 20
146.1371810584
 10
128.66639794
 20
146.8743266015
 10
128.4939374883
 20
147.5365565567
 10
128.272442903
 20
147.9218335299
 10
128.1442277241
 20
147.9073048978
 10
128.1381871659
 20
147.7335163801
 10
128.1381871659
 20
147.7335163801
  0
LWPOLYLINE
  5
C7
330
1F
100
AcDbEntity
  8
0
  6
Continuous
 62
     7
370
    25
100
AcDbPolyline
 90
       15
 70
   128
 43
0.0
 10
130.103221919
 20
137.5037127583
 10
130.0581067908
 20
137.7334663122
 10
130.0118796635
 20
138.3721747844
 10
129.9714602638
 20
139.2299936561
 10
129.9396909881
 20
140.1254603116
 10
129.8870898891
 20
141.7677768915
 10
129.838625725
 20
143.2798424213
 10
129.7906607497
 20
144.7764628975
 10
129.7413732964
 20
146.1371810584
 10
129.6663981039
 20
146.8743266015
 10
129.4939376522
 20
147.5365565567
 10
129.2724430669
 20
147.9218335299
 10
129.1442278881
 20
147.9073048978
 10
129.1381873298
 20
147.7335163801
 10
129.1381873298
 20
147.7335163801
  0
LWPOLYLINE
  5
C8
330
1F
100
AcDbEntity
  8
0
  6
Continuous
 62
     7
370
    25
100
AcDbPolyline
 90
       15
 70
   128
 43
0.0
 10
131.1032220829
 20
137.5037127583
 10
131.0581069548
 20
137.7334663122
 10
131.0118779648
 20
138.3721747844
 10
130.9714604277
 20
139.2299936561
 10
130.939691152
 20
140.1254603116
 10
130.887090053
 20
141.7677768915
 10
130.8386258889
 20
143.2798424213
 10
130.790659051
 20
144.7764628975
 10
130.7413734604
 20
146.1371810584
 10
130.6663982678
 20
146.8743266015
 10
130.4939378161
 20
147.5365565567
 10
130.2724413682
 20
147.9218335299
 10
130.144228052
 20
147.9073048978
 10
130.1381856311
 20
147.7335163801
 10
130.1381856311
 20
147.7335163801
  0
LWPOLYLINE
  5
C9
330
1F
100
AcDbEntity
  8
0
  6
Continuous
 62
     7
370
    25
100
AcDbPolyline
 90
       15
 70
   128
 43
0.0
 10
132.1032222468
 20
137.5037127583
 10
132.0581071187
 20
137.7334663122
 10
132.0118781287
 20
138.3721747844
 10
131.9714605916
 20
139.2299936561
 10
131.939691316
 20
140.1254603116
 10
131.8870902169
 20
141.7677768915
 10
131.8386260528
 20
143.2798424213
 10
131.7906592149
 20
144.7764628975
 10
131.7413736243
 20
146.1371810584
 10
131.6663984317
 20
146.8743266015
 10
131.49393798
 20
147.5365565567
 10
131.2724415321
 20
147.9218335299
 10
131.1442263532
 20
147.9073048978
 10
131.138185795
 20
147.7335163801
 10
131.138185795
 20
147.7335163801
  0
SPLINE
  5
CA
330
1F
100
AcDbEntity
  8
0
  6
Continuous
 62
     7
370
    25
100
AcDbSpline
210
0.0
220
0.0
230
1.0
 70
     8
 71
     3
 72
    11
 73
     7
 74
     0
 42
0.00000001
 43
0.00000001
 40
0.0
 40
0.0
 40
0.0
 40
0.0
 40
0.0713112089769843
 40
0.2266569500021079
 40
0.6553271759952475
 40
1.0
 40
1.0
 40
1.0
 40
1.0
 10
119.3587750304365
 20
148.1011615543206
 30
0.0
 10
119.3069843813246
 20
148.0463633053941
 30
0.0
 10
119.142371962958
 20
147.8721914725881
 30
0.0
 10
119.0537812352504
 20
147.1611522606327
 30
0.0
 10
118.9660036932609
 20
146.2196011247566
 30
0.0
 10
118.9456126681105
 20
145.4113798494453
 30
0.0
 10
118.9365245509768
 20
145.0511620788414
 30
0.0
  0
SPLINE
  5
CB
330
1F
100
AcDbEntity
  8
0
  6
Continuous
 62
     7
370
    25
100
AcDbSpline
210
0.0
220
0.0
230
1.0
 70
     8
 71
     3
 72
    11
 73
     7
 74
     0
 42
0.00000001
 43
0.00000001
 40
0.0
 40
0.0
 40
0.0
 40
0.0
 40
0.0713112089769843
 40
0.2266569500021079
 40
0.6553271759952475
 40
1.0
 40
1.0
 40
1.0
 40
1.0
 10
120.3587751943493
 20
148.1011615543206
 30
0.0
 10
120.3069845452373
 20
148.0463633053941
 30
0.0
 10
120.1423721268708
 20
147.8721914725881
 30
0.0
 10
120.0537813991632
 20
147.1611522606327
 30
0.0
 10
119.9660038571737
 20
146.2196011247566
 30
0.0
 10
119.9456128320233
 20
145.4113798494453
 30
0.0
 10
119.9365247148895
 20
145.0511620788414
 30
0.0
  0
SPLINE
  5
CC
330
1F
100
AcDbEntity
  8
0
  6
Continuous
 62
     7
370
    25
100
AcDbSpline
210
0.0
220
0.0
230
1.0
 70
     8
 71
     3
 72
    11
 73
     7
 74
     0
 42
0.00000001
 43
0.00000001
 40
0.0
 40
0.0
 40
0.0
 40
0.0
 40
0.0713112089769843
 40
0.2266569500021079
 40
0.6553271759952475
 40
1.0
 40
1.0
 40
1.0
 40
1.0
 10
121.3587753582621
 20
148.1011615543206
 30
0.0
 10
121.3069847091501
 20
148.0463633053941
 30
0.0
 10
121.1423722907836
 20
147.8721914725881
 30
0.0
 10
121.053781563076
 20
147.1611522606327
 30
0.0
 10
120.9660040210865
 20
146.2196011247566
 30
0.0
 10
120.945612995936
 20
145.4113798494453
 30
0.0
 10
120.9365248788023
 20
145.0511620788414
 30
0.0
  0
SPLINE
  5
CD
330
1F
100
AcDbEntity
  8
0
  6
Continuous
 62
     7
370
    25
100
AcDbSpline
210
0.0
220
0.0
230
1.0
 70
     8
 71
     3
 72
     9
 73
     5
 74
     0
 42
0.00000001
 43
0.00000001
 40
0.0
 40
0.0
 40
0.0
 40
0.0
 40
0.6501066629778329
 40
1.0
 40
1.0
 40
1.0
 40
1.0
 10
122.3587755221748
 20
148.1011615543206
 30
0.0
 10
122.3021880018873
 20
148.0487415307576
 30
0.0
 10
122.2151445619256
 20
147.9681085722785
 30
0.0
 10
122.1935282845793
 20
147.8537886977823
 30
0.0
 10
122.1859648931646
 20
147.8137889354069
 30
0.0
  0
SPLINE
  5
CE
330
1F
100
AcDbEntity
  8
0
  6
Continuous
 62
     7
370
    25
100
AcDbSpline
210
0.0
220
0.0
230
1.0
 70
     8
 71
     3
 72
     9
 73
     5
 74
     0
 42
0.00000001
 43
0.00000001
 40
0.0
 40
0.0
 40
0.0
 40
0.0
 40
0.5543079677342456
 40
1.0
 40
1.0
 40
1.0
 40
1.0
 10
122.0924116778994
 20
147.4606537668545
 30
0.0
 10
122.0464474976083
 20
147.0165139942097
 30
0.0
 10
121.9635257592128
 20
146.2152630678334
 30
0.0
 10
121.9448477983884
 20
145.4100424793464
 30
0.0
 10
121.9365231800699
 20
145.0511620788414
 30
0.0
  0
SPLINE
  5
CF
330
1F
100
AcDbEntity
  8
0
  6
Continuous
 62
     7
370
    25
100
AcDbSpline
210
0.0
220
0.0
230
1.0
 70
     8
 71
     3
 72
     9
 73
     5
 74
     0
 42
0.00000001
 43
0.00000001
 40
0.0
 40
0.0
 40
0.0
 40
0.0
 40
0.6501054492105706
 40
1.0
 40
1.0
 40
1.0
 40
1.0
 10
123.3587738234425
 20
148.1011615543206
 30
0.0
 10
123.3021871100861
 20
148.0487413974211
 30
0.0
 10
123.215144748843
 20
147.9681080832979
 30
0.0
 10
123.1935284738913
 20
147.8537886738294
 30
0.0
 10
123.1859650570774
 20
147.8137889354069
 30
0.0
  0
SPLINE
  5
D0
330
1F
100
AcDbEntity
  8
0
  6
Continuous
 62
     7
370
    25
100
AcDbSpline
210
0.0
220
0.0
230
1.0
 70
     8
 71
     3
 72
     9
 73
     5
 74
     0
 42
0.00000001
 43
0.00000001
 40
0.0
 40
0.0
 40
0.0
 40
0.0
 40
0.5543080130491945
 40
1.0
 40
1.0
 40
1.0
 40
1.0
 10
123.0924118418121
 20
147.4606537668545
 30
0.0
 10
123.0464466548008
 20
147.0165140169167
 30
0.0
 10
122.9635231070094
 20
146.2152631970078
 30
0.0
 10
122.944847093536
 20
145.4100424939301
 30
0.0
 10
122.9365233439827
 20
145.0511620788414
 30
0.0
  0
SPLINE
  5
D1
330
1F
100
AcDbEntity
  8
0
  6
Continuous
 62
     7
370
    25
100
AcDbSpline
210
0.0
220
0.0
230
1.0
 70
     8
 71
     3
 72
    11
 73
     7
 74
     0
 42
0.00000001
 43
0.00000001
 40
0.0
 40
0.0
 40
0.0
 40
0.0
 40
0.0713112161149138
 40
0.226656819964349
 40
0.6553271414950563
 40
1.0
 40
1.0
 40
1.0
 40
1.0
 10
124.3587739873552
 20
148.1011615543206
 30
0.0
 10
124.3069832814227
 20
148.0463633206008
 30
0.0
 10
124.142370793375
 20
147.8721916534879
 30
0.0
 10
124.0537842749916
 20
147.1611514971684
 30
0.0
 10
123.9660015648787
 20
146.2196013698925
 30
0.0
 10
123.9456112900143
 20
145.4113799080613
 30
0.0
 10
123.9365235078955
 20
145.0511620788414
 30
0.0
  0
SPLINE
  5
D2
330
1F
100
AcDbEntity
  8
0
  6
Continuous
 62
     7
370
    25
100
AcDbSpline
210
0.0
220
0.0
230
1.0
 70
     8
 71
     3
 72
    11
 73
     7
 74
     0
 42
0.00000001
 43
0.00000001
 40
0.0
 40
0.0
 40
0.0
 40
0.0
 40
0.0713112161149138
 40
0.226656819964349
 40
0.6553271414950563
 40
1.0
 40
1.0
 40
1.0
 40
1.0
 10
125.358774151268
 20
148.1011615543206
 30
0.0
 10
125.3069834453354
 20
148.0463633206008
 30
0.0
 10
125.1423709572878
 20
147.8721916534879
 30
0.0
 10
125.0537844389044
 20
147.1611514971684
 30
0.0
 10
124.9660017287915
 20
146.2196013698925
 30
0.0
 10
124.945611453927
 20
145.4113799080613
 30
0.0
 10
124.9365236718082
 20
145.0511620788414
 30
0.0
  0
SPLINE
  5
D3
330
1F
100
AcDbEntity
  8
0
  6
Continuous
 62
     7
370
    25
100
AcDbSpline
210
0.0
220
0.0
230
1.0
 70
     8
 71
     3
 72
    11
 73
     7
 74
     0
 42
0.00000001
 43
0.00000001
 40
0.0
 40
0.0
 40
0.0
 40
0.0
 40
0.0713112089769843
 40
0.2266569500021079
 40
0.6553271759952475
 40
1.0
 40
1.0
 40
1.0
 40
1.0
 10
126.3587743151808
 20
148.1011615543206
 30
0.0
 10
126.3069836660688
 20
148.0463633053941
 30
0.0
 10
126.1423712477023
 20
147.8721914725881
 30
0.0
 10
126.0537805199947
 20
147.1611522606327
 30
0.0
 10
125.9660029780052
 20
146.2196011247566
 30
0.0
 10
125.9456119528547
 20
145.4113798494453
 30
0.0
 10
125.936523835721
 20
145.0511620788414
 30
0.0
  0
SPLINE
  5
D4
330
1F
100
AcDbEntity
  8
0
  6
Continuous
 62
     7
370
    25
100
AcDbSpline
210
0.0
220
0.0
230
1.0
 70
     8
 71
     3
 72
     9
 73
     5
 74
     0
 42
0.00000001
 43
0.00000001
 40
0.0
 40
0.0
 40
0.0
 40
0.0
 40
0.6501075681592223
 40
1.0
 40
1.0
 40
1.0
 40
1.0
 10
127.3587744790936
 20
148.1011615543206
 30
0.0
 10
127.302186595581
 20
148.0487416301958
 30
0.0
 10
127.2151427180995
 20
147.9681089369429
 30
0.0
 10
127.1935283992969
 20
147.8537887156453
 30
0.0
 10
127.1859657127285
 20
147.8137889354069
 30
0.0
  0
SPLINE
  5
D5
330
1F
100
AcDbEntity
  8
0
  6
Continuous
 62
     7
370
    25
100
AcDbSpline
210
0.0
220
0.0
230
1.0
 70
     8
 71
     3
 72
     9
 73
     5
 74
     0
 42
0.00000001
 43
0.00000001
 40
0.0
 40
0.0
 40
0.0
 40
0.0
 40
0.5543079827177706
 40
1.0
 40
1.0
 40
1.0
 40
1.0
 10
127.0924106348181
 20
147.4606537668545
 30
0.0
 10
127.0464462405961
 20
147.0165140017178
 30
0.0
 10
126.9635241184997
 20
146.2152631105453
 30
0.0
 10
126.9448478592805
 20
145.4100424841685
 30
0.0
 10
126.9365239996338
 20
145.0511620788414
 30
0.0
  0
SPLINE
  5
D6
330
1F
100
AcDbEntity
  8
0
  6
Continuous
 62
     7
370
    25
100
AcDbSpline
210
0.0
220
0.0
230
1.0
 70
     8
 71
     3
 72
    11
 73
     7
 74
     0
 42
0.00000001
 43
0.00000001
 40
0.0
 40
0.0
 40
0.0
 40
0.0
 40
0.0713112089769843
 40
0.2266569500021079
 40
0.6553271759952475
 40
1.0
 40
1.0
 40
1.0
 40
1.0
 10
128.3587746430063
 20
148.1011615543206
 30
0.0
 10
128.3069839938944
 20
148.0463633053941
 30
0.0
 10
128.1423715755278
 20
147.8721914725881
 30
0.0
 10
128.0537808478202
 20
147.1611522606327
 30
0.0
 10
127.9660033058307
 20
146.2196011247566
 30
0.0
 10
127.9456122806803
 20
145.4113798494453
 30
0.0
 10
127.9365241635466
 20
145.0511620788414
 30
0.0
  0
SPLINE
  5
D7
330
1F
100
AcDbEntity
  8
0
  6
Continuous
 62
     7
370
    25
100
AcDbSpline
210
0.0
220
0.0
230
1.0
 70
     8
 71
     3
 72
     9
 73
     5
 74
     0
 42
0.00000001
 43
0.00000001
 40
0.0
 40
0.0
 40
0.0
 40
0.0
 40
0.6501075681592223
 40
1.0
 40
1.0
 40
1.0
 40
1.0
 10
129.3587748069191
 20
148.1011615543206
 30
0.0
 10
129.3021869234065
 20
148.0487416301958
 30
0.0
 10
129.2151430459251
 20
147.9681089369429
 30
0.0
 10
129.1935287271225
 20
147.8537887156453
 30
0.0
 10
129.185966040554
 20
147.8137889354069
 30
0.0
  0
SPLINE
  5
D8
330
1F
100
AcDbEntity
  8
0
  6
Continuous
 62
     7
370
    25
100
AcDbSpline
210
0.0
220
0.0
230
1.0
 70
     8
 71
     3
 72
     9
 73
     5
 74
     0
 42
0.00000001
 43
0.00000001
 40
0.0
 40
0.0
 40
0.0
 40
0.0
 40
0.5543079827177706
 40
1.0
 40
1.0
 40
1.0
 40
1.0
 10
129.0924109626436
 20
147.4606537668545
 30
0.0
 10
129.0464465684217
 20
147.0165140017178
 30
0.0
 10
128.9635244463252
 20
146.2152631105453
 30
0.0
 10
128.944848187106
 20
145.4100424841685
 30
0.0
 10
128.9365243274593
 20
145.0511620788414
 30
0.0
  0
SPLINE
  5
D9
330
1F
100
AcDbEntity
  8
0
  6
Continuous
 62
     7
370
    25
100
AcDbSpline
210
0.0
220
0.0
230
1.0
 70
     8
 71
     3
 72
    11
 73
     7
 74
     0
 42
0.00000001
 43
0.00000001
 40
0.0
 40
0.0
 40
0.0
 40
0.0
 40
0.0713112089769843
 40
0.2266569500021079
 40
0.6553271759952475
 40
1.0
 40
1.0
 40
1.0
 40
1.0
 10
130.3587749708319
 20
148.1011615543206
 30
0.0
 10
130.3069843217199
 20
148.0463633053941
 30
0.0
 10
130.1423719033534
 20
147.8721914725881
 30
0.0
 10
130.0537811756458
 20
147.1611522606327
 30
0.0
 10
129.9660036336563
 20
146.2196011247566
 30
0.0
 10
129.9456126085059
 20
145.4113798494453
 30
0.0
 10
129.9365244913721
 20
145.0511620788414
 30
0.0
  0
SPLINE
  5
DA
330
1F
100
AcDbEntity
  8
0
  6
Continuous
 62
     7
370
    25
100
AcDbSpline
210
0.0
220
0.0
230
1.0
 70
     8
 71
     3
 72
    11
 73
     7
 74
     0
 42
0.00000001
 43
0.00000001
 40
0.0
 40
0.0
 40
0.0
 40
0.0
 40
0.0713112089769843
 40
0.2266569500021079
 40
0.6553271759952475
 40
1.0
 40
1.0
 40
1.0
 40
1.0
 10
131.3587751347446
 20
148.1011615543206
 30
0.0
 10
131.3069844856327
 20
148.0463633053941
 30
0.0
 10
131.1423720672662
 20
147.8721914725881
 30
0.0
 10
131.0537813395586
 20
147.1611522606327
 30
0.0
 10
130.9660037975691
 20
146.2196011247566
 30
0.0
 10
130.9456127724186
 20
145.4113798494453
 30
0.0
 10
130.9365246552849
 20
145.0511620788414
 30
0.0
  0
SPLINE
  5
DB
330
1F
100
AcDbEntity
  8
0
  6
Continuous
 62
     7
370
    25
100
AcDbSpline
210
0.0
220
0.0
230
1.0
 70
     8
 71
     3
 72
    10
 73
     6
 74
     0
 42
0.00000001
 43
0.00000001
 40
0.0
 40
0.0
 40
0.0
 40
0.0
 40
0.0864074699774891
 40
0.5928191023202914
 40
1.0
 40
1.0
 40
1.0
 40
1.0
 10
132.1509152758741
 20
147.6814815251667
 30
0.0
 10
132.1304502619213
 20
147.6080518980568
 30
0.0
 10
131.9900451418121
 20
147.1042703889077
 30
0.0
 10
131.9827644573763
 20
146.2116771735371
 30
0.0
 10
131.9507800252664
 20
145.4089369765778
 30
0.0
 10
131.9365248191976
 20
145.0511620788414
 30
0.0
  0
SPLINE
  5
DC
330
1F
100
AcDbEntity
  8
0
  6
Continuous
 62
     7
370
    25
100
AcDbSpline
210
0.0
220
0.0
230
1.0
 70
     8
 71
     3
 72
     9
 73
     5
 74
     0
 42
0.00000001
 43
0.00000001
 40
0.0
 40
0.0
 40
0.0
 40
0.0
 40
0.454338299303057
 40
0.9999999999999999
 40
0.9999999999999999
 40
0.9999999999999999
 40
0.9999999999999999
 10
118.4470940489197
 20
146.6008455900986
 30
0.0
 10
118.4202308715653
 20
146.3784813066509
 30
0.0
 10
118.3611049352409
 20
145.8890568320054
 30
0.0
 10
118.3489204418742
 20
145.3961560552451
 30
0.0
 10
118.3422718305016
 20
145.1271989791233
 30
0.0
  0
SPLINE
  5
DD
330
1F
100
AcDbEntity
  8
0
  6
Continuous
 62
     7
370
    25
100
AcDbSpline
210
0.0
220
0.0
230
1.0
 70
     8
 71
     3
 72
    12
 73
     8
 74
     0
 42
0.00000001
 43
0.00000001
 40
0.0
 40
0.0
 40
0.0
 40
0.0
 40
0.129957013568074
 40
0.3716271153492829
 40
0.6525209569982454
 40
0.9427984760009487
 40
1.0
 40
1.0
 40
1.0
 40
1.0
 10
119.4470942128325
 20
146.6008455900986
 30
0.0
 10
119.4212863569931
 20
146.3784328339156
 30
0.0
 10
119.3474858074453
 20
145.7424178261234
 30
0.0
 10
119.3115743715858
 20
144.6174563547671
 30
0.0
 10
119.3391070513454
 20
143.2176341213094
 30
0.0
 10
119.3753358650546
 20
142.1358136880174
 30
0.0
 10
119.394476964103
 20
141.5375788526964
 30
0.0
 10
119.3976279456043
 20
141.439098253711
 30
0.0
  0
SPLINE
  5
DE
330
1F
100
AcDbEntity
  8
0
  6
Continuous
 62
     7
370
    25
100
AcDbSpline
210
0.0
220
0.0
230
1.0
 70
     8
 71
     3
 72
    16
 73
    12
 74
     0
 42
0.00000001
 43
0.00000001
 40
0.0
 40
0.0
 40
0.0
 40
0.0
 40
0.0728815841542008
 40
0.2084133217413783
 40
0.3659422404460124
 40
0.5287336562793302
 40
0.7073258790951957
 40
0.8052973805397384
 40
0.8998100647241516
 40
0.9714312297154274
 40
1.0
 40
1.0
 40
1.0
 40
1.0
 10
120.4470943767452
 20
146.6008455900986
 30
0.0
 10
120.4212871038556
 20
146.3784329209572
 30
0.0
 10
120.3474882213199
 20
145.7424181620703
 30
0.0
 10
120.3115546022681
 20
144.617453386332
 30
0.0
 10
120.3391949213071
 20
143.2176472135932
 30
0.0
 10
120.3900351294887
 20
141.6859859540622
 30
0.0
 10
120.4332554144728
 20
140.337423047239
 30
0.0
 10
120.4688654104833
 20
139.1977680962329
 30
0.0
 10
120.5164516182678
 20
138.3889922257029
 30
0.0
 10
120.5321124968253
 20
137.7884770812764
 30
0.0
 10
120.5957066171368
 20
137.4870416124382
 30
0.0
 10
120.6138402331495
 20
137.4010884611447
 30
0.0
  0
SPLINE
  5
DF
330
1F
100
AcDbEntity
  8
0
  6
Continuous
 62
     7
370
    25
100
AcDbSpline
210
0.0
220
0.0
230
1.0
 70
     8
 71
     3
 72
    16
 73
    12
 74
     0
 42
0.00000001
 43
0.00000001
 40
0.0
 40
0.0
 40
0.0
 40
0.0
 40
0.0728815841542008
 40
0.2084133217413783
 40
0.3659422404460124
 40
0.5287336562793302
 40
0.7073258790951957
 40
0.8052973805397384
 40
0.8998100647241516
 40
0.9714312297154274
 40
1.0
 40
1.0
 40
1.0
 40
1.0
 10
121.447094540658
 20
146.6008455900986
 30
0.0
 10
121.4212872677684
 20
146.3784329209572
 30
0.0
 10
121.3474883852327
 20
145.7424181620703
 30
0.0
 10
121.3115547661809
 20
144.617453386332
 30
0.0
 10
121.3391950852199
 20
143.2176472135932
 30
0.0
 10
121.3900352934015
 20
141.6859859540622
 30
0.0
 10
121.4332555783856
 20
140.337423047239
 30
0.0
 10
121.4688655743961
 20
139.1977680962329
 30
0.0
 10
121.5164517821806
 20
138.3889922257029
 30
0.0
 10
121.5321126607381
 20
137.7884770812764
 30
0.0
 10
121.5957067810496
 20
137.4870416124382
 30
0.0
 10
121.6138403970623
 20
137.4010884611447
 30
0.0
  0
SPLINE
  5
E0
330
1F
100
AcDbEntity
  8
0
  6
Continuous
 62
     7
370
    25
100
AcDbSpline
210
0.0
220
0.0
230
1.0
 70
     8
 71
     3
 72
    16
 73
    12
 74
     0
 42
0.00000001
 43
0.00000001
 40
0.0
 40
0.0
 40
0.0
 40
0.0
 40
0.072881583773466
 40
0.2084133206526229
 40
0.3659422385343228
 40
0.528733653517215
 40
0.7073258754001112
 40
0.8052973763328488
 40
0.8998100503175709
 40
0.9714312298646711
 40
0.9999999999999999
 40
0.9999999999999999
 40
0.9999999999999999
 40
0.9999999999999999
 10
122.4470947045708
 20
146.6008455900986
 30
0.0
 10
122.4212874314105
 20
146.3784329209421
 30
0.0
 10
122.3474885481008
 20
145.7424181620121
 30
0.0
 10
122.3115549393485
 20
144.6174533868482
 30
0.0
 10
122.3391952084121
 20
143.2176472113221
 30
0.0
 10
122.3900356204244
 20
141.685985963159
 30
0.0
 10
122.4332551982844
 20
140.3374230168989
 30
0.0
 10
122.4688667640595
 20
139.197768183301
 30
0.0
 10
122.5164485744126
 20
138.3889920514162
 30
0.0
 10
122.5321130673089
 20
137.788477143924
 30
0.0
 10
122.5957070009056
 20
137.4870416163718
 30
0.0
 10
122.6138405609751
 20
137.4010884611447
 30
0.0
  0
SPLINE
  5
E1
330
1F
100
AcDbEntity
  8
0
  6
Continuous
 62
     7
370
    25
100
AcDbSpline
210
0.0
220
0.0
230
1.0
 70
     8
 71
     3
 72
    16
 73
    12
 74
     0
 42
0.00000001
 43
0.00000001
 40
0.0
 40
0.0
 40
0.0
 40
0.0
 40
0.072881583773466
 40
0.2084133206526229
 40
0.3659422385343228
 40
0.528733653517215
 40
0.7073258754001112
 40
0.8052973763328488
 40
0.8998100503175709
 40
0.9714312298646711
 40
0.9999999999999999
 40
0.9999999999999999
 40
0.9999999999999999
 40
0.9999999999999999
 10
123.4470948684835
 20
146.6008455900986
 30
0.0
 10
123.4212875953232
 20
146.3784329209421
 30
0.0
 10
123.3474887120136
 20
145.7424181620121
 30
0.0
 10
123.3115551032612
 20
144.6174533868482
 30
0.0
 10
123.3391953723248
 20
143.2176472113221
 30
0.0
 10
123.3900357843371
 20
141.685985963159
 30
0.0
 10
123.4332553621972
 20
140.3374230168989
 30
0.0
 10
123.4688669279723
 20
139.197768183301
 30
0.0
 10
123.5164487383254
 20
138.3889920514162
 30
0.0
 10
123.5321132312217
 20
137.788477143924
 30
0.0
 10
123.5957071648184
 20
137.4870416163718
 30
0.0
 10
123.6138407248879
 20
137.4010884611447
 30
0.0
  0
SPLINE
  5
E2
330
1F
100
AcDbEntity
  8
0
  6
Continuous
 62
     7
370
    25
100
AcDbSpline
210
0.0
220
0.0
230
1.0
 70
     8
 71
     3
 72
    16
 73
    12
 74
     0
 42
0.00000001
 43
0.00000001
 40
0.0
 40
0.0
 40
0.0
 40
0.0
 40
0.0728815835962609
 40
0.2084133201458845
 40
0.3659422376445668
 40
0.5287336522316461
 40
0.7073258736803113
 40
0.8052973671002962
 40
0.8998100505611739
 40
0.9714312299341337
 40
1.0
 40
1.0
 40
1.0
 40
1.0
 10
124.4470950323963
 20
146.6008455900986
 30
0.0
 10
124.421287760078
 20
146.3784329209747
 30
0.0
 10
124.3474888791763
 20
145.742418162138
 30
0.0
 10
124.3115552383815
 20
144.6174533857328
 30
0.0
 10
124.339195662923
 20
143.2176472162297
 30
0.0
 10
124.3900354408003
 20
141.6859859435014
 30
0.0
 10
124.4332572178688
 20
140.3374231047906
 30
0.0
 10
124.4688638973292
 20
139.1977680744467
 30
0.0
 10
124.5164495378786
 20
138.3889921104428
 30
0.0
 10
124.53211334763
 20
137.7884771417526
 30
0.0
 10
124.5957073181909
 20
137.4870416158901
 30
0.0
 10
124.6138408888006
 20
137.4010884611447
 30
0.0
  0
SPLINE
  5
E3
330
1F
100
AcDbEntity
  8
0
  6
Continuous
 62
     7
370
    25
100
AcDbSpline
210
0.0
220
0.0
230
1.0
 70
     8
 71
     3
 72
    16
 73
    12
 74
     0
 42
0.00000001
 43
0.00000001
 40
0.0
 40
0.0
 40
0.0
 40
0.0
 40
0.0728815835383871
 40
0.2084133199803875
 40
0.3659422373539793
 40
0.5287336518117892
 40
0.7073258666381744
 40
0.8052973672549057
 40
0.8998100506407328
 40
0.9714312299568195
 40
1.0
 40
1.0
 40
1.0
 40
1.0
 10
125.4470951963091
 20
146.6008455900986
 30
0.0
 10
125.4212879222331
 20
146.3784329209158
 30
0.0
 10
125.3474890363047
 20
145.7424181619105
 30
0.0
 10
125.3115554623997
 20
144.6174533877483
 30
0.0
 10
125.3391955623754
 20
143.2176472073616
 30
0.0
 10
125.3900366633722
 20
141.6859859989185
 30
0.0
 10
125.433253848127
 20
140.3374230037681
 30
0.0
 10
125.4688647413651
 20
139.1977681209967
 30
0.0
 10
125.5164495659184
 20
138.3889921056029
 30
0.0
 10
125.5321135216847
 20
137.7884771421138
 30
0.0
 10
125.595707484354
 20
137.4870416159702
 30
0.0
 10
125.6138410527134
 20
137.4010884611447
 30
0.0
  0
SPLINE
  5
E4
330
1F
100
AcDbEntity
  8
0
  6
Continuous
 62
     7
370
    25
100
AcDbSpline
210
0.0
220
0.0
230
1.0
 70
     8
 71
     3
 72
    16
 73
    12
 74
     0
 42
0.00000001
 43
0.00000001
 40
0.0
 40
0.0
 40
0.0
 40
0.0
 40
0.0728815835186277
 40
0.2084133199238835
 40
0.3659422372547667
 40
0.5287336454590935
 40
0.707325866717523
 40
0.8052973673076926
 40
0.8998100506678959
 40
0.971431229964565
 40
1.0
 40
1.0
 40
1.0
 40
1.0
 10
126.4470953602219
 20
146.6008455900986
 30
0.0
 10
126.4212880916209
 20
146.3784329210855
 30
0.0
 10
126.3474892213491
 20
145.7424181625656
 30
0.0
 10
126.3115554390977
 20
144.6174533819439
 30
0.0
 10
126.339196549646
 20
143.2176472519678
 30
0.0
 10
126.3900335269964
 20
141.6859859148478
 30
0.0
 10
126.4332544850787
 20
140.3374230387132
 30
0.0
 10
126.4688648139312
 20
139.1977681180958
 30
0.0
 10
126.5164497480451
 20
138.3889921061813
 30
0.0
 10
126.532113684238
 20
137.7884771420707
 30
0.0
 10
126.5957076479651
 20
137.4870416159606
 30
0.0
 10
126.6138412166262
 20
137.4010884611447
 30
0.0
  0
SPLINE
  5
E5
330
1F
100
AcDbEntity
  8
0
  6
Continuous
 62
     7
370
    25
100
AcDbSpline
210
0.0
220
0.0
230
1.0
 70
     8
 71
     3
 72
    16
 73
    12
 74
     0
 42
0.00000001
 43
0.00000001
 40
0.0
 40
0.0
 40
0.0
 40
0.0
 40
0.0728815612228852
 40
0.2084133043545114
 40
0.3659422221845046
 40
0.5287336282560449
 40
0.7073258471746756
 40
0.8052973464812868
 40
0.8998100286032468
 40
0.9714311920316074
 40
0.9999999999999999
 40
0.9999999999999999
 40
0.9999999999999999
 40
0.9999999999999999
 10
127.4470936614895
 20
146.6008455900986
 30
0.0
 10
127.4212872281878
 20
146.3784329054877
 30
0.0
 10
127.3474907294881
 20
145.7424179553092
 30
0.0
 10
127.3115519174525
 20
144.6174534685245
 30
0.0
 10
127.339197818016
 20
143.217647248865
 30
0.0
 10
127.3900332791964
 20
141.6859859094251
 30
0.0
 10
127.4332549602376
 20
140.3374230698622
 30
0.0
 10
127.4688644713749
 20
139.1977680583148
 30
0.0
 10
127.5164515435896
 20
138.3889923485105
 30
0.0
 10
127.532110471538
 20
137.7884767092689
 30
0.0
 10
127.5957070470524
 20
137.4870415940063
 30
0.0
 10
127.6138413805389
 20
137.4010884611447
 30
0.0
  0
SPLINE
  5
E6
330
1F
100
AcDbEntity
  8
0
  6
Continuous
 62
     7
370
    25
100
AcDbSpline
210
0.0
220
0.0
230
1.0
 70
     8
 71
     3
 72
    16
 73
    12
 74
     0
 42
0.00000001
 43
0.00000001
 40
0.0
 40
0.0
 40
0.0
 40
0.0
 40
0.072881584419956
 40
0.208413322501336
 40
0.3659422443433341
 40
0.5287336545609062
 40
0.7073258780279897
 40
0.8052973798297755
 40
0.8998100643588193
 40
0.9714312296112543
 40
1.0
 40
1.0
 40
1.0
 40
1.0
 10
128.4470938254022
 20
146.6008455900986
 30
0.0
 10
128.4212865740571
 20
146.3784329213092
 30
0.0
 10
128.3474877531302
 20
145.742418163429
 30
0.0
 10
128.3115533139789
 20
144.6174533664159
 30
0.0
 10
128.3391976115394
 20
143.217647269888
 30
0.0
 10
128.3900335850421
 20
141.6859859084616
 30
0.0
 10
128.4332550057779
 20
140.3374230510491
 30
0.0
 10
128.4688648316303
 20
139.1977680954981
 30
0.0
 10
128.5164510724101
 20
138.3889922258494
 30
0.0
 10
128.5321119450729
 20
137.7884770812655
 30
0.0
 10
128.595706065703
 20
137.4870416124358
 30
0.0
 10
128.6138396818066
 20
137.4010884611447
 30
0.0
  0
SPLINE
  5
E7
330
1F
100
AcDbEntity
  8
0
  6
Continuous
 62
     7
370
    25
100
AcDbSpline
210
0.0
220
0.0
230
1.0
 70
     8
 71
     3
 72
    16
 73
    12
 74
     0
 42
0.00000001
 43
0.00000001
 40
0.0
 40
0.0
 40
0.0
 40
0.0
 40
0.072881584419956
 40
0.208413322501336
 40
0.3659422443433341
 40
0.5287336545609062
 40
0.7073258780279897
 40
0.8052973798297755
 40
0.8998100643588193
 40
0.9714312296112543
 40
1.0
 40
1.0
 40
1.0
 40
1.0
 10
129.447093989315
 20
146.6008455900986
 30
0.0
 10
129.4212867379698
 20
146.3784329213092
 30
0.0
 10
129.347487917043
 20
145.742418163429
 30
0.0
 10
129.3115534778917
 20
144.6174533664159
 30
0.0
 10
129.3391977754522
 20
143.217647269888
 30
0.0
 10
129.3900337489549
 20
141.6859859084616
 30
0.0
 10
129.4332551696907
 20
140.3374230510491
 30
0.0
 10
129.4688649955431
 20
139.1977680954981
 30
0.0
 10
129.5164512363229
 20
138.3889922258494
 30
0.0
 10
129.5321121089857
 20
137.7884770812655
 30
0.0
 10
129.5957062296158
 20
137.4870416124358
 30
0.0
 10
129.6138398457193
 20
137.4010884611447
 30
0.0
  0
SPLINE
  5
E8
330
1F
100
AcDbEntity
  8
0
  6
Continuous
 62
     7
370
    25
100
AcDbSpline
210
0.0
220
0.0
230
1.0
 70
     8
 71
     3
 72
    16
 73
    12
 74
     0
 42
0.00000001
 43
0.00000001
 40
0.0
 40
0.0
 40
0.0
 40
0.0
 40
0.072881584419956
 40
0.208413322501336
 40
0.3659422443433341
 40
0.5287336545609062
 40
0.7073258780279897
 40
0.8052973798297755
 40
0.8998100643588193
 40
0.9714312296112543
 40
1.0
 40
1.0
 40
1.0
 40
1.0
 10
130.4470941532278
 20
146.6008455900986
 30
0.0
 10
130.4212869018826
 20
146.3784329213092
 30
0.0
 10
130.3474880809557
 20
145.742418163429
 30
0.0
 10
130.3115536418045
 20
144.6174533664159
 30
0.0
 10
130.339197939365
 20
143.217647269888
 30
0.0
 10
130.3900339128676
 20
141.6859859084616
 30
0.0
 10
130.4332553336034
 20
140.3374230510491
 30
0.0
 10
130.4688651594558
 20
139.1977680954981
 30
0.0
 10
130.5164514002357
 20
138.3889922258494
 30
0.0
 10
130.5321122728985
 20
137.7884770812655
 30
0.0
 10
130.5957063935286
 20
137.4870416124358
 30
0.0
 10
130.6138400096321
 20
137.4010884611447
 30
0.0
  0
SPLINE
  5
E9
330
1F
100
AcDbEntity
  8
0
  6
Continuous
 62
     7
370
    25
100
AcDbSpline
210
0.0
220
0.0
230
1.0
 70
     8
 71
     3
 72
    16
 73
    12
 74
     0
 42
0.00000001
 43
0.00000001
 40
0.0
 40
0.0
 40
0.0
 40
0.0
 40
0.0728815841542008
 40
0.2084133217413783
 40
0.3659422404460124
 40
0.5287336562793302
 40
0.7073258790951957
 40
0.8052973805397384
 40
0.8998100647241516
 40
0.9714312297154274
 40
1.0
 40
1.0
 40
1.0
 40
1.0
 10
131.4470943171406
 20
146.6008455900986
 30
0.0
 10
131.421287044251
 20
146.3784329209572
 30
0.0
 10
131.3474881617152
 20
145.7424181620703
 30
0.0
 10
131.3115545426635
 20
144.617453386332
 30
0.0
 10
131.3391948617025
 20
143.2176472135932
 30
0.0
 10
131.3900350698841
 20
141.6859859540622
 30
0.0
 10
131.4332553548682
 20
140.337423047239
 30
0.0
 10
131.4688653508786
 20
139.1977680962329
 30
0.0
 10
131.5164515586632
 20
138.3889922257029
 30
0.0
 10
131.5321124372207
 20
137.7884770812764
 30
0.0
 10
131.5957065575322
 20
137.4870416124382
 30
0.0
 10
131.6138401735449
 20
137.4010884611447
 30
0.0
  0
LINE
  5
EA
330
1F
100
AcDbEntity
  8
0
  6
Continuous
 62
     7
370
    25
100
AcDbLine
 10
149.6342551391
 20
145.0511620788
 30
0.0
 11
131.7807108272
 21
145.0511620788
 31
0.0
  0
LINE
  5
EB
330
1F
100
AcDbEntity
  8
0
  6
Continuous
 62
     7
370
    25
100
AcDbLine
 10
131.3390720744
 20
145.0511620788
 30
0.0
 11
130.7807106633
 21
145.0511620788
 31
0.0
  0
LINE
  5
EC
330
1F
100
AcDbEntity
  8
0
  6
Continuous
 62
     7
370
    25
100
AcDbLine
 10
130.3390719104
 20
145.0511620788
 30
0.0
 11
129.7807104993
 21
145.0511620788
 31
0.0
  0
LINE
  5
ED
330
1F
100
AcDbEntity
  8
0
  6
Continuous
 62
     7
370
    25
100
AcDbLine
 10
129.3390717465
 20
145.0511620788
 30
0.0
 11
128.7807103354
 21
145.0511620788
 31
0.0
  0
LINE
  5
EE
330
1F
100
AcDbEntity
  8
0
  6
Continuous
 62
     7
370
    25
100
AcDbLine
 10
128.3390715826
 20
145.0511620788
 30
0.0
 11
127.7807101715
 21
145.0511620788
 31
0.0
  0
LINE
  5
EF
330
1F
100
AcDbEntity
  8
0
  6
Continuous
 62
     7
370
    25
100
AcDbLine
 10
127.3390714187
 20
145.0511620788
 30
0.0
 11
126.7807100076
 21
145.0511620788
 31
0.0
  0
LINE
  5
F0
330
1F
100
AcDbEntity
  8
0
  6
Continuous
 62
     7
370
    25
100
AcDbLine
 10
126.3390712548
 20
145.0511620788
 30
0.0
 11
125.7807098437
 21
145.0511620788
 31
0.0
  0
LINE
  5
F1
330
1F
100
AcDbEntity
  8
0
  6
Continuous
 62
     7
370
    25
100
AcDbLine
 10
125.3390710909
 20
145.0511620788
 30
0.0
 11
124.7807096798
 21
145.0511620788
 31
0.0
  0
LINE
  5
F2
330
1F
100
AcDbEntity
  8
0
  6
Continuous
 62
     7
370
    25
100
AcDbLine
 10
124.339070927
 20
145.0511620788
 30
0.0
 11
123.7807095159
 21
145.0511620788
 31
0.0
  0
LINE
  5
F3
330
1F
100
AcDbEntity
  8
0
  6
Continuous
 62
     7
370
    25
100
AcDbLine
 10
123.3390726257
 20
145.0511620788
 30
0.0
 11
122.780709352
 21
145.0511620788
 31
0.0
  0
LINE
  5
F4
330
1F
100
AcDbEntity
  8
0
  6
Continuous
 62
     7
370
    25
100
AcDbLine
 10
122.3390724618
 20
145.0511620788
 30
0.0
 11
121.780709188
 21
145.0511620788
 31
0.0
  0
LINE
  5
F5
330
1F
100
AcDbEntity
  8
0
  6
Continuous
 62
     7
370
    25
100
AcDbLine
 10
121.3390722979
 20
145.0511620788
 30
0.0
 11
120.7807090241
 21
145.0511620788
 31
0.0
  0
LINE
  5
F6
330
1F
100
AcDbEntity
  8
0
  6
Continuous
 62
     7
370
    25
100
AcDbLine
 10
120.339072134
 20
145.0511620788
 30
0.0
 11
119.7807107229
 21
145.0511620788
 31
0.0
  0
LINE
  5
F7
330
1F
100
AcDbEntity
  8
0
  6
Continuous
 62
     7
370
    25
100
AcDbLine
 10
119.33907197
 20
145.0511620788
 30
0.0
 11
118.780710559
 21
145.0511620788
 31
0.0
  0
LINE
  5
F8
330
1F
100
AcDbEntity
  8
0
  6
Continuous
 62
     7
370
    25
100
AcDbLine
 10
119.9356660355
 20
140.2511627822
 30
0.0
 11
120.4357303787
 21
140.2511627822
 31
0.0
  0
LINE
  5
F9
330
1F
100
AcDbEntity
  8
0
  6
Continuous
 62
     7
370
    25
100
AcDbLine
 10
120.9356661994
 20
140.2511627822
 30
0.0
 11
121.4357305426
 21
140.2511627822
 31
0.0
  0
LINE
  5
FA
330
1F
100
AcDbEntity
  8
0
  6
Continuous
 62
     7
370
    25
100
AcDbLine
 10
121.9356663633
 20
140.2511627822
 30
0.0
 11
122.4357307065
 21
140.2511627822
 31
0.0
  0
LINE
  5
FB
330
1F
100
AcDbEntity
  8
0
  6
Continuous
 62
     7
370
    25
100
AcDbLine
 10
122.9356665272
 20
140.2511627822
 30
0.0
 11
123.4357308704
 21
140.2511627822
 31
0.0
  0
LINE
  5
FC
330
1F
100
AcDbEntity
  8
0
  6
Continuous
 62
     7
370
    25
100
AcDbLine
 10
123.9356648285
 20
140.2511627822
 30
0.0
 11
124.4357310343
 21
140.2511627822
 31
0.0
  0
LINE
  5
FD
330
1F
100
AcDbEntity
  8
0
  6
Continuous
 62
     7
370
    25
100
AcDbLine
 10
124.9356649924
 20
140.2511627822
 30
0.0
 11
125.4357311983
 21
140.2511627822
 31
0.0
  0
LINE
  5
FE
330
1F
100
AcDbEntity
  8
0
  6
Continuous
 62
     7
370
    25
100
AcDbLine
 10
125.9356651563
 20
140.2511627822
 30
0.0
 11
126.4357313622
 21
140.2511627822
 31
0.0
  0
LINE
  5
FF
330
1F
100
AcDbEntity
  8
0
  6
Continuous
 62
     7
370
    25
100
AcDbLine
 10
126.9356653202
 20
140.2511627822
 30
0.0
 11
127.4357315261
 21
140.2511627822
 31
0.0
  0
LINE
  5
100
330
1F
100
AcDbEntity
  8
0
  6
Continuous
 62
     7
370
    25
100
AcDbLine
 10
127.9356654841
 20
140.2511627822
 30
0.0
 11
128.43573169
 21
140.2511627822
 31
0.0
  0
LINE
  5
101
330
1F
100
AcDbEntity
  8
0
  6
Continuous
 62
     7
370
    25
100
AcDbLine
 10
128.935665648
 20
140.2511627822
 30
0.0
 11
129.4357318539
 21
140.2511627822
 31
0.0
  0
LINE
  5
102
330
1F
100
AcDbEntity
  8
0
  6
Continuous
 62
     7
370
    25
100
AcDbLine
 10
129.935665812
 20
140.2511627822
 30
0.0
 11
130.4357320178
 21
140.2511627822
 31
0.0
  0
LINE
  5
103
330
1F
100
AcDbEntity
  8
0
  6
Continuous
 62
     7
370
    25
100
AcDbLine
 10
130.9356659759
 20
140.2511627822
 30
0.0
 11
131.4357303191
 21
140.2511627822
 31
0.0
  0
LINE
  5
104
330
1F
100
AcDbEntity
  8
0
  6
Continuous
 62
     7
370
    25
100
AcDbLine
 10
131.9356661398
 20
140.2511627822
 30
0.0
 11
150.7285219259
 21
140.2511627822
 31
0.0
  0
CIRCLE
  5
105
330
1F
100
AcDbEntity
  8
0
  6
Continuous
 62
     7
370
    25
100
AcDbCircle
 10
132.3587752987
 20
147.8511629103
 30
0.0
 40
0.2500000503799591
  0
SPLINE
  5
106
330
1F
100
AcDbEntity
  8
0
  6
Continuous
 62
     7
370
    25
100
AcDbSpline
210
0.0
220
0.0
230
1.0
 70
     8
 71
     3
 72
    20
 73
    16
 74
     0
 42
0.00000001
 43
0.00000001
 40
0.0
 40
0.0
 40
0.0
 40
0.0
 40
0.0216459197638777
 40
0.0808475047467414
 40
0.1602389118422976
 40
0.2430748693989818
 40
0.3949811920458732
 40
0.534840032561611
 40
0.6732702671470987
 40
0.7991480841594953
 40
0.867647112972999
 40
0.930910726526281
 40
0.9719953880585167
 40
0.9839239349690688
 40
1.0
 40
1.0
 40
1.0
 40
1.0
 10
104.6089700834326
 20
137.5037127582867
 30
0.0
 10
104.592613136002
 20
137.5801168110949
 30
0.0
 10
104.5315199415589
 20
137.8654859286684
 30
0.0
 10
104.5196516832847
 20
138.4460536947933
 30
0.0
 10
104.4724203602079
 20
139.2419436177229
 30
0.0
 10
104.4381719422555
 20
140.3745294516919
 30
0.0
 10
104.3939344515467
 20
141.724600294206
 30
0.0
 10
104.3448965264136
 20
143.2737134901473
 30
0.0
 10
104.2967353283308
 20
144.7347607803034
 30
0.0
 10
104.2624195132344
 20
145.9209786998381
 30
0.0
 10
104.2061911703498
 20
146.8762227236031
 30
0.0
 10
104.0087475345279
 20
147.4136600273697
 30
0.0
 10
103.9252527957233
 20
147.9387108066269
 30
0.0
 10
103.6019529592702
 20
147.9283878871767
 30
0.0
 10
103.6286234307519
 20
147.8045853208325
 30
0.0
 10
103.643933631616
 20
147.7335163800556
 30
0.0
  0
SPLINE
  5
107
330
1F
100
AcDbEntity
  8
0
  6
Continuous
 62
     7
370
    25
100
AcDbSpline
210
0.0
220
0.0
230
1.0
 70
     8
 71
     3
 72
    20
 73
    16
 74
     0
 42
0.00000001
 43
0.00000001
 40
0.0
 40
0.0
 40
0.0
 40
0.0
 40
0.0216457747240053
 40
0.0808473757433876
 40
0.1602387052499736
 40
0.2430746156737337
 40
0.394980851887277
 40
0.5348396128245769
 40
0.6732697686444907
 40
0.7991475140335277
 40
0.8676465038716924
 40
0.9309100814285403
 40
0.9719947195839684
 40
0.983923944116207
 40
0.9999999999999999
 40
0.9999999999999999
 40
0.9999999999999999
 40
0.9999999999999999
 10
105.6089646594099
 20
137.5037127582867
 30
0.0
 10
105.5926107508442
 20
137.5801168948538
 30
0.0
 10
105.5315285947402
 20
137.8654877820662
 30
0.0
 10
105.5196372613845
 20
138.446052438626
 30
0.0
 10
105.4724274563008
 20
139.241944138566
 30
0.0
 10
105.4381712568369
 20
140.3745292371385
 30
0.0
 10
105.3939373006573
 20
141.7246003487646
 30
0.0
 10
105.3448983421433
 20
143.273713509916
 30
0.0
 10
105.2967374052239
 20
144.734760654379
 30
0.0
 10
105.262421536894
 20
145.9209790527453
 30
0.0
 10
105.2061931909665
 20
146.8762220709035
 30
0.0
 10
105.0087495822411
 20
147.4136619673129
 30
0.0
 10
104.9252542955369
 20
147.9387106914655
 30
0.0
 10
104.6019477967712
 20
147.9283902070219
 30
0.0
 10
104.6286183398114
 20
147.8045850634388
 30
0.0
 10
104.6439282075933
 20
147.7335163800556
 30
0.0
  0
SPLINE
  5
108
330
1F
100
AcDbEntity
  8
0
  6
Continuous
 62
     7
370
    25
100
AcDbSpline
210
0.0
220
0.0
230
1.0
 70
     8
 71
     3
 72
    20
 73
    16
 74
     0
 42
0.00000001
 43
0.00000001
 40
0.0
 40
0.0
 40
0.0
 40
0.0
 40
0.0216457781733661
 40
0.080847388626815
 40
0.1602387632007703
 40
0.2430746868248407
 40
0.3949809472453907
 40
0.534839708405238
 40
0.6732698862846788
 40
0.7991476517329544
 40
0.8676466524867704
 40
0.9309104137139885
 40
0.9719947151211892
 40
0.9839239415544084
 40
1.0
 40
1.0
 40
1.0
 40
1.0
 10
106.6089666859678
 20
137.5037127582867
 30
0.0
 10
106.5926127485482
 20
137.5801168935015
 30
0.0
 10
106.5315304846743
 20
137.8654877756629
 30
0.0
 10
106.5196413287023
 20
138.4460526518321
 30
0.0
 10
106.4724190364628
 20
139.2419438822094
 30
0.0
 10
106.4381678159978
 20
140.3745293210046
 30
0.0
 10
106.3939284287625
 20
141.7246001740361
 30
0.0
 10
106.3449029514726
 20
143.2737135993751
 30
0.0
 10
106.2967395567933
 20
144.7347609241685
 30
0.0
 10
106.2624214394021
 20
145.9209782612115
 30
0.0
 10
106.2061992531447
 20
146.8762241813498
 30
0.0
 10
106.0087394022566
 20
147.4136575863958
 30
0.0
 10
105.9252554314674
 20
147.9387110979578
 30
0.0
 10
105.6019496960428
 20
147.9283901256216
 30
0.0
 10
105.6286203199492
 20
147.8045850337528
 30
0.0
 10
105.6439302341513
 20
147.7335163800556
 30
0.0
  0
SPLINE
  5
109
330
1F
100
AcDbEntity
  8
0
  6
Continuous
 62
     7
370
    25
100
AcDbSpline
210
0.0
220
0.0
230
1.0
 70
     8
 71
     3
 72
    20
 73
    16
 74
     0
 42
0.00000001
 43
0.00000001
 40
0.0
 40
0.0
 40
0.0
 40
0.0
 40
0.0216457888369072
 40
0.0808474284553417
 40
0.1602388421405352
 40
0.2430748065727608
 40
0.3949811418281651
 40
0.5348399939524517
 40
0.6732702400279115
 40
0.7991480674884056
 40
0.8676471019874584
 40
0.9309107207917404
 40
0.9719953857340808
 40
0.983923933634725
 40
1.0
 40
1.0
 40
1.0
 40
1.0
 10
107.6089687125258
 20
137.5037127582867
 30
0.0
 10
107.5926147753295
 20
137.5801168935077
 30
0.0
 10
107.5315325122899
 20
137.8654877756928
 30
0.0
 10
107.5196433394429
 20
138.4460526513863
 30
0.0
 10
107.4724211437642
 20
139.2419438844849
 30
0.0
 10
107.4381694196029
 20
140.3745293090847
 30
0.0
 10
107.3939334300179
 20
141.7246003374654
 30
0.0
 10
107.3448950657998
 20
143.2737134790399
 30
0.0
 10
107.2967339794089
 20
144.7347607830255
 30
0.0
 10
107.2624181394437
 20
145.920978699481
 30
0.0
 10
107.2061897999729
 20
146.8762227236687
 30
0.0
 10
107.0087461635324
 20
147.4136600273587
 30
0.0
 10
106.9252514248212
 20
147.9387108066274
 30
0.0
 10
106.6019515883626
 20
147.9283878871767
 30
0.0
 10
106.6286220598448
 20
147.8045853208324
 30
0.0
 10
106.6439322607092
 20
147.7335163800556
 30
0.0
  0
SPLINE
  5
10A
330
1F
100
AcDbEntity
  8
0
  6
Continuous
 62
     7
370
    25
100
AcDbSpline
210
0.0
220
0.0
230
1.0
 70
     8
 71
     3
 72
    20
 73
    16
 74
     0
 42
0.00000001
 43
0.00000001
 40
0.0
 40
0.0
 40
0.0
 40
0.0
 40
0.021645905466971
 40
0.0808474513477984
 40
0.160238806006149
 40
0.2430747088505376
 40
0.3949809311648697
 40
0.5348396793052859
 40
0.6732698224590314
 40
0.7991475563304283
 40
0.8676465399010299
 40
0.9309101116693477
 40
0.9719947460655881
 40
0.9839239695063191
 40
1.0
 40
1.0
 40
1.0
 40
1.0
 10
108.6089707390837
 20
137.5037127582867
 30
0.0
 10
108.5926137916534
 20
137.5801168110941
 30
0.0
 10
108.5315205972115
 20
137.8654859286644
 30
0.0
 10
108.5196523389132
 20
138.4460536948528
 30
0.0
 10
108.4724210159746
 20
139.2419436174187
 30
0.0
 10
108.4381725973005
 20
140.3745294532853
 30
0.0
 10
108.393935111464
 20
141.7246002829895
 30
0.0
 10
108.3448971678685
 20
143.2737135274712
 30
0.0
 10
108.2967360344228
 20
144.734760647687
 30
0.0
 10
108.2624200317975
 20
145.9209790602624
 30
0.0
 10
108.2061920791946
 20
146.87622205792
 30
0.0
 10
108.0087474377486
 20
147.413662005618
 30
0.0
 10
107.9252542032526
 20
147.938710628196
 30
0.0
 10
107.6019451447027
 20
147.9283902795272
 30
0.0
 10
107.6286212412653
 20
147.8045850612652
 30
0.0
 10
107.6439342872671
 20
147.7335163800556
 30
0.0
  0
SPLINE
  5
10B
330
1F
100
AcDbEntity
  8
0
  6
Continuous
 62
     7
370
    25
100
AcDbSpline
210
0.0
220
0.0
230
1.0
 70
     8
 71
     3
 72
    20
 73
    16
 74
     0
 42
0.00000001
 43
0.00000001
 40
0.0
 40
0.0
 40
0.0
 40
0.0
 40
0.0216457745508954
 40
0.0808473750968186
 40
0.1602387363844446
 40
0.2430746217271709
 40
0.3949808567258589
 40
0.5348396165446518
 40
0.6732697712574841
 40
0.7991475156398261
 40
0.8676465049301767
 40
0.9309100819810804
 40
0.9719947198079381
 40
0.9839239442447738
 40
1.0
 40
1.0
 40
1.0
 40
1.0
 10
109.608965315061
 20
137.5037127582867
 30
0.0
 10
109.5926113711468
 20
137.5801168932685
 30
0.0
 10
109.5315290830154
 20
137.8654877745599
 30
0.0
 10
109.5196404176837
 20
138.4460526683284
 30
0.0
 10
109.4724153231423
 20
139.241943710231
 30
0.0
 10
109.4381787454065
 20
140.374529585782
 30
0.0
 10
109.3939358826916
 20
141.7246002697009
 30
0.0
 10
109.3448995302203
 20
143.2737135302166
 30
0.0
 10
109.296737930391
 20
144.7347606494039
 30
0.0
 10
109.2624222096619
 20
145.920979053398
 30
0.0
 10
109.2061938434722
 20
146.8762220707836
 30
0.0
 10
109.0087502384187
 20
147.413661967333
 30
0.0
 10
108.92525495116
 20
147.9387106914644
 30
0.0
 10
108.6019484524273
 20
147.9283902070221
 30
0.0
 10
108.6286189954643
 20
147.8045850634389
 30
0.0
 10
108.6439288632444
 20
147.7335163800556
 30
0.0
  0
SPLINE
  5
10C
330
1F
100
AcDbEntity
  8
0
  6
Continuous
 62
     7
370
    25
100
AcDbSpline
210
0.0
220
0.0
230
1.0
 70
     8
 71
     3
 72
    20
 73
    16
 74
     0
 42
0.00000001
 43
0.00000001
 40
0.0
 40
0.0
 40
0.0
 40
0.0
 40
0.0216457791421936
 40
0.0808473922454038
 40
0.1602387703727791
 40
0.2430746977044416
 40
0.3949809649240521
 40
0.5348397544083705
 40
0.6732699164209855
 40
0.7991477124369989
 40
0.8676466465628644
 40
0.9309104106216586
 40
0.9719947138677212
 40
0.9839239408348719
 40
1.0
 40
1.0
 40
1.0
 40
1.0
 10
110.6089673416189
 20
137.5037127582867
 30
0.0
 10
110.5926134045239
 20
137.5801168935128
 30
0.0
 10
110.5315311418622
 20
137.8654877757166
 30
0.0
 10
110.5196419613701
 20
138.4460526510292
 30
0.0
 10
110.4724198094382
 20
139.241943886308
 30
0.0
 10
110.4381678570777
 20
140.3745292995353
 30
0.0
 10
110.3939334079754
 20
141.724600404687
 30
0.0
 10
110.3448892089405
 20
143.2737131759073
 30
0.0
 10
110.2967485589217
 20
144.7347615082917
 30
0.0
 10
110.2624075999721
 20
145.9209773248156
 30
0.0
 10
110.2062024994773
 20
146.8762246554187
 30
0.0
 10
110.0087396108706
 20
147.4136575433093
 30
0.0
 10
109.9252561108908
 20
147.938711100249
 30
0.0
 10
109.6019503474668
 20
147.9283901252142
 30
0.0
 10
109.6286209740587
 20
147.8045850336043
 30
0.0
 10
109.6439308898024
 20
147.7335163800556
 30
0.0
  0
SPLINE
  5
10D
330
1F
100
AcDbEntity
  8
0
  6
Continuous
 62
     7
370
    25
100
AcDbSpline
210
0.0
220
0.0
230
1.0
 70
     8
 71
     3
 72
    20
 73
    16
 74
     0
 42
0.00000001
 43
0.00000001
 40
0.0
 40
0.0
 40
0.0
 40
0.0
 40
0.0216459197638777
 40
0.0808475047467414
 40
0.1602389118422976
 40
0.2430748693989818
 40
0.3949811920458732
 40
0.534840032561611
 40
0.6732702671470987
 40
0.7991480841594953
 40
0.867647112972999
 40
0.930910726526281
 40
0.9719953880585167
 40
0.9839239349690688
 40
1.0
 40
1.0
 40
1.0
 40
1.0
 10
111.6089693681768
 20
137.5037127582867
 30
0.0
 10
111.5926124207463
 20
137.5801168110949
 30
0.0
 10
111.5315192263031
 20
137.8654859286684
 30
0.0
 10
111.519650968029
 20
138.4460536947933
 30
0.0
 10
111.4724196449521
 20
139.2419436177229
 30
0.0
 10
111.4381712269997
 20
140.3745294516919
 30
0.0
 10
111.3939337362909
 20
141.724600294206
 30
0.0
 10
111.3448958111579
 20
143.2737134901473
 30
0.0
 10
111.2967346130751
 20
144.7347607803034
 30
0.0
 10
111.2624187979787
 20
145.9209786998381
 30
0.0
 10
111.206190455094
 20
146.8762227236031
 30
0.0
 10
111.0087468192722
 20
147.4136600273697
 30
0.0
 10
110.9252520804675
 20
147.9387108066269
 30
0.0
 10
110.6019522440145
 20
147.9283878871767
 30
0.0
 10
110.6286227154962
 20
147.8045853208325
 30
0.0
 10
110.6439329163603
 20
147.7335163800556
 30
0.0
  0
SPLINE
  5
10E
330
1F
100
AcDbEntity
  8
0
  6
Continuous
 62
     7
370
    25
100
AcDbSpline
210
0.0
220
0.0
230
1.0
 70
     8
 71
     3
 72
    20
 73
    16
 74
     0
 42
0.00000001
 43
0.00000001
 40
0.0
 40
0.0
 40
0.0
 40
0.0
 40
0.0216457756163504
 40
0.0808473293546167
 40
0.1602386945500691
 40
0.2430746083887321
 40
0.394980850864596
 40
0.5348396175675606
 40
0.673269779094245
 40
0.7991475296725805
 40
0.8676465223346098
 40
0.9309101024994929
 40
0.9719947423486316
 40
0.9839239673726513
 40
0.9999999999999999
 40
0.9999999999999999
 40
0.9999999999999999
 40
0.9999999999999999
 10
112.6089639441542
 20
137.5037127582867
 30
0.0
 10
112.5926098436745
 20
137.5801168816423
 30
0.0
 10
112.5315270083345
 20
137.8654875440047
 30
0.0
 10
112.5196501073845
 20
138.4460531267296
 30
0.0
 10
112.4724225623379
 20
139.2419437926881
 30
0.0
 10
112.4381727767894
 20
140.3745293595888
 30
0.0
 10
112.3939359115572
 20
141.724600311412
 30
0.0
 10
112.3448977864324
 20
143.2737135201734
 30
0.0
 10
112.296736699163
 20
144.7347606494755
 30
0.0
 10
112.2624206862563
 20
145.9209790600278
 30
0.0
 10
112.2061927350648
 20
146.8762220579631
 30
0.0
 10
112.0087480933631
 20
147.4136620056107
 30
0.0
 10
111.9252548589057
 20
147.9387106281965
 30
0.0
 10
111.6019458003535
 20
147.9283902795271
 30
0.0
 10
111.6286218969162
 20
147.8045850612651
 30
0.0
 10
111.6439349429182
 20
147.7335163800556
 30
0.0
  0
SPLINE
  5
10F
330
1F
100
AcDbEntity
  8
0
  6
Continuous
 62
     7
370
    25
100
AcDbSpline
210
0.0
220
0.0
230
1.0
 70
     8
 71
     3
 72
    20
 73
    16
 74
     0
 42
0.00000001
 43
0.00000001
 40
0.0
 40
0.0
 40
0.0
 40
0.0
 40
0.0216457782243188
 40
0.0808473888171242
 40
0.1602387635779613
 40
0.2430746629784558
 40
0.3949809237565827
 40
0.5348397073102827
 40
0.6732698855155788
 40
0.799147651260162
 40
0.8676466521752199
 40
0.9309104135513565
 40
0.9719947150552667
 40
0.9839239415165665
 40
1.0
 40
1.0
 40
1.0
 40
1.0
 10
113.6089659707121
 20
137.5037127582867
 30
0.0
 10
113.592612026803
 20
137.5801168932703
 30
0.0
 10
113.5315297386909
 20
137.8654877745686
 30
0.0
 10
113.5196410729686
 20
138.4460526681971
 30
0.0
 10
113.4724159806624
 20
139.2419437109016
 30
0.0
 10
113.4381793912673
 20
140.3745295822696
 30
0.0
 10
113.3939366072597
 20
141.7246002944256
 30
0.0
 10
113.3448999565438
 20
143.2737134479428
 30
0.0
 10
113.2967394008715
 20
144.7347609417329
 30
0.0
 10
113.2624206507732
 20
145.9209782589074
 30
0.0
 10
113.2061985513718
 20
146.8762241817732
 30
0.0
 10
113.0087386847437
 20
147.4136575863249
 30
0.0
 10
112.9252547163317
 20
147.9387110979616
 30
0.0
 10
112.6019489807657
 20
147.9283901256209
 30
0.0
 10
112.6286196046857
 20
147.8045850337526
 30
0.0
 10
112.6439295188955
 20
147.7335163800556
 30
0.0
  0
SPLINE
  5
110
330
1F
100
AcDbEntity
  8
0
  6
Continuous
 62
     7
370
    25
100
AcDbSpline
210
0.0
220
0.0
230
1.0
 70
     8
 71
     3
 72
    20
 73
    16
 74
     0
 42
0.00000001
 43
0.00000001
 40
0.0
 40
0.0
 40
0.0
 40
0.0
 40
0.0216457813910857
 40
0.0808474006450581
 40
0.1602387870208149
 40
0.2430747229587309
 40
0.3949810059606702
 40
0.5348398099756426
 40
0.6732699863704842
 40
0.7991477954645937
 40
0.8676468064010224
 40
0.9309104034435833
 40
0.971994710958107
 40
0.9839239391646468
 40
0.9999999999999999
 40
0.9999999999999999
 40
0.9999999999999999
 40
0.9999999999999999
 10
114.60896799727
 20
137.5037127582867
 30
0.0
 10
114.5926140601591
 20
137.5801168935106
 30
0.0
 10
114.5315317974383
 20
137.8654877757063
 30
0.0
 10
114.519642618144
 20
138.446052651184
 30
0.0
 10
114.4724204593577
 20
139.241943885518
 30
0.0
 10
114.4381685427521
 20
140.374529303673
 30
0.0
 10
114.3939338522826
 20
141.7246003755602
 30
0.0
 10
114.3448905678576
 20
143.2737132728289
 30
0.0
 10
114.2967467157813
 20
144.7347611639171
 30
0.0
 10
114.2624150396387
 20
145.920978509164
 30
0.0
 10
114.2061906170116
 20
146.8762228032359
 30
0.0
 10
114.0087421797427
 20
147.4136587548442
 30
0.0
 10
113.925256658174
 20
147.9387110775056
 30
0.0
 10
113.6019510223876
 20
147.9283901292584
 30
0.0
 10
113.6286216367373
 20
147.8045850350792
 30
0.0
 10
113.6439315454535
 20
147.7335163800556
 30
0.0
  0
SPLINE
  5
111
330
1F
100
AcDbEntity
  8
0
  6
Continuous
 62
     7
370
    25
100
AcDbSpline
210
0.0
220
0.0
230
1.0
 70
     8
 71
     3
 72
    20
 73
    16
 74
     0
 42
0.00000001
 43
0.00000001
 40
0.0
 40
0.0
 40
0.0
 40
0.0
 40
0.0216459197638777
 40
0.0808475047467414
 40
0.1602389118422976
 40
0.2430748693989818
 40
0.3949811920458732
 40
0.534840032561611
 40
0.6732702671470987
 40
0.7991480841594953
 40
0.867647112972999
 40
0.930910726526281
 40
0.9719953880585167
 40
0.9839239349690688
 40
1.0
 40
1.0
 40
1.0
 40
1.0
 10
115.6089700238279
 20
137.5037127582867
 30
0.0
 10
115.5926130763974
 20
137.5801168110949
 30
0.0
 10
115.5315198819542
 20
137.8654859286684
 30
0.0
 10
115.5196516236801
 20
138.4460536947933
 30
0.0
 10
115.4724203006032
 20
139.2419436177229
 30
0.0
 10
115.4381718826508
 20
140.3745294516919
 30
0.0
 10
115.393934391942
 20
141.724600294206
 30
0.0
 10
115.344896466809
 20
143.2737134901473
 30
0.0
 10
115.2967352687262
 20
144.7347607803034
 30
0.0
 10
115.2624194536298
 20
145.9209786998381
 30
0.0
 10
115.2061911107451
 20
146.8762227236031
 30
0.0
 10
115.0087474749233
 20
147.4136600273697
 30
0.0
 10
114.9252527361186
 20
147.9387108066269
 30
0.0
 10
114.6019528996656
 20
147.9283878871767
 30
0.0
 10
114.6286233711473
 20
147.8045853208325
 30
0.0
 10
114.6439335720114
 20
147.7335163800556
 30
0.0
  0
SPLINE
  5
112
330
1F
100
AcDbEntity
  8
0
  6
Continuous
 62
     7
370
    25
100
AcDbSpline
210
0.0
220
0.0
230
1.0
 70
     8
 71
     3
 72
    12
 73
     8
 74
     0
 42
0.00000001
 43
0.00000001
 40
0.0
 40
0.0
 40
0.0
 40
0.0
 40
0.0559766061293152
 40
0.2090736767927958
 40
0.4143819754578629
 40
0.6285980610577805
 40
1.0
 40
1.0
 40
1.0
 40
1.0
 10
116.6089645998053
 20
137.5037127582867
 30
0.0
 10
116.5926107081681
 20
137.5801168754682
 30
0.0
 10
116.5315286152926
 20
137.865487690275
 30
0.0
 10
116.5196360030577
 20
138.4460538113342
 30
0.0
 10
116.47243351589
 20
139.2419371312144
 30
0.0
 10
116.4390439140804
 20
140.3446843861707
 30
0.0
 10
116.4125250379308
 20
141.1606724291992
 30
0.0
 10
116.3957066313795
 20
141.6781762091954
 30
0.0
  0
SPLINE
  5
113
330
1F
100
AcDbEntity
  8
0
  6
Continuous
 62
     7
370
    25
100
AcDbSpline
210
0.0
220
0.0
230
1.0
 70
     8
 71
     3
 72
    11
 73
     7
 74
     0
 42
0.00000001
 43
0.00000001
 40
0.0
 40
0.0
 40
0.0
 40
0.0
 40
0.0713101405667346
 40
0.2266560408912086
 40
0.6553268643558626
 40
0.9999999999999999
 40
0.9999999999999999
 40
0.9999999999999999
 40
0.9999999999999999
 10
104.8645175473265
 20
148.1011615543206
 30
0.0
 10
104.8127290505459
 20
148.0463630914064
 30
0.0
 10
104.6481216672102
 20
147.8721886675119
 30
0.0
 10
104.5595282990383
 20
147.1611536491358
 30
0.0
 10
104.4717437455839
 20
146.2196010927814
 30
0.0
 10
104.4513570003155
 20
145.4113797719641
 30
0.0
 10
104.442270793157
 20
145.0511620788414
 30
0.0
  0
SPLINE
  5
114
330
1F
100
AcDbEntity
  8
0
  6
Continuous
 62
     7
370
    25
100
AcDbSpline
210
0.0
220
0.0
230
1.0
 70
     8
 71
     3
 72
    11
 73
     7
 74
     0
 42
0.00000001
 43
0.00000001
 40
0.0
 40
0.0
 40
0.0
 40
0.0
 40
0.0713115690935708
 40
0.2266572656768691
 40
0.6553273164058346
 40
0.9999999999999999
 40
0.9999999999999999
 40
0.9999999999999999
 40
0.9999999999999999
 10
105.8645195738844
 20
148.1011615543206
 30
0.0
 10
105.8127282049995
 20
148.0463633768076
 30
0.0
 10
105.6481141009164
 20
147.8721924079586
 30
0.0
 10
105.5595244359219
 20
147.1611517916909
 30
0.0
 10
105.4717473214
 20
146.21960125353
 30
0.0
 10
105.4513595062048
 20
145.4113798893495
 30
0.0
 10
105.4422728197149
 20
145.0511620788414
 30
0.0
  0
SPLINE
  5
115
330
1F
100
AcDbEntity
  8
0
  6
Continuous
 62
     7
370
    25
100
AcDbSpline
210
0.0
220
0.0
230
1.0
 70
     8
 71
     3
 72
    11
 73
     7
 74
     0
 42
0.00000001
 43
0.00000001
 40
0.0
 40
0.0
 40
0.0
 40
0.0
 40
0.071311563130854
 40
0.2266572467249222
 40
0.655327261610642
 40
1.0
 40
1.0
 40
1.0
 40
1.0
 10
106.8645216004423
 20
148.1011615543206
 30
0.0
 10
106.8127302350498
 20
148.0463633766841
 30
0.0
 10
106.6481161420666
 20
147.8721924074426
 30
0.0
 10
106.559526203152
 20
147.1611518008613
 30
0.0
 10
106.4717519532156
 20
146.2196010763505
 30
0.0
 10
106.4513571831394
 20
145.4113798682325
 30
0.0
 10
106.4422673956923
 20
145.0511620788414
 30
0.0
  0
SPLINE
  5
116
330
1F
100
AcDbEntity
  8
0
  6
Continuous
 62
     7
370
    25
100
AcDbSpline
210
0.0
220
0.0
230
1.0
 70
     8
 71
     3
 72
     9
 73
     5
 74
     0
 42
0.00000001
 43
0.00000001
 40
0.0
 40
0.0
 40
0.0
 40
0.0
 40
0.6501060662398351
 40
1.0
 40
1.0
 40
1.0
 40
1.0
 10
107.8645236270002
 20
148.1011615543206
 30
0.0
 10
107.8079360262232
 20
148.0487414652038
 30
0.0
 10
107.7208923825538
 20
147.9681083318752
 30
0.0
 10
107.6992721857596
 20
147.8537886860061
 30
0.0
 10
107.6917074100546
 20
147.8137889354069
 30
0.0
  0
SPLINE
  5
117
330
1F
100
AcDbEntity
  8
0
  6
Continuous
 62
     7
370
    25
100
AcDbSpline
210
0.0
220
0.0
230
1.0
 70
     8
 71
     3
 72
     9
 73
     5
 74
     0
 42
0.00000001
 43
0.00000001
 40
0.0
 40
0.0
 40
0.0
 40
0.0
 40
0.5543079224190286
 40
1.0
 40
1.0
 40
1.0
 40
1.0
 10
107.5981579200796
 20
147.4606537668545
 30
0.0
 10
107.5521947465087
 20
147.0165139715025
 30
0.0
 10
107.4692748175091
 20
146.2152629386583
 30
0.0
 10
107.4505949093338
 20
145.4100424647627
 30
0.0
 10
107.4422694222502
 20
145.0511620788414
 30
0.0
  0
SPLINE
  5
118
330
1F
100
AcDbEntity
  8
0
  6
Continuous
 62
     7
370
    25
100
AcDbSpline
210
0.0
220
0.0
230
1.0
 70
     8
 71
     3
 72
     9
 73
     5
 74
     0
 42
0.00000001
 43
0.00000001
 40
0.0
 40
0.0
 40
0.0
 40
0.0
 40
0.6501012111612086
 40
1.0
 40
1.0
 40
1.0
 40
1.0
 10
108.8645182029776
 20
148.1011615543206
 30
0.0
 10
108.8079338299028
 20
148.0487409318673
 30
0.0
 10
108.7208945010977
 20
147.9681063759655
 30
0.0
 10
108.6992743139203
 20
147.8537885901918
 30
0.0
 10
108.6917094366125
 20
147.8137889354069
 30
0.0
  0
SPLINE
  5
119
330
1F
100
AcDbEntity
  8
0
  6
Continuous
 62
     7
370
    25
100
AcDbSpline
210
0.0
220
0.0
230
1.0
 70
     8
 71
     3
 72
     9
 73
     5
 74
     0
 42
0.00000001
 43
0.00000001
 40
0.0
 40
0.0
 40
0.0
 40
0.0
 40
0.5543081036782885
 40
1.0
 40
1.0
 40
1.0
 40
1.0
 10
108.5981599466375
 20
147.4606537668545
 30
0.0
 10
108.5521927461853
 20
147.0165140623304
 30
0.0
 10
108.469265579602
 20
146.2152634553543
 30
0.0
 10
108.4505934608313
 20
145.4100425230971
 30
0.0
 10
108.4422714488081
 20
145.0511620788414
 30
0.0
  0
SPLINE
  5
11A
330
1F
100
AcDbEntity
  8
0
  6
Continuous
 62
     7
370
    25
100
AcDbSpline
210
0.0
220
0.0
230
1.0
 70
     8
 71
     3
 72
    11
 73
     7
 74
     0
 42
0.00000001
 43
0.00000001
 40
0.0
 40
0.0
 40
0.0
 40
0.0
 40
0.071311563130854
 40
0.2266572467249222
 40
0.655327261610642
 40
1.0
 40
1.0
 40
1.0
 40
1.0
 10
109.8645202295355
 20
148.1011615543206
 30
0.0
 10
109.8127288641429
 20
148.0463633766841
 30
0.0
 10
109.6481147711597
 20
147.8721924074426
 30
0.0
 10
109.5595248322452
 20
147.1611518008613
 30
0.0
 10
109.4717505823088
 20
146.2196010763505
 30
0.0
 10
109.4513558122325
 20
145.4113798682325
 30
0.0
 10
109.4422660247854
 20
145.0511620788414
 30
0.0
  0
SPLINE
  5
11B
330
1F
100
AcDbEntity
  8
0
  6
Continuous
 62
     7
370
    25
100
AcDbSpline
210
0.0
220
0.0
230
1.0
 70
     8
 71
     3
 72
    11
 73
     7
 74
     0
 42
0.00000001
 43
0.00000001
 40
0.0
 40
0.0
 40
0.0
 40
0.0
 40
0.071311563130854
 40
0.2266572467249222
 40
0.655327261610642
 40
1.0
 40
1.0
 40
1.0
 40
1.0
 10
110.8645222560934
 20
148.1011615543206
 30
0.0
 10
110.8127308907009
 20
148.0463633766841
 30
0.0
 10
110.6481167977176
 20
147.8721924074426
 30
0.0
 10
110.5595268588031
 20
147.1611518008613
 30
0.0
 10
110.4717526088667
 20
146.2196010763505
 30
0.0
 10
110.4513578387904
 20
145.4113798682325
 30
0.0
 10
110.4422680513433
 20
145.0511620788414
 30
0.0
  0
SPLINE
  5
11C
330
1F
100
AcDbEntity
  8
0
  6
Continuous
 62
     7
370
    25
100
AcDbSpline
210
0.0
220
0.0
230
1.0
 70
     8
 71
     3
 72
    11
 73
     7
 74
     0
 42
0.00000001
 43
0.00000001
 40
0.0
 40
0.0
 40
0.0
 40
0.0
 40
0.0713101405667346
 40
0.2266560408912086
 40
0.6553268643558626
 40
0.9999999999999999
 40
0.9999999999999999
 40
0.9999999999999999
 40
0.9999999999999999
 10
111.8645168320707
 20
148.1011615543206
 30
0.0
 10
111.8127283352902
 20
148.0463630914064
 30
0.0
 10
111.6481209519544
 20
147.8721886675119
 30
0.0
 10
111.5595275837825
 20
147.1611536491358
 30
0.0
 10
111.4717430303281
 20
146.2196010927814
 30
0.0
 10
111.4513562850598
 20
145.4113797719641
 30
0.0
 10
111.4422700779013
 20
145.0511620788414
 30
0.0
  0
SPLINE
  5
11D
330
1F
100
AcDbEntity
  8
0
  6
Continuous
 62
     7
370
    25
100
AcDbSpline
210
0.0
220
0.0
230
1.0
 70
     8
 71
     3
 72
    11
 73
     7
 74
     0
 42
0.00000001
 43
0.00000001
 40
0.0
 40
0.0
 40
0.0
 40
0.0
 40
0.0713115690935708
 40
0.2266572656768691
 40
0.6553273164058346
 40
0.9999999999999999
 40
0.9999999999999999
 40
0.9999999999999999
 40
0.9999999999999999
 10
112.8645188586287
 20
148.1011615543206
 30
0.0
 10
112.8127274897438
 20
148.0463633768076
 30
0.0
 10
112.6481133856607
 20
147.8721924079586
 30
0.0
 10
112.5595237206662
 20
147.1611517916909
 30
0.0
 10
112.4717466061443
 20
146.21960125353
 30
0.0
 10
112.451358790949
 20
145.4113798893495
 30
0.0
 10
112.4422721044592
 20
145.0511620788414
 30
0.0
  0
SPLINE
  5
11E
330
1F
100
AcDbEntity
  8
0
  6
Continuous
 62
     7
370
    25
100
AcDbSpline
210
0.0
220
0.0
230
1.0
 70
     8
 71
     3
 72
     9
 73
     5
 74
     0
 42
0.00000001
 43
0.00000001
 40
0.0
 40
0.0
 40
0.0
 40
0.0
 40
0.6501096870571864
 40
1.0
 40
1.0
 40
1.0
 40
1.0
 10
113.8645208851866
 20
148.1011615543206
 30
0.0
 10
113.8079318315074
 20
148.0487418629689
 30
0.0
 10
113.7208864377749
 20
147.9681097905736
 30
0.0
 10
113.6992740751454
 20
147.8537887574592
 30
0.0
 10
113.6917121188215
 20
147.8137889354069
 30
0.0
  0
SPLINE
  5
11F
330
1F
100
AcDbEntity
  8
0
  6
Continuous
 62
     7
370
    25
100
AcDbSpline
210
0.0
220
0.0
230
1.0
 70
     8
 71
     3
 72
     9
 73
     5
 74
     0
 42
0.00000001
 43
0.00000001
 40
0.0
 40
0.0
 40
0.0
 40
0.0
 40
0.5543079224190286
 40
1.0
 40
1.0
 40
1.0
 40
1.0
 10
113.598155178266
 20
147.4606537668545
 30
0.0
 10
113.552192004695
 20
147.0165139715025
 30
0.0
 10
113.4692720756954
 20
146.2152629386583
 30
0.0
 10
113.4505921675202
 20
145.4100424647627
 30
0.0
 10
113.4422666804365
 20
145.0511620788414
 30
0.0
  0
SPLINE
  5
120
330
1F
100
AcDbEntity
  8
0
  6
Continuous
 62
     7
370
    25
100
AcDbSpline
210
0.0
220
0.0
230
1.0
 70
     8
 71
     3
 72
    11
 73
     7
 74
     0
 42
0.00000001
 43
0.00000001
 40
0.0
 40
0.0
 40
0.0
 40
0.0
 40
0.071311563130854
 40
0.2266572467249222
 40
0.655327261610642
 40
1.0
 40
1.0
 40
1.0
 40
1.0
 10
114.8645229117445
 20
148.1011615543206
 30
0.0
 10
114.812731546352
 20
148.0463633766841
 30
0.0
 10
114.6481174533687
 20
147.8721924074426
 30
0.0
 10
114.5595275144542
 20
147.1611518008613
 30
0.0
 10
114.4717532645178
 20
146.2196010763505
 30
0.0
 10
114.4513584944415
 20
145.4113798682325
 30
0.0
 10
114.4422687069944
 20
145.0511620788414
 30
0.0
  0
SPLINE
  5
121
330
1F
100
AcDbEntity
  8
0
  6
Continuous
 62
     7
370
    25
100
AcDbSpline
210
0.0
220
0.0
230
1.0
 70
     8
 71
     3
 72
    16
 73
    12
 74
     0
 42
0.00000001
 43
0.00000001
 40
0.0
 40
0.0
 40
0.0
 40
0.0
 40
0.0728815792100379
 40
0.2084133161049907
 40
0.3659422241231306
 40
0.5287336164945112
 40
0.7073258271949836
 40
0.805297336543642
 40
0.8998099949049979
 40
0.9714311550376156
 40
1.0
 40
1.0
 40
1.0
 40
1.0
 10
103.9528421537451
 20
146.6008455900986
 30
0.0
 10
103.9270349672895
 20
146.3784329178396
 30
0.0
 10
103.8532363289114
 20
145.7424181240922
 30
0.0
 10
103.8172994237022
 20
144.6174534405162
 30
0.0
 10
103.844942161382
 20
143.2176472747512
 30
0.0
 10
103.8957766521665
 20
141.6859858991489
 30
0.0
 10
103.9389946575403
 20
140.337422917403
 30
0.0
 10
103.9746135572548
 20
139.1977682379714
 30
0.0
 10
104.0221938139529
 20
138.3889923532979
 30
0.0
 10
104.0378521610845
 20
137.7884763415895
 30
0.0
 10
104.101451117678
 20
137.4870415765367
 30
0.0
 10
104.1195861475042
 20
137.4010884611447
 30
0.0
  0
SPLINE
  5
122
330
1F
100
AcDbEntity
  8
0
  6
Continuous
 62
     7
370
    25
100
AcDbSpline
210
0.0
220
0.0
230
1.0
 70
     8
 71
     3
 72
    16
 73
    12
 74
     0
 42
0.00000001
 43
0.00000001
 40
0.0
 40
0.0
 40
0.0
 40
0.0
 40
0.0728815816884685
 40
0.2084132891860816
 40
0.3659422025611918
 40
0.5287336004685002
 40
0.7073258172422272
 40
0.805297329922531
 40
0.8998099914979097
 40
0.9714311540660958
 40
1.0
 40
1.0
 40
1.0
 40
1.0
 10
104.9528367297224
 20
146.6008455900986
 30
0.0
 10
104.9270292261523
 20
146.3784329312011
 30
0.0
 10
104.85322969299
 20
145.742418279439
 30
0.0
 10
104.8173048432479
 20
144.6174531932927
 30
0.0
 10
104.8449431882532
 20
143.21764731685
 30
0.0
 10
104.8957789852773
 20
141.6859858862394
 30
0.0
 10
104.9389966400925
 20
140.3374229192563
 30
0.0
 10
104.9746155922993
 20
139.197768237614
 30
0.0
 10
105.0221958388186
 20
138.3889923533691
 30
0.0
 10
105.0378541877688
 20
137.7884763415842
 30
0.0
 10
105.1014531442639
 20
137.4870415765356
 30
0.0
 10
105.1195881740622
 20
137.4010884611447
 30
0.0
  0
SPLINE
  5
123
330
1F
100
AcDbEntity
  8
0
  6
Continuous
 62
     7
370
    25
100
AcDbSpline
210
0.0
220
0.0
230
1.0
 70
     8
 71
     3
 72
    16
 73
    12
 74
     0
 42
0.00000001
 43
0.00000001
 40
0.0
 40
0.0
 40
0.0
 40
0.0
 40
0.0728815878583608
 40
0.2084133408358714
 40
0.3659422675468122
 40
0.5287337040733482
 40
0.7073259359660493
 40
0.8052974278412592
 40
0.8998101362424241
 40
0.9714313048737998
 40
1.0
 40
1.0
 40
1.0
 40
1.0
 10
105.9528387562803
 20
146.6008455900986
 30
0.0
 10
105.9270315555139
 20
146.3784329173936
 30
0.0
 10
105.8532328762122
 20
145.7424181223708
 30
0.0
 10
105.8172965155852
 20
144.6174534557669
 30
0.0
 10
105.8449366123204
 20
143.217647131378
 30
0.0
 10
105.895781884779
 20
141.6859860154389
 30
0.0
 10
105.9390046246514
 20
140.3374231761377
 30
0.0
 10
105.9746056907171
 20
139.197767954667
 30
0.0
 10
106.0221978546596
 20
138.3889920980967
 30
0.0
 10
106.0378612637726
 20
137.7884778209151
 30
0.0
 10
106.1014505478258
 20
137.4870416483375
 30
0.0
 10
106.1195827500395
 20
137.4010884611447
 30
0.0
  0
SPLINE
  5
124
330
1F
100
AcDbEntity
  8
0
  6
Continuous
 62
     7
370
    25
100
AcDbSpline
210
0.0
220
0.0
230
1.0
 70
     8
 71
     3
 72
    16
 73
    12
 74
     0
 42
0.00000001
 43
0.00000001
 40
0.0
 40
0.0
 40
0.0
 40
0.0
 40
0.0728815878583608
 40
0.2084133408358714
 40
0.3659422675468122
 40
0.5287337040733482
 40
0.7073259359660493
 40
0.8052974278412592
 40
0.8998101362424241
 40
0.9714313048737998
 40
1.0
 40
1.0
 40
1.0
 40
1.0
 10
106.9528407828383
 20
146.6008455900986
 30
0.0
 10
106.9270335820718
 20
146.3784329173936
 30
0.0
 10
106.8532349027701
 20
145.7424181223708
 30
0.0
 10
106.8172985421431
 20
144.6174534557669
 30
0.0
 10
106.8449386388783
 20
143.217647131378
 30
0.0
 10
106.8957839113369
 20
141.6859860154389
 30
0.0
 10
106.9390066512094
 20
140.3374231761377
 30
0.0
 10
106.9746077172751
 20
139.197767954667
 30
0.0
 10
107.0221998812175
 20
138.3889920980967
 30
0.0
 10
107.0378632903305
 20
137.7884778209151
 30
0.0
 10
107.1014525743837
 20
137.4870416483375
 30
0.0
 10
107.1195847765974
 20
137.4010884611447
 30
0.0
  0
SPLINE
  5
125
330
1F
100
AcDbEntity
  8
0
  6
Continuous
 62
     7
370
    25
100
AcDbSpline
210
0.0
220
0.0
230
1.0
 70
     8
 71
     3
 72
    16
 73
    12
 74
     0
 42
0.00000001
 43
0.00000001
 40
0.0
 40
0.0
 40
0.0
 40
0.0
 40
0.0728815792100379
 40
0.2084133161049907
 40
0.3659422241231306
 40
0.5287336164945112
 40
0.7073258271949836
 40
0.805297336543642
 40
0.8998099949049979
 40
0.9714311550376156
 40
1.0
 40
1.0
 40
1.0
 40
1.0
 10
107.9528428093962
 20
146.6008455900986
 30
0.0
 10
107.9270356229406
 20
146.3784329178396
 30
0.0
 10
107.8532369845625
 20
145.7424181240922
 30
0.0
 10
107.8173000793532
 20
144.6174534405162
 30
0.0
 10
107.8449428170331
 20
143.2176472747512
 30
0.0
 10
107.8957773078176
 20
141.6859858991489
 30
0.0
 10
107.9389953131914
 20
140.337422917403
 30
0.0
 10
107.9746142129059
 20
139.1977682379714
 30
0.0
 10
108.022194469604
 20
138.3889923532979
 30
0.0
 10
108.0378528167356
 20
137.7884763415895
 30
0.0
 10
108.1014517733291
 20
137.4870415765367
 30
0.0
 10
108.1195868031553
 20
137.4010884611447
 30
0.0
  0
SPLINE
  5
126
330
1F
100
AcDbEntity
  8
0
  6
Continuous
 62
     7
370
    25
100
AcDbSpline
210
0.0
220
0.0
230
1.0
 70
     8
 71
     3
 72
    16
 73
    12
 74
     0
 42
0.00000001
 43
0.00000001
 40
0.0
 40
0.0
 40
0.0
 40
0.0
 40
0.0728815816884685
 40
0.2084132891860816
 40
0.3659422025611918
 40
0.5287336004685002
 40
0.7073258172422272
 40
0.805297329922531
 40
0.8998099914979097
 40
0.9714311540660958
 40
1.0
 40
1.0
 40
1.0
 40
1.0
 10
108.9528373853735
 20
146.6008455900986
 30
0.0
 10
108.9270298818034
 20
146.3784329312011
 30
0.0
 10
108.8532303486411
 20
145.742418279439
 30
0.0
 10
108.817305498899
 20
144.6174531932927
 30
0.0
 10
108.8449438439043
 20
143.21764731685
 30
0.0
 10
108.8957796409284
 20
141.6859858862394
 30
0.0
 10
108.9389972957435
 20
140.3374229192563
 30
0.0
 10
108.9746162479504
 20
139.197768237614
 30
0.0
 10
109.0221964944697
 20
138.3889923533691
 30
0.0
 10
109.0378548434199
 20
137.7884763415842
 30
0.0
 10
109.101453799915
 20
137.4870415765356
 30
0.0
 10
109.1195888297133
 20
137.4010884611447
 30
0.0
  0
SPLINE
  5
127
330
1F
100
AcDbEntity
  8
0
  6
Continuous
 62
     7
370
    25
100
AcDbSpline
210
0.0
220
0.0
230
1.0
 70
     8
 71
     3
 72
    16
 73
    12
 74
     0
 42
0.00000001
 43
0.00000001
 40
0.0
 40
0.0
 40
0.0
 40
0.0
 40
0.0728815878583608
 40
0.2084133408358714
 40
0.3659422675468122
 40
0.5287337040733482
 40
0.7073259359660493
 40
0.8052974278412592
 40
0.8998101362424241
 40
0.9714313048737998
 40
1.0
 40
1.0
 40
1.0
 40
1.0
 10
109.9528394119314
 20
146.6008455900986
 30
0.0
 10
109.927032211165
 20
146.3784329173936
 30
0.0
 10
109.8532335318633
 20
145.7424181223708
 30
0.0
 10
109.8172971712363
 20
144.6174534557669
 30
0.0
 10
109.8449372679715
 20
143.217647131378
 30
0.0
 10
109.8957825404301
 20
141.6859860154389
 30
0.0
 10
109.9390052803025
 20
140.3374231761377
 30
0.0
 10
109.9746063463682
 20
139.197767954667
 30
0.0
 10
110.0221985103106
 20
138.3889920980967
 30
0.0
 10
110.0378619194237
 20
137.7884778209151
 30
0.0
 10
110.1014512034769
 20
137.4870416483375
 30
0.0
 10
110.1195834056906
 20
137.4010884611447
 30
0.0
  0
SPLINE
  5
128
330
1F
100
AcDbEntity
  8
0
  6
Continuous
 62
     7
370
    25
100
AcDbSpline
210
0.0
220
0.0
230
1.0
 70
     8
 71
     3
 72
    16
 73
    12
 74
     0
 42
0.00000001
 43
0.00000001
 40
0.0
 40
0.0
 40
0.0
 40
0.0
 40
0.07288158610358
 40
0.2084133358178725
 40
0.365942258735966
 40
0.5287336913429485
 40
0.7073258930151753
 40
0.8052974116305199
 40
0.8998100789314049
 40
0.9714313055616525
 40
1.0
 40
1.0
 40
1.0
 40
1.0
 10
110.9528414384893
 20
146.6008455900986
 30
0.0
 10
110.9270342296092
 20
146.3784329170975
 30
0.0
 10
110.8532355271055
 20
145.7424181212278
 30
0.0
 10
110.8172994752351
 20
144.6174534658935
 30
0.0
 10
110.8449380738051
 20
143.2176470868217
 30
0.0
 10
110.8957894540654
 20
141.6859862734888
 30
0.0
 10
110.938990996188
 20
140.3374226506814
 30
0.0
 10
110.9746151964195
 20
139.1977684891546
 30
0.0
 10
111.0221865066576
 20
138.3889913815582
 30
0.0
 10
111.0378649571783
 20
137.7884780729648
 30
0.0
 10
111.1014534628075
 20
137.4870416643933
 30
0.0
 10
111.1195854322485
 20
137.4010884611447
 30
0.0
  0
SPLINE
  5
129
330
1F
100
AcDbEntity
  8
0
  6
Continuous
 62
     7
370
    25
100
AcDbSpline
210
0.0
220
0.0
230
1.0
 70
     8
 71
     3
 72
    16
 73
    12
 74
     0
 42
0.00000001
 43
0.00000001
 40
0.0
 40
0.0
 40
0.0
 40
0.0
 40
0.0728815792100379
 40
0.2084133161049907
 40
0.3659422241231306
 40
0.5287336164945112
 40
0.7073258271949836
 40
0.805297336543642
 40
0.8998099949049979
 40
0.9714311550376156
 40
1.0
 40
1.0
 40
1.0
 40
1.0
 10
111.9528434650473
 20
146.6008455900986
 30
0.0
 10
111.9270362785917
 20
146.3784329178396
 30
0.0
 10
111.8532376402136
 20
145.7424181240922
 30
0.0
 10
111.8173007350044
 20
144.6174534405162
 30
0.0
 10
111.8449434726842
 20
143.2176472747512
 30
0.0
 10
111.8957779634687
 20
141.6859858991489
 30
0.0
 10
111.9389959688425
 20
140.337422917403
 30
0.0
 10
111.974614868557
 20
139.1977682379714
 30
0.0
 10
112.0221951252551
 20
138.3889923532979
 30
0.0
 10
112.0378534723867
 20
137.7884763415895
 30
0.0
 10
112.1014524289802
 20
137.4870415765367
 30
0.0
 10
112.1195874588064
 20
137.4010884611447
 30
0.0
  0
SPLINE
  5
12A
330
1F
100
AcDbEntity
  8
0
  6
Continuous
 62
     7
370
    25
100
AcDbSpline
210
0.0
220
0.0
230
1.0
 70
     8
 71
     3
 72
    16
 73
    12
 74
     0
 42
0.00000001
 43
0.00000001
 40
0.0
 40
0.0
 40
0.0
 40
0.0
 40
0.0728815777539345
 40
0.2084133119410942
 40
0.365942227065318
 40
0.5287336161842839
 40
0.7073258233166567
 40
0.8052973016089338
 40
0.8998099969066973
 40
0.9714311556083934
 40
1.0
 40
1.0
 40
1.0
 40
1.0
 10
112.9528380410246
 20
146.6008455900986
 30
0.0
 10
112.9270309266397
 20
146.3784329188413
 30
0.0
 10
112.8532324943562
 20
145.7424181279582
 30
0.0
 10
112.817292845576
 20
144.6174533747453
 30
0.0
 10
112.8449488940263
 20
143.2176473625
 30
0.0
 10
112.895777074293
 20
141.6859858092808
 30
0.0
 10
112.9390048896109
 20
140.3374232705924
 30
0.0
 10
112.9746040923661
 20
139.1977678022325
 30
0.0
 10
113.0221996992648
 20
138.3889925894717
 30
0.0
 10
113.0378553085611
 20
137.7884763328989
 30
0.0
 10
113.1014544132961
 20
137.4870415746085
 30
0.0
 10
113.1195894853643
 20
137.4010884611447
 30
0.0
  0
SPLINE
  5
12B
330
1F
100
AcDbEntity
  8
0
  6
Continuous
 62
     7
370
    25
100
AcDbSpline
210
0.0
220
0.0
230
1.0
 70
     8
 71
     3
 72
    16
 73
    12
 74
     0
 42
0.00000001
 43
0.00000001
 40
0.0
 40
0.0
 40
0.0
 40
0.0
 40
0.0728815878583608
 40
0.2084133408358714
 40
0.3659422675468122
 40
0.5287337040733482
 40
0.7073259359660493
 40
0.8052974278412592
 40
0.8998101362424241
 40
0.9714313048737998
 40
1.0
 40
1.0
 40
1.0
 40
1.0
 10
113.9528400675825
 20
146.6008455900986
 30
0.0
 10
113.9270328668161
 20
146.3784329173936
 30
0.0
 10
113.8532341875144
 20
145.7424181223708
 30
0.0
 10
113.8172978268874
 20
144.6174534557669
 30
0.0
 10
113.8449379236226
 20
143.217647131378
 30
0.0
 10
113.8957831960812
 20
141.6859860154389
 30
0.0
 10
113.9390059359536
 20
140.3374231761377
 30
0.0
 10
113.9746070020193
 20
139.197767954667
 30
0.0
 10
114.0221991659617
 20
138.3889920980967
 30
0.0
 10
114.0378625750748
 20
137.7884778209151
 30
0.0
 10
114.101451859128
 20
137.4870416483375
 30
0.0
 10
114.1195840613417
 20
137.4010884611447
 30
0.0
  0
SPLINE
  5
12C
330
1F
100
AcDbEntity
  8
0
  6
Continuous
 62
     7
370
    25
100
AcDbSpline
210
0.0
220
0.0
230
1.0
 70
     8
 71
     3
 72
    16
 73
    12
 74
     0
 42
0.00000001
 43
0.00000001
 40
0.0
 40
0.0
 40
0.0
 40
0.0
 40
0.0728815792100379
 40
0.2084133161049907
 40
0.3659422241231306
 40
0.5287336164945112
 40
0.7073258271949836
 40
0.805297336543642
 40
0.8998099949049979
 40
0.9714311550376156
 40
1.0
 40
1.0
 40
1.0
 40
1.0
 10
114.9528420941404
 20
146.6008455900986
 30
0.0
 10
114.9270349076848
 20
146.3784329178396
 30
0.0
 10
114.8532362693067
 20
145.7424181240922
 30
0.0
 10
114.8172993640975
 20
144.6174534405162
 30
0.0
 10
114.8449421017773
 20
143.2176472747512
 30
0.0
 10
114.8957765925619
 20
141.6859858991489
 30
0.0
 10
114.9389945979356
 20
140.337422917403
 30
0.0
 10
114.9746134976501
 20
139.1977682379714
 30
0.0
 10
115.0221937543482
 20
138.3889923532979
 30
0.0
 10
115.0378521014799
 20
137.7884763415895
 30
0.0
 10
115.1014510580734
 20
137.4870415765367
 30
0.0
 10
115.1195860878996
 20
137.4010884611447
 30
0.0
  0
SPLINE
  5
12D
330
1F
100
AcDbEntity
  8
0
  6
Continuous
 62
     7
370
    25
100
AcDbSpline
210
0.0
220
0.0
230
1.0
 70
     8
 71
     3
 72
    13
 73
     9
 74
     0
 42
0.00000001
 43
0.00000001
 40
0.0
 40
0.0
 40
0.0
 40
0.0
 40
0.2472543508582191
 40
0.5325166022740938
 40
0.6890048008455434
 40
0.8399682365167527
 40
0.9543674777172164
 40
1.0
 40
1.0
 40
1.0
 40
1.0
 10
115.8500857131056
 20
143.1602345256645
 30
0.0
 10
115.8644970263797
 20
142.684983903147
 30
0.0
 10
115.8955349577748
 20
141.6614272059515
 30
0.0
 10
115.9391476319676
 20
140.3374258732619
 30
0.0
 10
115.974586402076
 20
139.1977676679274
 30
0.0
 10
116.0222015876449
 20
138.3889924669604
 30
0.0
 10
116.037853694603
 20
137.7884763331054
 30
0.0
 10
116.1014529884613
 20
137.4870415746543
 30
0.0
 10
116.1195881144575
 20
137.4010884611447
 30
0.0
  0
SPLINE
  5
12E
330
1F
100
AcDbEntity
  8
0
  6
Continuous
 62
     7
370
    25
100
AcDbSpline
210
0.0
220
0.0
230
1.0
 70
     8
 71
     3
 72
    16
 73
    12
 74
     0
 42
0.00000001
 43
0.00000001
 40
0.0
 40
0.0
 40
0.0
 40
0.0
 40
0.0728815878583608
 40
0.2084133408358714
 40
0.3659422675468122
 40
0.5287337040733482
 40
0.7073259359660493
 40
0.8052974278412592
 40
0.8998101362424241
 40
0.9714313048737998
 40
1.0
 40
1.0
 40
1.0
 40
1.0
 10
102.9528401271872
 20
146.6008455900986
 30
0.0
 10
102.9270329264207
 20
146.3784329173936
 30
0.0
 10
102.853234247119
 20
145.7424181223708
 30
0.0
 10
102.817297886492
 20
144.6174534557669
 30
0.0
 10
102.8449379832272
 20
143.217647131378
 30
0.0
 10
102.8957832556859
 20
141.6859860154389
 30
0.0
 10
102.9390059955583
 20
140.3374231761377
 30
0.0
 10
102.974607061624
 20
139.197767954667
 30
0.0
 10
103.0221992255664
 20
138.3889920980967
 30
0.0
 10
103.0378626346794
 20
137.7884778209151
 30
0.0
 10
103.1014519187326
 20
137.4870416483375
 30
0.0
 10
103.1195841209463
 20
137.4010884611447
 30
0.0
  0
SPLINE
  5
12F
330
1F
100
AcDbEntity
  8
0
  6
Continuous
 62
     7
370
    25
100
AcDbSpline
210
0.0
220
0.0
230
1.0
 70
     8
 71
     3
 72
     9
 73
     5
 74
     0
 42
0.00000001
 43
0.00000001
 40
0.0
 40
0.0
 40
0.0
 40
0.0
 40
0.6501096870571864
 40
1.0
 40
1.0
 40
1.0
 40
1.0
 10
103.8645229713491
 20
148.1011615543206
 30
0.0
 10
103.8079339176699
 20
148.0487418629689
 30
0.0
 10
103.7208885239374
 20
147.9681097905736
 30
0.0
 10
103.699276161308
 20
147.8537887574592
 30
0.0
 10
103.6917142049841
 20
147.8137889354069
 30
0.0
  0
SPLINE
  5
130
330
1F
100
AcDbEntity
  8
0
  6
Continuous
 62
     7
370
    25
100
AcDbSpline
210
0.0
220
0.0
230
1.0
 70
     8
 71
     3
 72
     9
 73
     5
 74
     0
 42
0.00000001
 43
0.00000001
 40
0.0
 40
0.0
 40
0.0
 40
0.0
 40
0.5543079224190286
 40
1.0
 40
1.0
 40
1.0
 40
1.0
 10
103.5981572644285
 20
147.4606537668545
 30
0.0
 10
103.5521940908576
 20
147.0165139715025
 30
0.0
 10
103.469274161858
 20
146.2152629386583
 30
0.0
 10
103.4505942536827
 20
145.4100424647627
 30
0.0
 10
103.4422687665991
 20
145.0511620788414
 30
0.0
  0
SPLINE
  5
131
330
1F
100
AcDbEntity
  8
0
  6
Continuous
 62
     7
370
    25
100
AcDbSpline
210
0.0
220
0.0
230
1.0
 70
     8
 71
     3
 72
    20
 73
    16
 74
     0
 42
0.00000001
 43
0.00000001
 40
0.0
 40
0.0
 40
0.0
 40
0.0
 40
0.0216457813910857
 40
0.0808474006450581
 40
0.1602387870208149
 40
0.2430747229587309
 40
0.3949810059606702
 40
0.5348398099756426
 40
0.6732699863704842
 40
0.7991477954645937
 40
0.8676468064010224
 40
0.9309104034435833
 40
0.971994710958107
 40
0.9839239391646468
 40
0.9999999999999999
 40
0.9999999999999999
 40
0.9999999999999999
 40
0.9999999999999999
 10
103.6089680568747
 20
137.5037127582867
 30
0.0
 10
103.5926141197638
 20
137.5801168935106
 30
0.0
 10
103.5315318570429
 20
137.8654877757063
 30
0.0
 10
103.5196426777486
 20
138.446052651184
 30
0.0
 10
103.4724205189623
 20
139.241943885518
 30
0.0
 10
103.4381686023568
 20
140.374529303673
 30
0.0
 10
103.3939339118872
 20
141.7246003755602
 30
0.0
 10
103.3448906274623
 20
143.2737132728289
 30
0.0
 10
103.2967467753859
 20
144.7347611639171
 30
0.0
 10
103.2624150992433
 20
145.920978509164
 30
0.0
 10
103.2061906766163
 20
146.8762228032359
 30
0.0
 10
103.0087422393473
 20
147.4136587548442
 30
0.0
 10
102.9252567177786
 20
147.9387110775056
 30
0.0
 10
102.6019510819923
 20
147.9283901292584
 30
0.0
 10
102.6286216963419
 20
147.8045850350792
 30
0.0
 10
102.6439316050581
 20
147.7335163800556
 30
0.0
  0
SPLINE
  5
132
330
1F
100
AcDbEntity
  8
0
  6
Continuous
 62
     7
370
    25
100
AcDbSpline
210
0.0
220
0.0
230
1.0
 70
     8
 71
     3
 72
     9
 73
     5
 74
     0
 42
0.00000001
 43
0.00000001
 40
0.0
 40
0.0
 40
0.0
 40
0.0
 40
0.376105773891256
 40
1.0
 40
1.0
 40
1.0
 40
1.0
 10
103.307279147344
 20
137.207801774009
 30
0.0
 10
103.3619489895649
 20
137.2897121510956
 30
0.0
 10
103.5073066150413
 20
137.5074976326615
 30
0.0
 10
103.5331548753507
 20
137.7706340562617
 30
0.0
 10
103.5492814557127
 20
137.9348033516247
 30
0.0
  0
LINE
  5
133
330
1F
100
AcDbEntity
  8
0
  6
Continuous
 62
     7
370
    25
100
AcDbLine
 10
115.3763107435
 20
145.0511620788
 30
0.0
 11
115.2864567415
 21
145.0511620788
 31
0.0
  0
LINE
  5
134
330
1F
100
AcDbEntity
  8
0
  6
Continuous
 62
     7
370
    25
100
AcDbLine
 10
114.8448161261
 20
145.0511620788
 30
0.0
 11
114.286454715
 21
145.0511620788
 31
0.0
  0
LINE
  5
135
330
1F
100
AcDbEntity
  8
0
  6
Continuous
 62
     7
370
    25
100
AcDbLine
 10
113.8448140995
 20
145.0511620788
 30
0.0
 11
113.2864526884
 21
145.0511620788
 31
0.0
  0
LINE
  5
136
330
1F
100
AcDbEntity
  8
0
  6
Continuous
 62
     7
370
    25
100
AcDbLine
 10
112.8448195235
 20
145.0511620788
 30
0.0
 11
112.2864581124
 21
145.0511620788
 31
0.0
  0
LINE
  5
137
330
1F
100
AcDbEntity
  8
0
  6
Continuous
 62
     7
370
    25
100
AcDbLine
 10
111.844817497
 20
145.0511620788
 30
0.0
 11
111.2864560859
 21
145.0511620788
 31
0.0
  0
LINE
  5
138
330
1F
100
AcDbEntity
  8
0
  6
Continuous
 62
     7
370
    25
100
AcDbLine
 10
110.8448154704
 20
145.0511620788
 30
0.0
 11
110.2864540593
 21
145.0511620788
 31
0.0
  0
LINE
  5
139
330
1F
100
AcDbEntity
  8
0
  6
Continuous
 62
     7
370
    25
100
AcDbLine
 10
109.8448134439
 20
145.0511620788
 30
0.0
 11
109.2864520328
 21
145.0511620788
 31
0.0
  0
LINE
  5
13A
330
1F
100
AcDbEntity
  8
0
  6
Continuous
 62
     7
370
    25
100
AcDbLine
 10
108.8448188679
 20
145.0511620788
 30
0.0
 11
108.2864574568
 21
145.0511620788
 31
0.0
  0
LINE
  5
13B
330
1F
100
AcDbEntity
  8
0
  6
Continuous
 62
     7
370
    25
100
AcDbLine
 10
107.8448168413
 20
145.0511620788
 30
0.0
 11
107.2864554302
 21
145.0511620788
 31
0.0
  0
LINE
  5
13C
330
1F
100
AcDbEntity
  8
0
  6
Continuous
 62
     7
370
    25
100
AcDbLine
 10
106.8448148148
 20
145.0511620788
 30
0.0
 11
106.2864534037
 21
145.0511620788
 31
0.0
  0
LINE
  5
13D
330
1F
100
AcDbEntity
  8
0
  6
Continuous
 62
     7
370
    25
100
AcDbLine
 10
105.8448202388
 20
145.0511620788
 30
0.0
 11
105.2864588277
 21
145.0511620788
 31
0.0
  0
LINE
  5
13E
330
1F
100
AcDbEntity
  8
0
  6
Continuous
 62
     7
370
    25
100
AcDbLine
 10
104.8448182122
 20
145.0511620788
 30
0.0
 11
104.2864568011
 21
145.0511620788
 31
0.0
  0
LINE
  5
13F
330
1F
100
AcDbEntity
  8
0
  6
Continuous
 62
     7
370
    25
100
AcDbLine
 10
103.8448161857
 20
145.0511620788
 30
0.0
 11
103.1145177261
 21
145.0511620788
 31
0.0
  0
LINE
  5
140
330
1F
100
AcDbEntity
  8
0
  6
Continuous
 62
     7
370
    25
100
AcDbLine
 10
103.4414119498
 20
140.2511627822
 30
0.0
 11
103.9414800183
 21
140.2511627822
 31
0.0
  0
LINE
  5
141
330
1F
100
AcDbEntity
  8
0
  6
Continuous
 62
     7
370
    25
100
AcDbLine
 10
104.4414139764
 20
140.2511627822
 30
0.0
 11
104.9414745943
 21
140.2511627822
 31
0.0
  0
LINE
  5
142
330
1F
100
AcDbEntity
  8
0
  6
Continuous
 62
     7
370
    25
100
AcDbLine
 10
105.4414085524
 20
140.2511627822
 30
0.0
 11
105.9414766209
 21
140.2511627822
 31
0.0
  0
LINE
  5
143
330
1F
100
AcDbEntity
  8
0
  6
Continuous
 62
     7
370
    25
100
AcDbLine
 10
106.4414105789
 20
140.2511627822
 30
0.0
 11
106.9414786474
 21
140.2511627822
 31
0.0
  0
LINE
  5
144
330
1F
100
AcDbEntity
  8
0
  6
Continuous
 62
     7
370
    25
100
AcDbLine
 10
107.4414126055
 20
140.2511627822
 30
0.0
 11
107.9414732234
 21
140.2511627822
 31
0.0
  0
LINE
  5
145
330
1F
100
AcDbEntity
  8
0
  6
Continuous
 62
     7
370
    25
100
AcDbLine
 10
108.441414632
 20
140.2511627822
 30
0.0
 11
108.94147525
 21
140.2511627822
 31
0.0
  0
LINE
  5
146
330
1F
100
AcDbEntity
  8
0
  6
Continuous
 62
     7
370
    25
100
AcDbLine
 10
109.441409208
 20
140.2511627822
 30
0.0
 11
109.9414772765
 21
140.2511627822
 31
0.0
  0
LINE
  5
147
330
1F
100
AcDbEntity
  8
0
  6
Continuous
 62
     7
370
    25
100
AcDbLine
 10
110.4414112346
 20
140.2511627822
 30
0.0
 11
110.9414793031
 21
140.2511627822
 31
0.0
  0
LINE
  5
148
330
1F
100
AcDbEntity
  8
0
  6
Continuous
 62
     7
370
    25
100
AcDbLine
 10
111.4414132611
 20
140.2511627822
 30
0.0
 11
111.9414738791
 21
140.2511627822
 31
0.0
  0
LINE
  5
149
330
1F
100
AcDbEntity
  8
0
  6
Continuous
 62
     7
370
    25
100
AcDbLine
 10
112.4414078371
 20
140.2511627822
 30
0.0
 11
112.9414759056
 21
140.2511627822
 31
0.0
  0
LINE
  5
14A
330
1F
100
AcDbEntity
  8
0
  6
Continuous
 62
     7
370
    25
100
AcDbLine
 10
113.4414098637
 20
140.2511627822
 30
0.0
 11
113.9414779322
 21
140.2511627822
 31
0.0
  0
LINE
  5
14B
330
1F
100
AcDbEntity
  8
0
  6
Continuous
 62
     7
370
    25
100
AcDbLine
 10
114.4414118902
 20
140.2511627822
 30
0.0
 11
114.9414799587
 21
140.2511627822
 31
0.0
  0
LINE
  5
14C
330
1F
100
AcDbEntity
  8
0
  6
Continuous
 62
     7
370
    25
100
AcDbLine
 10
115.4414139168
 20
140.2511627822
 30
0.0
 11
115.9414745347
 21
140.2511627822
 31
0.0
  0
LINE
  5
14D
330
1F
100
AcDbEntity
  8
0
  6
Continuous
 62
     7
370
    25
100
AcDbLine
 10
116.4414084928
 20
140.2511627822
 30
0.0
 11
116.7193449513
 21
140.2511627822
 31
0.0
  0
SPLINE
  5
14E
330
1F
100
AcDbEntity
  8
0
  6
Continuous
 62
     7
370
    25
100
AcDbSpline
210
0.0
220
0.0
230
1.0
 70
     8
 71
     3
 72
    18
 73
    14
 74
     0
 42
0.00000001
 43
0.00000001
 40
0.0
 40
0.0
 40
0.0
 40
0.0
 40
0.0770825451504113
 40
0.2115667143858408
 40
0.3474639440524299
 40
0.4763131794049456
 40
0.5879781007548994
 40
0.7359679478561338
 40
0.7814088478575264
 40
0.8219698189806309
 40
0.8589438348952956
 40
0.9043740052168024
 40
1.0
 40
1.0
 40
1.0
 40
1.0
 10
56.91462228460826
 20
89.14809869030007
 30
0.0
 10
57.0504297509534
 20
89.16752180527901
 30
0.0
 10
57.42317742538002
 20
89.22083198868322
 30
0.0
 10
58.03634041799604
 20
89.30155772360816
 30
0.0
 10
58.74024260265431
 20
89.39734282106419
 30
0.0
 10
59.40397190259575
 20
89.49206582732725
 30
0.0
 10
60.08332904536751
 20
89.61242402588442
 30
0.0
 10
60.62245904391909
 20
89.71450942796528
 30
0.0
 10
60.98883522263051
 20
89.93569988453812
 30
0.0
 10
61.08746619605721
 20
90.14882439331566
 30
0.0
 10
61.0385198907716
 20
90.37714425111324
 30
0.0
 10
60.78584447187046
 20
90.59565487228383
 30
0.0
 10
60.53474900017038
 20
90.6419634386584
 30
0.0
 10
60.36452422304668
 20
90.67335733571538
 30
0.0
  0
SPLINE
  5
14F
330
1F
100
AcDbEntity
  8
0
  6
Continuous
 62
     7
370
    25
100
AcDbSpline
210
0.0
220
0.0
230
1.0
 70
     8
 71
     3
 72
    24
 73
    20
 74
     0
 42
0.00000001
 43
0.00000001
 40
0.0
 40
0.0
 40
0.0
 40
0.0
 40
0.0034467914889826
 40
0.0284672396276878
 40
0.0733471439169182
 40
0.1377324911461788
 40
0.2217352719628991
 40
0.3189825911898082
 40
0.4221668418932156
 40
0.5251226421566914
 40
0.6209302286500088
 40
0.6988777693098788
 40
0.756897055229212
 40
0.8362977321307574
 40
0.8703236400946052
 40
0.8958490627665071
 40
0.9214415307149026
 40
0.9615139658282232
 40
1.0
 40
1.0
 40
1.0
 40
1.0
 10
55.26673267050304
 20
91.30807509073504
 30
0.0
 10
55.26683914396364
 20
91.29931399724865
 30
0.0
 10
55.26771851410446
 20
91.22695564645339
 30
0.0
 10
55.52025681982411
 20
91.40286324084393
 30
0.0
 10
55.77236340521952
 20
91.38685984618327
 30
0.0
 10
56.24521477924663
 20
91.50424728606134
 30
0.0
 10
56.80546098763364
 20
91.57576046324719
 30
0.0
 10
57.47063083188772
 20
91.67213729622274
 30
0.0
 10
58.17577686995872
 20
91.76460124860948
 30
0.0
 10
58.87911987259728
 20
91.86072626700035
 30
0.0
 10
59.52046023949274
 20
91.95614488197585
 30
0.0
 10
60.06073733567548
 20
92.0497868885018
 30
0.0
 10
60.54254095712002
 20
92.16180973586599
 30
0.0
 10
60.96806457957286
 20
92.2985001320563
 30
0.0
 10
61.09242040208371
 20
92.63293897261875
 30
0.0
 10
61.02238502054673
 20
92.83222060127943
 30
0.0
 10
60.86059678878588
 20
92.98008588411476
 30
0.0
 10
60.63210784718365
 20
93.07667921675538
 30
0.0
 10
60.45250983704979
 20
93.11860241724243
 30
0.0
 10
60.36452422304666
 20
93.1391407212753
 30
0.0
  0
SPLINE
  5
150
330
1F
100
AcDbEntity
  8
0
  6
Continuous
 62
     7
370
    25
100
AcDbSpline
210
0.0
220
0.0
230
1.0
 70
     8
 71
     3
 72
    24
 73
    20
 74
     0
 42
0.00000001
 43
0.00000001
 40
0.0
 40
0.0
 40
0.0
 40
0.0
 40
0.0003820573847847
 40
0.007012469171757
 40
0.0406113572489958
 40
0.0978837703872945
 40
0.1799337704221165
 40
0.2773934677028856
 40
0.3804379477799676
 40
0.4823637071806468
 40
0.5769770754251036
 40
0.6572159822008612
 40
0.7209086319433852
 40
0.8102951351757869
 40
0.8560149644978443
 40
0.8878045304274098
 40
0.9461270039274539
 40
0.9986624938214557
 40
1.0
 40
1.0
 40
1.0
 40
1.0
 10
55.23062715693035
 20
93.71786410348007
 30
0.0
 10
55.23029625328489
 20
93.71698436686427
 30
0.0
 10
55.22422268500725
 20
93.70083724828119
 30
0.0
 10
55.38149967149455
 20
93.79326071173978
 30
0.0
 10
55.52255455917139
 20
93.78011000411233
 30
0.0
 10
55.97110225782197
 20
93.90412483760356
 30
0.0
 10
56.49894190993469
 20
93.97453955755682
 30
0.0
 10
57.16475835856046
 20
94.07548206541837
 30
0.0
 10
57.86759410221702
 20
94.16805125108264
 30
0.0
 10
58.56688892902176
 20
94.26188234703447
 30
0.0
 10
59.21106212481639
 20
94.35381628976283
 30
0.0
 10
59.76655679379071
 20
94.43961584469291
 30
0.0
 10
60.30196343731467
 20
94.55045103361955
 30
0.0
 10
60.77025079919894
 20
94.64023704276623
 30
0.0
 10
61.07664509839092
 20
94.93951676742357
 30
0.0
 10
61.06266189450651
 20
95.29320845634214
 30
0.0
 10
60.73798092374668
 20
95.49196551189893
 30
0.0
 10
60.49169441711616
 20
95.56414367357597
 30
0.0
 10
60.3676049941565
 20
95.59008643636717
 30
0.0
 10
60.36452422304668
 20
95.59073051796743
 30
0.0
  0
SPLINE
  5
151
330
1F
100
AcDbEntity
  8
0
  6
Continuous
 62
     7
370
    25
100
AcDbSpline
210
0.0
220
0.0
230
1.0
 70
     8
 71
     3
 72
    21
 73
    17
 74
     0
 42
0.00000001
 43
0.00000001
 40
0.0
 40
0.0
 40
0.0
 40
0.0
 40
0.0129868768132456
 40
0.050570253223951
 40
0.1159010336820202
 40
0.2044319558274768
 40
0.3036286692051545
 40
0.4065154005082
 40
0.5065811752913573
 40
0.5982404744194045
 40
0.6775731254188233
 40
0.792271036918175
 40
0.841346712215954
 40
0.8784360137253586
 40
0.9322456657270092
 40
1.0
 40
1.0
 40
1.0
 40
1.0
 10
55.24184773130931
 20
96.18030706779548
 30
0.0
 10
55.27172024552536
 20
96.18618640842689
 30
0.0
 10
55.38804233204889
 20
96.20908026880582
 30
0.0
 10
55.65094583840411
 20
96.27835792385324
 30
0.0
 10
56.09305938226955
 20
96.35725786544053
 30
0.0
 10
56.67877279177813
 20
96.45062487191112
 30
0.0
 10
57.35361673249272
 20
96.54411048745122
 30
0.0
 10
58.05567297494205
 20
96.637675100618
 30
0.0
 10
58.73992214636208
 20
96.73072498873049
 30
0.0
 10
59.36922912367714
 20
96.81972573237387
 30
0.0
 10
60.02822460135934
 20
96.93719312648123
 30
0.0
 10
60.59225257656473
 20
97.02846982316908
 30
0.0
 10
61.01628393833623
 20
97.28235303783975
 30
0.0
 10
61.11425506563351
 20
97.64073162617245
 30
0.0
 10
60.79910368645852
 20
97.9389595377767
 30
0.0
 10
60.52005403203194
 20
97.99088001189219
 30
0.0
 10
60.36452422304668
 20
98.01981816427299
 30
0.0
  0
SPLINE
  5
152
330
1F
100
AcDbEntity
  8
0
  6
Continuous
 62
     7
370
    25
100
AcDbSpline
210
0.0
220
0.0
230
1.0
 70
     8
 71
     3
 72
    23
 73
    19
 74
     0
 42
0.00000001
 43
0.00000001
 40
0.0
 40
0.0
 40
0.0
 40
0.0
 40
0.009902116779614
 40
0.0514906801918233
 40
0.1288117074792788
 40
0.224449123170059
 40
0.3281274964796285
 40
0.4319396441563016
 40
0.5297119081882541
 40
0.6181667103224073
 40
0.6940012130098012
 40
0.7544754730719296
 40
0.8275970696374995
 40
0.8533402756537369
 40
0.8873391016903084
 40
0.935667181939082
 40
0.9854697159320127
 40
1.0
 40
1.0
 40
1.0
 40
1.0
 10
55.27260372801342
 20
98.65283159898111
 30
0.0
 10
55.2957503913528
 20
98.6505865367433
 30
0.0
 10
55.41611227619443
 20
98.63891228726001
 30
0.0
 10
55.70608886040745
 20
98.75119195961801
 30
0.0
 10
56.20171306512592
 20
98.81379614384949
 30
0.0
 10
56.84030316525528
 20
98.92048893267197
 30
0.0
 10
57.54251936237701
 20
99.01331415626508
 30
0.0
 10
58.24962288720727
 20
99.10828462883428
 30
0.0
 10
58.92152189543884
 20
99.19991035821964
 30
0.0
 10
59.52653361542459
 20
99.29076219657364
 30
0.0
 10
60.04637307716551
 20
99.3807943404828
 30
0.0
 10
60.51733736525517
 20
99.48905497071956
 30
0.0
 10
60.89383126715296
 20
99.60741628721124
 30
0.0
 10
61.08154717116683
 20
99.87221835737434
 30
0.0
 10
61.05642174557588
 20
100.1513046229591
 30
0.0
 10
60.79488441755137
 20
100.3591603676326
 30
0.0
 10
60.54459753453298
 20
100.4382723529788
 30
0.0
 10
60.3977021769735
 20
100.470755024075
 30
0.0
 10
60.36452422304668
 20
100.4780915974219
 30
0.0
  0
SPLINE
  5
153
330
1F
100
AcDbEntity
  8
0
  6
Continuous
 62
     7
370
    25
100
AcDbSpline
210
0.0
220
0.0
230
1.0
 70
     8
 71
     3
 72
    23
 73
    19
 74
     0
 42
0.00000001
 43
0.00000001
 40
0.0
 40
0.0
 40
0.0
 40
0.0
 40
0.0011010407469395
 40
0.0204634535268252
 40
0.0765572696805151
 40
0.1604924577992842
 40
0.2584655902534789
 40
0.3621584600192231
 40
0.4643218777777794
 40
0.5631021496676291
 40
0.6545909740435744
 40
0.7331755528787368
 40
0.8283321290699917
 40
0.8546543042264098
 40
0.8845163303300282
 40
0.9290248285071179
 40
0.9734465399305539
 40
0.9999999999999999
 40
0.9999999999999999
 40
0.9999999999999999
 40
0.9999999999999999
 10
55.25516936941661
 20
101.0820868833501
 30
0.0
 10
55.25523509798313
 20
101.0794511106611
 30
0.0
 10
55.25645669988128
 20
101.0304638119822
 30
0.0
 10
55.52613374137931
 20
101.1846869909916
 30
0.0
 10
55.79886035889475
 20
101.1671547598731
 30
0.0
 10
56.38687920359271
 20
101.3066558959704
 30
0.0
 10
57.02665007437658
 20
101.3850396302412
 30
0.0
 10
57.72911097748576
 20
101.4843022334251
 30
0.0
 10
58.42807423508642
 20
101.5760502705099
 30
0.0
 10
59.09903939582669
 20
101.6704819642374
 30
0.0
 10
59.717274714963
 20
101.7641567636889
 30
0.0
 10
60.31318945193823
 20
101.8858620379345
 30
0.0
 10
60.78807927188478
 20
101.9877243784575
 30
0.0
 10
61.04516456326795
 20
102.2407559024091
 30
0.0
 10
61.09691899160509
 20
102.4892921015155
 30
0.0
 10
60.91483466715114
 20
102.7352536067758
 30
0.0
 10
60.66815817645097
 20
102.8483528422897
 30
0.0
 10
60.5068461036989
 20
102.8817306240818
 30
0.0
 10
60.44649551077402
 20
102.8942180274565
 30
0.0
  0
SPLINE
  5
154
330
1F
100
AcDbEntity
  8
0
  6
Continuous
 62
     7
370
    25
100
AcDbSpline
210
0.0
220
0.0
230
1.0
 70
     8
 71
     3
 72
    22
 73
    18
 74
     0
 42
0.00000001
 43
0.00000001
 40
0.0
 40
0.0
 40
0.0
 40
0.0
 40
0.0023014309833568
 40
0.023248757012204
 40
0.0842247233736521
 40
0.1724547995660663
 40
0.2751441549624413
 40
0.3824795765012476
 40
0.4904192870617656
 40
0.5956783892786
 40
0.6904977856083425
 40
0.7644331616743614
 40
0.809243939549676
 40
0.8603230484669511
 40
0.8915600191402379
 40
0.9314031606981436
 40
1.0
 40
1.0
 40
1.0
 40
1.0
 10
55.24497697516002
 20
103.5223252548415
 30
0.0
 10
55.2439478129222
 20
103.5165971985049
 30
0.0
 10
55.23355134960606
 20
103.4587331170328
 30
0.0
 10
55.54403629872995
 20
103.6465577552335
 30
0.0
 10
55.83098539554228
 20
103.6131743467714
 30
0.0
 10
56.46697967538942
 20
103.7653620499038
 30
0.0
 10
57.14435101624843
 20
103.8453016629975
 30
0.0
 10
57.8913302600723
 20
103.9504341764081
 30
0.0
 10
58.63769807701176
 20
104.0487916280443
 30
0.0
 10
59.35588459651267
 20
104.1526407427067
 30
0.0
 10
59.99155005077855
 20
104.2580052030066
 30
0.0
 10
60.48385721795417
 20
104.3703810650099
 30
0.0
 10
60.86077755725436
 20
104.4931394077701
 30
0.0
 10
61.1020998163984
 20
104.7393295715796
 30
0.0
 10
61.04307226946669
 20
105.0485899226526
 30
0.0
 10
60.77837438005925
 20
105.2735963966128
 30
0.0
 10
60.52487963775489
 20
105.3244164456305
 30
0.0
 10
60.36452422304668
 20
105.3565641342241
 30
0.0
  0
SPLINE
  5
155
330
1F
100
AcDbEntity
  8
0
  6
Continuous
 62
     7
370
    25
100
AcDbSpline
210
0.0
220
0.0
230
1.0
 70
     8
 71
     3
 72
    22
 73
    18
 74
     0
 42
0.00000001
 43
0.00000001
 40
0.0
 40
0.0
 40
0.0
 40
0.0
 40
0.0028426961408137
 40
0.0357525606442012
 40
0.104212553792279
 40
0.1937987262741176
 40
0.2969793994761935
 40
0.4066633896218243
 40
0.5204577103626697
 40
0.6325191270433114
 40
0.7349630863833082
 40
0.8183203590492574
 40
0.8767057252773199
 40
0.9173253405780689
 40
0.949065218688856
 40
0.9819704498792602
 40
1.0
 40
1.0
 40
1.0
 40
1.0
 10
55.24797210855998
 20
105.9601747839291
 30
0.0
 10
55.25371366552582
 20
105.9579834247671
 30
0.0
 10
55.32592516948008
 20
105.9304227227253
 30
0.0
 10
55.54377373985248
 20
106.070313178528
 30
0.0
 10
55.94409202441672
 20
106.09350767317
 30
0.0
 10
56.49767793052251
 20
106.2071650655328
 30
0.0
 10
57.13949202135173
 20
106.2910018553081
 30
0.0
 10
57.83378361924646
 20
106.386662922613
 30
0.0
 10
58.54689541823452
 20
106.4812229673116
 30
0.0
 10
59.24409545988522
 20
106.5799202701901
 30
0.0
 10
59.87423493495332
 20
106.6820282144872
 30
0.0
 10
60.38875902814569
 20
106.7863273483269
 30
0.0
 10
60.76090049513823
 20
106.9024567774509
 30
0.0
 10
61.00607402871902
 20
107.0649151763414
 30
0.0
 10
61.0896101983672
 20
107.2818417389286
 30
0.0
 10
61.05350721067359
 20
107.4863539879167
 30
0.0
 10
60.94996888601811
 20
107.5326552245777
 30
0.0
 10
60.91331908865489
 20
107.5490446238358
 30
0.0
  0
SPLINE
  5
156
330
1F
100
AcDbEntity
  8
0
  6
Continuous
 62
     7
370
    25
100
AcDbSpline
210
0.0
220
0.0
230
1.0
 70
     8
 71
     3
 72
    13
 73
     9
 74
     0
 42
0.00000001
 43
0.00000001
 40
0.0
 40
0.0
 40
0.0
 40
0.0
 40
0.0019763990299537
 40
0.0518323303375992
 40
0.2047435869039475
 40
0.4407993196561322
 40
0.7429720220876989
 40
1.0
 40
1.0
 40
1.0
 40
1.0
 10
55.23643860979595
 20
108.3968387393791
 30
0.0
 10
55.23617613450833
 20
108.3956078062719
 30
0.0
 10
55.22929255198952
 20
108.3633257971893
 30
0.0
 10
55.43865913005423
 20
108.4815277035757
 30
0.0
 10
55.61976785547945
 20
108.4705819593729
 30
0.0
 10
56.08405384305683
 20
108.5884746436529
 30
0.0
 10
56.55454527523605
 20
108.6515450926476
 30
0.0
 10
56.89931133304492
 20
108.7013253476285
 30
0.0
 10
57.05777774019756
 20
108.7242060749371
 30
0.0
  0
SPLINE
  5
157
330
1F
100
AcDbEntity
  8
0
  6
Continuous
 62
     7
370
    25
100
AcDbSpline
210
0.0
220
0.0
230
1.0
 70
     8
 71
     3
 72
    14
 73
    10
 74
     0
 42
0.00000001
 43
0.00000001
 40
0.0
 40
0.0
 40
0.0
 40
0.0
 40
0.0060165263157398
 40
0.0340324598367937
 40
0.0964088045935019
 40
0.2832123507118098
 40
0.5431142871461346
 40
0.869319495570819
 40
0.9999999999999999
 40
0.9999999999999999
 40
0.9999999999999999
 40
0.9999999999999999
 10
55.267805554109
 20
110.8597715793688
 30
0.0
 10
55.26777571857032
 20
110.8557215463093
 30
0.0
 10
55.26760695395127
 20
110.8328125486249
 30
0.0
 10
55.35357864307312
 20
110.8744521683183
 30
0.0
 10
55.48618057795223
 20
110.8950431776438
 30
0.0
 10
55.81451697592331
 20
110.980465931327
 30
0.0
 10
56.26711411414284
 20
111.0513473552154
 30
0.0
 10
56.70307233377969
 20
111.120139900008
 30
0.0
 10
56.97888776989127
 20
111.1578842833769
 30
0.0
 10
57.05777774019756
 20
111.1686801014979
 30
0.0
  0
SPLINE
  5
158
330
1F
100
AcDbEntity
  8
0
  6
Continuous
 62
     7
370
    25
100
AcDbSpline
210
0.0
220
0.0
230
1.0
 70
     8
 71
     3
 72
    16
 73
    12
 74
     0
 42
0.00000001
 43
0.00000001
 40
0.0
 40
0.0
 40
0.0
 40
0.0
 40
0.1169730788979464
 40
0.304853882509476
 40
0.4468706678283862
 40
0.6239639363209568
 40
0.693448518097449
 40
0.7613284679315068
 40
0.8490663430517262
 40
0.974902463668515
 40
1.0
 40
1.0
 40
1.0
 40
1.0
 10
59.24829313917675
 20
111.4732374845583
 30
0.0
 10
59.36364332220428
 20
111.4903657211711
 30
0.0
 10
59.66426763230557
 20
111.5350051329158
 30
0.0
 10
60.10760009565322
 20
111.6139416346535
 30
0.0
 10
60.58652688485966
 20
111.7297766047641
 30
0.0
 10
60.99642362226616
 20
111.8806907701749
 30
0.0
 10
61.09482630997324
 20
112.2043704861844
 30
0.0
 10
61.00613849976548
 20
112.4277503754305
 30
0.0
 10
60.76237774590169
 20
112.5867995854003
 30
0.0
 10
60.5365449390049
 20
112.6642247394146
 30
0.0
 10
60.38904996810408
 20
112.6952249926148
 30
0.0
 10
60.36452422304668
 20
112.7003797738392
 30
0.0
  0
SPLINE
  5
159
330
1F
100
AcDbEntity
  8
0
  6
Continuous
 62
     7
370
    25
100
AcDbSpline
210
0.0
220
0.0
230
1.0
 70
     8
 71
     3
 72
    23
 73
    19
 74
     0
 42
0.00000001
 43
0.00000001
 40
0.0
 40
0.0
 40
0.0
 40
0.0
 40
0.0030373497853885
 40
0.033405091588729
 40
0.0825941641372011
 40
0.1515154688958345
 40
0.2394227959101775
 40
0.3386507232901471
 40
0.4425566374763753
 40
0.544833310637498
 40
0.6379484213960435
 40
0.7117203268055735
 40
0.8050840793847235
 40
0.8446931397345177
 40
0.8761294832861396
 40
0.9271774234631679
 40
0.9717255735358984
 40
1.0
 40
1.0
 40
1.0
 40
1.0
 10
55.27151594324626
 20
113.3054153470833
 30
0.0
 10
55.27597230863375
 20
113.2995839814995
 30
0.0
 10
55.32498388268348
 20
113.2354500110389
 30
0.0
 10
55.5478404737482
 20
113.4128261686798
 30
0.0
 10
55.86700842857177
 20
113.4061791430467
 30
0.0
 10
56.35252545215749
 20
113.5210297569342
 30
0.0
 10
56.9425383032895
 20
113.5958031204671
 30
0.0
 10
57.61947963619087
 20
113.6919913384945
 30
0.0
 10
58.32871762028634
 20
113.7847792939817
 30
0.0
 10
59.02314369941897
 20
113.8817434044232
 30
0.0
 10
59.64817938764109
 20
113.9739433990377
 30
0.0
 10
60.24361430608277
 20
114.0922994196257
 30
0.0
 10
60.72990174878076
 20
114.1833691560768
 30
0.0
 10
61.04283284059535
 20
114.4389614047679
 30
0.0
 10
61.10546735649153
 20
114.7469114407169
 30
0.0
 10
60.86844282948122
 20
114.9939542379579
 30
0.0
 10
60.59604492392435
 20
115.0881341937676
 30
0.0
 10
60.42927505479806
 20
115.1257692358965
 30
0.0
 10
60.36452422304666
 20
115.1403815893967
 30
0.0
  0
SPLINE
  5
15A
330
1F
100
AcDbEntity
  8
0
  6
Continuous
 62
     7
370
    25
100
AcDbSpline
210
0.0
220
0.0
230
1.0
 70
     8
 71
     3
 72
    18
 73
    14
 74
     0
 42
0.00000001
 43
0.00000001
 40
0.0
 40
0.0
 40
0.0
 40
0.0
 40
0.0011258912329952
 40
0.0149123387857254
 40
0.0670684706038954
 40
0.1525253035072774
 40
0.2713713956965839
 40
0.4083097499633105
 40
0.5513002152869564
 40
0.6912043295265184
 40
0.8193738010681114
 40
0.9265294820915035
 40
0.9999999999999999
 40
0.9999999999999999
 40
0.9999999999999999
 40
0.9999999999999999
 10
55.23114869757213
 20
115.7213350235064
 30
0.0
 10
55.23203234669359
 20
115.7195637197543
 30
0.0
 10
55.24373620820406
 20
115.696102944087
 30
0.0
 10
55.37982392879047
 20
115.8093893816788
 30
0.0
 10
55.60042790539271
 20
115.7912903559118
 30
0.0
 10
56.04552379497234
 20
115.9199741482904
 30
0.0
 10
56.61131397092412
 20
115.9911069675469
 30
0.0
 10
57.28506387335923
 20
116.0920428237647
 30
0.0
 10
57.99171178944146
 20
116.1846295217474
 30
0.0
 10
58.68462802327775
 20
116.2773507708001
 30
0.0
 10
59.31533668329455
 20
116.3707981380984
 30
0.0
 10
59.83526373489347
 20
116.447103837437
 30
0.0
 10
60.13341386071883
 20
116.5210742615912
 30
0.0
 10
60.25468776388683
 20
116.5511620639403
 30
0.0
  0
SPLINE
  5
15B
330
1F
100
AcDbEntity
  8
0
  6
Continuous
 62
     7
370
    25
100
AcDbSpline
210
0.0
220
0.0
230
1.0
 70
     8
 71
     3
 72
    14
 73
    10
 74
     0
 42
0.00000001
 43
0.00000001
 40
0.0
 40
0.0
 40
0.0
 40
0.0
 40
0.0450327790770774
 40
0.2601583486127112
 40
0.5299049581649055
 40
0.65588188062634
 40
0.7406416383988615
 40
0.850689764940944
 40
1.0
 40
1.0
 40
1.0
 40
1.0
 10
56.33104810877361
 20
116.5511620639403
 30
0.0
 10
56.28892622897899
 20
116.5449789337108
 30
0.0
 10
56.04558440303774
 20
116.5092584433767
 30
0.0
 10
55.55728090002341
 20
116.4055581893173
 30
0.0
 10
54.97530084030358
 20
116.3316482396134
 30
0.0
 10
54.61412773935314
 20
115.9571359182223
 30
0.0
 10
54.70501290901478
 20
115.6319260166373
 30
0.0
 10
54.98343292164552
 20
115.4335981697102
 30
0.0
 10
55.22528313557407
 20
115.3858627161181
 30
0.0
 10
55.36451409025707
 20
115.3583818523724
 30
0.0
  0
SPLINE
  5
15C
330
1F
100
AcDbEntity
  8
0
  6
Continuous
 62
     7
370
    25
100
AcDbSpline
210
0.0
220
0.0
230
1.0
 70
     8
 71
     3
 72
    23
 73
    19
 74
     0
 42
0.00000001
 43
0.00000001
 40
0.0
 40
0.0
 40
0.0
 40
0.0
 40
0.0018986162599326
 40
0.0187216409938402
 40
0.0710324705954329
 40
0.1491178370134116
 40
0.2417029955108956
 40
0.3406595737073445
 40
0.4420540887922697
 40
0.5440517834789509
 40
0.6402215401776192
 40
0.7232415769715779
 40
0.7831497793168237
 40
0.8228811973027234
 40
0.8521002668440588
 40
0.8832989321316194
 40
0.920394025052977
 40
1.0
 40
1.0
 40
1.0
 40
1.0
 10
60.49273381395854
 20
114.7507180868227
 30
0.0
 10
60.49298847695603
 20
114.7554993770908
 30
0.0
 10
60.49549962642499
 20
114.8026461343241
 30
0.0
 10
60.24516924362203
 20
114.647014095862
 30
0.0
 10
59.98828571554173
 20
114.6694925459897
 30
0.0
 10
59.42848663954012
 20
114.5310246328065
 30
0.0
 10
58.81394463045496
 20
114.4555129270225
 30
0.0
 10
58.12472811404194
 20
114.3569537715262
 30
0.0
 10
57.41891872507962
 20
114.2645059783052
 30
0.0
 10
56.71844434584919
 20
114.1677675634777
 30
0.0
 10
56.06283615882318
 20
114.0674411898697
 30
0.0
 10
55.50784225518284
 20
113.9645587123073
 30
0.0
 10
55.09037834588451
 20
113.8569931922134
 30
0.0
 10
54.81093811391391
 20
113.7258223702515
 30
0.0
 10
54.65364241004698
 20
113.5341573826605
 30
0.0
 10
54.65104240770061
 20
113.2828213379864
 30
0.0
 10
54.89864075430725
 20
113.0029518629037
 30
0.0
 10
55.17559421974086
 20
112.9449818195497
 30
0.0
 10
55.36451409025707
 20
112.905438378318
 30
0.0
  0
SPLINE
  5
15D
330
1F
100
AcDbEntity
  8
0
  6
Continuous
 62
     7
370
    25
100
AcDbSpline
210
0.0
220
0.0
230
1.0
 70
     8
 71
     3
 72
    12
 73
     8
 74
     0
 42
0.00000001
 43
0.00000001
 40
0.0
 40
0.0
 40
0.0
 40
0.0
 40
0.0078148481660811
 40
0.1226924301334683
 40
0.3805917625845289
 40
0.7338639378800981
 40
0.9999999999999999
 40
0.9999999999999999
 40
0.9999999999999999
 40
0.9999999999999999
 10
60.48434446020641
 20
112.3103213904936
 30
0.0
 10
60.48181939290452
 20
112.313267123704
 30
0.0
 10
60.44217605794347
 20
112.3595148764983
 30
0.0
 10
60.23219273564899
 20
112.1975797836896
 30
0.0
 10
59.91018579557789
 20
112.2073831217458
 30
0.0
 10
59.47959610112159
 20
112.1017600178044
 30
0.0
 10
59.18229994565633
 20
112.0619427928702
 30
0.0
 10
59.05456314249553
 20
112.0448348520834
 30
0.0
  0
SPLINE
  5
15E
330
1F
100
AcDbEntity
  8
0
  6
Continuous
 62
     7
370
    25
100
AcDbSpline
210
0.0
220
0.0
230
1.0
 70
     8
 71
     3
 72
    16
 73
    12
 74
     0
 42
0.00000001
 43
0.00000001
 40
0.0
 40
0.0
 40
0.0
 40
0.0
 40
0.1002501967673998
 40
0.2922107794705203
 40
0.4556465277042149
 40
0.6642153092166073
 40
0.7219980476710295
 40
0.7626631121618285
 40
0.8159892507572611
 40
0.8969915212854879
 40
1.0
 40
1.0
 40
1.0
 40
1.0
 10
57.05777774019754
 20
111.7688336818058
 30
0.0
 10
56.93978899460547
 20
111.7525414124494
 30
0.0
 10
56.59587362655681
 20
111.705052460991
 30
0.0
 10
56.05630143194985
 20
111.624451856389
 30
0.0
 10
55.41251522197
 20
111.4943302558436
 30
0.0
 10
54.86527716234716
 20
111.3830509482353
 30
0.0
 10
54.65323155867177
 20
111.0608436814395
 30
0.0
 10
54.65648689715391
 20
110.8719515072156
 30
0.0
 10
54.77467918759706
 20
110.6889580198496
 30
0.0
 10
55.02863243191332
 20
110.5465002509093
 30
0.0
 10
55.24396934870669
 20
110.5047085669309
 30
0.0
 10
55.36451409025707
 20
110.4813137500126
 30
0.0
  0
SPLINE
  5
15F
330
1F
100
AcDbEntity
  8
0
  6
Continuous
 62
     7
370
    25
100
AcDbSpline
210
0.0
220
0.0
230
1.0
 70
     8
 71
     3
 72
    15
 73
    11
 74
     0
 42
0.00000001
 43
0.00000001
 40
0.0
 40
0.0
 40
0.0
 40
0.0
 40
0.1668455245168619
 40
0.3424584336629357
 40
0.5921919772834094
 40
0.6702294099863425
 40
0.7226908798212998
 40
0.7650198896612668
 40
0.8254056473526578
 40
1.0
 40
1.0
 40
1.0
 40
1.0
 10
57.05777774019756
 20
109.324771299823
 30
0.0
 10
56.86118846817878
 20
109.2974554805095
 30
0.0
 10
56.45767956756284
 20
109.2413884525001
 30
0.0
 10
55.76389527804035
 20
109.1253047178423
 30
0.0
 10
55.17130937289873
 20
109.0174917134134
 30
0.0
 10
54.76347724740881
 20
108.7950999533739
 30
0.0
 10
54.65392321073416
 20
108.6088085468611
 30
0.0
 10
54.65677864335397
 20
108.4157821556166
 30
0.0
 10
54.86290834836723
 20
108.131686430171
 30
0.0
 10
55.15068843044678
 20
108.073996907885
 30
0.0
 10
55.36451409025707
 20
108.0311325787146
 30
0.0
  0
SPLINE
  5
160
330
1F
100
AcDbEntity
  8
0
  6
Continuous
 62
     7
370
    25
100
AcDbSpline
210
0.0
220
0.0
230
1.0
 70
     8
 71
     3
 72
    23
 73
    19
 74
     0
 42
0.00000001
 43
0.00000001
 40
0.0
 40
0.0
 40
0.0
 40
0.0
 40
0.0012917019763629
 40
0.0103944101607359
 40
0.0486364727560874
 40
0.1058150412306842
 40
0.1817298140280671
 40
0.2737031870881854
 40
0.3743342414139261
 40
0.477563921044987
 40
0.5770907168393442
 40
0.6651723050978877
 40
0.7334464223249614
 40
0.8196751741235238
 40
0.8573921999129394
 40
0.8883109872246654
 40
0.9576594351394255
 40
1.0
 40
1.0
 40
1.0
 40
1.0
 10
60.46710381670513
 20
107.4195740221579
 30
0.0
 10
60.46578140939085
 20
107.4224710733151
 30
0.0
 10
60.45513991137067
 20
107.4457838331743
 30
0.0
 10
60.31611181242799
 20
107.3511118243245
 30
0.0
 10
60.1099289473928
 20
107.3547697167159
 30
0.0
 10
59.69845733117054
 20
107.2461229091287
 30
0.0
 10
59.18461884739207
 20
107.1758375349195
 30
0.0
 10
58.55918840640044
 20
107.0822156848193
 30
0.0
 10
57.87292321647894
 20
106.9914571656284
 30
0.0
 10
57.16776778573486
 20
106.8971581551709
 30
0.0
 10
56.49386416693319
 20
106.800768984639
 30
0.0
 10
55.89902917302705
 20
106.7089495049222
 30
0.0
 10
55.34941101214621
 20
106.5892242613166
 30
0.0
 10
54.88747192307529
 20
106.4915818430318
 30
0.0
 10
54.64338260497968
 20
106.1861984754913
 30
0.0
 10
54.67592959820647
 20
105.8333207398678
 30
0.0
 10
55.01991811064524
 20
105.6539754806142
 30
0.0
 10
55.2697895013217
 20
105.5947672285669
 30
0.0
 10
55.36451409025705
 20
105.5723217724402
 30
0.0
  0
SPLINE
  5
161
330
1F
100
AcDbEntity
  8
0
  6
Continuous
 62
     7
370
    25
100
AcDbSpline
210
0.0
220
0.0
230
1.0
 70
     8
 71
     3
 72
    23
 73
    19
 74
     0
 42
0.00000001
 43
0.00000001
 40
0.0
 40
0.0
 40
0.0
 40
0.0
 40
0.0000418542768962
 40
0.0059801622256063
 40
0.0208068011706573
 40
0.0668690211751688
 40
0.1363828178092291
 40
0.2279443600804228
 40
0.3309172292893668
 40
0.4377238613116985
 40
0.5414065995282468
 40
0.6341250350857534
 40
0.7073331986097087
 40
0.8026890420503974
 40
0.8474240242154394
 40
0.8798899908537083
 40
0.9314214360907804
 40
1.0
 40
1.0
 40
1.0
 40
1.0
 10
60.49036452932872
 20
104.9923350511629
 30
0.0
 10
60.49038483565132
 20
104.9924317320419
 30
0.0
 10
60.49328621424976
 20
105.0062455494822
 30
0.0
 10
60.41002532196954
 20
104.9596513938053
 30
0.0
 10
60.30419345813452
 20
104.9490368476101
 30
0.0
 10
59.96693231240298
 20
104.8518939995766
 30
0.0
 10
59.50814808938372
 20
104.7818128331304
 30
0.0
 10
58.88715378772294
 20
104.6831565947006
 30
0.0
 10
58.1888337291791
 20
104.5890732089021
 30
0.0
 10
57.45844183687346
 20
104.4918400233432
 30
0.0
 10
56.75372495074183
 20
104.3943013889274
 30
0.0
 10
56.12664205600472
 20
104.3023824220171
 30
0.0
 10
55.52627456588341
 20
104.1853720347718
 30
0.0
 10
55.02649001940559
 20
104.0958801122907
 30
0.0
 10
54.6875444193636
 20
103.8330490605577
 30
0.0
 10
54.62848567845305
 20
103.5043117765677
 30
0.0
 10
54.92702176304592
 20
103.2199992001933
 30
0.0
 10
55.20550819479877
 20
103.172979765983
 30
0.0
 10
55.36451409025707
 20
103.1461333333094
 30
0.0
  0
SPLINE
  5
162
330
1F
100
AcDbEntity
  8
0
  6
Continuous
 62
     7
370
    25
100
AcDbSpline
210
0.0
220
0.0
230
1.0
 70
     8
 71
     3
 72
    24
 73
    20
 74
     0
 42
0.00000001
 43
0.00000001
 40
0.0
 40
0.0
 40
0.0
 40
0.0
 40
0.0002557552512203
 40
0.0061679582863934
 40
0.0361162643282203
 40
0.0906151371961863
 40
0.1707014598287834
 40
0.2660255132572006
 40
0.3675927011933215
 40
0.4688080661854274
 40
0.5635866619543648
 40
0.6461243569384799
 40
0.7660512600835114
 40
0.8115144432307885
 40
0.857275760993234
 40
0.8882437789406461
 40
0.9134471097798033
 40
0.9946025256177566
 40
1.0
 40
1.0
 40
1.0
 40
1.0
 10
60.50136158628978
 20
102.5489162130792
 30
0.0
 10
60.50157708159368
 20
102.5495009780909
 30
0.0
 10
60.50677410507206
 20
102.5636035475697
 30
0.0
 10
60.36542786499297
 20
102.4823295918765
 30
0.0
 10
60.23489744645374
 20
102.4944607225796
 30
0.0
 10
59.80633160073111
 20
102.3735463723841
 30
0.0
 10
59.29440805362236
 20
102.3044088266079
 30
0.0
 10
58.64069722017702
 20
102.2041267841102
 30
0.0
 10
57.94715162880924
 20
102.1126285481719
 30
0.0
 10
57.25182951534619
 20
102.0191909590486
 30
0.0
 10
56.60199011324897
 20
101.9289071515344
 30
0.0
 10
55.91093956210011
 20
101.8193127479232
 30
0.0
 10
55.33416483845269
 20
101.7138654792894
 30
0.0
 10
54.86451194086782
 20
101.547317736327
 30
0.0
 10
54.64665520983718
 20
101.3159908984368
 30
0.0
 10
54.66525733912313
 20
101.0536678845
 30
0.0
 10
54.8824166100287
 20
100.7996276185413
 30
0.0
 10
55.15303265031469
 20
100.7242758376035
 30
0.0
 10
55.35210015737768
 20
100.6815851385565
 30
0.0
 10
55.36451409025707
 20
100.6789229287345
 30
0.0
  0
SPLINE
  5
163
330
1F
100
AcDbEntity
  8
0
  6
Continuous
 62
     7
370
    25
100
AcDbSpline
210
0.0
220
0.0
230
1.0
 70
     8
 71
     3
 72
    23
 73
    19
 74
     0
 42
0.00000001
 43
0.00000001
 40
0.0
 40
0.0
 40
0.0
 40
0.0
 40
0.0017002992907916
 40
0.0247838104090816
 40
0.0816326068233067
 40
0.1688876667116542
 40
0.2691520473875311
 40
0.3738988552226005
 40
0.4757526324667257
 40
0.5698517178250884
 40
0.6534337806242433
 40
0.7233252957835299
 40
0.8211561648146632
 40
0.8571349048343436
 40
0.8870863563011308
 40
0.9262491872604123
 40
0.9729365882008969
 40
1.0
 40
1.0
 40
1.0
 40
1.0
 10
60.45370767279184
 20
100.0525153650481
 30
0.0
 10
60.45192733852647
 20
100.0561768331379
 30
0.0
 10
60.42597692665659
 20
100.1095469259485
 30
0.0
 10
60.17812350660845
 20
99.97548535884107
 30
0.0
 10
59.84662179128121
 20
99.971212687838
 30
0.0
 10
59.25765820727091
 20
99.84067268764657
 30
0.0
 10
58.59008472665224
 20
99.75682584585824
 30
0.0
 10
57.87662640572497
 20
99.657626620763
 30
0.0
 10
57.18031943804513
 20
99.56561857077108
 30
0.0
 10
56.53392177342744
 20
99.47335070707489
 30
0.0
 10
55.95976369788042
 20
99.38501997393719
 30
0.0
 10
55.39152968794799
 20
99.2658985020103
 30
0.0
 10
54.89783580125687
 20
99.16794251546112
 30
0.0
 10
54.64369464312255
 20
98.84361864012034
 30
0.0
 10
54.67450522751559
 20
98.57742002894604
 30
0.0
 10
54.88605998201118
 20
98.38312906277083
 30
0.0
 10
55.13481567748737
 20
98.29004930487977
 30
0.0
 10
55.30285193134218
 20
98.25133895667345
 30
0.0
 10
55.36451409025707
 20
98.23713390515634
 30
0.0
  0
SPLINE
  5
164
330
1F
100
AcDbEntity
  8
0
  6
Continuous
 62
     7
370
    25
100
AcDbSpline
210
0.0
220
0.0
230
1.0
 70
     8
 71
     3
 72
    21
 73
    17
 74
     0
 42
0.00000001
 43
0.00000001
 40
0.0
 40
0.0
 40
0.0
 40
0.0
 40
0.0084877962366701
 40
0.049840332373049
 40
0.1261670339325662
 40
0.2198866855836075
 40
0.3219514774385153
 40
0.4246224514332737
 40
0.5226270839724783
 40
0.6136819963859995
 40
0.6935063812590084
 40
0.8017238711426379
 40
0.8566063099037576
 40
0.8918453943394495
 40
0.9393089784974459
 40
1.0
 40
1.0
 40
1.0
 40
1.0
 10
60.46060691042461
 20
97.62193853394577
 30
0.0
 10
60.44080381865781
 20
97.62402540140182
 30
0.0
 10
60.32452008043512
 20
97.63627948535103
 30
0.0
 10
60.04171794385969
 20
97.51941128557905
 30
0.0
 10
59.55360846836913
 20
97.46046684068628
 30
0.0
 10
58.9263328794467
 20
97.35387831713396
 30
0.0
 10
58.23568999912189
 20
97.26248190809828
 30
0.0
 10
57.53508799492089
 20
97.16856691782867
 30
0.0
 10
56.86020915741301
 20
97.0758297837457
 30
0.0
 10
56.23901308646813
 20
96.98714116960662
 30
0.0
 10
55.59744081911234
 20
96.86335816733508
 30
0.0
 10
55.04248705763731
 20
96.78257919071328
 30
0.0
 10
54.62929594825544
 20
96.4516036100359
 30
0.0
 10
54.68893616077454
 20
96.09574631004226
 30
0.0
 10
54.97620403605603
 20
95.8815856607099
 30
0.0
 10
55.22493728127992
 20
95.83311870661021
 30
0.0
 10
55.36451409025707
 20
95.8059214463968
 30
0.0
  0
SPLINE
  5
165
330
1F
100
AcDbEntity
  8
0
  6
Continuous
 62
     7
370
    25
100
AcDbSpline
210
0.0
220
0.0
230
1.0
 70
     8
 71
     3
 72
    23
 73
    19
 74
     0
 42
0.00000001
 43
0.00000001
 40
0.0
 40
0.0
 40
0.0
 40
0.0
 40
0.0001780946490418
 40
0.0144338673100518
 40
0.0634645450509879
 40
0.141122024605494
 40
0.2341870646937869
 40
0.3345894314542442
 40
0.4351220939335057
 40
0.5350264977758953
 40
0.6305357652454685
 40
0.7148709404128372
 40
0.7777813554328743
 40
0.8407145460009461
 40
0.8669410032212045
 40
0.9039081738014771
 40
0.9897220157599642
 40
0.9999999999999999
 40
0.9999999999999999
 40
0.9999999999999999
 40
0.9999999999999999
 10
60.48520872755565
 20
95.198802038892
 30
0.0
 10
60.48522642749941
 20
95.19922280938893
 30
0.0
 10
60.48666093797479
 20
95.23332459489097
 30
0.0
 10
60.25047349604201
 20
95.10362346250244
 30
0.0
 10
60.02207298024773
 20
95.11781144898117
 30
0.0
 10
59.46411781002876
 20
94.98184243838618
 30
0.0
 10
58.85326783780549
 20
94.90542992626646
 30
0.0
 10
58.16429246203707
 20
94.80679973722297
 30
0.0
 10
57.4663094041608
 20
94.71519508603544
 30
0.0
 10
56.77773074023035
 20
94.6203791013315
 30
0.0
 10
56.12993223785949
 20
94.52297534817133
 30
0.0
 10
55.56623773703863
 20
94.41937008244876
 30
0.0
 10
55.09577225229441
 20
94.30584316966298
 30
0.0
 10
54.74172645786858
 20
94.14515731960796
 30
0.0
 10
54.63223996096356
 20
93.84900942268864
 30
0.0
 10
54.78774883197439
 20
93.49637305306697
 30
0.0
 10
55.12187900613672
 20
93.39923162002825
 30
0.0
 10
55.34106947227396
 20
93.35072497679813
 30
0.0
 10
55.36451409025707
 20
93.34553670497128
 30
0.0
  0
SPLINE
  5
166
330
1F
100
AcDbEntity
  8
0
  6
Continuous
 62
     7
370
    25
100
AcDbSpline
210
0.0
220
0.0
230
1.0
 70
     8
 71
     3
 72
    23
 73
    19
 74
     0
 42
0.00000001
 43
0.00000001
 40
0.0
 40
0.0
 40
0.0
 40
0.0
 40
0.0013130406426467
 40
0.0240355781285103
 40
0.0831355507538971
 40
0.165010563618567
 40
0.2598445285127271
 40
0.3596310742182365
 40
0.4620284812352213
 40
0.5638284664911865
 40
0.6583322548964915
 40
0.7378264322221075
 40
0.8291505726284135
 40
0.8580637122198718
 40
0.8909349095103622
 40
0.9281222791061149
 40
0.9670147433930333
 40
0.9999999999999999
 40
0.9999999999999999
 40
0.9999999999999999
 40
0.9999999999999999
 10
60.48254141970195
 20
92.75471125157067
 30
0.0
 10
60.48175956467179
 20
92.75779007524734
 30
0.0
 10
60.46744748852417
 20
92.81414880826824
 30
0.0
 10
60.20047746980375
 20
92.62040696362632
 30
0.0
 10
59.88915300529774
 20
92.65593813464312
 30
0.0
 10
59.31259803709753
 20
92.51238695061306
 30
0.0
 10
58.67992531408161
 20
92.43717442937294
 30
0.0
 10
57.98544933870164
 20
92.33837182114253
 30
0.0
 10
57.27802798642279
 20
92.24564197832213
 30
0.0
 10
56.58407569664418
 20
92.14745850955629
 30
0.0
 10
55.93984166124626
 20
92.04810653304146
 30
0.0
 10
55.34166947563342
 20
91.92211852013331
 30
0.0
 10
54.84778632224585
 20
91.80385341934989
 30
0.0
 10
54.6413993410495
 20
91.48457229446818
 30
0.0
 10
54.68002567603311
 20
91.23159121816144
 30
0.0
 10
54.88173651488025
 20
91.0532912599074
 30
0.0
 10
55.12232852621694
 20
90.96006862809048
 30
0.0
 10
55.28833321911693
 20
90.9280088058177
 30
0.0
 10
55.36451409025707
 20
90.91329629892
 30
0.0
  0
SPLINE
  5
167
330
1F
100
AcDbEntity
  8
0
  6
Continuous
 62
     7
370
    25
100
AcDbSpline
210
0.0
220
0.0
230
1.0
 70
     8
 71
     3
 72
    17
 73
    13
 74
     0
 42
0.00000001
 43
0.00000001
 40
0.0
 40
0.0
 40
0.0
 40
0.0
 40
0.0050972686369414
 40
0.0478072396968604
 40
0.1287864394864061
 40
0.2351499134210178
 40
0.3602029386369814
 40
0.4966492170196552
 40
0.6397463399076452
 40
0.781434605527515
 40
0.9117377902091056
 40
1.0
 40
1.0
 40
1.0
 40
1.0
 10
60.45883367224254
 20
90.28832343765983
 30
0.0
 10
60.4569125740316
 20
90.29732690905209
 30
0.0
 10
60.43889461006029
 20
90.38177039155451
 30
0.0
 10
60.13883047286861
 20
90.16522393470932
 30
0.0
 10
59.81232529554088
 20
90.19288181865593
 30
0.0
 10
59.26292367680402
 20
90.06284342157818
 30
0.0
 10
58.65111172874896
 20
89.9883751473824
 30
0.0
 10
57.96565860970521
 20
89.89110702443097
 30
0.0
 10
57.25484896780274
 20
89.7991726316042
 30
0.0
 10
56.5558091937303
 20
89.69481771823507
 30
0.0
 10
55.94564173580008
 20
89.61643477634033
 30
0.0
 10
55.5875997691139
 20
89.51282825500478
 30
0.0
 10
55.44301340742626
 20
89.47098933286482
 30
0.0
  0
LINE
  5
168
330
1F
100
AcDbEntity
  8
0
  6
Continuous
 62
     7
370
    25
100
AcDbLine
 10
54.3645269649
 20
125.5511635392
 30
0.0
 11
54.3645269649
 21
123.5511632113
 31
0.0
  0
LINE
  5
169
330
1F
100
AcDbEntity
  8
0
  6
Continuous
 62
     7
370
    25
100
AcDbLine
 10
61.3645262496
 20
123.5511632113
 30
0.0
 11
61.3645262496
 21
125.5511635392
 31
0.0
  0
LINE
  5
16A
330
1F
100
AcDbEntity
  8
0
  6
Continuous
 62
     7
370
    25
100
AcDbLine
 10
50.8645273225
 20
121.5511628835
 30
0.0
 11
50.8645273225
 21
107.5511624514
 31
0.0
  0
LINE
  5
16B
330
1F
100
AcDbEntity
  8
0
  6
Continuous
 62
     7
370
    25
100
AcDbLine
 10
64.864525892
 20
107.5511624514
 30
0.0
 11
64.864525892
 21
121.5511628835
 31
0.0
  0
LINE
  5
16C
330
1F
100
AcDbEntity
  8
0
  6
Continuous
 62
     7
370
    25
100
AcDbLine
 10
64.864525892
 20
121.5511628835
 30
0.0
 11
64.3645174281
 21
122.0511638968
 31
0.0
  0
LINE
  5
16D
330
1F
100
AcDbEntity
  8
0
  6
Continuous
 62
     7
370
    25
100
AcDbLine
 10
51.3645208852
 20
122.0511638968
 30
0.0
 11
50.8645273225
 21
121.5511628835
 31
0.0
  0
LINE
  5
16E
330
1F
100
AcDbEntity
  8
0
  6
Continuous
 62
     7
370
    25
100
AcDbLine
 10
62.8645218389
 20
122.0511638968
 30
0.0
 11
62.8645218389
 21
123.5511632113
 31
0.0
  0
LINE
  5
16F
330
1F
100
AcDbEntity
  8
0
  6
Continuous
 62
     7
370
    25
100
AcDbLine
 10
52.8645164744
 20
123.5511632113
 30
0.0
 11
52.8645164744
 21
122.0511638968
 31
0.0
  0
LINE
  5
170
330
1F
100
AcDbEntity
  8
0
  6
Continuous
 62
     7
370
    25
100
AcDbLine
 10
60.364524223
 20
88.3245970473
 30
0.0
 11
60.364524223
 21
89.6998778627
 31
0.0
  0
LINE
  5
171
330
1F
100
AcDbEntity
  8
0
  6
Continuous
 62
     7
370
    25
100
AcDbLine
 10
60.364524223
 20
90.288792475
 30
0.0
 11
60.364524223
 21
92.12513463
 31
0.0
  0
LINE
  5
172
330
1F
100
AcDbEntity
  8
0
  6
Continuous
 62
     7
370
    25
100
AcDbLine
 10
60.364524223
 20
92.7428583092
 30
0.0
 11
60.364524223
 21
94.5780783369
 31
0.0
  0
LINE
  5
173
330
1F
100
AcDbEntity
  8
0
  6
Continuous
 62
     7
370
    25
100
AcDbLine
 10
60.364524223
 20
95.2016947268
 30
0.0
 11
60.364524223
 21
97.0300401969
 31
0.0
  0
LINE
  5
174
330
1F
100
AcDbEntity
  8
0
  6
Continuous
 62
     7
370
    25
100
AcDbLine
 10
60.364524223
 20
97.6179897262
 30
0.0
 11
60.364524223
 21
99.4587907045
 31
0.0
  0
LINE
  5
175
330
1F
100
AcDbEntity
  8
0
  6
Continuous
 62
     7
370
    25
100
AcDbLine
 10
60.364524223
 20
100.0519360824
 30
0.0
 11
60.364524223
 21
101.9111092611
 31
0.0
  0
LINE
  5
176
330
1F
100
AcDbEntity
  8
0
  6
Continuous
 62
     7
370
    25
100
AcDbLine
 10
60.364524223
 20
102.5731995179
 30
0.0
 11
60.364524223
 21
104.3512051402
 31
0.0
  0
LINE
  5
177
330
1F
100
AcDbEntity
  8
0
  6
Continuous
 62
     7
370
    25
100
AcDbLine
 10
60.364524223
 20
105.0054257213
 30
0.0
 11
60.364524223
 21
106.7912684231
 31
0.0
  0
LINE
  5
178
330
1F
100
AcDbEntity
  8
0
  6
Continuous
 62
     7
370
    25
100
AcDbLine
 10
60.364524223
 20
107.4018546789
 30
0.0
 11
60.364524223
 21
107.5511624514
 31
0.0
  0
LINE
  5
179
330
1F
100
AcDbEntity
  8
0
  6
Continuous
 62
     7
370
    25
100
AcDbLine
 10
60.364524223
 20
110.596069455
 30
0.0
 11
60.364524223
 21
111.6823398917
 31
0.0
  0
LINE
  5
17A
330
1F
100
AcDbEntity
  8
0
  6
Continuous
 62
     7
370
    25
100
AcDbLine
 10
60.364524223
 20
112.2877051531
 30
0.0
 11
60.364524223
 21
114.1344563513
 31
0.0
  0
LINE
  5
17B
330
1F
100
AcDbEntity
  8
0
  6
Continuous
 62
     7
370
    25
100
AcDbLine
 10
60.364524223
 20
114.757714182
 30
0.0
 11
60.364524223
 21
116.5511620639
 31
0.0
  0
LINE
  5
17C
330
1F
100
AcDbEntity
  8
0
  6
Continuous
 62
     7
370
    25
100
AcDbLine
 10
60.364524223
 20
125.5511635392
 30
0.0
 11
60.364524223
 21
132.6511607914
 31
0.0
  0
LINE
  5
17D
330
1F
100
AcDbEntity
  8
0
  6
Continuous
 62
     7
370
    25
100
AcDbLine
 10
55.3645140903
 20
132.6511607914
 30
0.0
 11
55.3645140903
 21
125.5511635392
 31
0.0
  0
LINE
  5
17E
330
1F
100
AcDbEntity
  8
0
  6
Continuous
 62
     7
370
    25
100
AcDbLine
 10
55.3645140903
 20
116.5278175323
 30
0.0
 11
55.3645140903
 21
116.3475917129
 31
0.0
  0
LINE
  5
17F
330
1F
100
AcDbEntity
  8
0
  6
Continuous
 62
     7
370
    25
100
AcDbLine
 10
55.3645140903
 20
115.752480313
 30
0.0
 11
55.3645140903
 21
113.9206507652
 31
0.0
  0
LINE
  5
180
330
1F
100
AcDbEntity
  8
0
  6
Continuous
 62
     7
370
    25
100
AcDbLine
 10
55.3645140903
 20
113.3114093392
 30
0.0
 11
55.3645140903
 21
111.4649412631
 31
0.0
  0
LINE
  5
181
330
1F
100
AcDbEntity
  8
0
  6
Continuous
 62
     7
370
    25
100
AcDbLine
 10
55.3645140903
 20
110.8580877482
 30
0.0
 11
55.3645140903
 21
109.0097179113
 31
0.0
  0
LINE
  5
182
330
1F
100
AcDbEntity
  8
0
  6
Continuous
 62
     7
370
    25
100
AcDbLine
 10
55.3645140903
 20
108.3827329277
 30
0.0
 11
55.3645140903
 21
106.5893707274
 31
0.0
  0
LINE
  5
183
330
1F
100
AcDbEntity
  8
0
  6
Continuous
 62
     7
370
    25
100
AcDbLine
 10
55.3645140903
 20
105.9810419975
 30
0.0
 11
55.3645140903
 21
104.1327615677
 31
0.0
  0
LINE
  5
184
330
1F
100
AcDbEntity
  8
0
  6
Continuous
 62
     7
370
    25
100
AcDbLine
 10
55.3645140903
 20
103.5062394513
 30
0.0
 11
55.3645140903
 21
101.6930587067
 31
0.0
  0
LINE
  5
185
330
1F
100
AcDbEntity
  8
0
  6
Continuous
 62
     7
370
    25
100
AcDbLine
 10
55.3645140903
 20
101.0812133028
 30
0.0
 11
55.3645140903
 21
99.2458149268
 31
0.0
  0
LINE
  5
186
330
1F
100
AcDbEntity
  8
0
  6
Continuous
 62
     7
370
    25
100
AcDbLine
 10
55.3645140903
 20
98.6532339303
 30
0.0
 11
55.3645140903
 21
96.7932365312
 31
0.0
  0
LINE
  5
187
330
1F
100
AcDbEntity
  8
0
  6
Continuous
 62
     7
370
    25
100
AcDbLine
 10
55.3645140903
 20
96.2062672189
 30
0.0
 11
55.3645140903
 21
94.3627351372
 31
0.0
  0
LINE
  5
188
330
1F
100
AcDbEntity
  8
0
  6
Continuous
 62
     7
370
    25
100
AcDbLine
 10
55.3645140903
 20
93.6935482024
 30
0.0
 11
55.3645140903
 21
91.924278153
 31
0.0
  0
LINE
  5
189
330
1F
100
AcDbEntity
  8
0
  6
Continuous
 62
     7
370
    25
100
AcDbLine
 10
55.3645140903
 20
91.3115442673
 30
0.0
 11
55.3645140903
 21
89.4800189709
 31
0.0
  0
ARC
  5
18A
330
1F
100
AcDbEntity
  8
0
  6
Continuous
 62
     7
370
    25
100
AcDbCircle
 10
67.8645250417
 20
132.6511602708
 30
0.0
 40
7.500000818646044
100
AcDbArc
 50
90.0000608955
 51
179.9999960228
  0
ARC
  5
18B
330
1F
100
AcDbEntity
  8
0
  6
Continuous
 62
     7
370
    25
100
AcDbCircle
 10
67.8645293867
 20
132.6511484752
 30
0.0
 40
12.50001529640738
100
AcDbArc
 50
90.0000564531
 51
179.9999435469
  0
LINE
  5
18C
330
1F
100
AcDbEntity
  8
0
  6
Continuous
 62
     7
370
    25
100
AcDbLine
 10
82.8645176665
 20
145.1511637716
 30
0.0
 11
67.8645170705
 21
145.1511637716
 31
0.0
  0
LINE
  5
18D
330
1F
100
AcDbEntity
  8
0
  6
Continuous
 62
     7
370
    25
100
AcDbLine
 10
67.8645170705
 20
140.1511610894
 30
0.0
 11
82.8645176665
 21
140.1511610894
 31
0.0
  0
LINE
  5
18E
330
1F
100
AcDbEntity
  8
0
  6
Continuous
 62
     7
370
    25
100
AcDbLine
 10
90.8645189778
 20
147.6511613874
 30
0.0
 11
87.8645128982
 21
146.6511630862
 31
0.0
  0
LINE
  5
18F
330
1F
100
AcDbEntity
  8
0
  6
Continuous
 62
     7
370
    25
100
AcDbLine
 10
87.8645128982
 20
138.6511617749
 30
0.0
 11
90.8645189778
 21
137.6511634736
 31
0.0
  0
LINE
  5
190
330
1F
100
AcDbEntity
  8
0
  6
Continuous
 62
     7
370
    25
100
AcDbLine
 10
90.8645189778
 20
137.6511634736
 30
0.0
 11
103.1145177261
 21
137.6511634736
 31
0.0
  0
LINE
  5
191
330
1F
100
AcDbEntity
  8
0
  6
Continuous
 62
     7
370
    25
100
AcDbLine
 10
102.7145184056
 20
147.6511613874
 30
0.0
 11
90.8645189778
 21
147.6511613874
 31
0.0
  0
LINE
  5
192
330
1F
100
AcDbEntity
  8
0
  6
Continuous
 62
     7
370
    25
100
AcDbLine
 10
82.8645176665
 20
138.6511617749
 30
0.0
 11
87.8645128982
 21
138.6511617749
 31
0.0
  0
LINE
  5
193
330
1F
100
AcDbEntity
  8
0
  6
Continuous
 62
     7
370
    25
100
AcDbLine
 10
87.8645128982
 20
146.6511630862
 30
0.0
 11
82.8645176665
 21
146.6511630862
 31
0.0
  0
LWPOLYLINE
  5
194
330
1F
100
AcDbEntity
  8
0
  6
Continuous
 62
     7
370
    25
100
AcDbPolyline
 90
        3
 70
   128
 43
0.0
 10
102.6439390556
 20
147.7335052042
 10
102.687741019
 20
147.6743848471
 10
102.7145184056
 20
147.6511613874
  0
LINE
  5
195
330
1F
100
AcDbEntity
  8
0
  6
Continuous
 62
     7
370
    25
100
AcDbLine
 10
58.6458838956
 20
125.5511635392
 30
0.0
 11
54.3645269649
 21
125.5511635392
 31
0.0
  0
LINE
  5
196
330
1F
100
AcDbEntity
  8
0
  6
Continuous
 62
     7
370
    25
100
AcDbLine
 10
61.3645262496
 20
125.5511635392
 30
0.0
 11
58.6458838956
 21
125.5511635392
 31
0.0
  0
LINE
  5
197
330
1F
100
AcDbEntity
  8
0
  6
Continuous
 62
     7
370
    25
100
AcDbLine
 10
53.7923372762
 20
107.5511624514
 30
0.0
 11
53.7923372762
 21
114.8011622428
 31
0.0
  0
LINE
  5
198
330
1F
100
AcDbEntity
  8
0
  6
Continuous
 62
     7
370
    25
100
AcDbLine
 10
53.7923372762
 20
107.5511624514
 30
0.0
 11
50.8645273225
 21
107.5511624514
 31
0.0
  0
LINE
  5
199
330
1F
100
AcDbEntity
  8
0
  6
Continuous
 62
     7
370
    25
100
AcDbLine
 10
64.864525892
 20
107.5511624514
 30
0.0
 11
57.0577777402
 21
107.5511624514
 31
0.0
  0
LINE
  5
19A
330
1F
100
AcDbEntity
  8
0
  6
Continuous
 62
     7
370
    25
100
AcDbLine
 10
57.0577777402
 20
113.0511624216
 30
0.0
 11
57.0577777402
 21
107.5511624514
 31
0.0
  0
LINE
  5
19B
330
1F
100
AcDbEntity
  8
0
  6
Continuous
 62
     7
370
    25
100
AcDbLine
 10
57.0577777402
 20
113.0511624216
 30
0.0
 11
59.0110517518
 21
113.0511624216
 31
0.0
  0
LINE
  5
19C
330
1F
100
AcDbEntity
  8
0
  6
Continuous
 62
     7
370
    25
100
AcDbLine
 10
59.0110517518
 20
113.0511624216
 30
0.0
 11
59.0110517518
 21
112.3011627643
 31
0.0
  0
SPLINE
  5
19D
330
1F
100
AcDbEntity
  8
0
  6
Continuous
 62
     7
370
    25
100
AcDbSpline
210
0.0
220
0.0
230
1.0
 70
     8
 71
     3
 72
    17
 73
    13
 74
     0
 42
0.00000001
 43
0.00000001
 40
0.0
 40
0.0
 40
0.0
 40
0.0
 40
0.1100655560125769
 40
0.2195881371808627
 40
0.329903117176839
 40
0.4387821363167162
 40
0.5414147438865958
 40
0.6388771814953127
 40
0.7377090725727137
 40
0.8434589939166828
 40
0.9549015574411941
 40
1.0
 40
1.0
 40
1.0
 40
1.0
 10
59.01105175180948
 20
112.3011627642948
 30
0.0
 10
59.0301480319632
 20
112.1079441913239
 30
0.0
 10
59.06824638659796
 20
111.722460230269
 30
0.0
 10
59.36040736057404
 20
111.207558230828
 30
0.0
 10
59.78386118535715
 20
110.8081637585939
 30
0.0
 10
60.30602261765524
 20
110.5700877855443
 30
0.0
 10
60.85603083544501
 20
110.5259855017694
 30
0.0
 10
61.36792368117039
 20
110.6812675826068
 30
0.0
 10
61.79022803786305
 20
111.017833160733
 30
0.0
 10
62.08193721978834
 20
111.4974562331447
 30
0.0
 10
62.1990264778272
 20
111.9487883280007
 30
0.0
 10
62.20819601560007
 20
112.222351111211
 30
0.0
 10
62.21083769960918
 20
112.3011627642948
 30
0.0
  0
LINE
  5
19E
330
1F
100
AcDbEntity
  8
0
  6
Continuous
 62
     7
370
    25
100
AcDbLine
 10
62.2108376996
 20
112.3011627643
 30
0.0
 11
62.2108376996
 21
114.8011622428
 31
0.0
  0
SPLINE
  5
19F
330
1F
100
AcDbEntity
  8
0
  6
Continuous
 62
     7
370
    25
100
AcDbSpline
210
0.0
220
0.0
230
1.0
 70
     8
 71
     3
 72
    12
 73
     8
 74
     0
 42
0.00000001
 43
0.00000001
 40
0.0
 40
0.0
 40
0.0
 40
0.0
 40
0.2238612664661143
 40
0.4392643521982637
 40
0.6485638526736754
 40
0.8559026685655722
 40
1.0
 40
1.0
 40
1.0
 40
1.0
 10
62.21083769960916
 20
114.8011622427542
 30
0.0
 10
62.19623416948205
 20
114.9931121473338
 30
0.0
 10
62.16757887639644
 20
115.3697594870935
 30
0.0
 10
61.93518471246265
 20
115.886438084644
 30
0.0
 10
61.56806530792916
 20
116.2937081498552
 30
0.0
 10
61.12571436684536
 20
116.5192989255898
 30
0.0
 10
60.82451945377894
 20
116.5418965079199
 30
0.0
 10
60.70102224512613
 20
116.5511620639403
 30
0.0
  0
LINE
  5
1A0
330
1F
100
AcDbEntity
  8
0
  6
Continuous
 62
     7
370
    25
100
AcDbLine
 10
60.7010222451
 20
116.5511620639
 30
0.0
 11
55.3450531737
 21
116.5511620639
 31
0.0
  0
SPLINE
  5
1A1
330
1F
100
AcDbEntity
  8
0
  6
Continuous
 62
     7
370
    25
100
AcDbSpline
210
0.0
220
0.0
230
1.0
 70
     8
 71
     3
 72
    12
 73
     8
 74
     0
 42
0.00000001
 43
0.00000001
 40
0.0
 40
0.0
 40
0.0
 40
0.0
 40
0.2213487664663214
 40
0.4354409353686431
 40
0.6452423163735319
 40
0.8545025863442044
 40
0.9999999999999999
 40
0.9999999999999999
 40
0.9999999999999999
 40
0.9999999999999999
 10
53.79233727617778
 20
114.8011622427542
 30
0.0
 10
53.80755998869012
 20
114.9932853575709
 30
0.0
 10
53.83750635921225
 20
115.3712331101482
 30
0.0
 10
54.07938143364402
 20
115.8885243045298
 30
0.0
 10
54.45858686430412
 20
116.2948239658155
 30
0.0
 10
54.91124170607799
 20
116.5192374558489
 30
0.0
 10
55.21888065315461
 20
116.5418769053591
 30
0.0
 10
55.3450531737379
 20
116.5511620639403
 30
0.0
  0
LINE
  5
1A2
330
1F
100
AcDbEntity
  8
0
  6
Continuous
 62
     7
370
    25
100
AcDbLine
 10
60.7010222451
 20
121.5511628835
 30
0.0
 11
50.8645273225
 21
121.5511628835
 31
0.0
  0
LINE
  5
1A3
330
1F
100
AcDbEntity
  8
0
  6
Continuous
 62
     7
370
    25
100
AcDbLine
 10
64.864525892
 20
121.5511628835
 30
0.0
 11
60.7010222451
 21
121.5511628835
 31
0.0
  0
LINE
  5
1A4
330
1F
100
AcDbEntity
  8
0
  6
Continuous
 62
     7
370
    25
100
AcDbLine
 10
60.4984111564
 20
122.0511638968
 30
0.0
 11
64.3645174281
 21
122.0511638968
 31
0.0
  0
LINE
  5
1A5
330
1F
100
AcDbEntity
  8
0
  6
Continuous
 62
     7
370
    25
100
AcDbLine
 10
51.3645208852
 20
122.0511638968
 30
0.0
 11
60.4984111564
 21
122.0511638968
 31
0.0
  0
SPLINE
  5
1A6
330
1F
100
AcDbEntity
  8
0
  6
Continuous
 62
     7
370
    25
100
AcDbSpline
210
0.0
220
0.0
230
1.0
 70
     8
 71
     3
 72
    12
 73
     8
 74
     0
 42
0.00000001
 43
0.00000001
 40
0.0
 40
0.0
 40
0.0
 40
0.0
 40
0.2234510220487936
 40
0.4379406914652398
 40
0.6467139912557915
 40
0.8542222954306598
 40
1.0
 40
1.0
 40
1.0
 40
1.0
 10
61.95894847078838
 20
114.8011622427542
 30
0.0
 10
61.94466523296101
 20
114.9923453969355
 30
0.0
 10
61.91667157693241
 20
115.367044433758
 30
0.0
 10
61.68892203679827
 20
115.8824166907612
 30
0.0
 10
61.32637472969446
 20
116.2908725976495
 30
0.0
 10
60.88478253238999
 20
116.5188605274583
 30
0.0
 10
60.58258979801863
 20
116.5417267078589
 30
0.0
 10
60.45789489908733
 20
116.5511620639403
 30
0.0
  0
LINE
  5
1A7
330
1F
100
AcDbEntity
  8
0
  6
Continuous
 62
     7
370
    25
100
AcDbLine
 10
61.9589484708
 20
112.3011627643
 30
0.0
 11
61.9589484708
 21
114.8011622428
 31
0.0
  0
SPLINE
  5
1A8
330
1F
100
AcDbEntity
  8
0
  6
Continuous
 62
     7
370
    25
100
AcDbSpline
210
0.0
220
0.0
230
1.0
 70
     8
 71
     3
 72
    13
 73
     9
 74
     0
 42
0.00000001
 43
0.00000001
 40
0.0
 40
0.0
 40
0.0
 40
0.0
 40
0.0614760935093153
 40
0.2594081856814496
 40
0.4597985548025017
 40
0.6753873091660194
 40
0.9037233098478491
 40
1.0
 40
1.0
 40
1.0
 40
1.0
 10
60.45695612593212
 20
110.5714192091067
 30
0.0
 10
60.50934796399497
 20
110.5654700049035
 30
0.0
 10
60.73042368433716
 20
110.5403663885138
 30
0.0
 10
61.1166959563233
 20
110.6863856933166
 30
0.0
 10
61.53665551184943
 20
111.0082581716682
 30
0.0
 10
61.82796093486251
 20
111.4888535683237
 30
0.0
 10
61.94658180018296
 20
111.941792074137
 30
0.0
 10
61.95611964647519
 20
112.2189582180432
 30
0.0
 10
61.95894847078838
 20
112.3011627642948
 30
0.0
  0
LINE
  5
1A9
330
1F
100
AcDbEntity
  8
0
  6
Continuous
 62
     7
370
    25
100
AcDbLine
 10
54.0160782115
 20
107.5511624514
 30
0.0
 11
54.0160782115
 21
114.8011622428
 31
0.0
  0
SPLINE
  5
1AA
330
1F
100
AcDbEntity
  8
0
  6
Continuous
 62
     7
370
    25
100
AcDbSpline
210
0.0
220
0.0
230
1.0
 70
     8
 71
     3
 72
    12
 73
     8
 74
     0
 42
0.00000001
 43
0.00000001
 40
0.0
 40
0.0
 40
0.0
 40
0.0
 40
0.2236717183109057
 40
0.4395088603803844
 40
0.6514309932414666
 40
0.8635350960865034
 40
1.0
 40
1.0
 40
1.0
 40
1.0
 10
54.01607821150341
 20
114.8011622427542
 30
0.0
 10
54.03100005888101
 20
114.9925228249474
 30
0.0
 10
54.06032108428922
 20
115.3685411791525
 30
0.0
 10
54.2977721760253
 20
115.8845318535694
 30
0.0
 10
54.67275585417182
 20
116.2920952321166
 30
0.0
 10
55.11487541067489
 20
116.5135374276321
 30
0.0
 10
55.41220214379319
 20
116.5403286862499
 30
0.0
 10
55.52860567732372
 20
116.5508174745876
 30
0.0
  0
LINE
  5
1AB
330
1F
100
AcDbEntity
  8
0
  6
Continuous
 62
     7
370
    25
100
AcDbLine
 10
54.0160782115
 20
107.5511624514
 30
0.0
 11
55.3645140903
 21
107.5511624514
 31
0.0
  0
LINE
  5
1AC
330
1F
100
AcDbEntity
  8
0
  6
Continuous
 62
     7
370
    25
100
AcDbLine
 10
55.5286056773
 20
116.5508174746
 30
0.0
 11
55.5485285298
 21
116.5511620639
 31
0.0
  0
LINE
  5
1AD
330
1F
100
AcDbEntity
  8
0
  6
Continuous
 62
     7
370
    25
100
AcDbLine
 10
52.8645164744
 20
123.5511632113
 30
0.0
 11
62.8645218389
 21
123.5511632113
 31
0.0
  0
LINE
  5
1AE
330
1F
100
AcDbEntity
  8
0
  6
Continuous
 62
     7
370
    25
100
AcDbLine
 10
53.7923372762
 20
107.5511624514
 30
0.0
 11
54.0160782115
 21
107.5511624514
 31
0.0
  0
LINE
  5
1AF
330
1F
100
AcDbEntity
  8
0
  6
Continuous
 62
     7
370
    25
100
AcDbLine
 10
90.8645189778
 20
142.6511624305
 30
0.0
 11
90.8645189778
 21
147.6511613874
 31
0.0
  0
LINE
  5
1B0
330
1F
100
AcDbEntity
  8
0
  6
Continuous
 62
     7
370
    25
100
AcDbLine
 10
90.8645189778
 20
137.6511634736
 30
0.0
 11
90.8645189778
 21
142.6511624305
 31
0.0
  0
LINE
  5
1B1
330
1F
100
AcDbEntity
  8
0
  6
Continuous
 62
     7
370
    25
100
AcDbLine
 10
87.8645128982
 20
142.6511624305
 30
0.0
 11
87.8645128982
 21
146.6511630862
 31
0.0
  0
LINE
  5
1B2
330
1F
100
AcDbEntity
  8
0
  6
Continuous
 62
     7
370
    25
100
AcDbLine
 10
87.8645128982
 20
138.6511617749
 30
0.0
 11
87.8645128982
 21
142.6511624305
 31
0.0
  0
LINE
  5
1B3
330
1F
100
AcDbEntity
  8
0
  6
Continuous
 62
     7
370
    25
100
AcDbLine
 10
103.1145177261
 20
146.7095830886
 30
0.0
 11
103.1145177261
 21
147.6511613874
 31
0.0
  0
LINE
  5
1B4
330
1F
100
AcDbEntity
  8
0
  6
Continuous
 62
     7
370
    25
100
AcDbLine
 10
103.1145177261
 20
137.6511634736
 30
0.0
 11
103.1145177261
 21
138.5927417724
 31
0.0
  0
LINE
  5
1B5
330
1F
100
AcDbEntity
  8
0
  6
Continuous
 62
     7
370
    25
100
AcDbLine
 10
82.8645176665
 20
142.6511624305
 30
0.0
 11
82.8645176665
 21
146.6511630862
 31
0.0
  0
LINE
  5
1B6
330
1F
100
AcDbEntity
  8
0
  6
Continuous
 62
     7
370
    25
100
AcDbLine
 10
82.8645176665
 20
138.6511617749
 30
0.0
 11
82.8645176665
 21
142.6511624305
 31
0.0
  0
SPLINE
  5
1B7
330
1F
100
AcDbEntity
  8
0
  6
Continuous
 62
     7
370
    25
100
AcDbSpline
210
0.0
220
0.0
230
1.0
 70
     8
 71
     3
 72
    23
 73
    19
 74
     0
 42
0.00000001
 43
0.00000001
 40
0.0
 40
0.0
 40
0.0
 40
0.0
 40
0.0064185602125871
 40
0.0455475854767761
 40
0.1201021463840425
 40
0.2125230120900181
 40
0.3140173047884641
 40
0.416689581799188
 40
0.5161755908449678
 40
0.6105529231467686
 40
0.694433835498039
 40
0.7615040212014434
 40
0.8058232761683348
 40
0.8353485916213211
 40
0.862192320859702
 40
0.9001122869380064
 40
0.9873210287444251
 40
1.0
 40
1.0
 40
1.0
 40
1.0
 10
55.26720950766124
 20
77.33524255814562
 30
0.0
 10
55.28214852587128
 20
77.33326546441415
 30
0.0
 10
55.38815924888772
 20
77.31923555073462
 30
0.0
 10
55.65657059156501
 20
77.44160137095871
 30
0.0
 10
56.13280569086346
 20
77.49439971523867
 30
0.0
 10
56.75173452027428
 20
77.60307797418339
 30
0.0
 10
57.43839396058008
 20
77.69367653959299
 30
0.0
 10
58.14143769397315
 20
77.78857899801511
 30
0.0
 10
58.82789686982068
 20
77.8815560945923
 30
0.0
 10
59.46977485327297
 20
77.97625834475522
 30
0.0
 10
60.03466891422876
 20
78.0743007760224
 30
0.0
 10
60.47983785533859
 20
78.1736904861419
 30
0.0
 10
60.79301572685716
 20
78.28199438772702
 30
0.0
 10
60.98819064633653
 20
78.42117219450671
 30
0.0
 10
61.09470231998447
 20
78.62989206096947
 30
0.0
 10
60.96947317868974
 20
79.00498825299593
 30
0.0
 10
60.62109593994406
 20
79.12031300421422
 30
0.0
 10
60.39342323027298
 20
79.16487348003523
 30
0.0
 10
60.36452422304668
 20
79.17052964108596
 30
0.0
  0
SPLINE
  5
1B8
330
1F
100
AcDbEntity
  8
0
  6
Continuous
 62
     7
370
    25
100
AcDbSpline
210
0.0
220
0.0
230
1.0
 70
     8
 71
     3
 72
    23
 73
    19
 74
     0
 42
0.00000001
 43
0.00000001
 40
0.0
 40
0.0
 40
0.0
 40
0.0
 40
0.0088062184754113
 40
0.054221712011493
 40
0.1346614763274767
 40
0.2333896885144417
 40
0.3403835043358402
 40
0.4483023595828919
 40
0.5557026587228584
 40
0.6556428330006129
 40
0.7394586270410985
 40
0.7940766344218622
 40
0.8268208436424147
 40
0.8509263234820057
 40
0.8782744287447131
 40
0.9172932269934333
 40
0.9558322468341189
 40
1.0
 40
1.0
 40
1.0
 40
1.0
 10
55.24783799810924
 20
79.76250108691464
 30
0.0
 10
55.26829486952166
 20
79.76550583246208
 30
0.0
 10
55.3942520659593
 20
79.78400667345262
 30
0.0
 10
55.69653144549689
 20
79.8812984448789
 30
0.0
 10
56.21879633567123
 20
79.9595104035051
 30
0.0
 10
56.88180376648283
 20
80.06410071131921
 30
0.0
 10
57.61149434762622
 20
80.16194828568202
 30
0.0
 10
58.36119240874027
 20
80.26216435102161
 30
0.0
 10
59.09408234536069
 20
80.36369132313763
 30
0.0
 10
59.76915052061025
 20
80.46970608564736
 30
0.0
 10
60.31837190801627
 20
80.57764982578797
 30
0.0
 10
60.70536459723104
 20
80.68845547922523
 30
0.0
 10
60.93834507501226
 20
80.81772520195334
 30
0.0
 10
61.06003253339004
 20
80.98206696665085
 30
0.0
 10
61.07842229642016
 20
81.20793577525346
 30
0.0
 10
60.92015538149865
 20
81.42342494484161
 30
0.0
 10
60.6571218098446
 20
81.54611334337736
 30
0.0
 10
60.46638374032326
 20
81.58387548494427
 30
0.0
 10
60.36452422304668
 20
81.60404153528224
 30
0.0
  0
SPLINE
  5
1B9
330
1F
100
AcDbEntity
  8
0
  6
Continuous
 62
     7
370
    25
100
AcDbSpline
210
0.0
220
0.0
230
1.0
 70
     8
 71
     3
 72
    23
 73
    19
 74
     0
 42
0.00000001
 43
0.00000001
 40
0.0
 40
0.0
 40
0.0
 40
0.0
 40
0.0022160600155562
 40
0.0213636091384458
 40
0.0742840130894551
 40
0.1501865633891075
 40
0.2408365553100193
 40
0.3392695628325072
 40
0.4421172176295991
 40
0.5455285563524882
 40
0.642655185048354
 40
0.7256312477087061
 40
0.7856945966559687
 40
0.8273252701388557
 40
0.8579258017203963
 40
0.8866370243170945
 40
0.9190818543486344
 40
1.0
 40
1.0
 40
1.0
 40
1.0
 10
55.24874696894206
 20
82.21547762292037
 30
0.0
 10
55.24763943211197
 20
82.20996320820036
 30
0.0
 10
55.2369623819516
 20
82.15680228300937
 30
0.0
 10
55.51272147600693
 20
82.32172118077646
 30
0.0
 10
55.76104290710583
 20
82.29910710078734
 30
0.0
 10
56.31404281762462
 20
82.43336316584278
 30
0.0
 10
56.9149279770343
 20
82.50819681507485
 30
0.0
 10
57.60022478496126
 20
82.60623438124276
 30
0.0
 10
58.30929664453819
 20
82.69934073415116
 30
0.0
 10
59.01674062815015
 20
82.7971464096662
 30
0.0
 10
59.67568885299279
 20
82.89854251047696
 30
0.0
 10
60.23189297522198
 20
83.00142980316879
 30
0.0
 10
60.65143646863464
 20
83.11291272206267
 30
0.0
 10
60.93656261590826
 20
83.2535931550127
 30
0.0
 10
61.07894094329382
 20
83.4614263586445
 30
0.0
 10
61.06117589981301
 20
83.69346843018609
 30
0.0
 10
60.82618770635951
 20
83.9562148426345
 30
0.0
 10
60.55680720313281
 20
84.01291304616697
 30
0.0
 10
60.36452422304668
 20
84.05338405060182
 30
0.0
  0
SPLINE
  5
1BA
330
1F
100
AcDbEntity
  8
0
  6
Continuous
 62
     7
370
    25
100
AcDbSpline
210
0.0
220
0.0
230
1.0
 70
     8
 71
     3
 72
    17
 73
    13
 74
     0
 42
0.00000001
 43
0.00000001
 40
0.0
 40
0.0
 40
0.0
 40
0.0
 40
0.0080224177668408
 40
0.0543924642549019
 40
0.1364258385273566
 40
0.2451888420778076
 40
0.3754263130668165
 40
0.520262519073074
 40
0.6728332457047743
 40
0.8239232400556745
 40
0.9625631129542292
 40
0.9999999999999999
 40
0.9999999999999999
 40
0.9999999999999999
 40
0.9999999999999999
 10
55.24761448069133
 20
84.65015436882685
 30
0.0
 10
55.26059114289671
 20
84.6506231342312
 30
0.0
 10
55.34857367580226
 20
84.65380139124055
 30
0.0
 10
55.55628259610704
 20
84.74045609365506
 30
0.0
 10
55.93540993407537
 20
84.79718754933343
 30
0.0
 10
56.44566711161676
 20
84.88933177497695
 30
0.0
 10
57.05974298305555
 20
84.9756148768541
 30
0.0
 10
57.74405716347683
 20
85.06920545871729
 30
0.0
 10
58.4623227359732
 20
85.16392558801714
 30
0.0
 10
59.16924112139241
 20
85.26596676475448
 30
0.0
 10
59.69274466466749
 20
85.3412346073376
 30
0.0
 10
59.97073806085455
 20
85.40141499624457
 30
0.0
 10
60.02984414263286
 20
85.41421036130349
 30
0.0
  0
SPLINE
  5
1BB
330
1F
100
AcDbEntity
  8
0
  6
Continuous
 62
     7
370
    25
100
AcDbSpline
210
0.0
220
0.0
230
1.0
 70
     8
 71
     3
 72
    20
 73
    16
 74
     0
 42
0.00000001
 43
0.00000001
 40
0.0
 40
0.0
 40
0.0
 40
0.0
 40
0.0393258461035638
 40
0.1789186495603244
 40
0.319745740492133
 40
0.4532473678520866
 40
0.5700679449949161
 40
0.6622011538431558
 40
0.7316985296096697
 40
0.7804416469197472
 40
0.8137431442395878
 40
0.8449801036078718
 40
0.8929206212995708
 40
0.9623648313549986
 40
0.9999999999999999
 40
0.9999999999999999
 40
0.9999999999999999
 40
0.9999999999999999
 10
58.58008036776103
 20
85.78259151323299
 30
0.0
 10
58.51379722827707
 20
85.77318042592294
 30
0.0
 10
58.21223245650182
 20
85.73036331709393
 30
0.0
 10
57.67251114017956
 20
85.65955885605
 30
0.0
 10
56.97427858096523
 20
85.56483903522904
 30
0.0
 10
56.31525043376585
 20
85.4687003164971
 30
0.0
 10
55.7405049571389
 20
85.37222585538278
 30
0.0
 10
55.27649465271363
 20
85.26962352255202
 30
0.0
 10
54.93901555409184
 20
85.1504837769494
 30
0.0
 10
54.72007337644212
 20
84.99414733013867
 30
0.0
 10
54.6497820022461
 20
84.80442325572714
 30
0.0
 10
54.68326668968014
 20
84.60631047556703
 30
0.0
 10
54.87710765795792
 20
84.42194456335365
 30
0.0
 10
55.12417969598353
 20
84.32275396068178
 30
0.0
 10
55.30201155940863
 20
84.28242590431547
 30
0.0
 10
55.36451409025707
 20
84.2682518100978
 30
0.0
  0
SPLINE
  5
1BC
330
1F
100
AcDbEntity
  8
0
  6
Continuous
 62
     7
370
    25
100
AcDbSpline
210
0.0
220
0.0
230
1.0
 70
     8
 71
     3
 72
    24
 73
    20
 74
     0
 42
0.00000001
 43
0.00000001
 40
0.0
 40
0.0
 40
0.0
 40
0.0
 40
0.0002400543719034
 40
0.0059117333657127
 40
0.0203821005655885
 40
0.0645061471506272
 40
0.127688818830155
 40
0.2092565828292467
 40
0.3048772177738484
 40
0.407092663829945
 40
0.509967834447417
 40
0.6070414406221739
 40
0.6892023193251723
 40
0.7953552579605322
 40
0.8321738852971146
 40
0.8685105777506511
 40
0.8978063082073007
 40
0.9299006994471779
 40
1.0
 40
1.0
 40
1.0
 40
1.0
 10
60.46701440973796
 20
83.67359349864135
 30
0.0
 10
60.4670571278027
 20
83.67416798052608
 30
0.0
 10
60.46810913034101
 20
83.68831554092685
 30
0.0
 10
60.39071747771091
 20
83.65328694711123
 30
0.0
 10
60.28410880619528
 20
83.63439625350618
 30
0.0
 10
59.97414549411008
 20
83.55211874256983
 30
0.0
 10
59.55472922302299
 20
83.48332436622601
 30
0.0
 10
58.99246845959367
 20
83.39385677110106
 30
0.0
 10
58.34679143633954
 20
83.30490066254393
 30
0.0
 10
57.64838600821714
 20
83.21162820734013
 30
0.0
 10
56.94785443675914
 20
83.11635275170772
 30
0.0
 10
56.29369449897504
 20
83.0224512032667
 30
0.0
 10
55.63738353639278
 20
82.90470574428987
 30
0.0
 10
55.11499179925819
 20
82.80620708966585
 30
0.0
 10
54.74221148167868
 20
82.59105396393613
 30
0.0
 10
54.63427872052322
 20
82.34999735010203
 30
0.0
 10
54.71063022752473
 20
82.11732757930046
 30
0.0
 10
54.96166031383775
 20
81.91933033070009
 30
0.0
 10
55.20060859666959
 20
81.87496829701676
 30
0.0
 10
55.36451409025707
 20
81.84453836070905
 30
0.0
  0
SPLINE
  5
1BD
330
1F
100
AcDbEntity
  8
0
  6
Continuous
 62
     7
370
    25
100
AcDbSpline
210
0.0
220
0.0
230
1.0
 70
     8
 71
     3
 72
    23
 73
    19
 74
     0
 42
0.00000001
 43
0.00000001
 40
0.0
 40
0.0
 40
0.0
 40
0.0
 40
0.0021454020976798
 40
0.0334904871340312
 40
0.0876859303503842
 40
0.1656768343895365
 40
0.2626045826852961
 40
0.3678211355158863
 40
0.4743906301272925
 40
0.5753854373812473
 40
0.6615567998256097
 40
0.775291366909331
 40
0.817743524042343
 40
0.8604003356867742
 40
0.8884281815725791
 40
0.9125354579764517
 40
0.9977132580360039
 40
1.0
 40
1.0
 40
1.0
 40
1.0
 10
60.48018703623332
 20
81.2379861286522
 30
0.0
 10
60.47518361812916
 20
81.23866210098862
 30
0.0
 10
60.39707848817464
 20
81.24921426874329
 30
0.0
 10
60.20514113467322
 20
81.13574351729694
 30
0.0
 10
59.82499175937943
 20
81.09626108196947
 30
0.0
 10
59.29672749207391
 20
80.99038763019225
 30
0.0
 10
58.64560235085467
 20
80.90247868199685
 30
0.0
 10
57.92804964223272
 20
80.80390629766555
 30
0.0
 10
57.20077671642632
 20
80.70700177966795
 30
0.0
 10
56.51813755676633
 20
80.61141100660787
 30
0.0
 10
55.82209758429357
 20
80.49705469949494
 30
0.0
 10
55.26082693610216
 20
80.39353126652755
 30
0.0
 10
54.82539966547296
 20
80.21511633571069
 30
0.0
 10
54.64670225800752
 20
79.98326120918809
 30
0.0
 10
54.67400192752425
 20
79.74560168942459
 30
0.0
 10
54.88556033304125
 20
79.49005937453447
 30
0.0
 10
55.15857152903833
 20
79.41728476385299
 30
0.0
 10
55.3592669508738
 20
79.3752633597381
 30
0.0
 10
55.36451409025707
 20
79.3741647190095
 30
0.0
  0
SPLINE
  5
1BE
330
1F
100
AcDbEntity
  8
0
  6
Continuous
 62
     7
370
    25
100
AcDbSpline
210
0.0
220
0.0
230
1.0
 70
     8
 71
     3
 72
    23
 73
    19
 74
     0
 42
0.00000001
 43
0.00000001
 40
0.0
 40
0.0
 40
0.0
 40
0.0
 40
0.0137594856299988
 40
0.0531010857131667
 40
0.118138601185278
 40
0.2063511863933383
 40
0.3054187998296681
 40
0.4080956034661061
 40
0.5079418745981054
 40
0.5988353097037175
 40
0.6759631648060628
 40
0.7378127292914959
 40
0.8314590321961157
 40
0.8714578820893473
 40
0.8951286698056837
 40
0.9218999698730389
 40
0.9899863913909521
 40
1.0
 40
1.0
 40
1.0
 40
1.0
 10
60.49045393629589
 20
78.79600525262366
 30
0.0
 10
60.45941356957568
 20
78.78723562357706
 30
0.0
 10
60.33962150626012
 20
78.75339156601571
 30
0.0
 10
60.07076497223729
 20
78.68639552746207
 30
0.0
 10
59.62655837617872
 20
78.60448926835433
 30
0.0
 10
59.04226754453551
 20
78.51255765969675
 30
0.0
 10
58.36896800474042
 20
78.41887654396321
 30
0.0
 10
57.66829271092515
 20
78.32528088562673
 30
0.0
 10
56.98630138901186
 20
78.2332332389015
 30
0.0
 10
56.36599837187979
 20
78.14253520702356
 30
0.0
 10
55.83095111003728
 20
78.0558542762832
 30
0.0
 10
55.30791589760206
 20
77.94123929341488
 30
0.0
 10
54.81939480483136
 20
77.82997762782678
 30
0.0
 10
54.63669204980594
 20
77.46318781536623
 30
0.0
 10
54.70354061830869
 20
77.24792196275432
 30
0.0
 10
54.92343768422267
 20
77.06443328744349
 30
0.0
 10
55.163490357358
 20
76.99086483743466
 30
0.0
 10
55.34166889839737
 20
76.94944189815367
 30
0.0
 10
55.36451409025707
 20
76.94413084896813
 30
0.0
  0
SPLINE
  5
1BF
330
1F
100
AcDbEntity
  8
0
  6
Continuous
 62
     7
370
    25
100
AcDbSpline
210
0.0
220
0.0
230
1.0
 70
     8
 71
     3
 72
     9
 73
     5
 74
     0
 42
0.00000001
 43
0.00000001
 40
0.0
 40
0.0
 40
0.0
 40
0.0
 40
0.3510346186330869
 40
1.0
 40
1.0
 40
1.0
 40
1.0
 10
60.87472508116283
 20
76.82702821108113
 30
0.0
 10
60.81878086731823
 20
76.85426877611634
 30
0.0
 10
60.65941136107847
 20
76.93186956985367
 30
0.0
 10
60.48057974862381
 20
76.93584144084524
 30
0.0
 10
60.36452422304668
 20
76.93841904761801
 30
0.0
  0
SPLINE
  5
1C0
330
1F
100
AcDbEntity
  8
0
  6
Continuous
 62
     7
370
    25
100
AcDbSpline
210
0.0
220
0.0
230
1.0
 70
     8
 71
     3
 72
    18
 73
    14
 74
     0
 42
0.00000001
 43
0.00000001
 40
0.0
 40
0.0
 40
0.0
 40
0.0
 40
0.0238893758508966
 40
0.070727671861218
 40
0.2000531613292341
 40
0.3355547883811081
 40
0.4433582311876673
 40
0.578288159654797
 40
0.7569018633264704
 40
0.8486323209880579
 40
0.9267554880842889
 40
0.981013133607013
 40
0.9999999999999999
 40
0.9999999999999999
 40
0.9999999999999999
 40
0.9999999999999999
 10
60.68711946173229
 20
76.84303205820332
 30
0.0
 10
60.64254359781275
 20
76.82841276500902
 30
0.0
 10
60.51057082900084
 20
76.78513040475215
 30
0.0
 10
60.11671058913596
 20
76.75959314549922
 30
0.0
 10
59.51059957037763
 20
76.70623581780093
 30
0.0
 10
58.78134298930144
 20
76.66281424555264
 30
0.0
 10
58.04203285640164
 20
76.61999995052024
 30
0.0
 10
57.21733872985756
 20
76.58085316262529
 30
0.0
 10
56.42671894105723
 20
76.52870124235262
 30
0.0
 10
55.74261611624195
 20
76.4853334794516
 30
0.0
 10
55.31395208580737
 20
76.4252587306098
 30
0.0
 10
55.00214511792112
 20
76.42896784920848
 30
0.0
 10
54.88205986340255
 20
76.34753800446336
 30
0.0
 10
54.85093066854991
 20
76.32642928870926
 30
0.0
  0
SPLINE
  5
1C1
330
1F
100
AcDbEntity
  8
0
  6
Continuous
 62
     7
370
    25
100
AcDbSpline
210
0.0
220
0.0
230
1.0
 70
     8
 71
     3
 72
    16
 73
    12
 74
     0
 42
0.00000001
 43
0.00000001
 40
0.0
 40
0.0
 40
0.0
 40
0.0
 40
0.1014007310244542
 40
0.1956477941906738
 40
0.3516549874775482
 40
0.4661383820046277
 40
0.5536035850306071
 40
0.6502980568058497
 40
0.7611863138034015
 40
0.8809350370878005
 40
1.0
 40
1.0
 40
1.0
 40
1.0
 10
60.71921656294382
 20
76.23382415982495
 30
0.0
 10
60.75333572280425
 20
76.2378748338364
 30
0.0
 10
60.81916698751896
 20
76.24569041294829
 30
0.0
 10
60.92711229502154
 20
76.29846126904938
 30
0.0
 10
61.01665770628556
 20
76.38841282052263
 30
0.0
 10
61.0617334662259
 20
76.50300105280182
 30
0.0
 10
61.0664103907764
 20
76.60486639607007
 30
0.0
 10
61.03831858569508
 20
76.70220218112614
 30
0.0
 10
60.97290406328912
 20
76.79310337396336
 30
0.0
 10
60.87257182652542
 20
76.8623519443628
 30
0.0
 10
60.79200385253294
 20
76.87330197696824
 30
0.0
 10
60.75183520479717
 20
76.87876131745587
 30
0.0
  0
SPLINE
  5
1C2
330
1F
100
AcDbEntity
  8
0
  6
Continuous
 62
     7
370
    25
100
AcDbSpline
210
0.0
220
0.0
230
1.0
 70
     8
 71
     3
 72
    19
 73
    15
 74
     0
 42
0.00000001
 43
0.00000001
 40
0.0
 40
0.0
 40
0.0
 40
0.0
 40
0.002219047463742
 40
0.032325629854985
 40
0.0796362879001093
 40
0.1390468519119109
 40
0.2646325859773147
 40
0.3703375365868883
 40
0.5075394871800035
 40
0.6968887161399377
 40
0.7987779511536699
 40
0.8903105476663827
 40
0.9610964266064029
 40
1.0
 40
1.0
 40
1.0
 40
1.0
 10
55.11246094866313
 20
75.80134775849591
 30
0.0
 10
55.11425072488227
 20
75.80527443819804
 30
0.0
 10
55.14032301244161
 20
75.86247573590977
 30
0.0
 10
55.34220898677042
 20
75.81997580985943
 30
0.0
 10
55.57393001124262
 20
75.87855108017277
 30
0.0
 10
56.03097299410319
 20
75.89748139292612
 30
0.0
 10
56.57902818686801
 20
75.94345493783408
 30
0.0
 10
57.28517953318276
 20
75.98254929033723
 30
0.0
 10
58.1108495593684
 20
76.02355438724658
 30
0.0
 10
58.92958200689191
 20
76.07156984865817
 30
0.0
 10
59.66100819417637
 20
76.11839311677817
 30
0.0
 10
60.1640459423744
 20
76.16219169626028
 30
0.0
 10
60.55059107949049
 20
76.18424617313356
 30
0.0
 10
60.75350812612115
 20
76.23964411216835
 30
0.0
 10
60.82547674341716
 20
76.25929210695038
 30
0.0
  0
SPLINE
  5
1C3
330
1F
100
AcDbEntity
  8
0
  6
Continuous
 62
     7
370
    25
100
AcDbSpline
210
0.0
220
0.0
230
1.0
 70
     8
 71
     3
 72
    16
 73
    12
 74
     0
 42
0.00000001
 43
0.00000001
 40
0.0
 40
0.0
 40
0.0
 40
0.0
 40
0.1177348064982714
 40
0.2279862744352634
 40
0.3273027683860664
 40
0.4143404063332129
 40
0.5533003434349834
 40
0.6620771993804007
 40
0.7852864977031918
 40
0.9298529258329172
 40
1.0
 40
1.0
 40
1.0
 40
1.0
 10
54.97720310850658
 20
76.37876123549948
 30
0.0
 10
54.94548435019228
 20
76.37528393725721
 30
0.0
 10
54.8840629086248
 20
76.3685503612236
 30
0.0
 10
54.80413347814939
 20
76.3276044983355
 30
0.0
 10
54.74356585284204
 20
76.27467297314561
 30
0.0
 10
54.69274158570828
 20
76.20259305949223
 30
0.0
 10
54.66313584912706
 20
76.11528683181572
 30
0.0
 10
54.66414574431943
 20
76.01378459649571
 30
0.0
 10
54.69779576891279
 20
75.91734411262671
 30
0.0
 10
54.75151290851723
 20
75.83931665362701
 30
0.0
 10
54.80210980530345
 20
75.81069761987675
 30
0.0
 10
54.81863985224285
 20
75.80134775849591
 30
0.0
  0
SPLINE
  5
1C4
330
1F
100
AcDbEntity
  8
0
  6
Continuous
 62
     7
370
    25
100
AcDbSpline
210
0.0
220
0.0
230
1.0
 70
     8
 71
     3
 72
     9
 73
     5
 74
     0
 42
0.00000001
 43
0.00000001
 40
0.0
 40
0.0
 40
0.0
 40
0.0
 40
0.4385598811310263
 40
1.0
 40
1.0
 40
1.0
 40
1.0
 10
60.94754705591716
 20
75.80134775849591
 30
0.0
 10
60.92247330921556
 20
75.8210319964462
 30
0.0
 10
60.8653003944543
 20
75.86591580547022
 30
0.0
 10
60.79263338130024
 20
75.87414240853855
 30
0.0
 10
60.75183520479717
 20
75.8787611535431
 30
0.0
  0
SPLINE
  5
1C5
330
1F
100
AcDbEntity
  8
0
  6
Continuous
 62
     7
370
    25
100
AcDbSpline
210
0.0
220
0.0
230
1.0
 70
     8
 71
     3
 72
     9
 73
     5
 74
     0
 42
0.00000001
 43
0.00000001
 40
0.0
 40
0.0
 40
0.0
 40
0.0
 40
0.9078511298703549
 40
1.0
 40
1.0
 40
1.0
 40
1.0
 10
60.68711946173229
 20
75.84303189429055
 30
0.0
 10
60.64298745339407
 20
75.82625548908577
 30
0.0
 10
60.59437594993698
 20
75.80777624215551
 30
0.0
 10
60.54314193112463
 20
75.8018901547956
 30
0.0
 10
60.53842077417888
 20
75.80134775849591
 30
0.0
  0
SPLINE
  5
1C6
330
1F
100
AcDbEntity
  8
0
  6
Continuous
 62
     7
370
    25
100
AcDbSpline
210
0.0
220
0.0
230
1.0
 70
     8
 71
     3
 72
     9
 73
     5
 74
     0
 42
0.00000001
 43
0.00000001
 40
0.0
 40
0.0
 40
0.0
 40
0.0
 40
0.4213662691796121
 40
0.9999999999999999
 40
0.9999999999999999
 40
0.9999999999999999
 40
0.9999999999999999
 10
60.87472508116283
 20
75.82702804716835
 30
0.0
 10
60.81894103172156
 20
75.85487453905608
 30
0.0
 10
60.68655252907782
 20
75.92096073039251
 30
0.0
 10
60.53795042615445
 20
75.92570783096474
 30
0.0
 10
60.45196423693218
 20
75.92845466347943
 30
0.0
  0
LINE
  5
1C7
330
1F
100
AcDbEntity
  8
0
  6
Continuous
 62
     7
370
    25
100
AcDbLine
 10
54.3645269649
 20
75.8013477585
 30
0.0
 11
54.3645269649
 21
73.8013474307
 31
0.0
  0
LINE
  5
1C8
330
1F
100
AcDbEntity
  8
0
  6
Continuous
 62
     7
370
    25
100
AcDbLine
 10
61.3645262496
 20
73.8013474307
 30
0.0
 11
61.3645262496
 21
75.8013477585
 31
0.0
  0
LINE
  5
1C9
330
1F
100
AcDbEntity
  8
0
  6
Continuous
 62
     7
370
    25
100
AcDbLine
 10
60.364524223
 20
54.737860713
 30
0.0
 11
60.364524223
 21
73.8013474307
 31
0.0
  0
LINE
  5
1CA
330
1F
100
AcDbEntity
  8
0
  6
Continuous
 62
     7
370
    25
100
AcDbLine
 10
60.364524223
 20
75.8013477585
 30
0.0
 11
60.364524223
 21
76.1797934807
 31
0.0
  0
LINE
  5
1CB
330
1F
100
AcDbEntity
  8
0
  6
Continuous
 62
     7
370
    25
100
AcDbLine
 10
60.364524223
 20
76.7800197041
 30
0.0
 11
60.364524223
 21
78.1562062016
 31
0.0
  0
LINE
  5
1CC
330
1F
100
AcDbEntity
  8
0
  6
Continuous
 62
     7
370
    25
100
AcDbLine
 10
60.364524223
 20
78.7617912552
 30
0.0
 11
60.364524223
 21
80.5967984757
 31
0.0
  0
LINE
  5
1CD
330
1F
100
AcDbEntity
  8
0
  6
Continuous
 62
     7
370
    25
100
AcDbLine
 10
60.364524223
 20
81.210107453
 30
0.0
 11
60.364524223
 21
83.0439377146
 31
0.0
  0
LINE
  5
1CE
330
1F
100
AcDbEntity
  8
0
  6
Continuous
 62
     7
370
    25
100
AcDbLine
 10
60.364524223
 20
83.6772035378
 30
0.0
 11
60.364524223
 21
85.3699067644
 31
0.0
  0
LINE
  5
1CF
330
1F
100
AcDbEntity
  8
0
  6
Continuous
 62
     7
370
    25
100
AcDbLine
 10
55.3645140903
 20
86.5255014192
 30
0.0
 11
55.3645140903
 21
85.2799770924
 31
0.0
  0
LINE
  5
1D0
330
1F
100
AcDbEntity
  8
0
  6
Continuous
 62
     7
370
    25
100
AcDbLine
 10
55.3645140903
 20
84.67346514
 30
0.0
 11
55.3645140903
 21
82.8235716595
 31
0.0
  0
LINE
  5
1D1
330
1F
100
AcDbEntity
  8
0
  6
Continuous
 62
     7
370
    25
100
AcDbLine
 10
55.3645140903
 20
82.2313571385
 30
0.0
 11
55.3645140903
 21
80.3843372537
 31
0.0
  0
LINE
  5
1D2
330
1F
100
AcDbEntity
  8
0
  6
Continuous
 62
     7
370
    25
100
AcDbLine
 10
55.3645140903
 20
79.7859624996
 30
0.0
 11
55.3645140903
 21
77.9510814733
 31
0.0
  0
LINE
  5
1D3
330
1F
100
AcDbEntity
  8
0
  6
Continuous
 62
     7
370
    25
100
AcDbLine
 10
55.3645140903
 20
77.3432817346
 30
0.0
 11
55.3645140903
 21
76.4423081687
 31
0.0
  0
LINE
  5
1D4
330
1F
100
AcDbEntity
  8
0
  6
Continuous
 62
     7
370
    25
100
AcDbLine
 10
55.3645140903
 20
75.8476140014
 30
0.0
 11
55.3645140903
 21
75.8013477585
 31
0.0
  0
LINE
  5
1D5
330
1F
100
AcDbEntity
  8
0
  6
Continuous
 62
     7
370
    25
100
AcDbLine
 10
55.3645140903
 20
73.8013474307
 30
0.0
 11
55.3645140903
 21
55.8574147558
 31
0.0
  0
LINE
  5
1D6
330
1F
100
AcDbEntity
  8
0
  6
Continuous
 62
     7
370
    25
100
AcDbLine
 10
58.1835753696
 20
75.8013477585
 30
0.0
 11
54.3645269649
 21
75.8013477585
 31
0.0
  0
LINE
  5
1D7
330
1F
100
AcDbEntity
  8
0
  6
Continuous
 62
     7
370
    25
100
AcDbLine
 10
61.3645262496
 20
75.8013477585
 30
0.0
 11
58.1835753696
 21
75.8013477585
 31
0.0
  0
LINE
  5
1D8
330
1F
100
AcDbEntity
  8
0
  6
Continuous
 62
     7
370
    25
100
AcDbLine
 10
58.1835753696
 20
73.8013474307
 30
0.0
 11
54.3645269649
 21
73.8013474307
 31
0.0
  0
LINE
  5
1D9
330
1F
100
AcDbEntity
  8
0
  6
Continuous
 62
     7
370
    25
100
AcDbLine
 10
61.3645262496
 20
73.8013474307
 30
0.0
 11
58.1835753696
 21
73.8013474307
 31
0.0
  0
LINE
  5
1DA
330
1F
100
AcDbEntity
  8
0
  6
Continuous
 62
     7
370
    25
100
AcDbLine
 10
55.3645140903
 20
37.5345756064
 30
0.0
 11
57.8645266072
 21
36.0912044297
 31
0.0
  0
LINE
  5
1DB
330
1F
100
AcDbEntity
  8
0
  6
Continuous
 62
     7
370
    25
100
AcDbLine
 10
57.8645266072
 20
36.0912044297
 30
0.0
 11
60.364524223
 21
37.5345756064
 31
0.0
  0
LINE
  5
1DC
330
1F
100
AcDbEntity
  8
0
  6
Continuous
 62
     7
370
    25
100
AcDbLine
 10
60.364524223
 20
37.5345756064
 30
0.0
 11
60.364524223
 21
51.7378632675
 31
0.0
  0
LINE
  5
1DD
330
1F
100
AcDbEntity
  8
0
  6
Continuous
 62
     7
370
    25
100
AcDbLine
 10
55.3645140903
 20
52.857413585
 30
0.0
 11
55.3645140903
 21
37.5345756064
 31
0.0
  0
LINE
  5
1DE
330
1F
100
AcDbEntity
  8
0
  6
Continuous
 62
     7
370
    25
100
AcDbLine
 10
60.364524223
 20
37.5345756064
 30
0.0
 11
55.3645140903
 21
37.5345756064
 31
0.0
  0
DIMENSION
  5
1DF
330
1F
100
AcDbEntity
  8
0
  6
Continuous
 62
     7
370
    18
100
AcDbDimension
  2
_D
 10
64.2645199387
 20
101.8956251806
 30
0.0
 11
44.3928176498
 21
101.8956251806
 31
0.0
 70
   160
  1
%%c<>
 71
     2
 42
-1.0
  3
SLDDIMSTYLE0
100
AcDbAlignedDimension
 13
51.4645199387
 23
107.5511621624
 33
0.0
 14
64.2645199387
 24
107.5511621624
 34
0.0
100
AcDbRotatedDimension
  0
DIMENSION
  5
1F2
330
1F
100
AcDbEntity
  8
0
  6
Continuous
 62
     7
370
    18
100
AcDbDimension
  2
_D_1
 10
32.6284688417
 20
73.8013477303
 30
0.0
 11
32.6284688417
 21
54.9462749048
 31
0.0
 70
   160
  1
L1=50～1000
 71
     2
 42
-1.0
  3
SLDDIMSTYLE1
100
AcDbAlignedDimension
 13
57.8645199387
 23
36.0912020793
 33
0.0
 14
54.3645199387
 24
73.8013477303
 34
0.0
 50
90.0
100
AcDbRotatedDimension
  0
DIMENSION
  5
1FD
330
1F
100
AcDbEntity
  8
0
  6
Continuous
 62
     7
370
    18
100
AcDbDimension
  2
_D_2
 10
32.6284688417
 20
73.8013477303
 30
0.0
 11
32.6284688417
 21
99.6762549463
 31
0.0
 70
   160
  1
50
 71
     2
 42
-1.0
  3
SLDDIMSTYLE1
100
AcDbAlignedDimension
 13
54.3645199387
 23
125.5511621624
 33
0.0
 14
54.3645199387
 24
73.8013477303
 34
0.0
 50
90.0
100
AcDbRotatedDimension
  0
DIMENSION
  5
207
330
1F
100
AcDbEntity
  8
0
  6
Continuous
 62
     7
370
    18
100
AcDbDimension
  2
_D_3
 10
47.83101164
 20
73.8013477303
 30
0.0
 11
47.83101164
 21
68.3278721439
 31
0.0
 70
   160
  1
<>
 71
     2
 42
-1.0
  3
SLDDIMSTYLE2
100
AcDbAlignedDimension
 13
54.3645199387
 23
75.8013477303
 33
0.0
 14
54.3645199387
 24
73.8013477303
 34
0.0
 50
90.0
100
AcDbRotatedDimension
  0
DIMENSION
  5
214
330
1F
100
AcDbEntity
  8
0
  6
Continuous
 62
     7
370
    18
100
AcDbDimension
  2
_D_4
 10
32.6284688417
 20
142.6511621624
 30
0.0
 11
32.6284688417
 21
134.1011621624
 31
0.0
 70
   160
  1
<>
 71
     2
 42
-1.0
  3
SLDDIMSTYLE3
100
AcDbAlignedDimension
 13
54.3645199387
 23
125.5511621624
 33
0.0
 14
67.8645199387
 24
142.6511621624
 34
0.0
 50
90.0
100
AcDbRotatedDimension
  0
DIMENSION
  5
21F
330
1F
100
AcDbEntity
  8
0
  6
Continuous
 62
     7
370
    18
100
AcDbDimension
  2
_D_5
 10
60.3645199387
 20
43.6639597686
 30
0.0
 11
47.83101164
 21
43.6639597686
 31
0.0
 70
   160
  1
%%c<>
 71
     2
 42
-1.0
  3
SLDDIMSTYLE2
100
AcDbAlignedDimension
 13
55.3645199387
 23
37.5345777522
 33
0.0
 14
60.3645199387
 24
37.5345777522
 34
0.0
100
AcDbRotatedDimension
  0
DIMENSION
  5
22A
330
1F
100
AcDbEntity
  8
0
  6
Continuous
 62
     7
370
    18
100
AcDbDimension
  2
_D_6
 10
61.3645199387
 20
68.3278721439
 30
0.0
 11
67.3853047525
 21
68.3278721439
 31
0.0
 70
   160
  1
%%c<>
 71
     2
 42
-1.0
  3
SLDDIMSTYLE1
100
AcDbAlignedDimension
 13
54.3645199387
 23
73.8013477303
 33
0.0
 14
61.3645199387
 24
73.8013477303
 34
0.0
100
AcDbRotatedDimension
  0
DIMENSION
  5
236
330
1F
100
AcDbEntity
  8
0
  6
Continuous
 62
     7
370
    18
100
AcDbDimension
  2
_D_7
 10
258.3145888208
 20
158.8937194558
 30
0.0
 11
225.3962296167
 21
158.8937194558
 31
0.0
 70
   160
  1
(80)
 71
     2
 42
-1.0
  3
SLDDIMSTYLE1
100
AcDbAlignedDimension
 13
192.4778704126
 23
145.1511621624
 33
0.0
 14
258.3145888208
 24
154.2783170939
 34
0.0
100
AcDbRotatedDimension
  0
DIMENSION
  5
242
330
1F
100
AcDbEntity
  8
0
  6
Continuous
 62
     7
370
    18
100
AcDbDimension
  2
_D_8
 10
44.3928176498
 20
123.5511621624
 30
0.0
 11
44.3928176498
 21
115.5511621624
 31
0.0
 70
   160
  1
(<>)
 71
     2
 42
-1.0
  3
SLDDIMSTYLE1
100
AcDbAlignedDimension
 13
50.8645199387
 23
107.5511621624
 33
0.0
 14
52.8645199387
 24
123.5511621624
 34
0.0
 50
90.0
100
AcDbRotatedDimension
  0
DIMENSION
  5
24E
330
1F
100
AcDbEntity
  8
0
  6
Continuous
 62
     7
370
    18
100
AcDbDimension
  2
_D_9
 10
64.8645199387
 20
96.9828893482
 30
0.0
 11
43.0231037634
 21
96.9828893482
 31
0.0
 70
   160
  1
%%c<>
 71
     2
 42
-1.0
  3
SLDDIMSTYLE1
100
AcDbAlignedDimension
 13
50.8645199387
 23
107.5511621624
 33
0.0
 14
64.8645199387
 24
107.5511621624
 34
0.0
100
AcDbRotatedDimension
  0
DIMENSION
  5
25A
330
1F
100
AcDbEntity
  8
0
  6
Continuous
 62
     7
370
    18
100
AcDbDimension
  2
_D_10
 10
82.8645199387
 20
172.2592876408
 30
0.0
 11
70.3645199387
 21
172.2592876408
 31
0.0
 70
   160
  1
<>
 71
     2
 42
-1.0
  3
SLDDIMSTYLE1
100
AcDbAlignedDimension
 13
57.8645199387
 23
132.6511621624
 33
0.0
 14
82.8645199387
 24
146.6511621624
 34
0.0
100
AcDbRotatedDimension
  0
DIMENSION
  5
264
330
1F
100
AcDbEntity
  8
0
  6
Continuous
 62
     7
370
    18
100
AcDbDimension
  2
_D_11
 10
102.8645199387
 20
172.2592876408
 30
0.0
 11
92.8645199387
 21
172.2592876408
 31
0.0
 70
   160
  1
<>
 71
     2
 42
-1.0
  3
SLDDIMSTYLE1
100
AcDbAlignedDimension
 13
82.8645199387
 23
146.6511621624
 33
0.0
 14
102.8645199387
 24
147.8511621624
 34
0.0
100
AcDbRotatedDimension
  0
DIMENSION
  5
26E
330
1F
100
AcDbEntity
  8
0
  6
Continuous
 62
     7
370
    18
100
AcDbDimension
  2
_D_12
 10
258.3145888208
 20
172.2592876408
 30
0.0
 11
180.5895543797
 21
172.2592876408
 31
0.0
 70
   160
  1
L=100～10000
 71
     2
 42
-1.0
  3
SLDDIMSTYLE1
100
AcDbAlignedDimension
 13
102.8645199387
 23
147.8511621624
 33
0.0
 14
258.3145888208
 24
154.2783170939
 34
0.0
100
AcDbRotatedDimension
  0
DIMENSION
  5
278
330
1F
100
AcDbEntity
  8
0
  6
Continuous
 62
     7
370
    18
100
AcDbDimension
  2
_D_13
 10
98.5068746399
 20
147.6511621624
 30
0.0
 11
98.5068746399
 21
153.8953682245
 31
0.0
 70
   160
  1
%%c<>
 71
     2
 42
-1.0
  3
SLDDIMSTYLE1
100
AcDbAlignedDimension
 13
103.1145199387
 23
137.6511621624
 33
0.0
 14
103.1145199387
 24
147.6511621624
 34
0.0
 50
90.0
100
AcDbRotatedDimension
  0
DIMENSION
  5
282
330
1F
100
AcDbEntity
  8
0
  6
Continuous
 62
     7
370
    18
100
AcDbDimension
  2
_D_14
 10
132.3587746651
 20
158.8937194558
 30
0.0
 11
117.6116473019
 21
158.8937194558
 31
0.0
 70
   160
  1
 K :180\PT,J:150
 71
     2
 42
-1.0
  3
SLDDIMSTYLE1
100
AcDbAlignedDimension
 13
102.8645199387
 23
147.8511621624
 33
0.0
 14
132.3587746651
 24
147.8511621624
 34
0.0
 50
0.0
100
AcDbRotatedDimension
  0
INSERT
  5
292
330
1F
100
AcDbEntity
  8
0
  6
Continuous
 62
     7
370
    18
100
AcDbBlockReference
  2
SW_NOTE_0
 10
72.3665207877
 20
30.4984804705
 30
0.0
  0
LEADER
  5
294
330
1F
100
AcDbEntity
  8
0
  6
Continuous
 62
     7
370
    18
100
AcDbLeader
  3
SLDDIMSTYLE4
 76
     2
 10
60.3645199387
 20
37.5345777522
 30
0.0
 10
72.3665207877
 20
30.4984804705
 30
0.0
  0
INSERT
  5
29A
330
1F
100
AcDbEntity
  8
0
  6
Continuous
 62
     7
370
    18
100
AcDbBlockReference
  2
SW_NOTE_0_1
 10
72.3665207877
 20
55.5531850657
 30
0.0
  0
LEADER
  5
29B
330
1F
100
AcDbEntity
  8
0
  6
Continuous
 62
     7
370
    18
100
AcDbLeader
  3
SLDDIMSTYLE4
 76
     2
 10
60.2287432586
 20
63.7408459179
 30
0.0
 10
72.3665207877
 20
55.5531850657
 30
0.0
  0
INSERT
  5
2A1
330
1F
100
AcDbEntity
  8
0
  6
Continuous
 62
     7
370
    18
100
AcDbBlockReference
  2
SW_NOTE_0_2
 10
72.3665207877
 20
84.8748480854
 30
0.0
  0
LEADER
  5
2A2
330
1F
100
AcDbEntity
  8
0
  6
Continuous
 62
     7
370
    18
100
AcDbLeader
  3
SLDDIMSTYLE4
 76
     2
 10
59.8925404256
 20
92.402745686
 30
0.0
 10
72.3665207877
 20
84.8748480854
 30
0.0
  0
INSERT
  5
2A8
330
1F
100
AcDbEntity
  8
0
  6
Continuous
 62
     7
370
    18
100
AcDbBlockReference
  2
SW_NOTE_0_3
 10
72.3665207877
 20
107.8507780635
 30
0.0
  0
LEADER
  5
2A9
330
1F
100
AcDbEntity
  8
0
  6
Continuous
 62
     7
370
    18
100
AcDbLeader
  3
SLDDIMSTYLE4
 76
     2
 10
64.8645199387
 20
113.7779494945
 30
0.0
 10
72.3665207877
 20
107.8507780635
 30
0.0
  0
INSERT
  5
2AF
330
1F
100
AcDbEntity
  8
0
  6
Continuous
 62
     7
370
    18
100
AcDbBlockReference
  2
SW_NOTE_0_4
 10
98.0776805252
 20
122.5116095734
 30
0.0
  0
LEADER
  5
2B0
330
1F
100
AcDbEntity
  8
0
  6
Continuous
 62
     7
370
    18
100
AcDbLeader
  3
SLDDIMSTYLE4
 76
     2
 10
93.0710146843
 20
137.6511621624
 30
0.0
 10
98.0776805252
 20
122.5116095734
 30
0.0
  0
INSERT
  5
2B6
330
1F
100
AcDbEntity
  8
0
  6
Continuous
 62
     7
370
    18
100
AcDbBlockReference
  2
SW_NOTE_0_5
 10
164.9266958425
 20
122.5116095734
 30
0.0
  0
LEADER
  5
2B7
330
1F
100
AcDbEntity
  8
0
  6
Continuous
 62
     7
370
    18
100
AcDbLeader
  3
SLDDIMSTYLE4
 76
     2
 10
160.1322030885
 20
140.2511621624
 30
0.0
 10
164.9266958425
 20
122.5116095734
 30
0.0
  0
INSERT
  5
2BD
330
1F
100
AcDbEntity
  8
0
  6
Continuous
 62
     7
370
    18
100
AcDbBlockReference
  2
SW_NOTE_0_6
 10
195.0142231947
 20
122.5116095734
 30
0.0
  0
LEADER
  5
2BE
330
1F
100
AcDbEntity
  8
0
  6
Continuous
 62
     7
370
    18
100
AcDbLeader
  3
SLDDIMSTYLE4
 76
     2
 10
190.4131197019
 20
140.1511621624
 30
0.0
 10
195.0142231947
 20
122.5116095734
 30
0.0
  0
INSERT
  5
2C4
330
1F
100
AcDbEntity
  8
0
  6
Continuous
 62
     7
370
    18
100
AcDbBlockReference
  2
SW_NOTE_0_7
 10
253.4675855813
 20
119.7763798141
 30
0.0
  0
LEADER
  5
2C5
330
1F
100
AcDbEntity
  8
0
  6
Continuous
 62
     7
370
    18
100
AcDbLeader
  3
SLDDIMSTYLE4
 76
     2
 10
256.1561785028
 20
132.2241204273
 30
0.0
 10
253.4675855813
 20
119.7763798141
 30
0.0
  0
MTEXT
  5
2C6
330
1F
100
AcDbEntity
  8
0
  6
Continuous
 62
     7
370
    18
100
AcDbMText
 10
74.1173055845
 20
29.5833258291
 30
0.0
 40
2.6458333333
 41
0.0
 71
     1
 72
     1
  1
(銀ろう付け)
  7
SLDTEXTSTYLE1
 73
     1
 44
1.0
  0
MTEXT
  5
2C7
330
1F
100
AcDbEntity
  8
0
  6
Continuous
 62
     7
370
    18
100
AcDbMText
 10
72.2480736564
 20
54.6406795712
 30
0.0
 40
2.6458333333
 41
0.0
 71
     1
 72
     1
  1
(SUS304)
  7
SLDTEXTSTYLE0
 73
     1
 44
1.0
  0
MTEXT
  5
2C8
330
1F
100
AcDbEntity
  8
0
  6
Continuous
 62
     7
370
    18
100
AcDbMText
 10
71.6625613983
 20
84.0520583675
 30
0.0
 40
2.6458333333
 41
0.0
 71
     1
 72
     1
  1
(SUS304)
  7
SLDTEXTSTYLE0
 73
     1
 44
1.0
  0
MTEXT
  5
2C9
330
1F
100
AcDbEntity
  8
0
  6
Continuous
 62
     7
370
    18
100
AcDbMText
 10
76.5304047505
 20
107.1364140424
 30
0.0
 40
2.6458333333
 41
0.0
 71
     1
 72
     1
  1
(SUS304)
  7
SLDTEXTSTYLE0
 73
     1
 44
1.0
  0
MTEXT
  5
2CA
330
1F
100
AcDbEntity
  8
0
  6
Continuous
 62
     7
370
    18
100
AcDbMText
 10
125.0386217116
 20
121.6760197786
 30
0.0
 40
2.6458333333
 41
0.0
 71
     1
 72
     1
  1
(SUS304)
  7
SLDTEXTSTYLE0
 73
     1
 44
1.0
  0
MTEXT
  5
2CB
330
1F
100
AcDbEntity
  8
0
  6
Continuous
 62
     7
370
    18
100
AcDbMText
 10
164.4267666083
 20
121.6760197786
 30
0.0
 40
2.6458333333
 41
0.0
 71
     1
 72
     1
  1
(補償導線)
  7
SLDTEXTSTYLE1
 73
     1
 44
1.0
  0
MTEXT
  5
2CC
330
1F
100
AcDbEntity
  8
0
  6
Continuous
 62
     7
370
    18
100
AcDbMText
 10
266.3657945502
 20
151.1742771361
 30
0.0
 40
2.6458333333
 41
0.0
 71
     1
 72
     1
  1
赤（+）
  7
SLDTEXTSTYLE1
 73
     1
 44
1.0
  0
MTEXT
  5
2CD
330
1F
100
AcDbEntity
  8
0
  6
Continuous
 62
     7
370
    18
100
AcDbMText
 10
266.3657945502
 20
136.6748721379
 30
0.0
 40
2.6458333333
 41
0.0
 71
     1
 72
     1
  1
黒（-）
  7
SLDTEXTSTYLE1
 73
     1
 44
1.0
  0
INSERT
  5
2D3
330
1F
100
AcDbEntity
  8
0
  6
Continuous
 62
     7
370
    18
100
AcDbBlockReference
  2
SW_NOTE_0_8
 10
48.8601044342
 20
149.4262704049
 30
0.0
  0
LEADER
  5
2D4
330
1F
100
AcDbEntity
  8
0
  6
Continuous
 62
     7
370
    18
100
AcDbLeader
  3
SLDDIMSTYLE4
 76
     2
 10
60.8319853557
 20
139.7605543543
 30
0.0
 10
48.8601044342
 20
149.4262704049
 30
0.0
  0
INSERT
  5
2DA
330
1F
100
AcDbEntity
  8
0
  6
Continuous
 62
     7
370
    18
100
AcDbBlockReference
  2
SW_NOTE_0_9
 10
125.7582056893
 20
122.5116095734
 30
0.0
  0
LEADER
  5
2DB
330
1F
100
AcDbEntity
  8
0
  6
Continuous
 62
     7
370
    18
100
AcDbLeader
  3
SLDDIMSTYLE4
 76
     2
 10
121.558158662
 20
137.2378342916
 30
0.0
 10
125.7582056893
 20
122.5116095734
 30
0.0
  0
INSERT
  5
2E7
330
1F
100
AcDbEntity
  8
0
  6
Continuous
 62
     7
370
    18
100
AcDbBlockReference
  2
SW_CENTERMARKSYMBOL_0
 10
258.3145824855
 20
150.1782046108
 30
0.0
  0
INSERT
  5
2F3
330
1F
100
AcDbEntity
  8
0
  6
Continuous
 62
     7
370
    18
100
AcDbBlockReference
  2
SW_CENTERMARKSYMBOL_1
 10
258.3145824855
 20
135.1241202502
 30
0.0
  0
ARC
  5
2F4
330
1F
100
AcDbEntity
  8
0
  6
HIDDEN
 62
     7
370
    18
100
AcDbCircle
 10
60.7020199387
 20
59.1076382951
 30
0.0
 40
7.377500000000023
100
AcDbArc
 50
247.380135052
 51
292.619864948
  0
ARC
  5
2F5
330
1F
100
AcDbEntity
  8
0
  6
HIDDEN
 62
     7
370
    18
100
AcDbCircle
 10
55.0270199387
 20
45.4876382951
 30
0.0
 40
7.377500000000023
100
AcDbArc
 50
67.380135052
 51
112.619864948
  0
ARC
  5
2F6
330
1F
100
AcDbEntity
  8
0
  6
HIDDEN
 62
     7
370
    18
100
AcDbCircle
 10
60.7020199387
 20
62.1076382951
 30
0.0
 40
7.377500000000023
100
AcDbArc
 50
247.380135052
 51
292.619864948
  0
ARC
  5
2F7
330
1F
100
AcDbEntity
  8
0
  6
HIDDEN
 62
     7
370
    18
100
AcDbCircle
 10
55.0270199387
 20
48.4876382951
 30
0.0
 40
7.377500000000023
100
AcDbArc
 50
67.380135052
 51
112.619864948
  0
ARC
  5
2F8
330
1F
100
AcDbEntity
  8
0
  6
HIDDEN
 62
     7
370
    18
100
AcDbCircle
 10
125.5028713003
 20
146.5835719824
 30
0.0
 40
10.24185270191578
100
AcDbArc
 50
157.380135052
 51
202.619864948
  0
ARC
  5
2F9
330
1F
100
AcDbEntity
  8
0
  6
HIDDEN
 62
     7
370
    18
100
AcDbCircle
 10
106.5948355429
 20
138.7052237502
 30
0.0
 40
10.24185270191576
100
AcDbArc
 50
337.380135052
 51
22.619864948
  0
ARC
  5
2FA
330
1F
100
AcDbEntity
  8
0
  6
HIDDEN
 62
     7
370
    18
100
AcDbCircle
 10
128.3234650704
 20
146.2795798538
 30
0.0
 40
10.04749595285368
100
AcDbArc
 50
157.380135052
 51
202.619864948
  0
ARC
  5
2FB
330
1F
100
AcDbEntity
  8
0
  6
HIDDEN
 62
     7
370
    18
100
AcDbCircle
 10
109.7742417728
 20
138.5507368131
 30
0.0
 40
10.04749595285369
100
AcDbArc
 50
337.380135052
 51
22.619864948
  0
ARC
  5
2FC
330
1F
100
AcDbEntity
  8
0
  6
HIDDEN
 62
     7
370
    18
100
AcDbCircle
 10
61.2245465556
 20
93.1528909817
 30
0.0
 40
7.83035640135244
100
AcDbArc
 50
247.380135052
 51
292.619864948
  0
ARC
  5
2FD
330
1F
100
AcDbEntity
  8
0
  6
HIDDEN
 62
     7
370
    18
100
AcDbCircle
 10
55.2011954777
 20
78.6968483946
 30
0.0
 40
7.830356401352454
100
AcDbArc
 50
67.380135052
 51
112.619864948
  0
ARC
  5
2FE
330
1F
100
AcDbEntity
  8
0
  6
HIDDEN
 62
     7
370
    18
100
AcDbCircle
 10
60.5294652182
 20
96.1490010173
 30
0.0
 40
7.826142273178188
100
AcDbArc
 50
247.380135052
 51
292.619864948
  0
ARC
  5
2FF
330
1F
100
AcDbEntity
  8
0
  6
HIDDEN
 62
     7
370
    18
100
AcDbCircle
 10
54.5093557773
 20
81.7007383591
 30
0.0
 40
7.826142273178201
100
AcDbArc
 50
67.380135052
 51
112.619864948
  0
ARC
  5
300
330
1F
100
AcDbEntity
  8
0
  6
HIDDEN
 62
     7
370
    18
100
AcDbCircle
 10
156.871388542
 20
145.4386621624
 30
0.0
 40
7.247500000000033
100
AcDbArc
 50
157.380135052
 51
202.619864948
  0
ARC
  5
301
330
1F
100
AcDbEntity
  8
0
  6
HIDDEN
 62
     7
370
    18
100
AcDbCircle
 10
143.491388542
 20
139.8636621624
 30
0.0
 40
7.247499999999996
100
AcDbArc
 50
337.380135052
 51
22.619864948
  0
ARC
  5
302
330
1F
100
AcDbEntity
  8
0
  6
HIDDEN
 62
     7
370
    18
100
AcDbCircle
 10
159.871388542
 20
145.4386621624
 30
0.0
 40
7.247499999999981
100
AcDbArc
 50
157.380135052
 51
202.619864948
  0
ARC
  5
303
330
1F
100
AcDbEntity
  8
0
  6
HIDDEN
 62
     7
370
    18
100
AcDbCircle
 10
146.491388542
 20
139.8636621624
 30
0.0
 40
7.247500000000023
100
AcDbArc
 50
337.380135052
 51
22.619864948
  0
ARC
  5
304
330
1F
100
AcDbEntity
  8
0
  6
HIDDEN
 62
     7
370
    18
100
AcDbCircle
 10
237.5502689353
 20
146.5529517439
 30
0.0
 40
10.1446529119119
100
AcDbArc
 50
157.380135052
 51
202.619864948
  0
ARC
  5
305
330
1F
100
AcDbEntity
  8
0
  6
HIDDEN
 62
     7
370
    18
100
AcDbCircle
 10
218.821678944
 20
138.7493725809
 30
0.0
 40
10.14465291191185
100
AcDbArc
 50
337.380135052
 51
22.619864948
  0
ARC
  5
306
330
1F
100
AcDbEntity
  8
0
  6
HIDDEN
 62
     7
370
    18
100
AcDbCircle
 10
242.4803300963
 20
147.3571438943
 30
0.0
 40
12.2355525030895
100
AcDbArc
 50
157.380135052
 51
202.619864948
  0
ARC
  5
307
330
1F
100
AcDbEntity
  8
0
  6
HIDDEN
 62
     7
370
    18
100
AcDbCircle
 10
219.8916177829
 20
137.9451804304
 30
0.0
 40
12.23555250308952
100
AcDbArc
 50
337.380135052
 51
22.619864948
  0
LINE
  5
308
330
1F
100
AcDbEntity
  8
0
  6
CENTERX2
 62
     7
370
    18
100
AcDbLine
 10
57.8645266072
 20
33.5382257352
 30
0.0
 11
57.8645266072
 21
52.2976365636
 31
0.0
  0
LINE
  5
309
330
1F
100
AcDbEntity
  8
0
  6
CENTERX2
 62
     7
370
    18
100
AcDbLine
 10
57.8645266072
 20
55.2976377344
 30
0.0
 11
57.8645266072
 21
86.0603518936
 31
0.0
  0
LINE
  5
30A
330
1F
100
AcDbEntity
  8
0
  6
CENTERX2
 62
     7
370
    18
100
AcDbLine
 10
57.8645266072
 20
88.7905657583
 30
0.0
 11
57.8645266072
 21
132.6511607914
 31
0.0
  0
LINE
  5
30B
330
1F
100
AcDbEntity
  8
0
  6
CENTERX2
 62
     7
370
    18
100
AcDbLine
 10
67.8645170705
 20
142.6511624305
 30
0.0
 11
116.0460359828
 21
142.6511624305
 31
0.0
  0
LINE
  5
30C
330
1F
100
AcDbEntity
  8
0
  6
CENTERX2
 62
     7
370
    18
100
AcDbLine
 10
118.9540054757
 20
142.6511624305
 30
0.0
 11
150.1813885398
 21
142.6511624305
 31
0.0
  0
LINE
  5
30D
330
1F
100
AcDbEntity
  8
0
  6
CENTERX2
 62
     7
370
    18
100
AcDbLine
 10
153.1813873358
 20
142.6511624305
 30
0.0
 11
228.1859686978
 21
142.6511624305
 31
0.0
  0
LINE
  5
30E
330
1F
100
AcDbEntity
  8
0
  6
CENTERX2
 62
     7
370
    18
100
AcDbLine
 10
231.1859754508
 20
142.6511624305
 30
0.0
 11
264.019998688
 21
142.6511624305
 31
0.0
  0
ARC
  5
30F
330
1F
100
AcDbEntity
  8
0
  6
CENTERX2
 62
     7
370
    18
100
AcDbCircle
 10
67.8645133944
 20
132.6511756434
 30
0.0
 40
9.999986787134839
100
AcDbArc
 50
90.0002048896
 51
180.0000850961
  0
ENDSEC
  0
SECTION
  2
OBJECTS
  0
DICTIONARY
  5
C
330
0
100
AcDbDictionary
281
     1
  3
ACAD_GROUP
350
D
  3
ACAD_LAYOUT
350
1A
  3
ACAD_MLINESTYLE
350
17
  3
ACAD_PLOTSETTINGS
350
19
  3
ACAD_PLOTSTYLENAME
350
E
  3
ACAD_SCALELIST
350
47
  3
DWGPROPS
350
310
  0
DICTIONARY
  5
D
102
{ACAD_REACTORS
330
C
102
}
330
C
100
AcDbDictionary
281
     1
  0
DICTIONARY
  5
1A
102
{ACAD_REACTORS
330
C
102
}
330
C
100
AcDbDictionary
281
     1
  3
Layout1
350
1E
  3
Layout2
350
26
  3
Model
350
22
  0
DICTIONARY
  5
17
102
{ACAD_REACTORS
330
C
102
}
330
C
100
AcDbDictionary
281
     1
  3
Standard
350
18
  0
DICTIONARY
  5
19
102
{ACAD_REACTORS
330
C
102
}
330
C
100
AcDbDictionary
281
     1
  0
ACDBDICTIONARYWDFLT
  5
E
102
{ACAD_REACTORS
330
C
102
}
330
C
100
AcDbDictionary
281
     1
  3
Normal
350
F
100
AcDbDictionaryWithDefault
340
F
  0
DICTIONARY
  5
47
102
{ACAD_REACTORS
330
C
102
}
330
C
100
AcDbDictionary
281
     1
  3
A0
350
48
  3
A1
350
49
  3
A2
350
4A
  3
A3
350
4B
  3
A4
350
4C
  3
A5
350
4D
  3
A6
350
4E
  3
A7
350
4F
  3
A8
350
50
  3
A9
350
51
  3
B0
350
52
  3
B1
350
53
  3
B2
350
54
  3
B3
350
55
  3
B4
350
56
  3
B5
350
57
  3
B6
350
58
  3
B7
350
59
  3
B8
350
5A
  3
B9
350
5B
  3
C0
350
5C
  3
C1
350
5D
  3
C2
350
5E
  3
C3
350
5F
  3
C4
350
60
  3
C5
350
61
  3
C6
350
62
  3
C7
350
63
  3
C8
350
64
  3
C9
350
65
  3
D0
350
66
  3
D1
350
67
  3
D2
350
68
  0
XRECORD
  5
310
102
{ACAD_REACTORS
330
C
102
}
330
C
100
AcDbXrecord
280
     1
  1
DWGPROPS COOKIE
  2

  3

  4

  6

  7

  8
p870382
  9

300
=
301
=
302
=
303
=
304
=
305
=
306
=
307
=
308
=
309
=
 40
0.0
 41
2460791.298333669
 42
2460791.298337836
  1

 90
        0
  0
LAYOUT
  5
1E
102
{ACAD_REACTORS
330
1A
102
}
330
1A
100
AcDbPlotSettings
  1

  2
none_device
  4

  6

 40
0.0
 41
0.0
 42
0.0
 43
0.0
 44
0.0
 45
0.0
 46
0.0
 47
0.0
 48
0.0
 49
0.0
140
0.0
141
0.0
142
1.0
143
1.0
 70
   688
 72
     1
 73
     0
 74
     5
  7

 75
    16
147
1.0
148
0.0
149
0.0
100
AcDbLayout
  1
Layout1
 70
     1
 71
     1
 10
0.0
 20
0.0
 11
420.0
 21
297.0
 12
0.0
 22
0.0
 32
0.0
 14
1.0000000000E+20
 24
1.0000000000E+20
 34
1.0000000000E+20
 15
-1.0000000000E+20
 25
-1.0000000000E+20
 35
-1.0000000000E+20
146
0.0
 13
0.0
 23
0.0
 33
0.0
 16
1.0
 26
0.0
 36
0.0
 17
0.0
 27
1.0
 37
0.0
 76
     0
330
1B
  0
LAYOUT
  5
26
102
{ACAD_REACTORS
330
1A
102
}
330
1A
100
AcDbPlotSettings
  1

  2
none_device
  4

  6

 40
0.0
 41
0.0
 42
0.0
 43
0.0
 44
0.0
 45
0.0
 46
0.0
 47
0.0
 48
0.0
 49
0.0
140
0.0
141
0.0
142
1.0
143
1.0
 70
   688
 72
     1
 73
     0
 74
     5
  7

 75
    16
147
1.0
148
0.0
149
0.0
100
AcDbLayout
  1
Layout2
 70
     1
 71
     2
 10
0.0
 20
0.0
 11
0.0
 21
0.0
 12
0.0
 22
0.0
 32
0.0
 14
0.0
 24
0.0
 34
0.0
 15
0.0
 25
0.0
 35
0.0
146
0.0
 13
0.0
 23
0.0
 33
0.0
 16
1.0
 26
0.0
 36
0.0
 17
0.0
 27
1.0
 37
0.0
 76
     0
330
23
  0
LAYOUT
  5
22
102
{ACAD_REACTORS
330
1A
102
}
330
1A
100
AcDbPlotSettings
  1

  2
none_device
  4
Letter_(8.50_x_11.00_Inches)
  6

 40
6.35
 41
6.35
 42
6.35000508
 43
6.35000508
 44
215.9
 45
279.4
 46
0.0
 47
0.0
 48
0.0
 49
0.0
140
0.0
141
0.0
142
1.0
143
1.0
 70
  1712
 72
     1
 73
     0
 74
     0
  7

 75
     0
147
1.0
148
0.0
149
0.0
100
AcDbLayout
  1
Model
 70
     1
 71
     0
 10
0.0
 20
0.0
 11
297.0
 21
210.0
 12
0.0
 22
0.0
 32
0.0
 14
0.0
 24
0.0
 34
0.0
 15
297.0
 25
210.0
 35
0.0
146
0.0
 13
0.0
 23
0.0
 33
0.0
 16
1.0
 26
0.0
 36
0.0
 17
0.0
 27
1.0
 37
0.0
 76
     0
330
1F
331
29
  0
MLINESTYLE
  5
18
102
{ACAD_REACTORS
330
17
102
}
330
17
100
AcDbMlineStyle
  2
Standard
 70
     0
  3

 62
   256
 51
90.0
 52
90.0
 71
     2
 49
0.5
 62
   256
  6
BYLAYER
 49
-0.5
 62
   256
  6
BYLAYER
  0
ACDBPLACEHOLDER
  5
F
102
{ACAD_REACTORS
330
E
102
}
330
E
  0
SCALE
  5
48
102
{ACAD_REACTORS
330
47
102
}
330
47
100
AcDbScale
 70
     0
300
1:1
140
1.0
141
1.0
290
     1
  0
SCALE
  5
49
102
{ACAD_REACTORS
330
47
102
}
330
47
100
AcDbScale
 70
     0
300
1:2
140
1.0
141
2.0
290
     0
  0
SCALE
  5
4A
102
{ACAD_REACTORS
330
47
102
}
330
47
100
AcDbScale
 70
     0
300
1:4
140
1.0
141
4.0
290
     0
  0
SCALE
  5
4B
102
{ACAD_REACTORS
330
47
102
}
330
47
100
AcDbScale
 70
     0
300
1:5
140
1.0
141
5.0
290
     0
  0
SCALE
  5
4C
102
{ACAD_REACTORS
330
47
102
}
330
47
100
AcDbScale
 70
     0
300
1:8
140
1.0
141
8.0
290
     0
  0
SCALE
  5
4D
102
{ACAD_REACTORS
330
47
102
}
330
47
100
AcDbScale
 70
     0
300
1:10
140
1.0
141
10.0
290
     0
  0
SCALE
  5
4E
102
{ACAD_REACTORS
330
47
102
}
330
47
100
AcDbScale
 70
     0
300
1:16
140
1.0
141
16.0
290
     0
  0
SCALE
  5
4F
102
{ACAD_REACTORS
330
47
102
}
330
47
100
AcDbScale
 70
     0
300
1:20
140
1.0
141
20.0
290
     0
  0
SCALE
  5
50
102
{ACAD_REACTORS
330
47
102
}
330
47
100
AcDbScale
 70
     0
300
1:30
140
1.0
141
30.0
290
     0
  0
SCALE
  5
51
102
{ACAD_REACTORS
330
47
102
}
330
47
100
AcDbScale
 70
     0
300
1:40
140
1.0
141
40.0
290
     0
  0
SCALE
  5
52
102
{ACAD_REACTORS
330
47
102
}
330
47
100
AcDbScale
 70
     0
300
1:50
140
1.0
141
50.0
290
     0
  0
SCALE
  5
53
102
{ACAD_REACTORS
330
47
102
}
330
47
100
AcDbScale
 70
     0
300
1:100
140
1.0
141
100.0
290
     0
  0
SCALE
  5
54
102
{ACAD_REACTORS
330
47
102
}
330
47
100
AcDbScale
 70
     0
300
2:1
140
2.0
141
1.0
290
     0
  0
SCALE
  5
55
102
{ACAD_REACTORS
330
47
102
}
330
47
100
AcDbScale
 70
     0
300
4:1
140
4.0
141
1.0
290
     0
  0
SCALE
  5
56
102
{ACAD_REACTORS
330
47
102
}
330
47
100
AcDbScale
 70
     0
300
8:1
140
8.0
141
1.0
290
     0
  0
SCALE
  5
57
102
{ACAD_REACTORS
330
47
102
}
330
47
100
AcDbScale
 70
     0
300
10:1
140
10.0
141
1.0
290
     0
  0
SCALE
  5
58
102
{ACAD_REACTORS
330
47
102
}
330
47
100
AcDbScale
 70
     0
300
100:1
140
100.0
141
1.0
290
     0
  0
SCALE
  5
59
102
{ACAD_REACTORS
330
47
102
}
330
47
100
AcDbScale
 70
     0
300
1/128" = 1'-0"
140
0.0078125
141
12.0
290
     0
  0
SCALE
  5
5A
102
{ACAD_REACTORS
330
47
102
}
330
47
100
AcDbScale
 70
     0
300
1/64" = 1'-0"
140
0.015625
141
12.0
290
     0
  0
SCALE
  5
5B
102
{ACAD_REACTORS
330
47
102
}
330
47
100
AcDbScale
 70
     0
300
1/32" = 1'-0"
140
0.03125
141
12.0
290
     0
  0
SCALE
  5
5C
102
{ACAD_REACTORS
330
47
102
}
330
47
100
AcDbScale
 70
     0
300
1/16" = 1'-0"
140
0.0625
141
12.0
290
     0
  0
SCALE
  5
5D
102
{ACAD_REACTORS
330
47
102
}
330
47
100
AcDbScale
 70
     0
300
3/32" = 1'-0"
140
0.09375
141
12.0
290
     0
  0
SCALE
  5
5E
102
{ACAD_REACTORS
330
47
102
}
330
47
100
AcDbScale
 70
     0
300
1/8" = 1'-0"
140
0.125
141
12.0
290
     0
  0
SCALE
  5
5F
102
{ACAD_REACTORS
330
47
102
}
330
47
100
AcDbScale
 70
     0
300
3/16" = 1'-0"
140
0.1875
141
12.0
290
     0
  0
SCALE
  5
60
102
{ACAD_REACTORS
330
47
102
}
330
47
100
AcDbScale
 70
     0
300
1/4" = 1'-0"
140
0.25
141
12.0
290
     0
  0
SCALE
  5
61
102
{ACAD_REACTORS
330
47
102
}
330
47
100
AcDbScale
 70
     0
300
3/8" = 1'-0"
140
0.375
141
12.0
290
     0
  0
SCALE
  5
62
102
{ACAD_REACTORS
330
47
102
}
330
47
100
AcDbScale
 70
     0
300
1/2" = 1'-0"
140
0.5
141
12.0
290
     0
  0
SCALE
  5
63
102
{ACAD_REACTORS
330
47
102
}
330
47
100
AcDbScale
 70
     0
300
3/4" = 1'-0"
140
0.75
141
12.0
290
     0
  0
SCALE
  5
64
102
{ACAD_REACTORS
330
47
102
}
330
47
100
AcDbScale
 70
     0
300
1" = 1'-0"
140
1.0
141
12.0
290
     0
  0
SCALE
  5
65
102
{ACAD_REACTORS
330
47
102
}
330
47
100
AcDbScale
 70
     0
300
1-1/2" = 1'-0"
140
1.5
141
12.0
290
     0
  0
SCALE
  5
66
102
{ACAD_REACTORS
330
47
102
}
330
47
100
AcDbScale
 70
     0
300
3" = 1'-0"
140
3.0
141
12.0
290
     0
  0
SCALE
  5
67
102
{ACAD_REACTORS
330
47
102
}
330
47
100
AcDbScale
 70
     0
300
6" = 1'-0"
140
6.0
141
12.0
290
     0
  0
SCALE
  5
68
102
{ACAD_REACTORS
330
47
102
}
330
47
100
AcDbScale
 70
     0
300
1'-0" = 1'-0"
140
12.0
141
12.0
290
     0
  0
ENDSEC
  0
EOF
