  0
SECTION
  2
HEADER
  9
$ACADVER
  1
AC1015
  9
$ACADMAINTVER
 70
     6
  9
$DWGCODEPAGE
  3
DOS932
  9
$INSBASE
 10
0.0
 20
0.0
 30
0.0
  9
$EXTMIN
 10
0.0
 20
0.0
 30
0.0
  9
$EXTMAX
 10
297.0
 20
210.0
 30
0.0
  9
$LIMMIN
 10
0.0
 20
0.0
  9
$LIMMAX
 10
297.0
 20
210.0
  9
$ORTHOMODE
 70
     0
  9
$REGENMODE
 70
     1
  9
$FILLMODE
 70
     1
  9
$QTEXTMODE
 70
     0
  9
$MIRRTEXT
 70
     1
  9
$LTSCALE
 40
1.0
  9
$ATTMODE
 70
     1
  9
$TEXTSIZE
 40
3.5277777778
  9
$TRACEWID
 40
1.0
  9
$TEXTSTYLE
  7
STANDARD
  9
$CLAYER
  8
0
  9
$CELTYPE
  6
ByLayer
  9
$CECOLOR
 62
   256
  9
$CELTSCALE
 40
1.0
  9
$DISPSILH
 70
     0
  9
$DIMSCALE
 40
1.0
  9
$DIMASZ
 40
3.0
  9
$DIMEXO
 40
1.0
  9
$DIMDLI
 40
3.75
  9
$DIMRND
 40
0.0
  9
$DIMDLE
 40
0.0
  9
$DIMEXE
 40
1.0
  9
$DIMTP
 40
0.0
  9
$DIMTM
 40
0.0
  9
$DIMTXT
 40
3.5277777778
  9
$DIMCEN
 40
2.5
  9
$DIMTSZ
 40
0.0
  9
$DIMTOL
 70
     0
  9
$DIMLIM
 70
     0
  9
$DIMTIH
 70
     1
  9
$DIMTOH
 70
     1
  9
$DIMSE1
 70
     0
  9
$DIMSE2
 70
     0
  9
$DIMTAD
 70
     1
  9
$DIMZIN
 70
     0
  9
$DIMBLK
  1

  9
$DIMASO
 70
     1
  9
$DIMSHO
 70
     1
  9
$DIMPOST
  1

  9
$DIMAPOST
  1

  9
$DIMALT
 70
     0
  9
$DIMALTD
 70
     3
  9
$DIMALTF
 40
0.0393700787
  9
$DIMLFAC
 40
5.0
  9
$DIMTOFL
 70
     1
  9
$DIMTVP
 40
0.0
  9
$DIMTIX
 70
     0
  9
$DIMSOXD
 70
     0
  9
$DIMSAH
 70
     0
  9
$DIMBLK1
  1

  9
$DIMBLK2
  1

  9
$DIMSTYLE
  2
ISO-25
  9
$DIMCLRD
 70
     0
  9
$DIMCLRE
 70
     0
  9
$DIMCLRT
 70
     0
  9
$DIMTFAC
 40
1.0
  9
$DIMGAP
 40
1.524
  9
$DIMJUST
 70
     0
  9
$DIMSD1
 70
     0
  9
$DIMSD2
 70
     0
  9
$DIMTOLJ
 70
     0
  9
$DIMTZIN
 70
     0
  9
$DIMALTZ
 70
     0
  9
$DIMALTTZ
 70
     0
  9
$DIMUPT
 70
     0
  9
$DIMDEC
 70
     2
  9
$DIMTDEC
 70
     2
  9
$DIMALTU
 70
     2
  9
$DIMALTTD
 70
     3
  9
$DIMTXSTY
  7
STANDARD
  9
$DIMAUNIT
 70
     0
  9
$DIMADEC
 70
     2
  9
$DIMALTRND
 40
0.0
  9
$DIMAZIN
 70
     0
  9
$DIMDSEP
 70
    44
  9
$DIMATFIT
 70
     3
  9
$DIMFRAC
 70
     0
  9
$DIMLDRBLK
  1

  9
$DIMLUNIT
 70
     2
  9
$DIMLWD
 70
    -2
  9
$DIMLWE
 70
    -2
  9
$DIMTMOVE
 70
     0
  9
$LUNITS
 70
     2
  9
$LUPREC
 70
     2
  9
$SKETCHINC
 40
1.0
  9
$FILLETRAD
 40
10.0
  9
$AUNITS
 70
     0
  9
$AUPREC
 70
     2
  9
$MENU
  1
.
  9
$ELEVATION
 40
0.0
  9
$PELEVATION
 40
0.0
  9
$THICKNESS
 40
0.0
  9
$LIMCHECK
 70
     0
  9
$CHAMFERA
 40
0.0
  9
$CHAMFERB
 40
0.0
  9
$CHAMFERC
 40
0.0
  9
$CHAMFERD
 40
0.0
  9
$SKPOLY
 70
     0
  9
$TDCREATE
 40
2460791.577979468
  9
$TDUCREATE
 40
2460791.202979468
  9
$TDUPDATE
 40
2460791.577983264
  9
$TDUUPDATE
 40
2460791.202983264
  9
$TDINDWG
 40
0.0000000116
  9
$TDUSRTIMER
 40
0.0000000116
  9
$USRTIMER
 70
     1
  9
$ANGBASE
 50
0.0
  9
$ANGDIR
 70
     0
  9
$PDMODE
 70
     0
  9
$PDSIZE
 40
-1.0
  9
$PLINEWID
 40
0.0
  9
$SPLFRAME
 70
     0
  9
$SPLINETYPE
 70
     6
  9
$SPLINESEGS
 70
     8
  9
$HANDSEED
  5
2AB
  9
$SURFTAB1
 70
     6
  9
$SURFTAB2
 70
     6
  9
$SURFTYPE
 70
     6
  9
$SURFU
 70
     6
  9
$SURFV
 70
     6
  9
$UCSBASE
  2

  9
$UCSNAME
  2

  9
$UCSORG
 10
0.0
 20
0.0
 30
0.0
  9
$UCSXDIR
 10
1.0
 20
0.0
 30
0.0
  9
$UCSYDIR
 10
0.0
 20
1.0
 30
0.0
  9
$UCSORTHOREF
  2

  9
$UCSORTHOVIEW
 70
     0
  9
$UCSORGTOP
 10
0.0
 20
0.0
 30
0.0
  9
$UCSORGBOTTOM
 10
0.0
 20
0.0
 30
0.0
  9
$UCSORGLEFT
 10
0.0
 20
0.0
 30
0.0
  9
$UCSORGRIGHT
 10
0.0
 20
0.0
 30
0.0
  9
$UCSORGFRONT
 10
0.0
 20
0.0
 30
0.0
  9
$UCSORGBACK
 10
0.0
 20
0.0
 30
0.0
  9
$PUCSBASE
  2

  9
$PUCSNAME
  2

  9
$PUCSORG
 10
0.0
 20
0.0
 30
0.0
  9
$PUCSXDIR
 10
1.0
 20
0.0
 30
0.0
  9
$PUCSYDIR
 10
0.0
 20
1.0
 30
0.0
  9
$PUCSORTHOREF
  2

  9
$PUCSORTHOVIEW
 70
     0
  9
$PUCSORGTOP
 10
0.0
 20
0.0
 30
0.0
  9
$PUCSORGBOTTOM
 10
0.0
 20
0.0
 30
0.0
  9
$PUCSORGLEFT
 10
0.0
 20
0.0
 30
0.0
  9
$PUCSORGRIGHT
 10
0.0
 20
0.0
 30
0.0
  9
$PUCSORGFRONT
 10
0.0
 20
0.0
 30
0.0
  9
$PUCSORGBACK
 10
0.0
 20
0.0
 30
0.0
  9
$USERI1
 70
     0
  9
$USERI2
 70
     0
  9
$USERI3
 70
     0
  9
$USERI4
 70
     0
  9
$USERI5
 70
     0
  9
$USERR1
 40
0.0
  9
$USERR2
 40
0.0
  9
$USERR3
 40
0.0
  9
$USERR4
 40
0.0
  9
$USERR5
 40
0.0
  9
$WORLDVIEW
 70
     1
  9
$SHADEDGE
 70
     3
  9
$SHADEDIF
 70
    70
  9
$TILEMODE
 70
     1
  9
$MAXACTVP
 70
    64
  9
$PINSBASE
 10
0.0
 20
0.0
 30
0.0
  9
$PLIMCHECK
 70
     0
  9
$PEXTMIN
 10
1.0000000000E+20
 20
1.0000000000E+20
 30
1.0000000000E+20
  9
$PEXTMAX
 10
-1.0000000000E+20
 20
-1.0000000000E+20
 30
-1.0000000000E+20
  9
$PLIMMIN
 10
0.0
 20
0.0
  9
$PLIMMAX
 10
420.0
 20
297.0
  9
$UNITMODE
 70
     0
  9
$VISRETAIN
 70
     1
  9
$PLINEGEN
 70
     0
  9
$PSLTSCALE
 70
     1
  9
$TREEDEPTH
 70
  3020
  9
$CMLSTYLE
  2
Standard
  9
$CMLJUST
 70
     0
  9
$CMLSCALE
 40
20.0
  9
$PROXYGRAPHICS
 70
     1
  9
$MEASUREMENT
 70
     1
  9
$CELWEIGHT
370
    -1
  9
$ENDCAPS
280
     0
  9
$JOINSTYLE
280
     0
  9
$LWDISPLAY
290
     1
  9
$INSUNITS
 70
     4
  9
$HYPERLINKBASE
  1

  9
$STYLESHEET
  1

  9
$XEDIT
290
     1
  9
$CEPSNTYPE
380
     0
  9
$PSTYLEMODE
290
     1
  9
$FINGERPRINTGUID
  2
{f6008c43-a169-4692-810f-88bfd19a98c0}
  9
$VERSIONGUID
  2
{FAEB1C32-E019-11D5-929B-00C0DF256EC4}
  9
$EXTNAMES
290
     1
  9
$PSVPSCALE
 40
0.0
  9
$OLESTARTUP
290
     0
  0
ENDSEC
  0
SECTION
  2
CLASSES
  0
CLASS
  1
ACDBDICTIONARYWDFLT
  2
AcDbDictionaryWithDefault
  3
ObjectDBX Classes
 90
        0
280
     0
281
     0
  0
CLASS
  1
VISUALSTYLE
  2
AcDbVisualStyle
  3
ObjectDBX Classes
 90
     4095
280
     0
281
     0
  0
CLASS
  1
MATERIAL
  2
AcDbMaterial
  3
ObjectDBX Classes
 90
     1153
280
     0
281
     0
  0
CLASS
  1
SCALE
  2
AcDbScale
  3
ObjectDBX Classes
 90
     1153
280
     0
281
     0
  0
CLASS
  1
TABLESTYLE
  2
AcDbTableStyle
  3
ObjectDBX Classes
 90
     4095
280
     0
281
     0
  0
CLASS
  1
MLEADERSTYLE
  2
AcDbMLeaderStyle
  3
ACDB_MLEADERSTYLE_CLASS
 90
     4095
280
     0
281
     0
  0
CLASS
  1
SUN
  2
AcDbSun
  3
SCENEOE
 90
     1153
280
     0
281
     0
  0
CLASS
  1
ACDBPLACEHOLDER
  2
AcDbPlaceHolder
  3
ObjectDBX Classes
 90
        0
280
     0
281
     0
  0
CLASS
  1
LAYOUT
  2
AcDbLayout
  3
ObjectDBX Classes
 90
        0
280
     0
281
     0
  0
ENDSEC
  0
SECTION
  2
TABLES
  0
TABLE
  2
VPORT
  5
8
330
0
100
AcDbSymbolTable
 70
     1
  0
VPORT
  5
29
330
8
100
AcDbSymbolTableRecord
100
AcDbViewportTableRecord
  2
*Active
 70
     0
 10
0.0
 20
0.0
 11
1.0
 21
1.0
 12
148.5
 22
105.0
 13
0.0
 23
0.0
 14
10.0
 24
10.0
 15
10.0
 25
10.0
 16
0.0
 26
0.0
 36
1.0
 17
0.0
 27
0.0
 37
0.0
 40
210.0
 41
1.4142857143
 42
50.0
 43
0.0
 44
0.0
 50
0.0
 51
0.0
 71
     0
 72
  2000
 73
     1
 74
     3
 75
     0
 76
     0
 77
     0
 78
     0
281
     0
 65
     1
110
0.0
120
0.0
130
0.0
111
1.0
121
0.0
131
0.0
112
0.0
122
1.0
132
0.0
 79
     0
146
0.0
  0
ENDTAB
  0
TABLE
  2
LTYPE
  5
5
330
0
100
AcDbSymbolTable
 70
     6
  0
LTYPE
  5
14
330
5
100
AcDbSymbolTableRecord
100
AcDbLinetypeTableRecord
  2
ByBlock
 70
     0
  3

 72
    65
 73
     0
 40
0.0
  0
LTYPE
  5
15
330
5
100
AcDbSymbolTableRecord
100
AcDbLinetypeTableRecord
  2
ByLayer
 70
     0
  3

 72
    65
 73
     0
 40
0.0
  0
LTYPE
  5
16
330
5
100
AcDbSymbolTableRecord
100
AcDbLinetypeTableRecord
  2
Continuous
 70
     0
  3
Solid line
 72
    65
 73
     0
 40
0.0
  0
LTYPE
  5
6E
330
5
100
AcDbSymbolTableRecord
100
AcDbLinetypeTableRecord
  2
HIDDEN
 70
     0
  3
Hidden __ __ __ __ __ __ __ __ __ __ __ __ __ __
 72
    65
 73
     2
 40
1.905
 49
1.27
 74
     0
 49
-0.635
 74
     0
  0
LTYPE
  5
6F
330
5
100
AcDbSymbolTableRecord
100
AcDbLinetypeTableRecord
  2
PHANTOM
 70
     0
  3
Phantom ______  __  __  ______  __  __  ______
 72
    65
 73
     6
 40
12.7
 49
6.35
 74
     0
 49
-1.27
 74
     0
 49
1.27
 74
     0
 49
-1.27
 74
     0
 49
1.27
 74
     0
 49
-1.27
 74
     0
  0
LTYPE
  5
70
330
5
100
AcDbSymbolTableRecord
100
AcDbLinetypeTableRecord
  2
CENTER
 70
     0
  3
Center ____ _ ____ _ ____ _ ____ _ ____ _ ____
 72
    65
 73
     4
 40
10.16
 49
6.35
 74
     0
 49
-1.27
 74
     0
 49
1.27
 74
     0
 49
-1.27
 74
     0
  0
LTYPE
  5
71
330
5
100
AcDbSymbolTableRecord
100
AcDbLinetypeTableRecord
  2
CENTERX2
 70
     0
  3
Center (2x) ________  __  ________  __  _____
 72
    65
 73
     4
 40
20.32
 49
12.7
 74
     0
 49
-2.54
 74
     0
 49
2.54
 74
     0
 49
-2.54
 74
     0
  0
LTYPE
  5
72
330
5
100
AcDbSymbolTableRecord
100
AcDbLinetypeTableRecord
  2
DOT2
 70
     0
  3
Dot (.5x) ........................................
 72
    65
 73
     2
 40
0.635
 49
0.0
 74
     0
 49
-0.635
 74
     0
  0
ENDTAB
  0
TABLE
  2
LAYER
  5
2
330
0
100
AcDbSymbolTable
 70
     1
  0
LAYER
  5
10
330
2
100
AcDbSymbolTableRecord
100
AcDbLayerTableRecord
  2
0
 70
     0
 62
     7
  6
Continuous
370
    -3
390
F
  0
ENDTAB
  0
TABLE
  2
STYLE
  5
3
330
0
100
AcDbSymbolTable
 70
     3
  0
STYLE
  5
11
330
3
100
AcDbSymbolTableRecord
100
AcDbTextStyleTableRecord
  2
STANDARD
 70
     0
 40
0.0
 41
1.0
 50
0.0
 71
     0
 42
3.5277777778
  3
MSGOTHIC.TTC
  4

1001
ACAD
1000
MS UI GOTHIC
1071
    32818
  0
STYLE
  5
77
330
3
100
AcDbSymbolTableRecord
100
AcDbTextStyleTableRecord
  2
SLDTEXTSTYLE0
 70
     0
 40
0.0
 41
1.0
 50
0.0
 71
     0
 42
3.5277777778
  3
MSGOTHIC.TTC
  4

1001
ACAD
1000
MS UI Gothic
1071
      306
  0
STYLE
  5
79
330
3
100
AcDbSymbolTableRecord
100
AcDbTextStyleTableRecord
  2
SLDTEXTSTYLE1
 70
     0
 40
0.0
 41
1.0
 50
0.0
 71
     0
 42
3.5277777778
  3
MSGOTHIC.TTC
  4
bigfont
1001
ACAD
1000
MS UI Gothic
1071
      306
  0
ENDTAB
  0
TABLE
  2
VIEW
  5
6
330
0
100
AcDbSymbolTable
 70
     0
  0
ENDTAB
  0
TABLE
  2
UCS
  5
7
330
0
100
AcDbSymbolTable
 70
     0
  0
ENDTAB
  0
TABLE
  2
APPID
  5
9
330
0
100
AcDbSymbolTable
 70
     1
  0
APPID
  5
12
330
9
100
AcDbSymbolTableRecord
100
AcDbRegAppTableRecord
  2
ACAD
 70
     0
  0
ENDTAB
  0
TABLE
  2
DIMSTYLE
  5
A
330
0
100
AcDbSymbolTable
 70
     7
100
AcDbDimStyleTable
  0
DIMSTYLE
105
27
330
A
100
AcDbSymbolTableRecord
100
AcDbDimStyleTableRecord
  2
ISO-25
 70
     0
 41
2.5
 42
0.625
 43
3.75
 44
1.25
 73
     0
 74
     0
 77
     1
 78
     8
140
2.5
141
2.5
143
0.0393700787
147
0.625
171
     3
172
     1
178
     0
271
     2
272
     2
274
     3
278
    44
283
     0
284
     8
340
11
  0
DIMSTYLE
105
174
102
{ACAD_REACTORS
330
173
102
}
330
A
100
AcDbSymbolTableRecord
100
AcDbDimStyleTableRecord
  2
SLDDIMSTYLE0
 70
     0
 41
3.0
 44
0.0
 45
0.000000001
 73
     0
 74
     0
 77
     1
 78
    12
 79
     3
140
3.0316840278
147
0.7579210069
173
     1
178
     0
271
     1
272
     1
276
     2
284
    12
340
77
341
175
343
175
344
175
  0
DIMSTYLE
105
187
102
{ACAD_REACTORS
330
186
330
191
330
1B3
330
1BD
330
1C7
330
1DD
330
1E9
330
1F3
330
1FF
330
20B
102
}
330
A
100
AcDbSymbolTableRecord
100
AcDbDimStyleTableRecord
  2
SLDDIMSTYLE1
 70
     0
 41
3.0
 44
0.0
 45
0.000000001
 73
     0
 74
     0
 77
     1
 78
    12
 79
     3
140
3.0316840278
147
0.7579210069
173
     1
178
     0
271
     2
272
     2
276
     2
284
    12
340
77
341
175
343
175
344
175
  0
DIMSTYLE
105
19C
102
{ACAD_REACTORS
330
19B
330
1D2
102
}
330
A
100
AcDbSymbolTableRecord
100
AcDbDimStyleTableRecord
  2
SLDDIMSTYLE2
 70
     0
 41
3.0
 44
0.0
 45
0.000000001
 73
     0
 74
     0
 77
     1
 78
    12
 79
     3
140
3.0316840278
147
0.7579210069
172
     1
173
     1
178
     0
271
     2
272
     2
276
     2
284
    12
289
     0
340
77
341
175
343
175
344
175
  0
DIMSTYLE
105
1A9
102
{ACAD_REACTORS
330
1A8
102
}
330
A
100
AcDbSymbolTableRecord
100
AcDbDimStyleTableRecord
  2
SLDDIMSTYLE3
 70
     0
 41
3.0
 44
0.0
 45
0.000000001
 73
     0
 74
     0
 77
     1
 78
    12
 79
     3
140
3.0316840278
147
0.7579210069
173
     1
178
     0
271
     0
272
     0
276
     2
284
    12
340
77
341
175
343
175
344
175
  0
DIMSTYLE
105
218
102
{ACAD_REACTORS
330
217
102
}
330
A
100
AcDbSymbolTableRecord
100
AcDbDimStyleTableRecord
  2
SLDDIMSTYLE4
 70
     0
 41
3.0
 44
0.0
 45
0.000000001
 73
     0
 74
     0
 77
     1
 78
    12
 79
     3
140
3.0316840278
147
0.7579210069
172
     1
173
     1
178
     0
271
     0
272
     0
276
     2
284
    12
289
     0
340
77
341
175
343
175
344
175
  0
DIMSTYLE
105
22A
330
A
100
AcDbSymbolTableRecord
100
AcDbDimStyleTableRecord
  2
SLDDIMSTYLE5
 70
     0
 41
3.0
 44
0.0
 45
0.000000001
146
3.0
147
0.0
173
     1
178
     0
271
     0
272
     0
276
     2
340
11
341
175
343
175
344
175
  0
ENDTAB
  0
TABLE
  2
BLOCK_RECORD
  5
1
330
0
100
AcDbSymbolTable
 70
    32
  0
BLOCK_RECORD
  5
1F
330
1
100
AcDbSymbolTableRecord
100
AcDbBlockTableRecord
  2
*Model_Space
340
22
  0
BLOCK_RECORD
  5
1B
330
1
100
AcDbSymbolTableRecord
100
AcDbBlockTableRecord
  2
*Paper_Space
340
1E
  0
BLOCK_RECORD
  5
23
330
1
100
AcDbSymbolTableRecord
100
AcDbBlockTableRecord
  2
*Paper_Space0
340
26
  0
BLOCK_RECORD
  5
7C
330
1
100
AcDbSymbolTableRecord
100
AcDbBlockTableRecord
  2
SW_TABLEANNOTATION_0
340
0
102
{BLKREFS
331
97
102
}
  0
BLOCK_RECORD
  5
98
330
1
100
AcDbSymbolTableRecord
100
AcDbBlockTableRecord
  2
SW_BROKEN_VIEW_0
340
0
102
{BLKREFS
331
9F
102
}
  0
BLOCK_RECORD
  5
175
330
1
100
AcDbSymbolTableRecord
100
AcDbBlockTableRecord
  2
_Open30
340
0
102
{BLKREFS
331
17E
331
17F
331
18B
331
18C
331
195
331
196
331
1A0
331
1A1
331
1AD
331
1AE
331
1B7
331
1B8
331
1C1
331
1C2
331
1CB
331
1CC
331
1D6
331
1D7
331
1E1
331
1E2
331
1ED
331
1EE
331
1F9
331
1FA
331
205
331
206
331
20F
331
210
331
21C
331
21D
102
}
  0
BLOCK_RECORD
  5
17B
330
1
100
AcDbSymbolTableRecord
100
AcDbBlockTableRecord
  2
_D
340
0
  0
BLOCK_RECORD
  5
188
330
1
100
AcDbSymbolTableRecord
100
AcDbBlockTableRecord
  2
_D_1
340
0
  0
BLOCK_RECORD
  5
192
330
1
100
AcDbSymbolTableRecord
100
AcDbBlockTableRecord
  2
_D_2
340
0
  0
BLOCK_RECORD
  5
19D
330
1
100
AcDbSymbolTableRecord
100
AcDbBlockTableRecord
  2
_D_3
340
0
  0
BLOCK_RECORD
  5
1AA
330
1
100
AcDbSymbolTableRecord
100
AcDbBlockTableRecord
  2
_D_4
340
0
  0
BLOCK_RECORD
  5
1B4
330
1
100
AcDbSymbolTableRecord
100
AcDbBlockTableRecord
  2
_D_5
340
0
  0
BLOCK_RECORD
  5
1BE
330
1
100
AcDbSymbolTableRecord
100
AcDbBlockTableRecord
  2
_D_6
340
0
  0
BLOCK_RECORD
  5
1C8
330
1
100
AcDbSymbolTableRecord
100
AcDbBlockTableRecord
  2
_D_7
340
0
  0
BLOCK_RECORD
  5
1D3
330
1
100
AcDbSymbolTableRecord
100
AcDbBlockTableRecord
  2
_D_8
340
0
  0
BLOCK_RECORD
  5
1DE
330
1
100
AcDbSymbolTableRecord
100
AcDbBlockTableRecord
  2
_D_9
340
0
  0
BLOCK_RECORD
  5
1EA
330
1
100
AcDbSymbolTableRecord
100
AcDbBlockTableRecord
  2
_D_10
340
0
  0
BLOCK_RECORD
  5
1F4
330
1
100
AcDbSymbolTableRecord
100
AcDbBlockTableRecord
  2
_D_11
340
0
  0
BLOCK_RECORD
  5
200
330
1
100
AcDbSymbolTableRecord
100
AcDbBlockTableRecord
  2
_D_12
340
0
  0
BLOCK_RECORD
  5
20C
330
1
100
AcDbSymbolTableRecord
100
AcDbBlockTableRecord
  2
_D_13
340
0
  0
BLOCK_RECORD
  5
219
330
1
100
AcDbSymbolTableRecord
100
AcDbBlockTableRecord
  2
_D_14
340
0
  0
BLOCK_RECORD
  5
224
330
1
100
AcDbSymbolTableRecord
100
AcDbBlockTableRecord
  2
SW_NOTE_0
340
0
102
{BLKREFS
331
229
102
}
  0
BLOCK_RECORD
  5
22C
330
1
100
AcDbSymbolTableRecord
100
AcDbBlockTableRecord
  2
SW_NOTE_0_1
340
0
102
{BLKREFS
331
231
102
}
  0
BLOCK_RECORD
  5
233
330
1
100
AcDbSymbolTableRecord
100
AcDbBlockTableRecord
  2
SW_NOTE_0_2
340
0
102
{BLKREFS
331
238
102
}
  0
BLOCK_RECORD
  5
23A
330
1
100
AcDbSymbolTableRecord
100
AcDbBlockTableRecord
  2
SW_NOTE_0_3
340
0
102
{BLKREFS
331
23F
102
}
  0
BLOCK_RECORD
  5
241
330
1
100
AcDbSymbolTableRecord
100
AcDbBlockTableRecord
  2
SW_NOTE_0_4
340
0
102
{BLKREFS
331
246
102
}
  0
BLOCK_RECORD
  5
248
330
1
100
AcDbSymbolTableRecord
100
AcDbBlockTableRecord
  2
SW_NOTE_0_5
340
0
102
{BLKREFS
331
24D
102
}
  0
BLOCK_RECORD
  5
24F
330
1
100
AcDbSymbolTableRecord
100
AcDbBlockTableRecord
  2
SW_NOTE_0_6
340
0
102
{BLKREFS
331
255
102
}
  0
BLOCK_RECORD
  5
257
330
1
100
AcDbSymbolTableRecord
100
AcDbBlockTableRecord
  2
SW_NOTE_0_7
340
0
102
{BLKREFS
331
25C
102
}
  0
BLOCK_RECORD
  5
25E
330
1
100
AcDbSymbolTableRecord
100
AcDbBlockTableRecord
  2
SW_NOTE_0_8
340
0
102
{BLKREFS
331
263
102
}
  0
BLOCK_RECORD
  5
265
330
1
100
AcDbSymbolTableRecord
100
AcDbBlockTableRecord
  2
SW_NOTE_0_9
340
0
102
{BLKREFS
331
26A
102
}
  0
BLOCK_RECORD
  5
274
330
1
100
AcDbSymbolTableRecord
100
AcDbBlockTableRecord
  2
SW_NOTE_0_10
340
0
102
{BLKREFS
331
279
102
}
  0
BLOCK_RECORD
  5
27B
330
1
100
AcDbSymbolTableRecord
100
AcDbBlockTableRecord
  2
SW_CENTERMARKSYMBOL_0
340
0
102
{BLKREFS
331
286
102
}
  0
BLOCK_RECORD
  5
287
330
1
100
AcDbSymbolTableRecord
100
AcDbBlockTableRecord
  2
SW_CENTERMARKSYMBOL_1
340
0
102
{BLKREFS
331
292
102
}
  0
ENDTAB
  0
ENDSEC
  0
SECTION
  2
BLOCKS
  0
BLOCK
  5
20
330
1F
100
AcDbEntity
  8
0
100
AcDbBlockBegin
  2
*Model_Space
 70
     0
 10
0.0
 20
0.0
 30
0.0
  3
*Model_Space
  1

  0
ENDBLK
  5
21
330
1F
100
AcDbEntity
  8
0
100
AcDbBlockEnd
  0
BLOCK
  5
1C
330
1B
100
AcDbEntity
 67
     1
  8
0
100
AcDbBlockBegin
  2
*Paper_Space
 70
     0
 10
0.0
 20
0.0
 30
0.0
  3
*Paper_Space
  1

  0
ENDBLK
  5
1D
330
1B
100
AcDbEntity
 67
     1
  8
0
100
AcDbBlockEnd
  0
BLOCK
  5
24
330
23
100
AcDbEntity
  8
0
100
AcDbBlockBegin
  2
*Paper_Space0
 70
     0
 10
0.0
 20
0.0
 30
0.0
  3
*Paper_Space0
  1

  0
ENDBLK
  5
25
330
23
100
AcDbEntity
  8
0
100
AcDbBlockEnd
  0
BLOCK
  5
7D
330
7C
100
AcDbEntity
  8
0
100
AcDbBlockBegin
  2
SW_TABLEANNOTATION_0
 70
     0
 10
0.0
 20
0.0
 30
0.0
  3
SW_TABLEANNOTATION_0
  1

  0
LINE
  5
7F
330
7C
100
AcDbEntity
  8
0
  6
Continuous
 62
     0
370
    18
100
AcDbLine
 10
0.0
 20
0.0
 30
0.0
 11
0.0
 21
-8.0
 31
0.0
  0
LINE
  5
80
330
7C
100
AcDbEntity
  8
0
  6
Continuous
 62
     0
370
    18
100
AcDbLine
 10
35.0
 20
0.0
 30
0.0
 11
35.0
 21
-8.0
 31
0.0
  0
LINE
  5
81
330
7C
100
AcDbEntity
  8
0
  6
Continuous
 62
     0
370
    18
100
AcDbLine
 10
0.0
 20
-8.0
 30
0.0
 11
0.0
 21
-16.0
 31
0.0
  0
LINE
  5
82
330
7C
100
AcDbEntity
  8
0
  6
Continuous
 62
     0
370
    18
100
AcDbLine
 10
35.0
 20
-8.0
 30
0.0
 11
35.0
 21
-16.0
 31
0.0
  0
LINE
  5
83
330
7C
100
AcDbEntity
  8
0
  6
Continuous
 62
     0
370
    18
100
AcDbLine
 10
0.0
 20
-16.0
 30
0.0
 11
0.0
 21
-24.0
 31
0.0
  0
LINE
  5
84
330
7C
100
AcDbEntity
  8
0
  6
Continuous
 62
     0
370
    18
100
AcDbLine
 10
35.0
 20
-16.0
 30
0.0
 11
35.0
 21
-24.0
 31
0.0
  0
LINE
  5
85
330
7C
100
AcDbEntity
  8
0
  6
Continuous
 62
     0
370
    18
100
AcDbLine
 10
60.0
 20
0.0
 30
0.0
 11
60.0
 21
-8.0
 31
0.0
  0
LINE
  5
86
330
7C
100
AcDbEntity
  8
0
  6
Continuous
 62
     0
370
    18
100
AcDbLine
 10
60.0
 20
-8.0
 30
0.0
 11
60.0
 21
-16.0
 31
0.0
  0
LINE
  5
87
330
7C
100
AcDbEntity
  8
0
  6
Continuous
 62
     0
370
    18
100
AcDbLine
 10
60.0
 20
-16.0
 30
0.0
 11
60.0
 21
-24.0
 31
0.0
  0
LINE
  5
88
330
7C
100
AcDbEntity
  8
0
  6
Continuous
 62
     0
370
    18
100
AcDbLine
 10
0.0
 20
0.0
 30
0.0
 11
35.0
 21
0.0
 31
0.0
  0
LINE
  5
89
330
7C
100
AcDbEntity
  8
0
  6
Continuous
 62
     0
370
    18
100
AcDbLine
 10
0.0
 20
-8.0
 30
0.0
 11
35.0
 21
-8.0
 31
0.0
  0
LINE
  5
8A
330
7C
100
AcDbEntity
  8
0
  6
Continuous
 62
     0
370
    18
100
AcDbLine
 10
35.0
 20
0.0
 30
0.0
 11
60.0
 21
0.0
 31
0.0
  0
LINE
  5
8B
330
7C
100
AcDbEntity
  8
0
  6
Continuous
 62
     0
370
    18
100
AcDbLine
 10
35.0
 20
-8.0
 30
0.0
 11
60.0
 21
-8.0
 31
0.0
  0
LINE
  5
8C
330
7C
100
AcDbEntity
  8
0
  6
Continuous
 62
     0
370
    18
100
AcDbLine
 10
0.0
 20
-16.0
 30
0.0
 11
35.0
 21
-16.0
 31
0.0
  0
LINE
  5
8D
330
7C
100
AcDbEntity
  8
0
  6
Continuous
 62
     0
370
    18
100
AcDbLine
 10
35.0
 20
-16.0
 30
0.0
 11
60.0
 21
-16.0
 31
0.0
  0
LINE
  5
8E
330
7C
100
AcDbEntity
  8
0
  6
Continuous
 62
     0
370
    18
100
AcDbLine
 10
0.0
 20
-24.0
 30
0.0
 11
35.0
 21
-24.0
 31
0.0
  0
LINE
  5
8F
330
7C
100
AcDbEntity
  8
0
  6
Continuous
 62
     0
370
    18
100
AcDbLine
 10
35.0
 20
-24.0
 30
0.0
 11
60.0
 21
-24.0
 31
0.0
  0
MTEXT
  5
90
330
7C
100
AcDbEntity
  8
0
  6
Continuous
 62
     0
370
    18
100
AcDbMText
 10
9.1827743873
 20
-2.912562812
 30
0.0
 40
2.6458333333
 41
0.0
 71
     1
 72
     1
  1
ｹｰﾌﾞﾙ種類
  7
SLDTEXTSTYLE1
 73
     1
 44
1.0
  0
MTEXT
  5
91
330
7C
100
AcDbEntity
  8
0
  6
Continuous
 62
     0
370
    18
100
AcDbMText
 10
43.7100889534
 20
-2.912562812
 30
0.0
 40
2.6458333333
 41
0.0
 71
     1
 72
     1
  1
φD1
  7
SLDTEXTSTYLE1
 73
     1
 44
1.0
  0
MTEXT
  5
92
330
7C
100
AcDbEntity
  8
0
  6
Continuous
 62
     0
370
    18
100
AcDbMText
 10
4.3957754225
 20
-9.1486739444
 30
0.0
 40
2.6458333333
 41
0.0
 71
     1
 72
     1
  1
EXA、EXB、EXC、
  7
SLDTEXTSTYLE1
 73
     1
 44
1.0
  0
MTEXT
  5
93
330
7C
100
AcDbEntity
  8
0
  6
Continuous
 62
     0
370
    18
100
AcDbMText
 10
8.9206406102
 20
-12.6764516796
 30
0.0
 40
2.6458333333
 41
0.0
 71
     1
 72
     1
  1
EXD、EXF　
  7
SLDTEXTSTYLE1
 73
     1
 44
1.0
  0
MTEXT
  5
94
330
7C
100
AcDbEntity
  8
0
  6
Continuous
 62
     0
370
    18
100
AcDbMText
 10
42.174035348
 20
-10.912562812
 30
0.0
 40
2.6458333333
 41
0.0
 71
     1
 72
     1
  1
φ8ｘ40
  7
SLDTEXTSTYLE1
 73
     1
 44
1.0
  0
MTEXT
  5
95
330
7C
100
AcDbEntity
  8
0
  6
Continuous
 62
     0
370
    18
100
AcDbMText
 10
14.4401427079
 20
-18.912562812
 30
0.0
 40
2.6458333333
 41
0.0
 71
     1
 72
     1
  1
EXE
  7
SLDTEXTSTYLE0
 73
     1
 44
1.0
  0
MTEXT
  5
96
330
7C
100
AcDbEntity
  8
0
  6
Continuous
 62
     0
370
    18
100
AcDbMText
 10
41.2920914963
 20
-18.912562812
 30
0.0
 40
2.6458333333
 41
0.0
 71
     1
 72
     1
  1
φ10ｘ40
  7
SLDTEXTSTYLE1
 73
     1
 44
1.0
  0
ENDBLK
  5
7E
330
7C
100
AcDbEntity
  8
0
100
AcDbBlockEnd
  0
BLOCK
  5
99
330
98
100
AcDbEntity
  8
0
100
AcDbBlockBegin
  2
SW_BROKEN_VIEW_0
 70
     0
 10
0.0
 20
0.0
 30
0.0
  3
SW_BROKEN_VIEW_0
  1

  0
LINE
  5
9B
330
98
100
AcDbEntity
  8
0
  6
Continuous
 62
     0
100
AcDbLine
 10
0.0
 20
0.0
 30
0.0
 11
12.7999931574
 21
0.0
 31
0.0
  0
LINE
  5
9C
330
98
100
AcDbEntity
  8
0
  6
HIDDEN
 62
     0
100
AcDbLine
 10
0.0
 20
24.0000006743
 30
0.0
 11
12.7999931574
 21
24.0000006743
 31
0.0
  0
LINE
  5
9D
330
98
100
AcDbEntity
  8
0
  6
HIDDEN
 62
     0
100
AcDbLine
 10
0.0
 20
24.0000006743
 30
0.0
 11
0.0
 21
12.00000057
 31
0.0
  0
LINE
  5
9E
330
98
100
AcDbEntity
  8
0
  6
HIDDEN
 62
     0
100
AcDbLine
 10
12.7999931574
 20
24.0000006743
 30
0.0
 11
12.7999931574
 21
12.00000057
 31
0.0
  0
ENDBLK
  5
9A
330
98
100
AcDbEntity
  8
0
100
AcDbBlockEnd
  0
BLOCK
  5
176
330
175
100
AcDbEntity
  8
0
100
AcDbBlockBegin
  2
_Open30
 70
     0
 10
0.0
 20
0.0
 30
0.0
  3
_Open30
  1

  0
LINE
  5
178
330
175
100
AcDbEntity
  8
0
  6
ByBlock
 62
     0
370
    -2
100
AcDbLine
 10
-1.0
 20
0.267949
 30
0.0
 11
0.0
 21
0.0
 31
0.0
  0
LINE
  5
179
330
175
100
AcDbEntity
  8
0
  6
ByBlock
 62
     0
370
    -2
100
AcDbLine
 10
0.0
 20
0.0
 30
0.0
 11
-1.0
 21
-0.267949
 31
0.0
  0
LINE
  5
17A
330
175
100
AcDbEntity
  8
0
  6
ByBlock
 62
     0
370
    -2
100
AcDbLine
 10
0.0
 20
0.0
 30
0.0
 11
-1.0
 21
0.0
 31
0.0
  0
ENDBLK
  5
177
330
175
100
AcDbEntity
  8
0
100
AcDbBlockEnd
  0
BLOCK
  5
17C
330
17B
100
AcDbEntity
  8
0
100
AcDbBlockBegin
  2
_D
 70
     0
 10
0.0
 20
0.0
 30
0.0
  3
_D
  1

  0
INSERT
  5
17E
330
17B
100
AcDbEntity
  8
0
  6
Continuous
 62
     7
370
    18
100
AcDbBlockReference
  2
_Open30
 10
50.2137933167
 20
101.935672174
 30
0.0
 41
3.0
 42
3.0
 50
180.0
  0
INSERT
  5
17F
330
17B
100
AcDbEntity
  8
0
  6
Continuous
 62
     7
370
    18
100
AcDbBlockReference
  2
_Open30
 10
63.0137933167
 20
101.935672174
 30
0.0
 41
3.0
 42
3.0
 50
0.0
  0
LINE
  5
180
330
17B
100
AcDbEntity
  8
0
  6
Continuous
 62
     7
370
    18
100
AcDbLine
 10
50.2137933167
 20
106.6222946489
 30
0.0
 11
50.2137933167
 21
100.935672174
 31
0.0
  0
LINE
  5
181
330
17B
100
AcDbEntity
  8
0
  6
Continuous
 62
     7
370
    18
100
AcDbLine
 10
63.0137933167
 20
106.6222946489
 30
0.0
 11
63.0137933167
 21
100.935672174
 31
0.0
  0
LINE
  5
182
330
17B
100
AcDbEntity
  8
0
  6
Continuous
 62
     7
370
    18
100
AcDbLine
 10
50.2137933167
 20
101.935672174
 30
0.0
 11
38.5589331383
 21
101.935672174
 31
0.0
  0
LINE
  5
183
330
17B
100
AcDbEntity
  8
0
  6
Continuous
 62
     7
370
    18
100
AcDbLine
 10
50.2137933167
 20
101.935672174
 30
0.0
 11
63.0137933167
 21
101.935672174
 31
0.0
  0
MTEXT
  5
184
330
17B
100
AcDbEntity
  8
0
  6
Continuous
 62
     7
370
    18
100
AcDbMText
 10
38.5589331383
 20
105.0144601692
 30
0.0
 40
2.6458333333
 41
0.0
 71
     1
 72
     1
  1
%%c
  7
SLDTEXTSTYLE0
 73
     1
 44
1.0
  0
MTEXT
  5
185
330
17B
100
AcDbEntity
  8
0
  6
Continuous
 62
     7
370
    18
100
AcDbMText
 10
41.9103221031
 20
105.0144601692
 30
0.0
 40
2.6458333333
 41
0.0
 71
     1
 72
     1
  1
12.8
  7
SLDTEXTSTYLE0
 73
     1
 44
1.0
  0
ENDBLK
  5
17D
330
17B
100
AcDbEntity
  8
0
100
AcDbBlockEnd
  0
BLOCK
  5
189
330
188
100
AcDbEntity
  8
0
100
AcDbBlockBegin
  2
_D_1
 70
     0
 10
0.0
 20
0.0
 30
0.0
  3
_D_1
  1

  0
INSERT
  5
18B
330
188
100
AcDbEntity
  8
0
  6
Continuous
 62
     7
370
    18
100
AcDbBlockReference
  2
_Open30
 10
31.3777422198
 20
36.0912020793
 30
0.0
 41
3.0
 42
3.0
 50
270.0
  0
INSERT
  5
18C
330
188
100
AcDbEntity
  8
0
  6
Continuous
 62
     7
370
    18
100
AcDbBlockReference
  2
_Open30
 10
31.3777422198
 20
73.8013477303
 30
0.0
 41
3.0
 42
3.0
 50
90.0
  0
LINE
  5
18D
330
188
100
AcDbEntity
  8
0
  6
Continuous
 62
     7
370
    18
100
AcDbLine
 10
55.6137933167
 20
36.0912020793
 30
0.0
 11
30.3777422198
 21
36.0912020793
 31
0.0
  0
LINE
  5
18E
330
188
100
AcDbEntity
  8
0
  6
Continuous
 62
     7
370
    18
100
AcDbLine
 10
52.1137933167
 20
73.8013477303
 30
0.0
 11
30.3777422198
 21
73.8013477303
 31
0.0
  0
LINE
  5
18F
330
188
100
AcDbEntity
  8
0
  6
Continuous
 62
     7
370
    18
100
AcDbLine
 10
31.3777422198
 20
36.0912020793
 30
0.0
 11
31.3777422198
 21
73.8013477303
 31
0.0
  0
MTEXT
  5
190
330
188
100
AcDbEntity
  8
0
  6
Continuous
 62
     7
370
    18
100
AcDbMText
 10
28.2989544574
 20
45.1762903838
 30
0.0
 40
2.6458333333
 41
0.0
 71
     1
 72
     1
  1
L1=50～1000
  7
SLDTEXTSTYLE1
 11
6.123233995736766E-17
 21
1.0
 31
0.0
 73
     1
 44
1.0
  0
ENDBLK
  5
18A
330
188
100
AcDbEntity
  8
0
100
AcDbBlockEnd
  0
BLOCK
  5
193
330
192
100
AcDbEntity
  8
0
100
AcDbBlockBegin
  2
_D_2
 70
     0
 10
0.0
 20
0.0
 30
0.0
  3
_D_2
  1

  0
INSERT
  5
195
330
192
100
AcDbEntity
  8
0
  6
Continuous
 62
     7
370
    18
100
AcDbBlockReference
  2
_Open30
 10
31.3777422198
 20
125.5511621624
 30
0.0
 41
3.0
 42
3.0
 50
90.0
  0
INSERT
  5
196
330
192
100
AcDbEntity
  8
0
  6
Continuous
 62
     7
370
    18
100
AcDbBlockReference
  2
_Open30
 10
31.3777422198
 20
73.8013477303
 30
0.0
 41
3.0
 42
3.0
 50
270.0
  0
LINE
  5
197
330
192
100
AcDbEntity
  8
0
  6
Continuous
 62
     7
370
    18
100
AcDbLine
 10
52.1137933167
 20
125.5511621624
 30
0.0
 11
30.3777422198
 21
125.5511621624
 31
0.0
  0
LINE
  5
198
330
192
100
AcDbEntity
  8
0
  6
Continuous
 62
     7
370
    18
100
AcDbLine
 10
52.1137933167
 20
73.8013477303
 30
0.0
 11
30.3777422198
 21
73.8013477303
 31
0.0
  0
LINE
  5
199
330
192
100
AcDbEntity
  8
0
  6
Continuous
 62
     7
370
    18
100
AcDbLine
 10
31.3777422198
 20
125.5511621624
 30
0.0
 11
31.3777422198
 21
73.8013477303
 31
0.0
  0
MTEXT
  5
19A
330
192
100
AcDbEntity
  8
0
  6
Continuous
 62
     7
370
    18
100
AcDbMText
 10
28.2989544574
 20
97.9123660788
 30
0.0
 40
2.6458333333
 41
0.0
 71
     1
 72
     1
  1
50
  7
SLDTEXTSTYLE0
 11
-7.044195017643634E-15
 21
1.0
 31
0.0
 73
     1
 44
1.0
  0
ENDBLK
  5
194
330
192
100
AcDbEntity
  8
0
100
AcDbBlockEnd
  0
BLOCK
  5
19E
330
19D
100
AcDbEntity
  8
0
100
AcDbBlockBegin
  2
_D_3
 70
     0
 10
0.0
 20
0.0
 30
0.0
  3
_D_3
  1

  0
INSERT
  5
1A0
330
19D
100
AcDbEntity
  8
0
  6
Continuous
 62
     7
370
    18
100
AcDbBlockReference
  2
_Open30
 10
46.5802850181
 20
75.8013477303
 30
0.0
 41
3.0
 42
3.0
 50
270.0
  0
INSERT
  5
1A1
330
19D
100
AcDbEntity
  8
0
  6
Continuous
 62
     7
370
    18
100
AcDbBlockReference
  2
_Open30
 10
46.5802850181
 20
73.8013477303
 30
0.0
 41
3.0
 42
3.0
 50
90.0
  0
LINE
  5
1A2
330
19D
100
AcDbEntity
  8
0
  6
Continuous
 62
     7
370
    18
100
AcDbLine
 10
52.1137933167
 20
75.8013477303
 30
0.0
 11
45.5802850181
 21
75.8013477303
 31
0.0
  0
LINE
  5
1A3
330
19D
100
AcDbEntity
  8
0
  6
Continuous
 62
     7
370
    18
100
AcDbLine
 10
52.1137933167
 20
73.8013477303
 30
0.0
 11
45.5802850181
 21
73.8013477303
 31
0.0
  0
LINE
  5
1A4
330
19D
100
AcDbEntity
  8
0
  6
Continuous
 62
     7
370
    18
100
AcDbLine
 10
46.5802850181
 20
75.8013477303
 30
0.0
 11
46.5802850181
 21
79.3013477303
 31
0.0
  0
LINE
  5
1A5
330
19D
100
AcDbEntity
  8
0
  6
Continuous
 62
     7
370
    18
100
AcDbLine
 10
46.5802850181
 20
75.8013477303
 30
0.0
 11
46.5802850181
 21
73.8013477303
 31
0.0
  0
LINE
  5
1A6
330
19D
100
AcDbEntity
  8
0
  6
Continuous
 62
     7
370
    18
100
AcDbLine
 10
46.5802850181
 20
73.8013477303
 30
0.0
 11
46.5802850181
 21
68.3593178178
 31
0.0
  0
MTEXT
  5
1A7
330
19D
100
AcDbEntity
  8
0
  6
Continuous
 62
     7
370
    18
100
AcDbMText
 10
43.5014972557
 20
68.3593178178
 30
0.0
 40
2.6458333333
 41
0.0
 71
     1
 72
     1
  1
2
  7
SLDTEXTSTYLE0
 11
-7.044195017643634E-15
 21
1.0
 31
0.0
 73
     1
 44
1.0
  0
ENDBLK
  5
19F
330
19D
100
AcDbEntity
  8
0
100
AcDbBlockEnd
  0
BLOCK
  5
1AB
330
1AA
100
AcDbEntity
  8
0
100
AcDbBlockBegin
  2
_D_4
 70
     0
 10
0.0
 20
0.0
 30
0.0
  3
_D_4
  1

  0
INSERT
  5
1AD
330
1AA
100
AcDbEntity
  8
0
  6
Continuous
 62
     7
370
    18
100
AcDbBlockReference
  2
_Open30
 10
31.3777422198
 20
125.5511621624
 30
0.0
 41
3.0
 42
3.0
 50
270.0
  0
INSERT
  5
1AE
330
1AA
100
AcDbEntity
  8
0
  6
Continuous
 62
     7
370
    18
100
AcDbBlockReference
  2
_Open30
 10
31.3777422198
 20
142.6511621624
 30
0.0
 41
3.0
 42
3.0
 50
90.0
  0
LINE
  5
1AF
330
1AA
100
AcDbEntity
  8
0
  6
Continuous
 62
     7
370
    18
100
AcDbLine
 10
52.1137933167
 20
125.5511621624
 30
0.0
 11
30.3777422198
 21
125.5511621624
 31
0.0
  0
LINE
  5
1B0
330
1AA
100
AcDbEntity
  8
0
  6
Continuous
 62
     7
370
    18
100
AcDbLine
 10
65.6137933167
 20
142.6511621624
 30
0.0
 11
30.3777422198
 21
142.6511621624
 31
0.0
  0
LINE
  5
1B1
330
1AA
100
AcDbEntity
  8
0
  6
Continuous
 62
     7
370
    18
100
AcDbLine
 10
31.3777422198
 20
125.5511621624
 30
0.0
 11
31.3777422198
 21
142.6511621624
 31
0.0
  0
MTEXT
  5
1B2
330
1AA
100
AcDbEntity
  8
0
  6
Continuous
 62
     7
370
    18
100
AcDbMText
 10
28.2989544574
 20
132.3372732948
 30
0.0
 40
2.6458333333
 41
0.0
 71
     1
 72
     1
  1
17
  7
SLDTEXTSTYLE0
 11
6.123233995736766E-17
 21
1.0
 31
0.0
 73
     1
 44
1.0
  0
ENDBLK
  5
1AC
330
1AA
100
AcDbEntity
  8
0
100
AcDbBlockEnd
  0
BLOCK
  5
1B5
330
1B4
100
AcDbEntity
  8
0
100
AcDbBlockBegin
  2
_D_5
 70
     0
 10
0.0
 20
0.0
 30
0.0
  3
_D_5
  1

  0
INSERT
  5
1B7
330
1B4
100
AcDbEntity
  8
0
  6
Continuous
 62
     7
370
    18
100
AcDbBlockReference
  2
_Open30
 10
56.6137933167
 20
175.0782038975
 30
0.0
 41
3.0
 42
3.0
 50
180.0
  0
INSERT
  5
1B8
330
1B4
100
AcDbEntity
  8
0
  6
Continuous
 62
     7
370
    18
100
AcDbBlockReference
  2
_Open30
 10
81.6137933167
 20
175.0782038975
 30
0.0
 41
3.0
 42
3.0
 50
0.0
  0
LINE
  5
1B9
330
1B4
100
AcDbEntity
  8
0
  6
Continuous
 62
     7
370
    18
100
AcDbLine
 10
56.6137933167
 20
133.6511621624
 30
0.0
 11
56.6137933167
 21
176.0782038975
 31
0.0
  0
LINE
  5
1BA
330
1B4
100
AcDbEntity
  8
0
  6
Continuous
 62
     7
370
    18
100
AcDbLine
 10
81.6137933167
 20
146.1511621624
 30
0.0
 11
81.6137933167
 21
176.0782038975
 31
0.0
  0
LINE
  5
1BB
330
1B4
100
AcDbEntity
  8
0
  6
Continuous
 62
     7
370
    18
100
AcDbLine
 10
56.6137933167
 20
175.0782038975
 30
0.0
 11
81.6137933167
 21
175.0782038975
 31
0.0
  0
MTEXT
  5
1BC
330
1B4
100
AcDbEntity
  8
0
  6
Continuous
 62
     7
370
    18
100
AcDbMText
 10
67.3499044492
 20
178.1569916599
 30
0.0
 40
2.6458333333
 41
0.0
 71
     1
 72
     1
  1
25
  7
SLDTEXTSTYLE0
 73
     1
 44
1.0
  0
ENDBLK
  5
1B6
330
1B4
100
AcDbEntity
  8
0
100
AcDbBlockEnd
  0
BLOCK
  5
1BF
330
1BE
100
AcDbEntity
  8
0
100
AcDbBlockBegin
  2
_D_6
 70
     0
 10
0.0
 20
0.0
 30
0.0
  3
_D_6
  1

  0
INSERT
  5
1C1
330
1BE
100
AcDbEntity
  8
0
  6
Continuous
 62
     7
370
    18
100
AcDbBlockReference
  2
_Open30
 10
81.6137933167
 20
175.1782038975
 30
0.0
 41
3.0
 42
3.0
 50
180.0
  0
INSERT
  5
1C2
330
1BE
100
AcDbEntity
  8
0
  6
Continuous
 62
     7
370
    18
100
AcDbBlockReference
  2
_Open30
 10
121.6137933167
 20
175.1782038975
 30
0.0
 41
3.0
 42
3.0
 50
0.0
  0
LINE
  5
1C3
330
1BE
100
AcDbEntity
  8
0
  6
Continuous
 62
     7
370
    18
100
AcDbLine
 10
81.6137933167
 20
146.1511621624
 30
0.0
 11
81.6137933167
 21
176.1782038975
 31
0.0
  0
LINE
  5
1C4
330
1BE
100
AcDbEntity
  8
0
  6
Continuous
 62
     7
370
    18
100
AcDbLine
 10
121.6137933167
 20
147.6511621624
 30
0.0
 11
121.6137933167
 21
176.1782038975
 31
0.0
  0
LINE
  5
1C5
330
1BE
100
AcDbEntity
  8
0
  6
Continuous
 62
     7
370
    18
100
AcDbLine
 10
81.6137933167
 20
175.1782038975
 30
0.0
 11
121.6137933167
 21
175.1782038975
 31
0.0
  0
MTEXT
  5
1C6
330
1BE
100
AcDbEntity
  8
0
  6
Continuous
 62
     7
370
    18
100
AcDbMText
 10
99.8499044492
 20
178.2569916599
 30
0.0
 40
2.6458333333
 41
0.0
 71
     1
 72
     1
  1
40
  7
SLDTEXTSTYLE0
 73
     1
 44
1.0
  0
ENDBLK
  5
1C0
330
1BE
100
AcDbEntity
  8
0
100
AcDbBlockEnd
  0
BLOCK
  5
1C9
330
1C8
100
AcDbEntity
  8
0
100
AcDbBlockBegin
  2
_D_7
 70
     0
 10
0.0
 20
0.0
 30
0.0
  3
_D_7
  1

  0
INSERT
  5
1CB
330
1C8
100
AcDbEntity
  8
0
  6
Continuous
 62
     7
370
    18
100
AcDbBlockReference
  2
_Open30
 10
111.206698248
 20
138.6511621624
 30
0.0
 41
3.0
 42
3.0
 50
270.0
  0
INSERT
  5
1CC
330
1C8
100
AcDbEntity
  8
0
  6
Continuous
 62
     7
370
    18
100
AcDbBlockReference
  2
_Open30
 10
111.206698248
 20
146.6511621624
 30
0.0
 41
3.0
 42
3.0
 50
90.0
  0
LINE
  5
1CD
330
1C8
100
AcDbEntity
  8
0
  6
Continuous
 62
     7
370
    18
100
AcDbLine
 10
111.206698248
 20
138.6511621624
 30
0.0
 11
111.206698248
 21
146.6511621624
 31
0.0
  0
LINE
  5
1CE
330
1C8
100
AcDbEntity
  8
0
  6
Continuous
 62
     7
370
    18
100
AcDbLine
 10
111.206698248
 20
146.6511621624
 30
0.0
 11
111.206698248
 21
167.1888969378
 31
0.0
  0
MTEXT
  5
1CF
330
1C8
100
AcDbEntity
  8
0
  6
Continuous
 62
     7
370
    18
100
AcDbMText
 10
108.1258823715
 20
151.3751434633
 30
0.0
 40
2.6458333333
 41
0.0
 71
     1
 72
     1
  1
%%c
  7
SLDTEXTSTYLE0
 11
6.123233995736766E-17
 21
1.0
 31
0.0
 73
     1
 44
1.0
  0
MTEXT
  5
1D0
330
1C8
100
AcDbEntity
  8
0
  6
Continuous
 62
     7
370
    18
100
AcDbMText
 10
108.1258823715
 20
154.7265324281
 30
0.0
 40
2.6458333333
 41
0.0
 71
     1
 72
     1
  1
D1　※1
  7
SLDTEXTSTYLE1
 11
6.123233995736766E-17
 21
1.0
 31
0.0
 73
     1
 44
1.0
  0
MTEXT
  5
1D1
330
1C8
100
AcDbEntity
  8
0
  6
Continuous
 62
     7
370
    18
100
AcDbMText
 10
111.6536603395
 20
150.5985419737
 30
0.0
 40
2.6458333333
 41
0.0
 71
     1
 72
     1
  1
（φ8,φ10）
  7
SLDTEXTSTYLE1
 11
6.123233995736766E-17
 21
1.0
 31
0.0
 73
     1
 44
1.0
  0
ENDBLK
  5
1CA
330
1C8
100
AcDbEntity
  8
0
100
AcDbBlockEnd
  0
BLOCK
  5
1D4
330
1D3
100
AcDbEntity
  8
0
100
AcDbBlockBegin
  2
_D_8
 70
     0
 10
0.0
 20
0.0
 30
0.0
  3
_D_8
  1

  0
INSERT
  5
1D6
330
1D3
100
AcDbEntity
  8
0
  6
Continuous
 62
     7
370
    18
100
AcDbBlockReference
  2
_Open30
 10
54.1137933167
 20
43.8230553186
 30
0.0
 41
3.0
 42
3.0
 50
0.0
  0
INSERT
  5
1D7
330
1D3
100
AcDbEntity
  8
0
  6
Continuous
 62
     7
370
    18
100
AcDbBlockReference
  2
_Open30
 10
59.1137933167
 20
43.8230553186
 30
0.0
 41
3.0
 42
3.0
 50
180.0
  0
LINE
  5
1D8
330
1D3
100
AcDbEntity
  8
0
  6
Continuous
 62
     7
370
    18
100
AcDbLine
 10
54.1137933167
 20
43.8230553186
 30
0.0
 11
44.0226459855
 21
43.8230553186
 31
0.0
  0
LINE
  5
1D9
330
1D3
100
AcDbEntity
  8
0
  6
Continuous
 62
     7
370
    18
100
AcDbLine
 10
54.1137933167
 20
43.8230553186
 30
0.0
 11
59.1137933167
 21
43.8230553186
 31
0.0
  0
LINE
  5
1DA
330
1D3
100
AcDbEntity
  8
0
  6
Continuous
 62
     7
370
    18
100
AcDbLine
 10
59.1137933167
 20
43.8230553186
 30
0.0
 11
62.6137933167
 21
43.8230553186
 31
0.0
  0
MTEXT
  5
1DB
330
1D3
100
AcDbEntity
  8
0
  6
Continuous
 62
     7
370
    18
100
AcDbMText
 10
44.0226459855
 20
46.9018433139
 30
0.0
 40
2.6458333333
 41
0.0
 71
     1
 72
     1
  1
%%c
  7
SLDTEXTSTYLE0
 73
     1
 44
1.0
  0
MTEXT
  5
1DC
330
1D3
100
AcDbEntity
  8
0
  6
Continuous
 62
     7
370
    18
100
AcDbMText
 10
47.3740349503
 20
46.9018433139
 30
0.0
 40
2.6458333333
 41
0.0
 71
     1
 72
     1
  1
5
  7
SLDTEXTSTYLE0
 73
     1
 44
1.0
  0
ENDBLK
  5
1D5
330
1D3
100
AcDbEntity
  8
0
100
AcDbBlockEnd
  0
BLOCK
  5
1DF
330
1DE
100
AcDbEntity
  8
0
100
AcDbBlockBegin
  2
_D_9
 70
     0
 10
0.0
 20
0.0
 30
0.0
  3
_D_9
  1

  0
INSERT
  5
1E1
330
1DE
100
AcDbEntity
  8
0
  6
Continuous
 62
     7
370
    18
100
AcDbBlockReference
  2
_Open30
 10
53.1137933167
 20
69.2412622516
 30
0.0
 41
3.0
 42
3.0
 50
180.0
  0
INSERT
  5
1E2
330
1DE
100
AcDbEntity
  8
0
  6
Continuous
 62
     7
370
    18
100
AcDbBlockReference
  2
_Open30
 10
60.1137933167
 20
69.2412622516
 30
0.0
 41
3.0
 42
3.0
 50
0.0
  0
LINE
  5
1E3
330
1DE
100
AcDbEntity
  8
0
  6
Continuous
 62
     7
370
    18
100
AcDbLine
 10
53.1137933167
 20
72.8013477303
 30
0.0
 11
53.1137933167
 21
68.2412622516
 31
0.0
  0
LINE
  5
1E4
330
1DE
100
AcDbEntity
  8
0
  6
Continuous
 62
     7
370
    18
100
AcDbLine
 10
60.1137933167
 20
72.8013477303
 30
0.0
 11
60.1137933167
 21
68.2412622516
 31
0.0
  0
LINE
  5
1E5
330
1DE
100
AcDbEntity
  8
0
  6
Continuous
 62
     7
370
    18
100
AcDbLine
 10
53.1137933167
 20
69.2412622516
 30
0.0
 11
60.1137933167
 21
69.2412622516
 31
0.0
  0
LINE
  5
1E6
330
1DE
100
AcDbEntity
  8
0
  6
Continuous
 62
     7
370
    18
100
AcDbLine
 10
60.1137933167
 20
69.2412622516
 30
0.0
 11
68.5213303774
 21
69.2412622516
 31
0.0
  0
MTEXT
  5
1E7
330
1DE
100
AcDbEntity
  8
0
  6
Continuous
 62
     7
370
    18
100
AcDbMText
 10
63.4060523122
 20
72.3200502468
 30
0.0
 40
2.6458333333
 41
0.0
 71
     1
 72
     1
  1
%%c
  7
SLDTEXTSTYLE0
 73
     1
 44
1.0
  0
MTEXT
  5
1E8
330
1DE
100
AcDbEntity
  8
0
  6
Continuous
 62
     7
370
    18
100
AcDbMText
 10
66.757441277
 20
72.3200502468
 30
0.0
 40
2.6458333333
 41
0.0
 71
     1
 72
     1
  1
7
  7
SLDTEXTSTYLE0
 73
     1
 44
1.0
  0
ENDBLK
  5
1E0
330
1DE
100
AcDbEntity
  8
0
100
AcDbBlockEnd
  0
BLOCK
  5
1EB
330
1EA
100
AcDbEntity
  8
0
100
AcDbBlockBegin
  2
_D_10
 70
     0
 10
0.0
 20
0.0
 30
0.0
  3
_D_10
  1

  0
INSERT
  5
1ED
330
1EA
100
AcDbEntity
  8
0
  6
Continuous
 62
     7
370
    18
100
AcDbBlockReference
  2
_Open30
 10
121.6137933167
 20
175.0782038975
 30
0.0
 41
3.0
 42
3.0
 50
180.0
  0
INSERT
  5
1EE
330
1EA
100
AcDbEntity
  8
0
  6
Continuous
 62
     7
370
    18
100
AcDbBlockReference
  2
_Open30
 10
259.5653154427
 20
175.0782038975
 30
0.0
 41
3.0
 42
3.0
 50
0.0
  0
LINE
  5
1EF
330
1EA
100
AcDbEntity
  8
0
  6
Continuous
 62
     7
370
    18
100
AcDbLine
 10
121.6137933167
 20
147.6511621624
 30
0.0
 11
121.6137933167
 21
176.0782038975
 31
0.0
  0
LINE
  5
1F0
330
1EA
100
AcDbEntity
  8
0
  6
Continuous
 62
     7
370
    18
100
AcDbLine
 10
259.5653154427
 20
155.2783170939
 30
0.0
 11
259.5653154427
 21
176.0782038975
 31
0.0
  0
LINE
  5
1F1
330
1EA
100
AcDbEntity
  8
0
  6
Continuous
 62
     7
370
    18
100
AcDbLine
 10
121.6137933167
 20
175.0782038975
 30
0.0
 11
259.5653154427
 21
175.0782038975
 31
0.0
  0
MTEXT
  5
1F2
330
1EA
100
AcDbEntity
  8
0
  6
Continuous
 62
     7
370
    18
100
AcDbMText
 10
179.9376250757
 20
178.1569916599
 30
0.0
 40
2.6458333333
 41
0.0
 71
     1
 72
     1
  1
L=100～10000
  7
SLDTEXTSTYLE1
 73
     1
 44
1.0
  0
ENDBLK
  5
1EC
330
1EA
100
AcDbEntity
  8
0
100
AcDbBlockEnd
  0
BLOCK
  5
1F5
330
1F4
100
AcDbEntity
  8
0
100
AcDbBlockBegin
  2
_D_11
 70
     0
 10
0.0
 20
0.0
 30
0.0
  3
_D_11
  1

  0
ARC
  5
1F7
330
1F4
100
AcDbEntity
  8
0
  6
Continuous
 62
     7
370
    18
100
AcDbCircle
 10
228.7398598888
 20
160.6576080905
 30
0.0
 40
3.944175412646004
100
AcDbArc
 50
153.4349488229
 51
206.5650511771
  0
ARC
  5
1F8
330
1F4
100
AcDbEntity
  8
0
  6
Continuous
 62
     7
370
    18
100
AcDbCircle
 10
225.2120821537
 20
160.6576080905
 30
0.0
 40
3.944175412646004
100
AcDbArc
 50
333.4349488229
 51
26.5650511771
  0
INSERT
  5
1F9
330
1F4
100
AcDbEntity
  8
0
  6
Continuous
 62
     7
370
    18
100
AcDbBlockReference
  2
_Open30
 10
194.3866264252
 20
158.8937194558
 30
0.0
 41
3.0
 42
3.0
 50
180.0
  0
INSERT
  5
1FA
330
1F4
100
AcDbEntity
  8
0
  6
Continuous
 62
     7
370
    18
100
AcDbBlockReference
  2
_Open30
 10
259.5653154427
 20
158.8937194558
 30
0.0
 41
3.0
 42
3.0
 50
0.0
  0
LINE
  5
1FB
330
1F4
100
AcDbEntity
  8
0
  6
Continuous
 62
     7
370
    18
100
AcDbLine
 10
194.3866264252
 20
146.1511621624
 30
0.0
 11
194.3866264252
 21
159.8937194558
 31
0.0
  0
LINE
  5
1FC
330
1F4
100
AcDbEntity
  8
0
  6
Continuous
 62
     7
370
    18
100
AcDbLine
 10
259.5653154427
 20
155.2783170939
 30
0.0
 11
259.5653154427
 21
159.8937194558
 31
0.0
  0
LINE
  5
1FD
330
1F4
100
AcDbEntity
  8
0
  6
Continuous
 62
     7
370
    18
100
AcDbLine
 10
194.3866264252
 20
158.8937194558
 30
0.0
 11
259.5653154427
 21
158.8937194558
 31
0.0
  0
MTEXT
  5
1FE
330
1F4
100
AcDbEntity
  8
0
  6
Continuous
 62
     7
370
    18
100
AcDbMText
 10
225.2120821537
 20
161.9725069853
 30
0.0
 40
2.6458333333
 41
0.0
 71
     1
 72
     1
  1
80
  7
SLDTEXTSTYLE0
 73
     1
 44
1.0
  0
ENDBLK
  5
1F6
330
1F4
100
AcDbEntity
  8
0
100
AcDbBlockEnd
  0
BLOCK
  5
201
330
200
100
AcDbEntity
  8
0
100
AcDbBlockBegin
  2
_D_12
 70
     0
 10
0.0
 20
0.0
 30
0.0
  3
_D_12
  1

  0
ARC
  5
203
330
200
100
AcDbEntity
  8
0
  6
Continuous
 62
     7
370
    18
100
AcDbCircle
 10
40.1854562554
 20
117.3150511173
 30
0.0
 40
3.944175412646004
100
AcDbArc
 50
243.4349488229
 51
296.5650511771
  0
ARC
  5
204
330
200
100
AcDbEntity
  8
0
  6
Continuous
 62
     7
370
    18
100
AcDbCircle
 10
40.1854562554
 20
113.7872733821
 30
0.0
 40
3.944175412646004
100
AcDbArc
 50
63.4349488229
 51
116.5650511771
  0
INSERT
  5
205
330
200
100
AcDbEntity
  8
0
  6
Continuous
 62
     7
370
    18
100
AcDbBlockReference
  2
_Open30
 10
41.9493448901
 20
107.5511621624
 30
0.0
 41
3.0
 42
3.0
 50
270.0
  0
INSERT
  5
206
330
200
100
AcDbEntity
  8
0
  6
Continuous
 62
     7
370
    18
100
AcDbBlockReference
  2
_Open30
 10
41.9493448901
 20
123.5511621624
 30
0.0
 41
3.0
 42
3.0
 50
90.0
  0
LINE
  5
207
330
200
100
AcDbEntity
  8
0
  6
Continuous
 62
     7
370
    18
100
AcDbLine
 10
48.6137933167
 20
107.5511621624
 30
0.0
 11
40.9493448901
 21
107.5511621624
 31
0.0
  0
LINE
  5
208
330
200
100
AcDbEntity
  8
0
  6
Continuous
 62
     7
370
    18
100
AcDbLine
 10
50.6137933167
 20
123.5511621624
 30
0.0
 11
40.9493448901
 21
123.5511621624
 31
0.0
  0
LINE
  5
209
330
200
100
AcDbEntity
  8
0
  6
Continuous
 62
     7
370
    18
100
AcDbLine
 10
41.9493448901
 20
107.5511621624
 30
0.0
 11
41.9493448901
 21
123.5511621624
 31
0.0
  0
MTEXT
  5
20A
330
200
100
AcDbEntity
  8
0
  6
Continuous
 62
     7
370
    18
100
AcDbMText
 10
38.8705573606
 20
113.7872733821
 30
0.0
 40
2.6458333333
 41
0.0
 71
     1
 72
     1
  1
16
  7
SLDTEXTSTYLE0
 11
6.123233995736766E-17
 21
1.0
 31
0.0
 73
     1
 44
1.0
  0
ENDBLK
  5
202
330
200
100
AcDbEntity
  8
0
100
AcDbBlockEnd
  0
BLOCK
  5
20D
330
20C
100
AcDbEntity
  8
0
100
AcDbBlockBegin
  2
_D_13
 70
     0
 10
0.0
 20
0.0
 30
0.0
  3
_D_13
  1

  0
INSERT
  5
20F
330
20C
100
AcDbEntity
  8
0
  6
Continuous
 62
     7
370
    18
100
AcDbBlockReference
  2
_Open30
 10
49.6137933167
 20
97.7376112904
 30
0.0
 41
3.0
 42
3.0
 50
180.0
  0
INSERT
  5
210
330
20C
100
AcDbEntity
  8
0
  6
Continuous
 62
     7
370
    18
100
AcDbBlockReference
  2
_Open30
 10
63.6137933167
 20
97.7376112904
 30
0.0
 41
3.0
 42
3.0
 50
0.0
  0
LINE
  5
211
330
20C
100
AcDbEntity
  8
0
  6
Continuous
 62
     7
370
    18
100
AcDbLine
 10
49.6137933167
 20
106.5511621624
 30
0.0
 11
49.6137933167
 21
96.7376112904
 31
0.0
  0
LINE
  5
212
330
20C
100
AcDbEntity
  8
0
  6
Continuous
 62
     7
370
    18
100
AcDbLine
 10
63.6137933167
 20
106.5511621624
 30
0.0
 11
63.6137933167
 21
96.7376112904
 31
0.0
  0
LINE
  5
213
330
20C
100
AcDbEntity
  8
0
  6
Continuous
 62
     7
370
    18
100
AcDbLine
 10
49.6137933167
 20
97.7376112904
 30
0.0
 11
38.5097615401
 21
97.7376112904
 31
0.0
  0
LINE
  5
214
330
20C
100
AcDbEntity
  8
0
  6
Continuous
 62
     7
370
    18
100
AcDbLine
 10
49.6137933167
 20
97.7376112904
 30
0.0
 11
63.6137933167
 21
97.7376112904
 31
0.0
  0
MTEXT
  5
215
330
20C
100
AcDbEntity
  8
0
  6
Continuous
 62
     7
370
    18
100
AcDbMText
 10
38.5097615401
 20
100.8163992856
 30
0.0
 40
2.6458333333
 41
0.0
 71
     1
 72
     1
  1
%%c
  7
SLDTEXTSTYLE0
 73
     1
 44
1.0
  0
MTEXT
  5
216
330
20C
100
AcDbEntity
  8
0
  6
Continuous
 62
     7
370
    18
100
AcDbMText
 10
41.8611505049
 20
100.8163992856
 30
0.0
 40
2.6458333333
 41
0.0
 71
     1
 72
     1
  1
14
  7
SLDTEXTSTYLE0
 73
     1
 44
1.0
  0
ENDBLK
  5
20E
330
20C
100
AcDbEntity
  8
0
100
AcDbBlockEnd
  0
BLOCK
  5
21A
330
219
100
AcDbEntity
  8
0
100
AcDbBlockBegin
  2
_D_14
 70
     0
 10
0.0
 20
0.0
 30
0.0
  3
_D_14
  1

  0
INSERT
  5
21C
330
219
100
AcDbEntity
  8
0
  6
Continuous
 62
     7
370
    18
100
AcDbBlockReference
  2
_Open30
 10
81.6137933167
 20
153.3747181589
 30
0.0
 41
3.0
 42
3.0
 50
0.0
  0
INSERT
  5
21D
330
219
100
AcDbEntity
  8
0
  6
Continuous
 62
     7
370
    18
100
AcDbBlockReference
  2
_Open30
 10
86.8137933167
 20
153.3747181589
 30
0.0
 41
3.0
 42
3.0
 50
180.0
  0
LINE
  5
21E
330
219
100
AcDbEntity
  8
0
  6
Continuous
 62
     7
370
    18
100
AcDbLine
 10
81.6137933167
 20
146.5961621624
 30
0.0
 11
81.6137933167
 21
154.3747181589
 31
0.0
  0
LINE
  5
21F
330
219
100
AcDbEntity
  8
0
  6
Continuous
 62
     7
370
    18
100
AcDbLine
 10
86.8137933167
 20
147.6511621624
 30
0.0
 11
86.8137933167
 21
154.3747181589
 31
0.0
  0
LINE
  5
220
330
219
100
AcDbEntity
  8
0
  6
Continuous
 62
     7
370
    18
100
AcDbLine
 10
81.6137933167
 20
153.3747181589
 30
0.0
 11
78.1137933167
 21
153.3747181589
 31
0.0
  0
LINE
  5
221
330
219
100
AcDbEntity
  8
0
  6
Continuous
 62
     7
370
    18
100
AcDbLine
 10
81.6137933167
 20
153.3747181589
 30
0.0
 11
86.8137933167
 21
153.3747181589
 31
0.0
  0
LINE
  5
222
330
219
100
AcDbEntity
  8
0
  6
Continuous
 62
     7
370
    18
100
AcDbLine
 10
86.8137933167
 20
153.3747181589
 30
0.0
 11
90.3137933167
 21
153.3747181589
 31
0.0
  0
MTEXT
  5
223
330
219
100
AcDbEntity
  8
0
  6
Continuous
 62
     7
370
    18
100
AcDbMText
 10
83.331848883
 20
156.4535059213
 30
0.0
 40
2.6458333333
 41
0.0
 71
     1
 72
     1
  1
5
  7
SLDTEXTSTYLE0
 73
     1
 44
1.0
  0
ENDBLK
  5
21B
330
219
100
AcDbEntity
  8
0
100
AcDbBlockEnd
  0
BLOCK
  5
225
330
224
100
AcDbEntity
  8
0
100
AcDbBlockBegin
  2
SW_NOTE_0
 70
     0
 10
0.0
 20
0.0
 30
0.0
  3
SW_NOTE_0
  1

  0
LINE
  5
227
330
224
100
AcDbEntity
  8
0
  6
Continuous
 62
     0
370
    18
100
AcDbLine
 10
19.2933667231
 20
0.0
 30
0.0
 11
0.0
 21
0.0
 31
0.0
  0
MTEXT
  5
228
330
224
100
AcDbEntity
  8
0
  6
Continuous
 62
     0
370
    18
100
AcDbMText
 10
0.4269841646
 20
2.9992570746
 30
0.0
 40
2.6458333333
 41
0.0
 71
     1
 72
     1
  1
先端120°形
  7
SLDTEXTSTYLE1
 73
     1
 44
1.0
  0
ENDBLK
  5
226
330
224
100
AcDbEntity
  8
0
100
AcDbBlockEnd
  0
BLOCK
  5
22D
330
22C
100
AcDbEntity
  8
0
100
AcDbBlockBegin
  2
SW_NOTE_0_1
 70
     0
 10
0.0
 20
0.0
 30
0.0
  3
SW_NOTE_0_1
  1

  0
LINE
  5
22F
330
22C
100
AcDbEntity
  8
0
  6
Continuous
 62
     0
370
    18
100
AcDbLine
 10
12.6199878532
 20
0.0
 30
0.0
 11
0.0
 21
0.0
 31
0.0
  0
MTEXT
  5
230
330
22C
100
AcDbEntity
  8
0
  6
Continuous
 62
     0
370
    18
100
AcDbMText
 10
0.4269841646
 20
3.0596688197
 30
0.0
 40
2.6458333333
 41
0.0
 71
     1
 72
     1
  1
 保護管 
  7
SLDTEXTSTYLE1
 73
     1
 44
1.0
  0
ENDBLK
  5
22E
330
22C
100
AcDbEntity
  8
0
100
AcDbBlockEnd
  0
BLOCK
  5
234
330
233
100
AcDbEntity
  8
0
100
AcDbBlockBegin
  2
SW_NOTE_0_2
 70
     0
 10
0.0
 20
0.0
 30
0.0
  3
SW_NOTE_0_2
  1

  0
LINE
  5
236
330
233
100
AcDbEntity
  8
0
  6
Continuous
 62
     0
370
    18
100
AcDbLine
 10
11.448963337
 20
0.0
 30
0.0
 11
0.0
 21
0.0
 31
0.0
  0
MTEXT
  5
237
330
233
100
AcDbEntity
  8
0
  6
Continuous
 62
     0
370
    18
100
AcDbMText
 10
0.4269841646
 20
3.0514098183
 30
0.0
 40
2.6458333333
 41
0.0
 71
     1
 72
     1
  1
ｽﾌﾟﾘﾝｸﾞ
  7
SLDTEXTSTYLE1
 73
     1
 44
1.0
  0
ENDBLK
  5
235
330
233
100
AcDbEntity
  8
0
100
AcDbBlockEnd
  0
BLOCK
  5
23B
330
23A
100
AcDbEntity
  8
0
100
AcDbBlockBegin
  2
SW_NOTE_0_3
 70
     0
 10
0.0
 20
0.0
 30
0.0
  3
SW_NOTE_0_3
  1

  0
LINE
  5
23D
330
23A
100
AcDbEntity
  8
0
  6
Continuous
 62
     0
370
    18
100
AcDbLine
 10
21.1846500415
 20
0.0
 30
0.0
 11
0.0
 21
0.0
 31
0.0
  0
MTEXT
  5
23E
330
23A
100
AcDbEntity
  8
0
  6
Continuous
 62
     0
370
    18
100
AcDbMText
 10
0.4269841646
 20
3.1050100249
 30
0.0
 40
2.6458333333
 41
0.0
 71
     1
 72
     1
  1
ﾊﾞｲﾖﾈｯﾄｷｬｯﾌﾟ
  7
SLDTEXTSTYLE1
 73
     1
 44
1.0
  0
ENDBLK
  5
23C
330
23A
100
AcDbEntity
  8
0
100
AcDbBlockEnd
  0
BLOCK
  5
242
330
241
100
AcDbEntity
  8
0
100
AcDbBlockBegin
  2
SW_NOTE_0_4
 70
     0
 10
0.0
 20
0.0
 30
0.0
  3
SW_NOTE_0_4
  1

  0
LINE
  5
244
330
241
100
AcDbEntity
  8
0
  6
Continuous
 62
     0
370
    18
100
AcDbLine
 10
12.806176931
 20
0.0
 30
0.0
 11
0.0
 21
0.0
 31
0.0
  0
MTEXT
  5
245
330
241
100
AcDbEntity
  8
0
  6
Continuous
 62
     0
370
    18
100
AcDbMText
 10
0.3984487469
 20
3.1007510838
 30
0.0
 40
2.6458333333
 41
0.0
 71
     1
 72
     1
  1
六角ｶｼﾒ
  7
SLDTEXTSTYLE1
 73
     1
 44
1.0
  0
ENDBLK
  5
243
330
241
100
AcDbEntity
  8
0
100
AcDbBlockEnd
  0
BLOCK
  5
249
330
248
100
AcDbEntity
  8
0
100
AcDbBlockBegin
  2
SW_NOTE_0_5
 70
     0
 10
0.0
 20
0.0
 30
0.0
  3
SW_NOTE_0_5
  1

  0
LINE
  5
24B
330
248
100
AcDbEntity
  8
0
  6
Continuous
 62
     0
370
    18
100
AcDbLine
 10
9.0089168179
 20
0.0
 30
0.0
 11
0.0
 21
0.0
 31
0.0
  0
MTEXT
  5
24C
330
248
100
AcDbEntity
  8
0
  6
Continuous
 62
     0
370
    18
100
AcDbMText
 10
0.4982303931
 20
3.1081143223
 30
0.0
 40
2.6458333333
 41
0.0
 71
     1
 72
     1
  1
ｽﾘｰﾌﾞ
  7
SLDTEXTSTYLE1
 73
     1
 44
1.0
  0
ENDBLK
  5
24A
330
248
100
AcDbEntity
  8
0
100
AcDbBlockEnd
  0
BLOCK
  5
250
330
24F
100
AcDbEntity
  8
0
100
AcDbBlockBegin
  2
SW_NOTE_0_6
 70
     0
 10
0.0
 20
0.0
 30
0.0
  3
SW_NOTE_0_6
  1

  0
LINE
  5
252
330
24F
100
AcDbEntity
  8
0
  6
Continuous
 62
     0
370
    18
100
AcDbLine
 10
24.638929196
 20
0.0
 30
0.0
 11
0.0
 21
0.0
 31
0.0
  0
MTEXT
  5
253
330
24F
100
AcDbEntity
  8
0
  6
Continuous
 62
     0
370
    18
100
AcDbMText
 10
0.4471128074
 20
6.6625759336
 30
0.0
 40
2.6458333333
 41
0.0
 71
     1
 72
     1
  1
ｽﾘｰﾌﾞ内
  7
SLDTEXTSTYLE1
 73
     1
 44
1.0
  0
MTEXT
  5
254
330
24F
100
AcDbEntity
  8
0
  6
Continuous
 62
     0
370
    18
100
AcDbMText
 10
0.4471128074
 20
3.1347981984
 30
0.0
 40
2.6458333333
 41
0.0
 71
     1
 72
     1
  1
 ｴﾎﾟｷｼ樹脂充填
  7
SLDTEXTSTYLE1
 73
     1
 44
1.0
  0
ENDBLK
  5
251
330
24F
100
AcDbEntity
  8
0
100
AcDbBlockEnd
  0
BLOCK
  5
258
330
257
100
AcDbEntity
  8
0
100
AcDbBlockBegin
  2
SW_NOTE_0_7
 70
     0
 10
0.0
 20
0.0
 30
0.0
  3
SW_NOTE_0_7
  1

  0
LINE
  5
25A
330
257
100
AcDbEntity
  8
0
  6
Continuous
 62
     0
370
    18
100
AcDbLine
 10
14.2809849012
 20
0.0
 30
0.0
 11
0.0
 21
0.0
 31
0.0
  0
MTEXT
  5
25B
330
257
100
AcDbEntity
  8
0
  6
Continuous
 62
     0
370
    18
100
AcDbMText
 10
0.4967036761
 20
3.1081143223
 30
0.0
 40
2.6458333333
 41
0.0
 71
     1
 72
     1
  1
  ﾘｰﾄﾞ線  
  7
SLDTEXTSTYLE1
 73
     1
 44
1.0
  0
ENDBLK
  5
259
330
257
100
AcDbEntity
  8
0
100
AcDbBlockEnd
  0
BLOCK
  5
25F
330
25E
100
AcDbEntity
  8
0
100
AcDbBlockBegin
  2
SW_NOTE_0_8
 70
     0
 10
0.0
 20
0.0
 30
0.0
  3
SW_NOTE_0_8
  1

  0
LINE
  5
261
330
25E
100
AcDbEntity
  8
0
  6
Continuous
 62
     0
370
    18
100
AcDbLine
 10
19.4452579844
 20
0.0
 30
0.0
 11
0.0
 21
0.0
 31
0.0
  0
MTEXT
  5
262
330
25E
100
AcDbEntity
  8
0
  6
Continuous
 62
     0
370
    18
100
AcDbMText
 10
0.4672671533
 20
3.1081143223
 30
0.0
 40
2.6458333333
 41
0.0
 71
     1
 72
     1
  1
熱収縮ﾁｭｰﾌﾞ
  7
SLDTEXTSTYLE1
 73
     1
 44
1.0
  0
ENDBLK
  5
260
330
25E
100
AcDbEntity
  8
0
100
AcDbBlockEnd
  0
BLOCK
  5
266
330
265
100
AcDbEntity
  8
0
100
AcDbBlockBegin
  2
SW_NOTE_0_9
 70
     0
 10
0.0
 20
0.0
 30
0.0
  3
SW_NOTE_0_9
  1

  0
LINE
  5
268
330
265
100
AcDbEntity
  8
0
  6
Continuous
 62
     0
370
    18
100
AcDbLine
 10
-13.470867857
 20
0.0
 30
0.0
 11
0.0
 21
0.0
 31
0.0
  0
MTEXT
  5
269
330
265
100
AcDbEntity
  8
0
  6
Continuous
 62
     0
370
    18
100
AcDbMText
 10
-13.9613333217
 20
3.1576923166
 30
0.0
 40
2.6458333333
 41
0.0
 71
     1
 72
     1
  1
Yﾗｸﾞ(M3)
  7
SLDTEXTSTYLE1
 73
     1
 44
1.0
  0
ENDBLK
  5
267
330
265
100
AcDbEntity
  8
0
100
AcDbBlockEnd
  0
BLOCK
  5
275
330
274
100
AcDbEntity
  8
0
100
AcDbBlockBegin
  2
SW_NOTE_0_10
 70
     0
 10
0.0
 20
0.0
 30
0.0
  3
SW_NOTE_0_10
  1

  0
LINE
  5
277
330
274
100
AcDbEntity
  8
0
  6
Continuous
 62
     0
370
    18
100
AcDbLine
 10
-7.9881131869
 20
0.0
 30
0.0
 11
0.0
 21
0.0
 31
0.0
  0
MTEXT
  5
278
330
274
100
AcDbEntity
  8
0
  6
Continuous
 62
     0
370
    18
100
AcDbMText
 10
-8.4431093542
 20
3.1484990947
 30
0.0
 40
2.6458333333
 41
0.0
 71
     1
 72
     1
  1
(R20)
  7
SLDTEXTSTYLE0
 73
     1
 44
1.0
  0
ENDBLK
  5
276
330
274
100
AcDbEntity
  8
0
100
AcDbBlockEnd
  0
BLOCK
  5
27C
330
27B
100
AcDbEntity
  8
0
100
AcDbBlockBegin
  2
SW_CENTERMARKSYMBOL_0
 70
     0
 10
0.0
 20
0.0
 30
0.0
  3
SW_CENTERMARKSYMBOL_0
  1

  0
LINE
  5
27E
330
27B
100
AcDbEntity
  8
0
  6
Continuous
 62
     0
370
    18
100
AcDbLine
 10
0.0
 20
0.0
 30
0.0
 11
0.0
 21
2.4999976158
 31
0.0
  0
LINE
  5
27F
330
27B
100
AcDbEntity
  8
0
  6
Continuous
 62
     0
370
    18
100
AcDbLine
 10
0.0
 20
0.0
 30
0.0
 11
-2.4999976158
 21
0.0
 31
0.0
  0
LINE
  5
280
330
27B
100
AcDbEntity
  8
0
  6
Continuous
 62
     0
370
    18
100
AcDbLine
 10
0.0
 20
0.0
 30
0.0
 11
0.0
 21
-2.5000013411
 31
0.0
  0
LINE
  5
281
330
27B
100
AcDbEntity
  8
0
  6
Continuous
 62
     0
370
    18
100
AcDbLine
 10
0.0
 20
0.0
 30
0.0
 11
2.500012517
 21
0.0
 31
0.0
  0
LINE
  5
282
330
27B
100
AcDbEntity
  8
0
  6
Continuous
 62
     0
370
    18
100
AcDbLine
 10
0.0
 20
2.4999976158
 30
0.0
 11
0.0
 21
4.1001141071
 31
0.0
  0
LINE
  5
283
330
27B
100
AcDbEntity
  8
0
  6
Continuous
 62
     0
370
    18
100
AcDbLine
 10
-2.4999976158
 20
0.0
 30
0.0
 11
-15.2212381363
 21
0.0
 31
0.0
  0
LINE
  5
284
330
27B
100
AcDbEntity
  8
0
  6
Continuous
 62
     0
370
    18
100
AcDbLine
 10
0.0
 20
-2.5000013411
 30
0.0
 11
0.0
 21
-4.1001141071
 31
0.0
  0
LINE
  5
285
330
27B
100
AcDbEntity
  8
0
  6
Continuous
 62
     0
370
    18
100
AcDbLine
 10
2.500012517
 20
0.0
 30
0.0
 11
4.1001141071
 21
0.0
 31
0.0
  0
ENDBLK
  5
27D
330
27B
100
AcDbEntity
  8
0
100
AcDbBlockEnd
  0
BLOCK
  5
288
330
287
100
AcDbEntity
  8
0
100
AcDbBlockBegin
  2
SW_CENTERMARKSYMBOL_1
 70
     0
 10
0.0
 20
0.0
 30
0.0
  3
SW_CENTERMARKSYMBOL_1
  1

  0
LINE
  5
28A
330
287
100
AcDbEntity
  8
0
  6
Continuous
 62
     0
370
    18
100
AcDbLine
 10
0.0
 20
0.0
 30
0.0
 11
0.0
 21
2.5000013411
 31
0.0
  0
LINE
  5
28B
330
287
100
AcDbEntity
  8
0
  6
Continuous
 62
     0
370
    18
100
AcDbLine
 10
0.0
 20
0.0
 30
0.0
 11
-2.4999976158
 21
0.0
 31
0.0
  0
LINE
  5
28C
330
287
100
AcDbEntity
  8
0
  6
Continuous
 62
     0
370
    18
100
AcDbLine
 10
0.0
 20
0.0
 30
0.0
 11
0.0
 21
-2.5000013411
 31
0.0
  0
LINE
  5
28D
330
287
100
AcDbEntity
  8
0
  6
Continuous
 62
     0
370
    18
100
AcDbLine
 10
0.0
 20
0.0
 30
0.0
 11
2.500012517
 21
0.0
 31
0.0
  0
LINE
  5
28E
330
287
100
AcDbEntity
  8
0
  6
Continuous
 62
     0
370
    18
100
AcDbLine
 10
0.0
 20
2.5000013411
 30
0.0
 11
0.0
 21
4.1001141071
 31
0.0
  0
LINE
  5
28F
330
287
100
AcDbEntity
  8
0
  6
Continuous
 62
     0
370
    18
100
AcDbLine
 10
-2.4999976158
 20
0.0
 30
0.0
 11
-15.2700692415
 21
0.0
 31
0.0
  0
LINE
  5
290
330
287
100
AcDbEntity
  8
0
  6
Continuous
 62
     0
370
    18
100
AcDbLine
 10
0.0
 20
-2.5000013411
 30
0.0
 11
0.0
 21
-4.1001141071
 31
0.0
  0
LINE
  5
291
330
287
100
AcDbEntity
  8
0
  6
Continuous
 62
     0
370
    18
100
AcDbLine
 10
2.500012517
 20
0.0
 30
0.0
 11
4.1001141071
 21
0.0
 31
0.0
  0
ENDBLK
  5
289
330
287
100
AcDbEntity
  8
0
100
AcDbBlockEnd
  0
ENDSEC
  0
SECTION
  2
ENTITIES
  0
LINE
  5
73
330
1F
100
AcDbEntity
  8
0
  6
Continuous
 62
     7
370
    25
100
AcDbLine
 10
12.8700158558
 20
190.0085404097
 30
0.0
 11
12.8700749558
 21
18.0082352097
 31
0.0
  0
LINE
  5
74
330
1F
100
AcDbEntity
  8
0
  6
Continuous
 62
     7
370
    25
100
AcDbLine
 10
12.8700749558
 20
18.0082352097
 30
0.0
 11
282.5707921135
 21
18.0082352097
 31
0.0
  0
LINE
  5
75
330
1F
100
AcDbEntity
  8
0
  6
Continuous
 62
     7
370
    25
100
AcDbLine
 10
12.8700158558
 20
190.0085404097
 30
0.0
 11
282.5707921135
 21
190.0085404097
 31
0.0
  0
LINE
  5
76
330
1F
100
AcDbEntity
  8
0
  6
Continuous
 62
     7
370
    25
100
AcDbLine
 10
282.5707921135
 20
18.0082352097
 30
0.0
 11
282.5707921135
 21
190.0085404097
 31
0.0
  0
MTEXT
  5
78
330
1F
100
AcDbEntity
  8
0
  6
Continuous
 62
     7
370
    18
100
AcDbMText
 10
161.3643284109
 20
33.0186001169
 30
0.0
 40
4.7625
 41
0.0
 71
     1
 72
     1
  1
RKC INSTRUMENT INC.
  7
SLDTEXTSTYLE0
 73
     1
 44
1.0
  0
MTEXT
  5
7A
330
1F
100
AcDbEntity
  8
0
  6
Continuous
 62
     7
370
    18
100
AcDbMText
 10
161.3643284109
 20
40.4903990747
 30
0.0
 40
4.7625
 41
0.0
 71
     1
 72
     1
  1
MODEL：T-211-5-ﾛ-ﾛ-ﾛ-Y-ﾛ-ﾛ-ﾛ
  7
SLDTEXTSTYLE1
 73
     1
 44
1.0
  0
MTEXT
  5
7B
330
1F
100
AcDbEntity
  8
0
  6
Continuous
 62
     7
370
    18
100
AcDbMText
 10
161.3643284109
 20
93.1990362286
 30
0.0
 40
2.6458333333
 41
0.0
 71
     1
 72
     1
  1
※1 ｽﾘｰﾌﾞ（φD1）寸法
  7
SLDTEXTSTYLE1
 73
     1
 44
1.0
  0
INSERT
  5
97
330
1F
100
AcDbEntity
  8
0
  6
Continuous
 62
     7
370
    18
100
AcDbBlockReference
  2
SW_TABLEANNOTATION_0
 10
160.9799002039
 20
87.8879681068
 30
0.0
  0
INSERT
  5
9F
330
1F
100
AcDbEntity
  8
0
  6
Continuous
 62
     7
100
AcDbBlockReference
  2
SW_BROKEN_VIEW_0
 10
50.2137964329
 20
95.622294437
 30
0.0
  0
LINE
  5
A0
330
1F
100
AcDbEntity
  8
0
  6
Continuous
 62
     7
370
    25
100
AcDbLine
 10
253.2843499781
 20
137.3741210847
 30
0.0
 11
244.2843466402
 21
137.3741210847
 31
0.0
  0
LINE
  5
A1
330
1F
100
AcDbEntity
  8
0
  6
Continuous
 62
     7
370
    25
100
AcDbLine
 10
244.2843466402
 20
132.8741194157
 30
0.0
 11
253.2843499781
 21
132.8741194157
 31
0.0
  0
LINE
  5
A2
330
1F
100
AcDbEntity
  8
0
  6
Continuous
 62
     7
370
    25
100
AcDbLine
 10
253.2843499781
 20
152.4282054453
 30
0.0
 11
244.2843466402
 21
152.4282054453
 31
0.0
  0
LINE
  5
A3
330
1F
100
AcDbEntity
  8
0
  6
Continuous
 62
     7
370
    25
100
AcDbLine
 10
244.2843466402
 20
147.9282037763
 30
0.0
 11
253.2843499781
 21
147.9282037763
 31
0.0
  0
LINE
  5
A4
330
1F
100
AcDbEntity
  8
0
  6
Continuous
 62
     7
370
    25
100
AcDbLine
 10
244.2843466402
 20
135.4991191475
 30
0.0
 11
231.4955442549
 21
137.2964674084
 31
0.0
  0
LINE
  5
A5
330
1F
100
AcDbEntity
  8
0
  6
Continuous
 62
     7
370
    25
100
AcDbLine
 10
231.4238398672
 20
136.556546524
 30
0.0
 11
244.284048617
 21
134.7491623311
 31
0.0
  0
LINE
  5
A6
330
1F
100
AcDbEntity
  8
0
  6
Continuous
 62
     7
370
    25
100
AcDbLine
 10
229.7016381623
 20
147.7537409811
 30
0.0
 11
244.2843466402
 21
149.8032057135
 31
0.0
  0
LINE
  5
A7
330
1F
100
AcDbEntity
  8
0
  6
Continuous
 62
     7
370
    25
100
AcDbLine
 10
244.284048617
 20
150.5531625299
 30
0.0
 11
229.7594397665
 21
148.5118636339
 31
0.0
  0
LINE
  5
A8
330
1F
100
AcDbEntity
  8
0
  6
Continuous
 62
     7
370
    25
100
AcDbLine
 10
244.2843466402
 20
132.8741194157
 30
0.0
 11
244.2843466402
 21
137.3741210847
 31
0.0
  0
LINE
  5
A9
330
1F
100
AcDbEntity
  8
0
  6
Continuous
 62
     7
370
    25
100
AcDbLine
 10
253.2843499781
 20
132.8741194157
 30
0.0
 11
253.2843499781
 21
137.3741210847
 31
0.0
  0
LINE
  5
AA
330
1F
100
AcDbEntity
  8
0
  6
Continuous
 62
     7
370
    25
100
AcDbLine
 10
244.2843466402
 20
147.9282037763
 30
0.0
 11
244.2843466402
 21
152.4282054453
 31
0.0
  0
LINE
  5
AB
330
1F
100
AcDbEntity
  8
0
  6
Continuous
 62
     7
370
    25
100
AcDbLine
 10
253.2843499781
 20
147.9282037763
 30
0.0
 11
253.2843499781
 21
152.4282054453
 31
0.0
  0
ARC
  5
AC
330
1F
100
AcDbEntity
  8
0
  6
Continuous
 62
     7
370
    25
100
AcDbCircle
 10
263.984353628
 20
152.0781907332
 30
0.0
 40
0.2999888403898685
100
AcDbArc
 50
269.9997446033
 51
0.0031013313
  0
LINE
  5
AD
330
1F
100
AcDbEntity
  8
0
  6
Continuous
 62
     7
370
    25
100
AcDbLine
 10
263.9843522907
 20
151.7782018928
 30
0.0
 11
259.5843523146
 21
151.7782018928
 31
0.0
  0
ARC
  5
AE
330
1F
100
AcDbEntity
  8
0
  6
Continuous
 62
     7
370
    25
100
AcDbCircle
 10
259.565319385
 20
150.1782027482
 30
0.0
 40
1.600112344606762
100
AcDbArc
 50
89.3184651967
 51
270.6815348033
  0
LINE
  5
AF
330
1F
100
AcDbEntity
  8
0
  6
Continuous
 62
     7
370
    25
100
AcDbLine
 10
259.5843523146
 20
148.5782036035
 30
0.0
 11
263.9843522907
 21
148.5782036035
 31
0.0
  0
ARC
  5
B0
330
1F
100
AcDbEntity
  8
0
  6
Continuous
 62
     7
370
    25
100
AcDbCircle
 10
263.984359987
 20
148.278221122
 30
0.0
 40
0.2999824815436025
100
AcDbArc
 50
359.9963955831
 51
90.0014699526
  0
ARC
  5
B1
330
1F
100
AcDbEntity
  8
0
  6
Continuous
 62
     7
370
    25
100
AcDbCircle
 10
263.984359987
 20
147.5781864306
 30
0.0
 40
0.2999824815435456
100
AcDbArc
 50
269.9985300474
 51
0.0036044169
  0
ARC
  5
B2
330
1F
100
AcDbEntity
  8
0
  6
Continuous
 62
     7
370
    25
100
AcDbCircle
 10
255.8772095622
 20
149.2781402812
 30
0.0
 40
1.999936332087233
100
AcDbArc
 50
236.9755766672
 51
270.0004861546
  0
LINE
  5
B3
330
1F
100
AcDbEntity
  8
0
  6
Continuous
 62
     7
370
    25
100
AcDbLine
 10
254.7872512938
 20
152.7550922184
 30
0.0
 11
253.2843499781
 21
151.7782018928
 31
0.0
  0
ARC
  5
B4
330
1F
100
AcDbEntity
  8
0
  6
Continuous
 62
     7
370
    25
100
AcDbCircle
 10
255.8772150567
 20
151.0782273468
 30
0.0
 40
1.99997420032099
100
AcDbArc
 50
89.9996712641
 51
123.0239059024
  0
LINE
  5
B5
330
1F
100
AcDbEntity
  8
0
  6
Continuous
 62
     7
370
    25
100
AcDbLine
 10
263.9843522907
 20
153.0782015471
 30
0.0
 11
255.8772265316
 21
153.0782015471
 31
0.0
  0
ARC
  5
B6
330
1F
100
AcDbEntity
  8
0
  6
Continuous
 62
     7
370
    25
100
AcDbCircle
 10
263.9843663458
 20
152.7782254245
 30
0.0
 40
0.2999761229110047
100
AcDbArc
 50
359.9958924913
 51
90.0026845237
  0
LINE
  5
B7
330
1F
100
AcDbEntity
  8
0
  6
Continuous
 62
     7
370
    25
100
AcDbLine
 10
264.2843424679
 20
152.0782069712
 30
0.0
 11
264.2843424679
 21
152.7782039194
 31
0.0
  0
LINE
  5
B8
330
1F
100
AcDbEntity
  8
0
  6
Continuous
 62
     7
370
    25
100
AcDbLine
 10
264.2843424679
 20
147.5782053022
 30
0.0
 11
264.2843424679
 21
148.2782022505
 31
0.0
  0
LINE
  5
B9
330
1F
100
AcDbEntity
  8
0
  6
Continuous
 62
     7
370
    25
100
AcDbLine
 10
255.8772265316
 20
147.2782039492
 30
0.0
 11
263.9843522907
 21
147.2782039492
 31
0.0
  0
LINE
  5
BA
330
1F
100
AcDbEntity
  8
0
  6
Continuous
 62
     7
370
    25
100
AcDbLine
 10
253.2843499781
 20
148.5782036035
 30
0.0
 11
254.7872512938
 21
147.6013170032
 31
0.0
  0
LINE
  5
BB
330
1F
100
AcDbEntity
  8
0
  6
Continuous
 62
     7
370
    25
100
AcDbLine
 10
263.9843522907
 20
136.7241212575
 30
0.0
 11
259.5843523146
 21
136.7241212575
 31
0.0
  0
ARC
  5
BC
330
1F
100
AcDbEntity
  8
0
  6
Continuous
 62
     7
370
    25
100
AcDbCircle
 10
259.5653212257
 20
135.1241202502
 30
0.0
 40
1.600114185227522
100
AcDbArc
 50
89.3185318931
 51
270.6814681069
  0
LINE
  5
BD
330
1F
100
AcDbEntity
  8
0
  6
Continuous
 62
     7
370
    25
100
AcDbLine
 10
259.5843523146
 20
133.5241192429
 30
0.0
 11
263.9843522907
 21
133.5241192429
 31
0.0
  0
ARC
  5
BE
330
1F
100
AcDbEntity
  8
0
  6
Continuous
 62
     7
370
    25
100
AcDbCircle
 10
263.984359987
 20
132.52410207
 30
0.0
 40
0.2999824815435456
100
AcDbArc
 50
269.9985300474
 51
0.0036044169
  0
ARC
  5
BF
330
1F
100
AcDbEntity
  8
0
  6
Continuous
 62
     7
370
    25
100
AcDbCircle
 10
255.8772095622
 20
134.2240559206
 30
0.0
 40
1.999936332087249
100
AcDbArc
 50
236.9755766672
 51
270.0004861546
  0
LINE
  5
C0
330
1F
100
AcDbEntity
  8
0
  6
Continuous
 62
     7
370
    25
100
AcDbLine
 10
254.7872512938
 20
137.7010078578
 30
0.0
 11
253.2843499781
 21
136.7241212575
 31
0.0
  0
ARC
  5
C1
330
1F
100
AcDbEntity
  8
0
  6
Continuous
 62
     7
370
    25
100
AcDbCircle
 10
255.8772095622
 20
136.0241845798
 30
0.0
 40
1.999936332087572
100
AcDbArc
 50
89.9995138454
 51
123.0244233328
  0
LINE
  5
C2
330
1F
100
AcDbEntity
  8
0
  6
Continuous
 62
     7
370
    25
100
AcDbLine
 10
263.9843522907
 20
138.0241209118
 30
0.0
 11
255.8772265316
 21
138.0241209118
 31
0.0
  0
LINE
  5
C3
330
1F
100
AcDbEntity
  8
0
  6
Continuous
 62
     7
370
    25
100
AcDbLine
 10
264.2843424679
 20
137.0241188853
 30
0.0
 11
264.2843424679
 21
137.7241195588
 31
0.0
  0
ARC
  5
C4
330
1F
100
AcDbEntity
  8
0
  6
Continuous
 62
     7
370
    25
100
AcDbCircle
 10
263.984359987
 20
137.7241384304
 30
0.0
 40
0.2999824815435823
100
AcDbArc
 50
359.9963955831
 51
90.0014699526
  0
LINE
  5
C5
330
1F
100
AcDbEntity
  8
0
  6
Continuous
 62
     7
370
    25
100
AcDbLine
 10
264.2843424679
 20
132.5241209416
 30
0.0
 11
264.2843424679
 21
133.2241216152
 31
0.0
  0
LINE
  5
C6
330
1F
100
AcDbEntity
  8
0
  6
Continuous
 62
     7
370
    25
100
AcDbLine
 10
253.2843499781
 20
133.5241192429
 30
0.0
 11
254.7872512938
 21
132.5472326426
 31
0.0
  0
LINE
  5
C7
330
1F
100
AcDbEntity
  8
0
  6
Continuous
 62
     7
370
    25
100
AcDbLine
 10
255.8772265316
 20
132.2241195886
 30
0.0
 11
263.9843522907
 21
132.2241195886
 31
0.0
  0
ARC
  5
C8
330
1F
100
AcDbEntity
  8
0
  6
Continuous
 62
     7
370
    25
100
AcDbCircle
 10
263.9843599871
 20
133.2241367618
 30
0.0
 40
0.2999824811830283
100
AcDbArc
 50
359.9971070338
 51
90.0014699812
  0
ARC
  5
C9
330
1F
100
AcDbEntity
  8
0
  6
Continuous
 62
     7
370
    25
100
AcDbCircle
 10
263.9843599871
 20
137.0241037386
 30
0.0
 40
0.2999824811830131
100
AcDbArc
 50
269.9985300188
 51
0.0028929662
  0
LINE
  5
CA
330
1F
100
AcDbEntity
  8
0
  6
Continuous
 62
     7
370
    25
100
AcDbLine
 10
194.3866246299
 20
140.1511610894
 30
0.0
 11
195.3866266564
 21
141.0711625068
 31
0.0
  0
LINE
  5
CB
330
1F
100
AcDbEntity
  8
0
  6
Continuous
 62
     7
370
    25
100
AcDbLine
 10
195.3866266564
 20
144.2311623542
 30
0.0
 11
194.3866246299
 21
145.1511637716
 31
0.0
  0
LINE
  5
CC
330
1F
100
AcDbEntity
  8
0
  6
Continuous
 62
     7
370
    25
100
AcDbLine
 10
184.386626716
 20
140.1511610894
 30
0.0
 11
194.3866246299
 21
140.1511610894
 31
0.0
  0
LINE
  5
CD
330
1F
100
AcDbEntity
  8
0
  6
Continuous
 62
     7
370
    25
100
AcDbLine
 10
194.3866246299
 20
145.1511637716
 30
0.0
 11
184.386626716
 21
145.1511637716
 31
0.0
  0
LINE
  5
CE
330
1F
100
AcDbEntity
  8
0
  6
Continuous
 62
     7
370
    25
100
AcDbLine
 10
195.3866266564
 20
141.0711625068
 30
0.0
 11
203.3866279677
 21
141.0711625068
 31
0.0
  0
LINE
  5
CF
330
1F
100
AcDbEntity
  8
0
  6
Continuous
 62
     7
370
    25
100
AcDbLine
 10
203.3866279677
 20
144.2311623542
 30
0.0
 11
195.3866266564
 21
144.2311623542
 31
0.0
  0
LINE
  5
D0
330
1F
100
AcDbEntity
  8
0
  6
Continuous
 62
     7
370
    25
100
AcDbLine
 10
228.3504241065
 20
139.0177266149
 30
0.0
 11
203.3873730258
 21
142.5260560064
 31
0.0
  0
LINE
  5
D1
330
1F
100
AcDbEntity
  8
0
  6
Continuous
 62
     7
370
    25
100
AcDbLine
 10
203.3866279677
 20
141.7761625199
 30
0.0
 11
228.3288174227
 21
138.2707649319
 31
0.0
  0
LINE
  5
D2
330
1F
100
AcDbEntity
  8
0
  6
Continuous
 62
     7
370
    25
100
AcDbLine
 10
203.3873730258
 20
142.7762688546
 30
0.0
 11
226.8648379401
 21
146.075810626
 31
0.0
  0
LINE
  5
D3
330
1F
100
AcDbEntity
  8
0
  6
Continuous
 62
     7
370
    25
100
AcDbLine
 10
226.8705152825
 20
146.8266093581
 30
0.0
 11
203.3866279677
 21
143.5261623411
 31
0.0
  0
LINE
  5
D4
330
1F
100
AcDbEntity
  8
0
  6
Continuous
 62
     7
370
    25
100
AcDbLine
 10
184.386626716
 20
145.0511620788
 30
0.0
 11
151.9262053922
 21
145.0511620788
 31
0.0
  0
LINE
  5
D5
330
1F
100
AcDbEntity
  8
0
  6
Continuous
 62
     7
370
    25
100
AcDbLine
 10
153.0204721645
 20
140.2511627822
 30
0.0
 11
184.386626716
 21
140.2511627822
 31
0.0
  0
LINE
  5
D6
330
1F
100
AcDbEntity
  8
0
  6
Continuous
 62
     7
370
    25
100
AcDbLine
 10
184.386626716
 20
140.1511610894
 30
0.0
 11
184.386626716
 21
145.1511637716
 31
0.0
  0
LINE
  5
D7
330
1F
100
AcDbEntity
  8
0
  6
Continuous
 62
     7
370
    25
100
AcDbLine
 10
203.3866279677
 20
141.0711625068
 30
0.0
 11
203.3866279677
 21
144.2311623542
 31
0.0
  0
LINE
  5
D8
330
1F
100
AcDbEntity
  8
0
  6
Continuous
 62
     7
370
    25
100
AcDbLine
 10
148.9262034854
 20
145.0511620788
 30
0.0
 11
121.6137906274
 21
145.0511620788
 31
0.0
  0
LINE
  5
D9
330
1F
100
AcDbEntity
  8
0
  6
Continuous
 62
     7
370
    25
100
AcDbLine
 10
121.6137906274
 20
140.2511627822
 30
0.0
 11
150.0204702577
 21
140.2511627822
 31
0.0
  0
SPLINE
  5
DA
330
1F
100
AcDbEntity
  8
0
  6
Continuous
 62
     7
370
    25
100
AcDbSpline
210
0.0
220
0.0
230
1.0
 70
     8
 71
     3
 72
    18
 73
    14
 74
     0
 42
0.00000001
 43
0.00000001
 40
0.0
 40
0.0
 40
0.0
 40
0.0
 40
0.0770825983177519
 40
0.2115668576457254
 40
0.3474641783514845
 40
0.476313500021635
 40
0.5879784961772474
 40
0.7359684424186399
 40
0.7814093728614318
 40
0.821970371156813
 40
0.8589444118408106
 40
0.9043766046470922
 40
1.0
 40
1.0
 40
1.0
 40
1.0
 10
55.66389613951955
 20
89.14809863209241
 30
0.0
 10
55.79970360535352
 20
89.16752177029572
 30
0.0
 10
56.17245127367783
 20
89.2208320167712
 30
0.0
 10
56.7856142734862
 20
89.30155771337246
 30
0.0
 10
57.48951645996272
 20
89.39734282653895
 30
0.0
 10
58.15324574851047
 20
89.49206581657606
 30
0.0
 10
58.83260293308489
 20
89.61242406306546
 30
0.0
 10
59.37173278086978
 20
89.71450929503901
 30
0.0
 10
59.73810919245988
 20
89.93570001402054
 30
0.0
 10
59.83673967479866
 20
90.14882396947806
 30
0.0
 10
59.78779434852321
 20
90.37714952256566
 30
0.0
 10
59.53510438214168
 20
90.59564409825222
 30
0.0
 10
59.28401487833378
 20
90.64195951779415
 30
0.0
 10
59.11379807795797
 20
90.67335733571538
 30
0.0
  0
SPLINE
  5
DB
330
1F
100
AcDbEntity
  8
0
  6
Continuous
 62
     7
370
    25
100
AcDbSpline
210
0.0
220
0.0
230
1.0
 70
     8
 71
     3
 72
    24
 73
    20
 74
     0
 42
0.00000001
 43
0.00000001
 40
0.0
 40
0.0
 40
0.0
 40
0.0
 40
0.0034467914889826
 40
0.0284672396276878
 40
0.0733471439169182
 40
0.1377324911461788
 40
0.2217352719628991
 40
0.3189825911898082
 40
0.4221668418932156
 40
0.5251226421566914
 40
0.6209302286500088
 40
0.6988777693098788
 40
0.756897055229212
 40
0.8362977321307574
 40
0.8703236400946052
 40
0.8958490627665071
 40
0.9214415307149026
 40
0.9615139658282232
 40
1.0
 40
1.0
 40
1.0
 40
1.0
 10
54.01600652541433
 20
91.30807509073504
 30
0.0
 10
54.01611299887495
 20
91.29931399724863
 30
0.0
 10
54.01699236901577
 20
91.22695564645339
 30
0.0
 10
54.2695306747354
 20
91.40286324084391
 30
0.0
 10
54.52163726013079
 20
91.38685984618326
 30
0.0
 10
54.99448863415793
 20
91.50424728606134
 30
0.0
 10
55.55473484254493
 20
91.57576046324718
 30
0.0
 10
56.21990468679899
 20
91.67213729622274
 30
0.0
 10
56.92505072487
 20
91.76460124860947
 30
0.0
 10
57.62839372750857
 20
91.86072626700035
 30
0.0
 10
58.26973409440401
 20
91.95614488197583
 30
0.0
 10
58.81001119058678
 20
92.0497868885018
 30
0.0
 10
59.29181481203134
 20
92.16180973586599
 30
0.0
 10
59.71733843448416
 20
92.2985001320563
 30
0.0
 10
59.841694256995
 20
92.63293897261873
 30
0.0
 10
59.77165887545802
 20
92.83222060127942
 30
0.0
 10
59.60987064369719
 20
92.98008588411474
 30
0.0
 10
59.38138170209492
 20
93.07667921675538
 30
0.0
 10
59.20178369196108
 20
93.11860241724241
 30
0.0
 10
59.11379807795795
 20
93.1391407212753
 30
0.0
  0
SPLINE
  5
DC
330
1F
100
AcDbEntity
  8
0
  6
Continuous
 62
     7
370
    25
100
AcDbSpline
210
0.0
220
0.0
230
1.0
 70
     8
 71
     3
 72
    24
 73
    20
 74
     0
 42
0.00000001
 43
0.00000001
 40
0.0
 40
0.0
 40
0.0
 40
0.0
 40
0.0003820573847847
 40
0.007012469171757
 40
0.0406113572489958
 40
0.0978837703872945
 40
0.1799337704221165
 40
0.2773934677028856
 40
0.3804379477799676
 40
0.4823637071806468
 40
0.5769770754251036
 40
0.6572159822008612
 40
0.7209086319433852
 40
0.8102951351757869
 40
0.8560149644978443
 40
0.8878045304274098
 40
0.9461270039274539
 40
0.9986624938214557
 40
1.0
 40
1.0
 40
1.0
 40
1.0
 10
53.97990101184163
 20
93.71786410348007
 30
0.0
 10
53.97957010819618
 20
93.71698436686425
 30
0.0
 10
53.97349653991855
 20
93.70083724828118
 30
0.0
 10
54.13077352640576
 20
93.79326071173978
 30
0.0
 10
54.27182841408273
 20
93.78011000411233
 30
0.0
 10
54.72037611273323
 20
93.90412483760356
 30
0.0
 10
55.24821576484598
 20
93.97453955755681
 30
0.0
 10
55.91403221347173
 20
94.07548206541836
 30
0.0
 10
56.61686795712831
 20
94.16805125108263
 30
0.0
 10
57.31616278393304
 20
94.26188234703447
 30
0.0
 10
57.96033597972769
 20
94.35381628976282
 30
0.0
 10
58.51583064870199
 20
94.4396158446929
 30
0.0
 10
59.05123729222598
 20
94.55045103361954
 30
0.0
 10
59.51952465411021
 20
94.64023704276623
 30
0.0
 10
59.82591895330224
 20
94.93951676742356
 30
0.0
 10
59.81193574941776
 20
95.29320845634214
 30
0.0
 10
59.48725477865814
 20
95.49196551189891
 30
0.0
 10
59.2409682720271
 20
95.56414367357596
 30
0.0
 10
59.1168788490678
 20
95.59008643636716
 30
0.0
 10
59.11379807795797
 20
95.59073051796743
 30
0.0
  0
SPLINE
  5
DD
330
1F
100
AcDbEntity
  8
0
  6
Continuous
 62
     7
370
    25
100
AcDbSpline
210
0.0
220
0.0
230
1.0
 70
     8
 71
     3
 72
    21
 73
    17
 74
     0
 42
0.00000001
 43
0.00000001
 40
0.0
 40
0.0
 40
0.0
 40
0.0
 40
0.0129868768132456
 40
0.050570253223951
 40
0.1159010336820202
 40
0.2044319558274768
 40
0.3036286692051545
 40
0.4065154005082
 40
0.5065811752913573
 40
0.5982404744194045
 40
0.6775731254188233
 40
0.792271036918175
 40
0.841346712215954
 40
0.8784360137253586
 40
0.9322456657270092
 40
1.0
 40
1.0
 40
1.0
 40
1.0
 10
53.9911215862206
 20
96.18030706779548
 30
0.0
 10
54.02099410043665
 20
96.18618640842689
 30
0.0
 10
54.13731618696018
 20
96.2090802688058
 30
0.0
 10
54.40021969331541
 20
96.27835792385322
 30
0.0
 10
54.84233323718081
 20
96.35725786544053
 30
0.0
 10
55.42804664668943
 20
96.4506248719111
 30
0.0
 10
56.10289058740399
 20
96.54411048745122
 30
0.0
 10
56.80494682985334
 20
96.63767510061798
 30
0.0
 10
57.48919600127338
 20
96.73072498873047
 30
0.0
 10
58.11850297858841
 20
96.81972573237385
 30
0.0
 10
58.77749845627066
 20
96.93719312648123
 30
0.0
 10
59.34152643147603
 20
97.02846982316908
 30
0.0
 10
59.76555779324752
 20
97.28235303783975
 30
0.0
 10
59.86352892054479
 20
97.64073162617245
 30
0.0
 10
59.54837754136981
 20
97.9389595377767
 30
0.0
 10
59.26932788694324
 20
97.99088001189219
 30
0.0
 10
59.11379807795797
 20
98.01981816427299
 30
0.0
  0
SPLINE
  5
DE
330
1F
100
AcDbEntity
  8
0
  6
Continuous
 62
     7
370
    25
100
AcDbSpline
210
0.0
220
0.0
230
1.0
 70
     8
 71
     3
 72
    23
 73
    19
 74
     0
 42
0.00000001
 43
0.00000001
 40
0.0
 40
0.0
 40
0.0
 40
0.0
 40
0.009902116779614
 40
0.0514906801918233
 40
0.1288117074792788
 40
0.224449123170059
 40
0.3281274964796285
 40
0.4319396441563016
 40
0.5297119081882541
 40
0.6181667103224073
 40
0.6940012130098012
 40
0.7544754730719296
 40
0.8275970696374995
 40
0.8533402756537369
 40
0.8873391016903084
 40
0.935667181939082
 40
0.9854697159320127
 40
1.0
 40
1.0
 40
1.0
 40
1.0
 10
54.0218775829247
 20
98.65283159898111
 30
0.0
 10
54.04502424626409
 20
98.6505865367433
 30
0.0
 10
54.16538613110572
 20
98.63891228726
 30
0.0
 10
54.45536271531874
 20
98.75119195961801
 30
0.0
 10
54.95098692003721
 20
98.81379614384947
 30
0.0
 10
55.58957702016655
 20
98.92048893267197
 30
0.0
 10
56.29179321728831
 20
99.01331415626508
 30
0.0
 10
56.99889674211855
 20
99.10828462883428
 30
0.0
 10
57.67079575035012
 20
99.19991035821964
 30
0.0
 10
58.27580747033588
 20
99.29076219657362
 30
0.0
 10
58.7956469320768
 20
99.38079434048278
 30
0.0
 10
59.26661122016645
 20
99.48905497071955
 30
0.0
 10
59.64310512206423
 20
99.60741628721124
 30
0.0
 10
59.83082102607813
 20
99.87221835737434
 30
0.0
 10
59.80569560048719
 20
100.1513046229591
 30
0.0
 10
59.54415827246265
 20
100.3591603676326
 30
0.0
 10
59.29387138944429
 20
100.4382723529788
 30
0.0
 10
59.14697603188478
 20
100.470755024075
 30
0.0
 10
59.11379807795797
 20
100.4780915974219
 30
0.0
  0
SPLINE
  5
DF
330
1F
100
AcDbEntity
  8
0
  6
Continuous
 62
     7
370
    25
100
AcDbSpline
210
0.0
220
0.0
230
1.0
 70
     8
 71
     3
 72
    23
 73
    19
 74
     0
 42
0.00000001
 43
0.00000001
 40
0.0
 40
0.0
 40
0.0
 40
0.0
 40
0.0011010407469395
 40
0.0204634535268252
 40
0.0765572696805151
 40
0.1604924577992842
 40
0.2584655902534789
 40
0.3621584600192231
 40
0.4643218777777794
 40
0.5631021496676291
 40
0.6545909740435744
 40
0.7331755528787368
 40
0.8283321290699917
 40
0.8546543042264098
 40
0.8845163303300282
 40
0.9290248285071179
 40
0.9734465399305539
 40
0.9999999999999999
 40
0.9999999999999999
 40
0.9999999999999999
 40
0.9999999999999999
 10
54.0044432243279
 20
101.0820868833501
 30
0.0
 10
54.00450895289443
 20
101.0794511106611
 30
0.0
 10
54.00573055479255
 20
101.0304638119822
 30
0.0
 10
54.27540759629063
 20
101.1846869909916
 30
0.0
 10
54.54813421380602
 20
101.1671547598731
 30
0.0
 10
55.136153058504
 20
101.3066558959704
 30
0.0
 10
55.77592392928787
 20
101.3850396302411
 30
0.0
 10
56.47838483239705
 20
101.484302233425
 30
0.0
 10
57.17734808999771
 20
101.5760502705099
 30
0.0
 10
57.84831325073799
 20
101.6704819642374
 30
0.0
 10
58.46654856987429
 20
101.7641567636889
 30
0.0
 10
59.06246330684953
 20
101.8858620379345
 30
0.0
 10
59.53735312679603
 20
101.9877243784575
 30
0.0
 10
59.79443841817925
 20
102.2407559024091
 30
0.0
 10
59.84619284651637
 20
102.4892921015155
 30
0.0
 10
59.66410852206244
 20
102.7352536067758
 30
0.0
 10
59.41743203136224
 20
102.8483528422897
 30
0.0
 10
59.2561199586102
 20
102.8817306240818
 30
0.0
 10
59.19576936568531
 20
102.8942180274565
 30
0.0
  0
SPLINE
  5
E0
330
1F
100
AcDbEntity
  8
0
  6
Continuous
 62
     7
370
    25
100
AcDbSpline
210
0.0
220
0.0
230
1.0
 70
     8
 71
     3
 72
    22
 73
    18
 74
     0
 42
0.00000001
 43
0.00000001
 40
0.0
 40
0.0
 40
0.0
 40
0.0
 40
0.0023014309833568
 40
0.023248757012204
 40
0.0842247233736521
 40
0.1724547995660663
 40
0.2751441549624413
 40
0.3824795765012476
 40
0.4904192870617656
 40
0.5956783892786
 40
0.6904977856083425
 40
0.7644331616743614
 40
0.809243939549676
 40
0.8603230484669511
 40
0.8915600191402379
 40
0.9314031606981436
 40
1.0
 40
1.0
 40
1.0
 40
1.0
 10
53.99425083007131
 20
103.5223252548415
 30
0.0
 10
53.99322166783349
 20
103.5165971985049
 30
0.0
 10
53.98282520451735
 20
103.4587331170328
 30
0.0
 10
54.29331015364124
 20
103.6465577552335
 30
0.0
 10
54.58025925045358
 20
103.6131743467713
 30
0.0
 10
55.2162535303007
 20
103.7653620499037
 30
0.0
 10
55.8936248711597
 20
103.8453016629975
 30
0.0
 10
56.6406041149836
 20
103.9504341764081
 30
0.0
 10
57.38697193192304
 20
104.0487916280442
 30
0.0
 10
58.10515845142396
 20
104.1526407427067
 30
0.0
 10
58.74082390568984
 20
104.2580052030066
 30
0.0
 10
59.23313107286545
 20
104.3703810650099
 30
0.0
 10
59.61005141216567
 20
104.4931394077701
 30
0.0
 10
59.85137367130967
 20
104.7393295715796
 30
0.0
 10
59.79234612437799
 20
105.0485899226526
 30
0.0
 10
59.52764823497055
 20
105.2735963966128
 30
0.0
 10
59.27415349266618
 20
105.3244164456305
 30
0.0
 10
59.11379807795797
 20
105.3565641342241
 30
0.0
  0
SPLINE
  5
E1
330
1F
100
AcDbEntity
  8
0
  6
Continuous
 62
     7
370
    25
100
AcDbSpline
210
0.0
220
0.0
230
1.0
 70
     8
 71
     3
 72
    22
 73
    18
 74
     0
 42
0.00000001
 43
0.00000001
 40
0.0
 40
0.0
 40
0.0
 40
0.0
 40
0.0028426961408137
 40
0.0357525606442012
 40
0.104212553792279
 40
0.1937987262741176
 40
0.2969793994761935
 40
0.4066633896218243
 40
0.5204577103626697
 40
0.6325191270433114
 40
0.7349630863833082
 40
0.8183203590492574
 40
0.8767057252773199
 40
0.9173253405780689
 40
0.949065218688856
 40
0.9819704498792602
 40
1.0
 40
1.0
 40
1.0
 40
1.0
 10
53.99724596347127
 20
105.9601747839291
 30
0.0
 10
54.00298752043711
 20
105.9579834247671
 30
0.0
 10
54.07519902439134
 20
105.9304227227253
 30
0.0
 10
54.29304759476379
 20
106.070313178528
 30
0.0
 10
54.69336587932798
 20
106.09350767317
 30
0.0
 10
55.24695178543382
 20
106.2071650655328
 30
0.0
 10
55.88876587626303
 20
106.2910018553081
 30
0.0
 10
56.58305747415773
 20
106.386662922613
 30
0.0
 10
57.29616927314584
 20
106.4812229673116
 30
0.0
 10
57.9933693147965
 20
106.5799202701901
 30
0.0
 10
58.62350878986464
 20
106.6820282144872
 30
0.0
 10
59.13803288305697
 20
106.7863273483268
 30
0.0
 10
59.51017435004953
 20
106.9024567774509
 30
0.0
 10
59.75534788363032
 20
107.0649151763414
 30
0.0
 10
59.83888405327846
 20
107.2818417389285
 30
0.0
 10
59.80278106558487
 20
107.4863539879167
 30
0.0
 10
59.6992427409294
 20
107.5326552245777
 30
0.0
 10
59.66259294356618
 20
107.5490446238358
 30
0.0
  0
SPLINE
  5
E2
330
1F
100
AcDbEntity
  8
0
  6
Continuous
 62
     7
370
    25
100
AcDbSpline
210
0.0
220
0.0
230
1.0
 70
     8
 71
     3
 72
    13
 73
     9
 74
     0
 42
0.00000001
 43
0.00000001
 40
0.0
 40
0.0
 40
0.0
 40
0.0
 40
0.001976399085903
 40
0.0518245243514765
 40
0.2047435643912577
 40
0.4407993038258776
 40
0.7429720148115662
 40
1.0
 40
1.0
 40
1.0
 40
1.0
 10
53.98571246470723
 20
108.3968387393791
 30
0.0
 10
53.98544998561594
 20
108.3956078009665
 30
0.0
 10
53.97856734022541
 20
108.3633305153742
 30
0.0
 10
54.18792886004009
 20
108.48153807852
 30
0.0
 10
54.36903718672112
 20
108.4705747120128
 30
0.0
 10
54.83332740816413
 20
108.5884770873518
 30
0.0
 10
55.30381919623853
 20
108.6515445353508
 30
0.0
 10
55.64858520876811
 20
108.7013251721374
 30
0.0
 10
55.80705159510885
 20
108.7242060749371
 30
0.0
  0
SPLINE
  5
E3
330
1F
100
AcDbEntity
  8
0
  6
Continuous
 62
     7
370
    25
100
AcDbSpline
210
0.0
220
0.0
230
1.0
 70
     8
 71
     3
 72
    14
 73
    10
 74
     0
 42
0.00000001
 43
0.00000001
 40
0.0
 40
0.0
 40
0.0
 40
0.0
 40
0.0060165263157398
 40
0.0340324598367937
 40
0.0964088045935019
 40
0.2832123507118098
 40
0.5431142871461346
 40
0.869319495570819
 40
0.9999999999999999
 40
0.9999999999999999
 40
0.9999999999999999
 40
0.9999999999999999
 10
54.01707940902028
 20
110.8597715793688
 30
0.0
 10
54.01704957348159
 20
110.8557215463093
 30
0.0
 10
54.01688080886255
 20
110.8328125486249
 30
0.0
 10
54.10285249798439
 20
110.8744521683183
 30
0.0
 10
54.23545443286353
 20
110.8950431776438
 30
0.0
 10
54.56379083083461
 20
110.980465931327
 30
0.0
 10
55.01638796905412
 20
111.0513473552154
 30
0.0
 10
55.45234618869098
 20
111.120139900008
 30
0.0
 10
55.72816162480254
 20
111.1578842833769
 30
0.0
 10
55.80705159510885
 20
111.1686801014979
 30
0.0
  0
SPLINE
  5
E4
330
1F
100
AcDbEntity
  8
0
  6
Continuous
 62
     7
370
    25
100
AcDbSpline
210
0.0
220
0.0
230
1.0
 70
     8
 71
     3
 72
    16
 73
    12
 74
     0
 42
0.00000001
 43
0.00000001
 40
0.0
 40
0.0
 40
0.0
 40
0.0
 40
0.1169730788979464
 40
0.304853882509476
 40
0.4468706678283862
 40
0.6239639363209568
 40
0.693448518097449
 40
0.7613284679315068
 40
0.8490663430517262
 40
0.974902463668515
 40
1.0
 40
1.0
 40
1.0
 40
1.0
 10
57.99756699408803
 20
111.4732374845583
 30
0.0
 10
58.11291717711557
 20
111.4903657211711
 30
0.0
 10
58.41354148721689
 20
111.5350051329158
 30
0.0
 10
58.85687395056448
 20
111.6139416346535
 30
0.0
 10
59.33580073977096
 20
111.7297766047641
 30
0.0
 10
59.74569747717742
 20
111.8806907701749
 30
0.0
 10
59.84410016488454
 20
112.2043704861844
 30
0.0
 10
59.75541235467677
 20
112.4277503754305
 30
0.0
 10
59.51165160081298
 20
112.5867995854003
 30
0.0
 10
59.2858187939162
 20
112.6642247394146
 30
0.0
 10
59.13832382301538
 20
112.6952249926148
 30
0.0
 10
59.11379807795797
 20
112.7003797738392
 30
0.0
  0
SPLINE
  5
E5
330
1F
100
AcDbEntity
  8
0
  6
Continuous
 62
     7
370
    25
100
AcDbSpline
210
0.0
220
0.0
230
1.0
 70
     8
 71
     3
 72
    23
 73
    19
 74
     0
 42
0.00000001
 43
0.00000001
 40
0.0
 40
0.0
 40
0.0
 40
0.0
 40
0.0030373497012009
 40
0.0334030506164108
 40
0.0825941944492207
 40
0.1515154972975314
 40
0.2394228218753077
 40
0.3386507465049325
 40
0.442556657811154
 40
0.5448312288485808
 40
0.637948431431189
 40
0.7117203347959501
 40
0.8050840847872952
 40
0.8446931440392272
 40
0.8761294867195141
 40
0.9271774254816237
 40
0.9717255743195933
 40
1.0
 40
1.0
 40
1.0
 40
1.0
 10
54.02078979815755
 20
113.3054153470833
 30
0.0
 10
54.02524615974057
 20
113.299583952913
 30
0.0
 10
54.07425469881751
 20
113.2354535847309
 30
0.0
 10
54.2971084782891
 20
113.4128341652637
 30
0.0
 10
54.61627805786565
 20
113.4061745064844
 30
0.0
 10
55.10179904392921
 20
113.5210311499192
 30
0.0
 10
55.69181225519988
 20
113.5958025925318
 30
0.0
 10
56.36875342602308
 20
113.6919917494703
 30
0.0
 10
57.07798675861218
 20
113.7847775580378
 30
0.0
 10
57.77241213913705
 20
113.8817464493249
 30
0.0
 10
58.39744855295682
 20
113.9739417341874
 30
0.0
 10
58.9928881281493
 20
114.0922996484475
 30
0.0
 10
59.47917560749383
 20
114.1833691295909
 30
0.0
 10
59.79210669501861
 20
114.4389614081677
 30
0.0
 10
59.8547412116063
 20
114.7469114392994
 30
0.0
 10
59.61771668433578
 20
114.9939542383531
 30
0.0
 10
59.34531877884348
 20
115.088134193713
 30
0.0
 10
59.17854890971155
 20
115.1257692358813
 30
0.0
 10
59.11379807795797
 20
115.1403815893967
 30
0.0
  0
SPLINE
  5
E6
330
1F
100
AcDbEntity
  8
0
  6
Continuous
 62
     7
370
    25
100
AcDbSpline
210
0.0
220
0.0
230
1.0
 70
     8
 71
     3
 72
    18
 73
    14
 74
     0
 42
0.00000001
 43
0.00000001
 40
0.0
 40
0.0
 40
0.0
 40
0.0
 40
0.0011258912329952
 40
0.0149123387857254
 40
0.0670684706038954
 40
0.1525253035072774
 40
0.2713713956965839
 40
0.4083097499633105
 40
0.5513002152869564
 40
0.6912043295265184
 40
0.8193738010681114
 40
0.9265294820915035
 40
0.9999999999999999
 40
0.9999999999999999
 40
0.9999999999999999
 40
0.9999999999999999
 10
53.98042255248342
 20
115.7213350235064
 30
0.0
 10
53.98130620160487
 20
115.7195637197543
 30
0.0
 10
53.99301006311531
 20
115.696102944087
 30
0.0
 10
54.12909778370177
 20
115.8093893816788
 30
0.0
 10
54.34970176030397
 20
115.7912903559118
 30
0.0
 10
54.79479764988364
 20
115.9199741482904
 30
0.0
 10
55.36058782583539
 20
115.9911069675469
 30
0.0
 10
56.03433772827053
 20
116.0920428237647
 30
0.0
 10
56.74098564435275
 20
116.1846295217474
 30
0.0
 10
57.43390187818899
 20
116.2773507708001
 30
0.0
 10
58.06461053820586
 20
116.3707981380984
 30
0.0
 10
58.58453758980478
 20
116.447103837437
 30
0.0
 10
58.8826877156301
 20
116.5210742615912
 30
0.0
 10
59.00396161879812
 20
116.5511620639403
 30
0.0
  0
SPLINE
  5
E7
330
1F
100
AcDbEntity
  8
0
  6
Continuous
 62
     7
370
    25
100
AcDbSpline
210
0.0
220
0.0
230
1.0
 70
     8
 71
     3
 72
    14
 73
    10
 74
     0
 42
0.00000001
 43
0.00000001
 40
0.0
 40
0.0
 40
0.0
 40
0.0
 40
0.0450327790770774
 40
0.2601583486127112
 40
0.5299049581649055
 40
0.65588188062634
 40
0.7406416383988615
 40
0.850689764940944
 40
1.0
 40
1.0
 40
1.0
 40
1.0
 10
55.0803219636849
 20
116.5511620639403
 30
0.0
 10
55.03820008389028
 20
116.5449789337108
 30
0.0
 10
54.79485825794901
 20
116.5092584433767
 30
0.0
 10
54.30655475493469
 20
116.4055581893173
 30
0.0
 10
53.72457469521487
 20
116.3316482396133
 30
0.0
 10
53.36340159426445
 20
115.9571359182223
 30
0.0
 10
53.45428676392605
 20
115.6319260166373
 30
0.0
 10
53.73270677655684
 20
115.4335981697102
 30
0.0
 10
53.97455699048535
 20
115.3858627161181
 30
0.0
 10
54.11378794516835
 20
115.3583818523724
 30
0.0
  0
SPLINE
  5
E8
330
1F
100
AcDbEntity
  8
0
  6
Continuous
 62
     7
370
    25
100
AcDbSpline
210
0.0
220
0.0
230
1.0
 70
     8
 71
     3
 72
    23
 73
    19
 74
     0
 42
0.00000001
 43
0.00000001
 40
0.0
 40
0.0
 40
0.0
 40
0.0
 40
0.0018986162599326
 40
0.0187216409938402
 40
0.0710324705954329
 40
0.1491178370134116
 40
0.2417029955108956
 40
0.3406595737073445
 40
0.4420540887922697
 40
0.5440517834789509
 40
0.6402215401776192
 40
0.7232415769715779
 40
0.7831497793168237
 40
0.8228811973027234
 40
0.8521002668440588
 40
0.8832989321316194
 40
0.920394025052977
 40
1.0
 40
1.0
 40
1.0
 40
1.0
 10
59.24200766886983
 20
114.7507180868227
 30
0.0
 10
59.24226233186732
 20
114.7554993770908
 30
0.0
 10
59.24477348133633
 20
114.8026461343241
 30
0.0
 10
58.99444309853326
 20
114.6470140958619
 30
0.0
 10
58.73755957045303
 20
114.6694925459897
 30
0.0
 10
58.17776049445141
 20
114.5310246328065
 30
0.0
 10
57.56321848536624
 20
114.4555129270225
 30
0.0
 10
56.87400196895322
 20
114.3569537715262
 30
0.0
 10
56.16819257999092
 20
114.2645059783052
 30
0.0
 10
55.46771820076047
 20
114.1677675634777
 30
0.0
 10
54.81211001373447
 20
114.0674411898697
 30
0.0
 10
54.25711611009411
 20
113.9645587123073
 30
0.0
 10
53.83965220079581
 20
113.8569931922134
 30
0.0
 10
53.5602119688252
 20
113.7258223702515
 30
0.0
 10
53.40291626495824
 20
113.5341573826605
 30
0.0
 10
53.40031626261192
 20
113.2828213379864
 30
0.0
 10
53.64791460921852
 20
113.0029518629037
 30
0.0
 10
53.92486807465213
 20
112.9449818195497
 30
0.0
 10
54.11378794516835
 20
112.905438378318
 30
0.0
  0
SPLINE
  5
E9
330
1F
100
AcDbEntity
  8
0
  6
Continuous
 62
     7
370
    25
100
AcDbSpline
210
0.0
220
0.0
230
1.0
 70
     8
 71
     3
 72
    12
 73
     8
 74
     0
 42
0.00000001
 43
0.00000001
 40
0.0
 40
0.0
 40
0.0
 40
0.0
 40
0.0078148481660811
 40
0.1226924301334683
 40
0.3805917625845289
 40
0.7338639378800981
 40
0.9999999999999999
 40
0.9999999999999999
 40
0.9999999999999999
 40
0.9999999999999999
 10
59.2336183151177
 20
112.3103213904936
 30
0.0
 10
59.23109324781579
 20
112.313267123704
 30
0.0
 10
59.19144991285476
 20
112.3595148764983
 30
0.0
 10
58.98146659056025
 20
112.1975797836896
 30
0.0
 10
58.6594596504892
 20
112.2073831217458
 30
0.0
 10
58.22886995603288
 20
112.1017600178044
 30
0.0
 10
57.93157380056761
 20
112.0619427928702
 30
0.0
 10
57.80383699740682
 20
112.0448348520834
 30
0.0
  0
SPLINE
  5
EA
330
1F
100
AcDbEntity
  8
0
  6
Continuous
 62
     7
370
    25
100
AcDbSpline
210
0.0
220
0.0
230
1.0
 70
     8
 71
     3
 72
    16
 73
    12
 74
     0
 42
0.00000001
 43
0.00000001
 40
0.0
 40
0.0
 40
0.0
 40
0.0
 40
0.1002501967673998
 40
0.2922107794705203
 40
0.4556465277042149
 40
0.6642153092166073
 40
0.7219980476710295
 40
0.7626631121618285
 40
0.8159892507572611
 40
0.8969915212854879
 40
1.0
 40
1.0
 40
1.0
 40
1.0
 10
55.80705159510883
 20
111.7688336818058
 30
0.0
 10
55.68906284951674
 20
111.7525414124494
 30
0.0
 10
55.34514748146808
 20
111.705052460991
 30
0.0
 10
54.80557528686113
 20
111.624451856389
 30
0.0
 10
54.16178907688126
 20
111.4943302558436
 30
0.0
 10
53.61455101725847
 20
111.3830509482353
 30
0.0
 10
53.40250541358304
 20
111.0608436814395
 30
0.0
 10
53.4057607520652
 20
110.8719515072156
 30
0.0
 10
53.52395304250835
 20
110.6889580198495
 30
0.0
 10
53.77790628682459
 20
110.5465002509093
 30
0.0
 10
53.99324320361796
 20
110.5047085669309
 30
0.0
 10
54.11378794516835
 20
110.4813137500126
 30
0.0
  0
SPLINE
  5
EB
330
1F
100
AcDbEntity
  8
0
  6
Continuous
 62
     7
370
    25
100
AcDbSpline
210
0.0
220
0.0
230
1.0
 70
     8
 71
     3
 72
    15
 73
    11
 74
     0
 42
0.00000001
 43
0.00000001
 40
0.0
 40
0.0
 40
0.0
 40
0.0
 40
0.1668455245168619
 40
0.3424584336629357
 40
0.5921919772834094
 40
0.6702294099863425
 40
0.7226908798212998
 40
0.7650198896612668
 40
0.8254056473526578
 40
1.0
 40
1.0
 40
1.0
 40
1.0
 10
55.80705159510885
 20
109.324771299823
 30
0.0
 10
55.61046232309007
 20
109.2974554805095
 30
0.0
 10
55.20695342247414
 20
109.2413884525001
 30
0.0
 10
54.51316913295164
 20
109.1253047178423
 30
0.0
 10
53.92058322781001
 20
109.0174917134134
 30
0.0
 10
53.51275110232011
 20
108.7950999533739
 30
0.0
 10
53.40319706564546
 20
108.6088085468611
 30
0.0
 10
53.40605249826528
 20
108.4157821556166
 30
0.0
 10
53.61218220327853
 20
108.131686430171
 30
0.0
 10
53.89996228535805
 20
108.073996907885
 30
0.0
 10
54.11378794516835
 20
108.0311325787146
 30
0.0
  0
SPLINE
  5
EC
330
1F
100
AcDbEntity
  8
0
  6
Continuous
 62
     7
370
    25
100
AcDbSpline
210
0.0
220
0.0
230
1.0
 70
     8
 71
     3
 72
    23
 73
    19
 74
     0
 42
0.00000001
 43
0.00000001
 40
0.0
 40
0.0
 40
0.0
 40
0.0
 40
0.001290709860349
 40
0.0103934270873448
 40
0.0486355276723303
 40
0.1058141529480707
 40
0.1817290011591274
 40
0.27370246558552
 40
0.3743336198780684
 40
0.4775634020574094
 40
0.577090296721605
 40
0.6651719724803269
 40
0.7334461575308533
 40
0.8196749949889879
 40
0.8573920582464664
 40
0.8883108762728906
 40
0.9576593930783426
 40
1.0
 40
1.0
 40
1.0
 40
1.0
 10
59.21636277045522
 20
107.4195740221579
 30
0.0
 10
59.2150454412852
 20
107.422470884903
 30
0.0
 10
59.20443766249681
 20
107.4457978405947
 30
0.0
 10
59.06533543821037
 20
107.3510818755126
 30
0.0
 10
58.85923301721792
 20
107.354787732174
 30
0.0
 10
58.44771841476494
 20
107.2461152943089
 30
0.0
 10
57.93389740883217
 20
107.1758403411586
 30
0.0
 10
57.30846075845577
 20
107.0822147887506
 30
0.0
 10
56.62219750192342
 20
106.9914574223312
 30
0.0
 10
55.91704152815331
 20
106.8971580880977
 30
0.0
 10
55.24313804796675
 20
106.8007690002143
 30
0.0
 10
54.64830302298252
 20
106.7089495019673
 30
0.0
 10
54.09868486862813
 20
106.5892242622531
 30
0.0
 10
53.63674577779934
 20
106.4915818429201
 30
0.0
 10
53.39265645991615
 20
106.1861984755063
 30
0.0
 10
53.42520345310253
 20
105.8333207398587
 30
0.0
 10
53.76919196555931
 20
105.6539754806159
 30
0.0
 10
54.01906335623377
 20
105.5947672285674
 30
0.0
 10
54.11378794516835
 20
105.5723217724402
 30
0.0
  0
SPLINE
  5
ED
330
1F
100
AcDbEntity
  8
0
  6
Continuous
 62
     7
370
    25
100
AcDbSpline
210
0.0
220
0.0
230
1.0
 70
     8
 71
     3
 72
    23
 73
    19
 74
     0
 42
0.00000001
 43
0.00000001
 40
0.0
 40
0.0
 40
0.0
 40
0.0
 40
0.0000418542767047
 40
0.0059801621982475
 40
0.0208068010754676
 40
0.0668690208692474
 40
0.1363828171852866
 40
0.2279443590375923
 40
0.3309172277754422
 40
0.4377238593091405
 40
0.5414086925170549
 40
0.6341250367596075
 40
0.7073331999486402
 40
0.8026890429530822
 40
0.8474240249134646
 40
0.8798899914032038
 40
0.9314214364045229
 40
1.0
 40
1.0
 40
1.0
 40
1.0
 10
59.23963838424001
 20
104.9923350511629
 30
0.0
 10
59.23965869056259
 20
104.9924317320419
 30
0.0
 10
59.24256006916072
 20
105.0062455494822
 30
0.0
 10
59.15929917688223
 20
104.9596513937983
 30
0.0
 10
59.05346731302688
 20
104.9490368477381
 30
0.0
 10
58.71620616759643
 20
104.8518939976235
 30
0.0
 10
58.25742194248262
 20
104.7818128456859
 30
0.0
 10
57.6364276521414
 20
104.6831565288328
 30
0.0
 10
56.93810754345844
 20
104.5890734904127
 30
0.0
 10
56.2077109644233
 20
104.4918382977976
 30
0.0
 10
55.50299339541743
 20
104.3943044075645
 30
0.0
 10
54.87591120777665
 20
104.3023807878416
 30
0.0
 10
54.27554838734515
 20
104.1853722653022
 30
0.0
 10
53.77576387870474
 20
104.0958800820493
 30
0.0
 10
53.43681827373418
 20
103.8330490642844
 30
0.0
 10
53.37775953357229
 20
103.5043117751342
 30
0.0
 10
53.67629561787201
 20
103.2199992007807
 30
0.0
 10
53.95478204967909
 20
103.1729797661965
 30
0.0
 10
54.11378794516835
 20
103.1461333333094
 30
0.0
  0
SPLINE
  5
EE
330
1F
100
AcDbEntity
  8
0
  6
Continuous
 62
     7
370
    25
100
AcDbSpline
210
0.0
220
0.0
230
1.0
 70
     8
 71
     3
 72
    24
 73
    20
 74
     0
 42
0.00000001
 43
0.00000001
 40
0.0
 40
0.0
 40
0.0
 40
0.0
 40
0.0002557552512203
 40
0.0061679582863934
 40
0.0361162643282203
 40
0.0906151371961863
 40
0.1707014598287834
 40
0.2660255132572006
 40
0.3675927011933215
 40
0.4688080661854274
 40
0.5635866619543648
 40
0.6461243569384799
 40
0.7660512600835114
 40
0.8115144432307885
 40
0.857275760993234
 40
0.8882437789406461
 40
0.9134471097798033
 40
0.9946025256177566
 40
1.0
 40
1.0
 40
1.0
 40
1.0
 10
59.25063544120107
 20
102.5489162130792
 30
0.0
 10
59.25085093650497
 20
102.5495009780909
 30
0.0
 10
59.25604795998335
 20
102.5636035475697
 30
0.0
 10
59.11470171990427
 20
102.4823295918764
 30
0.0
 10
58.98417130136502
 20
102.4944607225796
 30
0.0
 10
58.55560545564242
 20
102.3735463723841
 30
0.0
 10
58.04368190853364
 20
102.3044088266079
 30
0.0
 10
57.38997107508835
 20
102.2041267841102
 30
0.0
 10
56.69642548372049
 20
102.1126285481719
 30
0.0
 10
56.00110337025749
 20
102.0191909590486
 30
0.0
 10
55.35126396816025
 20
101.9289071515343
 30
0.0
 10
54.6602134170114
 20
101.8193127479232
 30
0.0
 10
54.08343869336393
 20
101.7138654792894
 30
0.0
 10
53.61378579577914
 20
101.547317736327
 30
0.0
 10
53.39592906474848
 20
101.3159908984368
 30
0.0
 10
53.41453119403442
 20
101.0536678845
 30
0.0
 10
53.63169046493997
 20
100.7996276185413
 30
0.0
 10
53.90230650522593
 20
100.7242758376035
 30
0.0
 10
54.10137401228897
 20
100.6815851385565
 30
0.0
 10
54.11378794516835
 20
100.6789229287345
 30
0.0
  0
SPLINE
  5
EF
330
1F
100
AcDbEntity
  8
0
  6
Continuous
 62
     7
370
    25
100
AcDbSpline
210
0.0
220
0.0
230
1.0
 70
     8
 71
     3
 72
    23
 73
    19
 74
     0
 42
0.00000001
 43
0.00000001
 40
0.0
 40
0.0
 40
0.0
 40
0.0
 40
0.0017002992907916
 40
0.0247838104090816
 40
0.0816326068233067
 40
0.1688876667116542
 40
0.2691520473875311
 40
0.3738988552226005
 40
0.4757526324667257
 40
0.5698517178250884
 40
0.6534337806242433
 40
0.7233252957835299
 40
0.8211561648146632
 40
0.8571349048343436
 40
0.8870863563011308
 40
0.9262491872604123
 40
0.9729365882008969
 40
1.0
 40
1.0
 40
1.0
 40
1.0
 10
59.20298152770313
 20
100.0525153650481
 30
0.0
 10
59.20120119343776
 20
100.0561768331379
 30
0.0
 10
59.17525078156796
 20
100.1095469259485
 30
0.0
 10
58.92739736151967
 20
99.97548535884107
 30
0.0
 10
58.59589564619255
 20
99.971212687838
 30
0.0
 10
58.00693206218217
 20
99.84067268764657
 30
0.0
 10
57.3393585815635
 20
99.75682584585823
 30
0.0
 10
56.62590026063629
 20
99.65762662076298
 30
0.0
 10
55.92959329295644
 20
99.56561857077108
 30
0.0
 10
55.28319562833871
 20
99.47335070707487
 30
0.0
 10
54.70903755279172
 20
99.38501997393718
 30
0.0
 10
54.14080354285926
 20
99.26589850201029
 30
0.0
 10
53.64710965616818
 20
99.16794251546112
 30
0.0
 10
53.39296849803382
 20
98.84361864012033
 30
0.0
 10
53.42377908242686
 20
98.57742002894602
 30
0.0
 10
53.63533383692248
 20
98.38312906277082
 30
0.0
 10
53.88408953239865
 20
98.29004930487977
 30
0.0
 10
54.05212578625347
 20
98.25133895667344
 30
0.0
 10
54.11378794516835
 20
98.23713390515634
 30
0.0
  0
SPLINE
  5
F0
330
1F
100
AcDbEntity
  8
0
  6
Continuous
 62
     7
370
    25
100
AcDbSpline
210
0.0
220
0.0
230
1.0
 70
     8
 71
     3
 72
    21
 73
    17
 74
     0
 42
0.00000001
 43
0.00000001
 40
0.0
 40
0.0
 40
0.0
 40
0.0
 40
0.0084877912268648
 40
0.0498403029554764
 40
0.1261669594642049
 40
0.2198865557985072
 40
0.3219512874110715
 40
0.4246222008056956
 40
0.52262677549901
 40
0.6136816341686181
 40
0.6935059719263788
 40
0.8017254413892269
 40
0.8566063945399166
 40
0.8918454581762223
 40
0.9393090143194891
 40
1.0
 40
1.0
 40
1.0
 40
1.0
 10
59.2098807653359
 20
97.62193853394577
 30
0.0
 10
59.19007767356944
 20
97.62402540140128
 30
0.0
 10
59.07379393534897
 20
97.63627948534743
 30
0.0
 10
58.79099179868141
 20
97.51941128570475
 30
0.0
 10
58.30288232396828
 20
97.4604668397214
 30
0.0
 10
57.67560673109109
 20
97.35387832171624
 30
0.0
 10
56.98496386735543
 20
97.26248188941207
 30
0.0
 10
56.28436180091568
 20
97.1685669864404
 30
0.0
 10
55.60948318042709
 20
97.0758295479598
 30
0.0
 10
54.98828639244019
 20
96.98714193956476
 30
0.0
 10
54.34671201335353
 20
96.86335440428842
 30
0.0
 10
53.7917464763641
 20
96.78259020263724
 30
0.0
 10
53.37857136534378
 20
96.4515986247536
 30
0.0
 10
53.43820973534977
 20
96.09574667889798
 30
0.0
 10
53.72547799514214
 20
95.88158552364052
 30
0.0
 10
53.9742111736365
 20
95.83311865734105
 30
0.0
 10
54.11378794516834
 20
95.8059214463968
 30
0.0
  0
SPLINE
  5
F1
330
1F
100
AcDbEntity
  8
0
  6
Continuous
 62
     7
370
    25
100
AcDbSpline
210
0.0
220
0.0
230
1.0
 70
     8
 71
     3
 72
    23
 73
    19
 74
     0
 42
0.00000001
 43
0.00000001
 40
0.0
 40
0.0
 40
0.0
 40
0.0
 40
0.0001780946490418
 40
0.0144338673100518
 40
0.0634645450509879
 40
0.141122024605494
 40
0.2341870646937869
 40
0.3345894314542442
 40
0.4351220939335057
 40
0.5350264977758953
 40
0.6305357652454685
 40
0.7148709404128372
 40
0.7777813554328743
 40
0.8407145460009461
 40
0.8669410032212045
 40
0.9039081738014771
 40
0.9897220157599642
 40
0.9999999999999999
 40
0.9999999999999999
 40
0.9999999999999999
 40
0.9999999999999999
 10
59.23448258246694
 20
95.198802038892
 30
0.0
 10
59.2345002824107
 20
95.19922280938893
 30
0.0
 10
59.23593479288632
 20
95.23332459489096
 30
0.0
 10
58.99974735095288
 20
95.10362346250243
 30
0.0
 10
58.77134683515928
 20
95.11781144898116
 30
0.0
 10
58.21339166493996
 20
94.98184243838617
 30
0.0
 10
57.60254169271678
 20
94.90542992626645
 30
0.0
 10
56.91356631694833
 20
94.80679973722297
 30
0.0
 10
56.2155832590721
 20
94.71519508603542
 30
0.0
 10
55.52700459514163
 20
94.62037910133148
 30
0.0
 10
54.87920609277078
 20
94.52297534817131
 30
0.0
 10
54.31551159194991
 20
94.41937008244876
 30
0.0
 10
53.84504610720568
 20
94.30584316966296
 30
0.0
 10
53.49100031277987
 20
94.14515731960795
 30
0.0
 10
53.38151381587486
 20
93.84900942268862
 30
0.0
 10
53.53702268688568
 20
93.49637305306697
 30
0.0
 10
53.8711528610479
 20
93.39923162002825
 30
0.0
 10
54.09034332718527
 20
93.35072497679812
 30
0.0
 10
54.11378794516835
 20
93.34553670497128
 30
0.0
  0
SPLINE
  5
F2
330
1F
100
AcDbEntity
  8
0
  6
Continuous
 62
     7
370
    25
100
AcDbSpline
210
0.0
220
0.0
230
1.0
 70
     8
 71
     3
 72
    23
 73
    19
 74
     0
 42
0.00000001
 43
0.00000001
 40
0.0
 40
0.0
 40
0.0
 40
0.0
 40
0.0013130404737301
 40
0.0240355750364454
 40
0.0831355400588967
 40
0.1650126261884819
 40
0.2598444872359542
 40
0.3596310201043904
 40
0.462028413948427
 40
0.5638283861082993
 40
0.6583321623561332
 40
0.7378283998678827
 40
0.8291505946073948
 40
0.8580637304793126
 40
0.8909349235410771
 40
0.9281222883528483
 40
0.9670147476364326
 40
1.0
 40
1.0
 40
1.0
 40
1.0
 10
59.23181527461324
 20
92.75471125157067
 30
0.0
 10
59.23103341958095
 20
92.75779007521976
 30
0.0
 10
59.21672134339411
 20
92.81414880773563
 30
0.0
 10
58.94975133195275
 20
92.62040705727436
 30
0.0
 10
58.6384228136215
 20
92.65593750568816
 30
0.0
 10
58.06186651560152
 20
92.51239049072328
 30
0.0
 10
57.42919446656142
 20
92.43717250292752
 30
0.0
 10
56.73472312914549
 20
92.3383722106314
 30
0.0
 10
56.02730190250449
 20
92.24564170979883
 30
0.0
 10
55.33334937890741
 20
92.14745916401517
 30
0.0
 10
54.68911122315982
 20
92.04810375701652
 30
0.0
 10
54.09093666583981
 20
91.92212398441757
 30
0.0
 10
53.59705763232313
 20
91.8038490199938
 30
0.0
 10
53.39067318590612
 20
91.48457235385975
 30
0.0
 10
53.42929953419429
 20
91.2315911989649
 30
0.0
 10
53.63101036882853
 20
91.05329126559579
 30
0.0
 10
53.87160238133057
 20
90.96006862689524
 30
0.0
 10
54.03760707409183
 20
90.92800880544172
 30
0.0
 10
54.11378794516835
 20
90.91329629892
 30
0.0
  0
SPLINE
  5
F3
330
1F
100
AcDbEntity
  8
0
  6
Continuous
 62
     7
370
    25
100
AcDbSpline
210
0.0
220
0.0
230
1.0
 70
     8
 71
     3
 72
    17
 73
    13
 74
     0
 42
0.00000001
 43
0.00000001
 40
0.0
 40
0.0
 40
0.0
 40
0.0
 40
0.005096494848262
 40
0.0478063780535081
 40
0.1287854112683419
 40
0.2351486664126339
 40
0.360201434393756
 40
0.4966474321055964
 40
0.6397442606419249
 40
0.7814322348081614
 40
0.9117351514553
 40
0.9999999999999999
 40
0.9999999999999999
 40
0.9999999999999999
 40
0.9999999999999999
 10
59.20809262599262
 20
90.28832343765983
 30
0.0
 10
59.20617666410217
 20
90.29732680585224
 30
0.0
 10
59.18820446925102
 20
90.3817806189877
 30
0.0
 10
58.88807293685083
 20
90.16521437120727
 30
0.0
 10
58.5616132201669
 20
90.19288610467834
 30
0.0
 10
58.01219253356281
 20
90.06284190125454
 30
0.0
 10
57.40038715815197
 20
89.98837561599159
 30
0.0
 10
56.71493199297696
 20
89.89110692693514
 30
0.0
 10
56.00412299110825
 20
89.79917250251218
 30
0.0
 10
55.30508286324874
 20
89.69481830385746
 30
0.0
 10
54.69491127369707
 20
89.61643241458758
 30
0.0
 10
54.33686372956459
 20
89.5128281018975
 30
0.0
 10
54.19227236117635
 20
89.47098927465716
 30
0.0
  0
LINE
  5
F4
330
1F
100
AcDbEntity
  8
0
  6
Continuous
 62
     7
370
    25
100
AcDbLine
 10
53.1137859186
 20
125.5511635392
 30
0.0
 11
53.1137859186
 21
123.5511632113
 31
0.0
  0
LINE
  5
F5
330
1F
100
AcDbEntity
  8
0
  6
Continuous
 62
     7
370
    25
100
AcDbLine
 10
60.1138001045
 20
123.5511632113
 30
0.0
 11
60.1138001045
 21
125.5511635392
 31
0.0
  0
LINE
  5
F6
330
1F
100
AcDbEntity
  8
0
  6
Continuous
 62
     7
370
    25
100
AcDbLine
 10
49.6137862762
 20
121.5511628835
 30
0.0
 11
49.6137862762
 21
107.5511624514
 31
0.0
  0
LINE
  5
F7
330
1F
100
AcDbEntity
  8
0
  6
Continuous
 62
     7
370
    25
100
AcDbLine
 10
63.6137997469
 20
107.5511624514
 30
0.0
 11
63.6137997469
 21
121.5511628835
 31
0.0
  0
LINE
  5
F8
330
1F
100
AcDbEntity
  8
0
  6
Continuous
 62
     7
370
    25
100
AcDbLine
 10
63.6137997469
 20
121.5511628835
 30
0.0
 11
63.113791283
 21
122.0511638968
 31
0.0
  0
LINE
  5
F9
330
1F
100
AcDbEntity
  8
0
  6
Continuous
 62
     7
370
    25
100
AcDbLine
 10
50.1137947401
 20
122.0511638968
 30
0.0
 11
49.6137862762
 21
121.5511628835
 31
0.0
  0
LINE
  5
FA
330
1F
100
AcDbEntity
  8
0
  6
Continuous
 62
     7
370
    25
100
AcDbLine
 10
61.6137956938
 20
122.0511638968
 30
0.0
 11
61.6137956938
 21
123.5511632113
 31
0.0
  0
LINE
  5
FB
330
1F
100
AcDbEntity
  8
0
  6
Continuous
 62
     7
370
    25
100
AcDbLine
 10
51.6137903294
 20
123.5511632113
 30
0.0
 11
51.6137903294
 21
122.0511638968
 31
0.0
  0
LINE
  5
FC
330
1F
100
AcDbEntity
  8
0
  6
Continuous
 62
     7
370
    25
100
AcDbLine
 10
59.113798078
 20
88.3245970473
 30
0.0
 11
59.113798078
 21
89.6998778627
 31
0.0
  0
LINE
  5
FD
330
1F
100
AcDbEntity
  8
0
  6
Continuous
 62
     7
370
    25
100
AcDbLine
 10
59.113798078
 20
90.288792475
 30
0.0
 11
59.113798078
 21
92.12513463
 31
0.0
  0
LINE
  5
FE
330
1F
100
AcDbEntity
  8
0
  6
Continuous
 62
     7
370
    25
100
AcDbLine
 10
59.113798078
 20
92.7428583092
 30
0.0
 11
59.113798078
 21
94.5780783369
 31
0.0
  0
LINE
  5
FF
330
1F
100
AcDbEntity
  8
0
  6
Continuous
 62
     7
370
    25
100
AcDbLine
 10
59.113798078
 20
95.2016947268
 30
0.0
 11
59.113798078
 21
97.0300401969
 31
0.0
  0
LINE
  5
100
330
1F
100
AcDbEntity
  8
0
  6
Continuous
 62
     7
370
    25
100
AcDbLine
 10
59.113798078
 20
97.6179897262
 30
0.0
 11
59.113798078
 21
99.4587907045
 31
0.0
  0
LINE
  5
101
330
1F
100
AcDbEntity
  8
0
  6
Continuous
 62
     7
370
    25
100
AcDbLine
 10
59.113798078
 20
100.0519360824
 30
0.0
 11
59.113798078
 21
101.9111092611
 31
0.0
  0
LINE
  5
102
330
1F
100
AcDbEntity
  8
0
  6
Continuous
 62
     7
370
    25
100
AcDbLine
 10
59.113798078
 20
102.5731995179
 30
0.0
 11
59.113798078
 21
104.3512051402
 31
0.0
  0
LINE
  5
103
330
1F
100
AcDbEntity
  8
0
  6
Continuous
 62
     7
370
    25
100
AcDbLine
 10
59.113798078
 20
104.9564176648
 30
0.0
 11
59.113798078
 21
106.7912684231
 31
0.0
  0
LINE
  5
104
330
1F
100
AcDbEntity
  8
0
  6
Continuous
 62
     7
370
    25
100
AcDbLine
 10
59.113798078
 20
107.4018546789
 30
0.0
 11
59.113798078
 21
107.5511624514
 31
0.0
  0
LINE
  5
105
330
1F
100
AcDbEntity
  8
0
  6
Continuous
 62
     7
370
    25
100
AcDbLine
 10
59.113798078
 20
110.596069455
 30
0.0
 11
59.113798078
 21
111.6823398917
 31
0.0
  0
LINE
  5
106
330
1F
100
AcDbEntity
  8
0
  6
Continuous
 62
     7
370
    25
100
AcDbLine
 10
59.113798078
 20
112.2877051531
 30
0.0
 11
59.113798078
 21
114.1344563513
 31
0.0
  0
LINE
  5
107
330
1F
100
AcDbEntity
  8
0
  6
Continuous
 62
     7
370
    25
100
AcDbLine
 10
59.113798078
 20
114.757714182
 30
0.0
 11
59.113798078
 21
116.5511620639
 31
0.0
  0
LINE
  5
108
330
1F
100
AcDbEntity
  8
0
  6
Continuous
 62
     7
370
    25
100
AcDbLine
 10
59.113798078
 20
125.5511635392
 30
0.0
 11
59.113798078
 21
132.6511607914
 31
0.0
  0
LINE
  5
109
330
1F
100
AcDbEntity
  8
0
  6
Continuous
 62
     7
370
    25
100
AcDbLine
 10
54.1137879452
 20
132.6511607914
 30
0.0
 11
54.1137879452
 21
125.5511635392
 31
0.0
  0
LINE
  5
10A
330
1F
100
AcDbEntity
  8
0
  6
Continuous
 62
     7
370
    25
100
AcDbLine
 10
54.1137879452
 20
116.5278175323
 30
0.0
 11
54.1137879452
 21
116.3475917129
 31
0.0
  0
LINE
  5
10B
330
1F
100
AcDbEntity
  8
0
  6
Continuous
 62
     7
370
    25
100
AcDbLine
 10
54.1137879452
 20
115.752480313
 30
0.0
 11
54.1137879452
 21
113.9206507652
 31
0.0
  0
LINE
  5
10C
330
1F
100
AcDbEntity
  8
0
  6
Continuous
 62
     7
370
    25
100
AcDbLine
 10
54.1137879452
 20
113.3114093392
 30
0.0
 11
54.1137879452
 21
111.4649412631
 31
0.0
  0
LINE
  5
10D
330
1F
100
AcDbEntity
  8
0
  6
Continuous
 62
     7
370
    25
100
AcDbLine
 10
54.1137879452
 20
110.8580877482
 30
0.0
 11
54.1137879452
 21
109.0097179113
 31
0.0
  0
LINE
  5
10E
330
1F
100
AcDbEntity
  8
0
  6
Continuous
 62
     7
370
    25
100
AcDbLine
 10
54.1137879452
 20
108.3827329277
 30
0.0
 11
54.1137879452
 21
106.5893707274
 31
0.0
  0
LINE
  5
10F
330
1F
100
AcDbEntity
  8
0
  6
Continuous
 62
     7
370
    25
100
AcDbLine
 10
54.1137879452
 20
105.9810419975
 30
0.0
 11
54.1137879452
 21
104.1327615677
 31
0.0
  0
LINE
  5
110
330
1F
100
AcDbEntity
  8
0
  6
Continuous
 62
     7
370
    25
100
AcDbLine
 10
54.1137879452
 20
103.5062394513
 30
0.0
 11
54.1137879452
 21
101.6930587067
 31
0.0
  0
LINE
  5
111
330
1F
100
AcDbEntity
  8
0
  6
Continuous
 62
     7
370
    25
100
AcDbLine
 10
54.1137879452
 20
101.0812133028
 30
0.0
 11
54.1137879452
 21
99.2458149268
 31
0.0
  0
LINE
  5
112
330
1F
100
AcDbEntity
  8
0
  6
Continuous
 62
     7
370
    25
100
AcDbLine
 10
54.1137879452
 20
98.6532339303
 30
0.0
 11
54.1137879452
 21
96.7932365312
 31
0.0
  0
LINE
  5
113
330
1F
100
AcDbEntity
  8
0
  6
Continuous
 62
     7
370
    25
100
AcDbLine
 10
54.1137879452
 20
96.2062672189
 30
0.0
 11
54.1137879452
 21
94.3627351372
 31
0.0
  0
LINE
  5
114
330
1F
100
AcDbEntity
  8
0
  6
Continuous
 62
     7
370
    25
100
AcDbLine
 10
54.1137879452
 20
93.6935482024
 30
0.0
 11
54.1137879452
 21
91.924278153
 31
0.0
  0
LINE
  5
115
330
1F
100
AcDbEntity
  8
0
  6
Continuous
 62
     7
370
    25
100
AcDbLine
 10
54.1137879452
 20
91.3115442673
 30
0.0
 11
54.1137879452
 21
89.4800189127
 31
0.0
  0
ARC
  5
116
330
1F
100
AcDbEntity
  8
0
  6
Continuous
 62
     7
370
    25
100
AcDbCircle
 10
66.6137988966
 20
132.6511602708
 30
0.0
 40
7.500000818646044
100
AcDbArc
 50
90.0000608955
 51
179.9999960228
  0
ARC
  5
117
330
1F
100
AcDbEntity
  8
0
  6
Continuous
 62
     7
370
    25
100
AcDbCircle
 10
66.6138032416
 20
132.6511484752
 30
0.0
 40
12.50001529640741
100
AcDbArc
 50
90.0000564531
 51
179.9999435469
  0
LINE
  5
118
330
1F
100
AcDbEntity
  8
0
  6
Continuous
 62
     7
370
    25
100
AcDbLine
 10
81.6137915214
 20
145.1511637716
 30
0.0
 11
66.6137909254
 21
145.1511637716
 31
0.0
  0
LINE
  5
119
330
1F
100
AcDbEntity
  8
0
  6
Continuous
 62
     7
370
    25
100
AcDbLine
 10
66.6137909254
 20
140.1511610894
 30
0.0
 11
81.6137915214
 21
140.1511610894
 31
0.0
  0
LINE
  5
11A
330
1F
100
AcDbEntity
  8
0
  6
Continuous
 62
     7
370
    25
100
AcDbLine
 10
86.8137901386
 20
138.6511617749
 30
0.0
 11
121.6137906274
 21
138.6511617749
 31
0.0
  0
LINE
  5
11B
330
1F
100
AcDbEntity
  8
0
  6
Continuous
 62
     7
370
    25
100
AcDbLine
 10
121.6137906274
 20
146.6511630862
 30
0.0
 11
86.8137901386
 21
146.6511630862
 31
0.0
  0
LINE
  5
11C
330
1F
100
AcDbEntity
  8
0
  6
Continuous
 62
     7
370
    25
100
AcDbLine
 10
86.8137901386
 20
146.6511630862
 30
0.0
 11
86.3638644775
 21
146.2012262492
 31
0.0
  0
LINE
  5
11D
330
1F
100
AcDbEntity
  8
0
  6
Continuous
 62
     7
370
    25
100
AcDbLine
 10
86.3638644775
 20
139.1010948865
 30
0.0
 11
86.8137901386
 21
138.6511617749
 31
0.0
  0
ARC
  5
11E
330
1F
100
AcDbEntity
  8
0
  6
Continuous
 62
     7
370
    25
100
AcDbCircle
 10
85.1137888128
 20
138.1122982771
 30
0.0
 40
1.593865710251862
100
AcDbArc
 50
38.3436235657
 51
89.9999154861
  0
ARC
  5
11F
330
1F
100
AcDbEntity
  8
0
  6
Continuous
 62
     7
370
    25
100
AcDbCircle
 10
85.1138007844
 20
147.1900079382
 30
0.0
 40
1.59384706457057
100
AcDbArc
 50
269.9996541569
 51
321.6565301204
  0
LINE
  5
120
330
1F
100
AcDbEntity
  8
0
  6
Continuous
 62
     7
370
    25
100
AcDbLine
 10
57.3951577505
 20
125.5511635392
 30
0.0
 11
53.1137859186
 21
125.5511635392
 31
0.0
  0
LINE
  5
121
330
1F
100
AcDbEntity
  8
0
  6
Continuous
 62
     7
370
    25
100
AcDbLine
 10
60.1138001045
 20
125.5511635392
 30
0.0
 11
57.3951577505
 21
125.5511635392
 31
0.0
  0
LINE
  5
122
330
1F
100
AcDbEntity
  8
0
  6
Continuous
 62
     7
370
    25
100
AcDbLine
 10
52.5416111311
 20
107.5511624514
 30
0.0
 11
52.5416111311
 21
114.8011622428
 31
0.0
  0
LINE
  5
123
330
1F
100
AcDbEntity
  8
0
  6
Continuous
 62
     7
370
    25
100
AcDbLine
 10
52.5416111311
 20
107.5511624514
 30
0.0
 11
49.6137862762
 21
107.5511624514
 31
0.0
  0
LINE
  5
124
330
1F
100
AcDbEntity
  8
0
  6
Continuous
 62
     7
370
    25
100
AcDbLine
 10
63.6137997469
 20
107.5511624514
 30
0.0
 11
55.8070515951
 21
107.5511624514
 31
0.0
  0
LINE
  5
125
330
1F
100
AcDbEntity
  8
0
  6
Continuous
 62
     7
370
    25
100
AcDbLine
 10
55.8070515951
 20
113.0511624216
 30
0.0
 11
55.8070515951
 21
107.5511624514
 31
0.0
  0
LINE
  5
126
330
1F
100
AcDbEntity
  8
0
  6
Continuous
 62
     7
370
    25
100
AcDbLine
 10
55.8070515951
 20
113.0511624216
 30
0.0
 11
57.7603256067
 21
113.0511624216
 31
0.0
  0
LINE
  5
127
330
1F
100
AcDbEntity
  8
0
  6
Continuous
 62
     7
370
    25
100
AcDbLine
 10
57.7603256067
 20
113.0511624216
 30
0.0
 11
57.7603256067
 21
112.3011627643
 31
0.0
  0
SPLINE
  5
128
330
1F
100
AcDbEntity
  8
0
  6
Continuous
 62
     7
370
    25
100
AcDbSpline
210
0.0
220
0.0
230
1.0
 70
     8
 71
     3
 72
    17
 73
    13
 74
     0
 42
0.00000001
 43
0.00000001
 40
0.0
 40
0.0
 40
0.0
 40
0.0
 40
0.1100656091774543
 40
0.2195882432483448
 40
0.3299032765296776
 40
0.4387823482613002
 40
0.5414150054057262
 40
0.6388747717971216
 40
0.7377089458785367
 40
0.8434589183028058
 40
0.9549015356573295
 40
1.0
 40
1.0
 40
1.0
 40
1.0
 10
57.76032560672078
 20
112.3011627642948
 30
0.0
 10
57.77942188911634
 20
112.1079441858558
 30
0.0
 10
57.8175202482237
 20
111.7224602138919
 30
0.0
 10
58.10968118870164
 20
111.2075582961558
 30
0.0
 10
58.53313514097889
 20
110.8081635129518
 30
0.0
 10
59.05529611108113
 20
110.5700886672408
 30
0.0
 10
59.60530108848577
 20
110.5259828726293
 30
0.0
 10
60.11718775231553
 20
110.6812757444422
 30
0.0
 10
60.53950181364989
 20
111.017826953992
 30
0.0
 10
60.83121048158205
 20
111.4974570744236
 30
0.0
 10
60.94830038548476
 20
111.9487882531853
 30
0.0
 10
60.9574698823085
 20
112.2223510944778
 30
0.0
 10
60.96011155452047
 20
112.3011627642948
 30
0.0
  0
LINE
  5
129
330
1F
100
AcDbEntity
  8
0
  6
Continuous
 62
     7
370
    25
100
AcDbLine
 10
60.9601115545
 20
112.3011627643
 30
0.0
 11
60.9601115545
 21
114.8011622428
 31
0.0
  0
SPLINE
  5
12A
330
1F
100
AcDbEntity
  8
0
  6
Continuous
 62
     7
370
    25
100
AcDbSpline
210
0.0
220
0.0
230
1.0
 70
     8
 71
     3
 72
    12
 73
     8
 74
     0
 42
0.00000001
 43
0.00000001
 40
0.0
 40
0.0
 40
0.0
 40
0.0
 40
0.2238612664661143
 40
0.4392643521982637
 40
0.6485638526736754
 40
0.8559026685655722
 40
1.0
 40
1.0
 40
1.0
 40
1.0
 10
60.96011155452045
 20
114.8011622427542
 30
0.0
 10
60.94550802439336
 20
114.9931121473338
 30
0.0
 10
60.91685273130774
 20
115.3697594870935
 30
0.0
 10
60.68445856737392
 20
115.886438084644
 30
0.0
 10
60.31733916284046
 20
116.2937081498552
 30
0.0
 10
59.87498822175665
 20
116.5192989255898
 30
0.0
 10
59.57379330869021
 20
116.5418965079199
 30
0.0
 10
59.45029610003742
 20
116.5511620639403
 30
0.0
  0
LINE
  5
12B
330
1F
100
AcDbEntity
  8
0
  6
Continuous
 62
     7
370
    25
100
AcDbLine
 10
59.4502961
 20
116.5511620639
 30
0.0
 11
54.0943270286
 21
116.5511620639
 31
0.0
  0
SPLINE
  5
12C
330
1F
100
AcDbEntity
  8
0
  6
Continuous
 62
     7
370
    25
100
AcDbSpline
210
0.0
220
0.0
230
1.0
 70
     8
 71
     3
 72
    12
 73
     8
 74
     0
 42
0.00000001
 43
0.00000001
 40
0.0
 40
0.0
 40
0.0
 40
0.0
 40
0.2213487664663214
 40
0.4354409353686431
 40
0.6452423163735319
 40
0.8545025863442044
 40
0.9999999999999999
 40
0.9999999999999999
 40
0.9999999999999999
 40
0.9999999999999999
 10
52.54161113108907
 20
114.8011622427542
 30
0.0
 10
52.55683384360141
 20
114.9932853575709
 30
0.0
 10
52.58678021412354
 20
115.3712331101482
 30
0.0
 10
52.82865528855532
 20
115.8885243045297
 30
0.0
 10
53.2078607192154
 20
116.2948239658155
 30
0.0
 10
53.66051556098929
 20
116.5192374558488
 30
0.0
 10
53.9681545080659
 20
116.5418769053591
 30
0.0
 10
54.09432702864919
 20
116.5511620639403
 30
0.0
  0
LINE
  5
12D
330
1F
100
AcDbEntity
  8
0
  6
Continuous
 62
     7
370
    25
100
AcDbLine
 10
59.4502961
 20
121.5511628835
 30
0.0
 11
49.6137862762
 21
121.5511628835
 31
0.0
  0
LINE
  5
12E
330
1F
100
AcDbEntity
  8
0
  6
Continuous
 62
     7
370
    25
100
AcDbLine
 10
63.6137997469
 20
121.5511628835
 30
0.0
 11
59.4502961
 21
121.5511628835
 31
0.0
  0
LINE
  5
12F
330
1F
100
AcDbEntity
  8
0
  6
Continuous
 62
     7
370
    25
100
AcDbLine
 10
59.2476850113
 20
122.0511638968
 30
0.0
 11
63.113791283
 21
122.0511638968
 31
0.0
  0
LINE
  5
130
330
1F
100
AcDbEntity
  8
0
  6
Continuous
 62
     7
370
    25
100
AcDbLine
 10
50.1137947401
 20
122.0511638968
 30
0.0
 11
59.2476850113
 21
122.0511638968
 31
0.0
  0
SPLINE
  5
131
330
1F
100
AcDbEntity
  8
0
  6
Continuous
 62
     7
370
    25
100
AcDbSpline
210
0.0
220
0.0
230
1.0
 70
     8
 71
     3
 72
    12
 73
     8
 74
     0
 42
0.00000001
 43
0.00000001
 40
0.0
 40
0.0
 40
0.0
 40
0.0
 40
0.2234510220487936
 40
0.4379406914652398
 40
0.6467139912557915
 40
0.8542222954306598
 40
1.0
 40
1.0
 40
1.0
 40
1.0
 10
60.70822232569967
 20
114.8011622427542
 30
0.0
 10
60.69393908787232
 20
114.9923453969355
 30
0.0
 10
60.66594543184371
 20
115.367044433758
 30
0.0
 10
60.43819589170955
 20
115.8824166907612
 30
0.0
 10
60.07564858460575
 20
116.2908725976495
 30
0.0
 10
59.63405638730126
 20
116.5188605274582
 30
0.0
 10
59.3318636529299
 20
116.5417267078589
 30
0.0
 10
59.20716875399862
 20
116.5511620639403
 30
0.0
  0
LINE
  5
132
330
1F
100
AcDbEntity
  8
0
  6
Continuous
 62
     7
370
    25
100
AcDbLine
 10
60.7082223257
 20
112.3011627643
 30
0.0
 11
60.7082223257
 21
114.8011622428
 31
0.0
  0
SPLINE
  5
133
330
1F
100
AcDbEntity
  8
0
  6
Continuous
 62
     7
370
    25
100
AcDbSpline
210
0.0
220
0.0
230
1.0
 70
     8
 71
     3
 72
    13
 73
     9
 74
     0
 42
0.00000001
 43
0.00000001
 40
0.0
 40
0.0
 40
0.0
 40
0.0
 40
0.0614760935093153
 40
0.2594081856814496
 40
0.4597985548025017
 40
0.6753873091660194
 40
0.9037233098478491
 40
1.0
 40
1.0
 40
1.0
 40
1.0
 10
59.2062299808434
 20
110.5714192091067
 30
0.0
 10
59.25862181890625
 20
110.5654700049035
 30
0.0
 10
59.47969753924846
 20
110.5403663885138
 30
0.0
 10
59.86596981123459
 20
110.6863856933165
 30
0.0
 10
60.2859293667607
 20
111.0082581716682
 30
0.0
 10
60.5772347897738
 20
111.4888535683237
 30
0.0
 10
60.69585565509422
 20
111.941792074137
 30
0.0
 10
60.70539350138648
 20
112.2189582180432
 30
0.0
 10
60.70822232569967
 20
112.3011627642948
 30
0.0
  0
LINE
  5
134
330
1F
100
AcDbEntity
  8
0
  6
Continuous
 62
     7
370
    25
100
AcDbLine
 10
52.7653520664
 20
107.5511624514
 30
0.0
 11
52.7653520664
 21
114.8011622428
 31
0.0
  0
SPLINE
  5
135
330
1F
100
AcDbEntity
  8
0
  6
Continuous
 62
     7
370
    25
100
AcDbSpline
210
0.0
220
0.0
230
1.0
 70
     8
 71
     3
 72
    12
 73
     8
 74
     0
 42
0.00000001
 43
0.00000001
 40
0.0
 40
0.0
 40
0.0
 40
0.0
 40
0.2236717183109057
 40
0.4395088603803844
 40
0.6514309932414666
 40
0.8635350960865034
 40
1.0
 40
1.0
 40
1.0
 40
1.0
 10
52.76535206641469
 20
114.8011622427542
 30
0.0
 10
52.78027391379229
 20
114.9925228249474
 30
0.0
 10
52.80959493920052
 20
115.3685411791525
 30
0.0
 10
53.0470460309366
 20
115.8845318535694
 30
0.0
 10
53.42202970908309
 20
116.2920952321166
 30
0.0
 10
53.86414926558618
 20
116.5135374276321
 30
0.0
 10
54.1614759987045
 20
116.5403286862499
 30
0.0
 10
54.277879532235
 20
116.5508174745876
 30
0.0
  0
LINE
  5
136
330
1F
100
AcDbEntity
  8
0
  6
Continuous
 62
     7
370
    25
100
AcDbLine
 10
52.7653520664
 20
107.5511624514
 30
0.0
 11
54.1137879452
 21
107.5511624514
 31
0.0
  0
LINE
  5
137
330
1F
100
AcDbEntity
  8
0
  6
Continuous
 62
     7
370
    25
100
AcDbLine
 10
54.2778795322
 20
116.5508174746
 30
0.0
 11
54.2978023848
 21
116.5511620639
 31
0.0
  0
LINE
  5
138
330
1F
100
AcDbEntity
  8
0
  6
Continuous
 62
     7
370
    25
100
AcDbLine
 10
51.6137903294
 20
123.5511632113
 30
0.0
 11
61.6137956938
 21
123.5511632113
 31
0.0
  0
LINE
  5
139
330
1F
100
AcDbEntity
  8
0
  6
Continuous
 62
     7
370
    25
100
AcDbLine
 10
52.5416111311
 20
107.5511624514
 30
0.0
 11
52.7653520664
 21
107.5511624514
 31
0.0
  0
LINE
  5
13A
330
1F
100
AcDbEntity
  8
0
  6
Continuous
 62
     7
370
    25
100
AcDbLine
 10
86.8137901386
 20
146.6511630862
 30
0.0
 11
86.8137901386
 21
138.6511617749
 31
0.0
  0
LINE
  5
13B
330
1F
100
AcDbEntity
  8
0
  6
Continuous
 62
     7
370
    25
100
AcDbLine
 10
121.6137906274
 20
142.6511624305
 30
0.0
 11
121.6137906274
 21
146.6511630862
 31
0.0
  0
LINE
  5
13C
330
1F
100
AcDbEntity
  8
0
  6
Continuous
 62
     7
370
    25
100
AcDbLine
 10
121.6137906274
 20
138.6511617749
 30
0.0
 11
121.6137906274
 21
142.6511624305
 31
0.0
  0
LINE
  5
13D
330
1F
100
AcDbEntity
  8
0
  6
Continuous
 62
     7
370
    25
100
AcDbLine
 10
85.1137911638
 20
139.7061639874
 30
0.0
 11
85.1137911638
 21
141.1786632089
 31
0.0
  0
LINE
  5
13E
330
1F
100
AcDbEntity
  8
0
  6
Continuous
 62
     7
370
    25
100
AcDbLine
 10
85.1137911638
 20
141.1786632089
 30
0.0
 11
85.1137911638
 21
144.1236616521
 31
0.0
  0
LINE
  5
13F
330
1F
100
AcDbEntity
  8
0
  6
Continuous
 62
     7
370
    25
100
AcDbLine
 10
85.1137911638
 20
144.1236616521
 30
0.0
 11
85.1137911638
 21
145.5961608736
 31
0.0
  0
LINE
  5
140
330
1F
100
AcDbEntity
  8
0
  6
Continuous
 62
     7
370
    25
100
AcDbLine
 10
85.1137911638
 20
141.1786632089
 30
0.0
 11
84.6137976011
 21
141.1786632089
 31
0.0
  0
LINE
  5
141
330
1F
100
AcDbEntity
  8
0
  6
Continuous
 62
     7
370
    25
100
AcDbLine
 10
85.1137911638
 20
144.1236616521
 30
0.0
 11
84.6137976011
 21
144.1236616521
 31
0.0
  0
LINE
  5
142
330
1F
100
AcDbEntity
  8
0
  6
Continuous
 62
     7
370
    25
100
AcDbLine
 10
84.6137976011
 20
145.5961608736
 30
0.0
 11
85.1137911638
 21
145.5961608736
 31
0.0
  0
LINE
  5
143
330
1F
100
AcDbEntity
  8
0
  6
Continuous
 62
     7
370
    25
100
AcDbLine
 10
85.1137911638
 20
139.7061639874
 30
0.0
 11
84.6137976011
 21
139.7061639874
 31
0.0
  0
LINE
  5
144
330
1F
100
AcDbEntity
  8
0
  6
Continuous
 62
     7
370
    25
100
AcDbLine
 10
81.6137915214
 20
139.7061639874
 30
0.0
 11
84.6137976011
 21
139.7061639874
 31
0.0
  0
LINE
  5
145
330
1F
100
AcDbEntity
  8
0
  6
Continuous
 62
     7
370
    25
100
AcDbLine
 10
81.6137915214
 20
139.7061639874
 30
0.0
 11
81.6137915214
 21
141.1786632089
 31
0.0
  0
LINE
  5
146
330
1F
100
AcDbEntity
  8
0
  6
Continuous
 62
     7
370
    25
100
AcDbLine
 10
81.6137915214
 20
141.1786632089
 30
0.0
 11
84.6137976011
 21
141.1786632089
 31
0.0
  0
LINE
  5
147
330
1F
100
AcDbEntity
  8
0
  6
Continuous
 62
     7
370
    25
100
AcDbLine
 10
81.6137915214
 20
141.1786632089
 30
0.0
 11
81.6137915214
 21
144.1236616521
 31
0.0
  0
LINE
  5
148
330
1F
100
AcDbEntity
  8
0
  6
Continuous
 62
     7
370
    25
100
AcDbLine
 10
81.6137915214
 20
144.1236616521
 30
0.0
 11
84.6137976011
 21
144.1236616521
 31
0.0
  0
LINE
  5
149
330
1F
100
AcDbEntity
  8
0
  6
Continuous
 62
     7
370
    25
100
AcDbLine
 10
81.6137915214
 20
144.1236616521
 30
0.0
 11
81.6137915214
 21
145.5961608736
 31
0.0
  0
LINE
  5
14A
330
1F
100
AcDbEntity
  8
0
  6
Continuous
 62
     7
370
    25
100
AcDbLine
 10
81.6137915214
 20
145.5961608736
 30
0.0
 11
84.6137976011
 21
145.5961608736
 31
0.0
  0
SPLINE
  5
14B
330
1F
100
AcDbEntity
  8
0
  6
Continuous
 62
     7
370
    25
100
AcDbSpline
210
0.0
220
0.0
230
1.0
 70
     8
 71
     3
 72
    23
 73
    19
 74
     0
 42
0.00000001
 43
0.00000001
 40
0.0
 40
0.0
 40
0.0
 40
0.0
 40
0.0064185601381409
 40
0.0455455187902579
 40
0.1201021661335002
 40
0.2125230307675246
 40
0.3140173222887804
 40
0.4166895981086514
 40
0.5161756060005344
 40
0.610550834542361
 40
0.6944338390421738
 40
0.7615040239676591
 40
0.8058232784205099
 40
0.8353485935310444
 40
0.862192322458076
 40
0.9001122880965624
 40
0.9873210288914831
 40
1.0
 40
1.0
 40
1.0
 40
1.0
 10
54.01648336257252
 20
77.33524255814561
 30
0.0
 10
54.03142238621881
 20
77.33326543026061
 30
0.0
 10
54.13742833888519
 20
77.31923591066442
 30
0.0
 10
54.40583816968728
 20
77.44160748870574
 30
0.0
 10
54.88207532666956
 20
77.49439608474648
 30
0.0
 10
55.50100818002572
 20
77.60307889649384
 30
0.0
 10
56.18766788440603
 20
77.69367619167481
 30
0.0
 10
56.89071147972304
 20
77.78857941314416
 30
0.0
 10
57.5771660547469
 20
77.88155418936122
 30
0.0
 10
58.21904317801783
 20
77.97626173175398
 30
0.0
 10
58.7839381389024
 20
78.07429888926285
 30
0.0
 10
59.22911168832587
 20
78.17369061334459
 30
0.0
 10
59.54228958482803
 20
78.28199436997538
 30
0.0
 10
59.73746450064849
 20
78.42117219798399
 30
0.0
 10
59.84397617511824
 20
78.62989205967857
 30
0.0
 10
59.71874703342773
 20
79.00498825400125
 30
0.0
 10
59.37036979486182
 20
79.12031300417658
 30
0.0
 10
59.14269708518499
 20
79.16487348003098
 30
0.0
 10
59.11379807795795
 20
79.17052964108595
 30
0.0
  0
SPLINE
  5
14C
330
1F
100
AcDbEntity
  8
0
  6
Continuous
 62
     7
370
    25
100
AcDbSpline
210
0.0
220
0.0
230
1.0
 70
     8
 71
     3
 72
    23
 73
    19
 74
     0
 42
0.00000001
 43
0.00000001
 40
0.0
 40
0.0
 40
0.0
 40
0.0
 40
0.0088062184754113
 40
0.054221712011493
 40
0.1346614763274767
 40
0.2333896885144417
 40
0.3403835043358402
 40
0.4483023595828919
 40
0.5557026587228584
 40
0.6556428330006129
 40
0.7394586270410985
 40
0.7940766344218622
 40
0.8268208436424147
 40
0.8509263234820057
 40
0.8782744287447131
 40
0.9172932269934333
 40
0.9558322468341189
 40
1.0
 40
1.0
 40
1.0
 40
1.0
 10
53.99711185302053
 20
79.76250108691464
 30
0.0
 10
54.01756872443295
 20
79.76550583246208
 30
0.0
 10
54.14352592087057
 20
79.78400667345262
 30
0.0
 10
54.44580530040821
 20
79.8812984448789
 30
0.0
 10
54.9680701905825
 20
79.9595104035051
 30
0.0
 10
55.63107762139412
 20
80.06410071131921
 30
0.0
 10
56.36076820253752
 20
80.16194828568202
 30
0.0
 10
57.11046626365155
 20
80.26216435102161
 30
0.0
 10
57.84335620027198
 20
80.36369132313762
 30
0.0
 10
58.51842437552155
 20
80.46970608564735
 30
0.0
 10
59.06764576292755
 20
80.57764982578797
 30
0.0
 10
59.45463845214233
 20
80.68845547922521
 30
0.0
 10
59.68761892992354
 20
80.81772520195334
 30
0.0
 10
59.80930638830133
 20
80.98206696665083
 30
0.0
 10
59.82769615133146
 20
81.20793577525345
 30
0.0
 10
59.66942923640992
 20
81.4234249448416
 30
0.0
 10
59.40639566475591
 20
81.54611334337736
 30
0.0
 10
59.21565759523456
 20
81.58387548494426
 30
0.0
 10
59.11379807795797
 20
81.60404153528224
 30
0.0
  0
SPLINE
  5
14D
330
1F
100
AcDbEntity
  8
0
  6
Continuous
 62
     7
370
    25
100
AcDbSpline
210
0.0
220
0.0
230
1.0
 70
     8
 71
     3
 72
    23
 73
    19
 74
     0
 42
0.00000001
 43
0.00000001
 40
0.0
 40
0.0
 40
0.0
 40
0.0
 40
0.0022160600155562
 40
0.0213636091384458
 40
0.0742840130894551
 40
0.1501865633891075
 40
0.2408365553100193
 40
0.3392695628325072
 40
0.4421172176295991
 40
0.5455285563524882
 40
0.642655185048354
 40
0.7256312477087061
 40
0.7856945966559687
 40
0.8273252701388557
 40
0.8579258017203963
 40
0.8866370243170945
 40
0.9190818543486344
 40
1.0
 40
1.0
 40
1.0
 40
1.0
 10
53.99802082385335
 20
82.21547762292037
 30
0.0
 10
53.99691328702326
 20
82.20996320820036
 30
0.0
 10
53.9862362368629
 20
82.15680228300936
 30
0.0
 10
54.26199533091819
 20
82.32172118077646
 30
0.0
 10
54.5103167620171
 20
82.29910710078732
 30
0.0
 10
55.06331667253592
 20
82.43336316584278
 30
0.0
 10
55.66420183194558
 20
82.50819681507485
 30
0.0
 10
56.34949863987256
 20
82.60623438124274
 30
0.0
 10
57.05857049944946
 20
82.69934073415116
 30
0.0
 10
57.76601448306144
 20
82.7971464096662
 30
0.0
 10
58.42496270790411
 20
82.89854251047696
 30
0.0
 10
58.98116683013327
 20
83.00142980316879
 30
0.0
 10
59.40071032354594
 20
83.11291272206267
 30
0.0
 10
59.68583647081955
 20
83.2535931550127
 30
0.0
 10
59.82821479820509
 20
83.46142635864449
 30
0.0
 10
59.81044975472431
 20
83.69346843018609
 30
0.0
 10
59.57546156127079
 20
83.95621484263448
 30
0.0
 10
59.30608105804408
 20
84.01291304616696
 30
0.0
 10
59.11379807795797
 20
84.05338405060182
 30
0.0
  0
SPLINE
  5
14E
330
1F
100
AcDbEntity
  8
0
  6
Continuous
 62
     7
370
    25
100
AcDbSpline
210
0.0
220
0.0
230
1.0
 70
     8
 71
     3
 72
    17
 73
    13
 74
     0
 42
0.00000001
 43
0.00000001
 40
0.0
 40
0.0
 40
0.0
 40
0.0
 40
0.0080224177668408
 40
0.0543924642549019
 40
0.1364258385273566
 40
0.2451888420778076
 40
0.3754263130668165
 40
0.520262519073074
 40
0.6728332457047743
 40
0.8239232400556745
 40
0.9625631129542292
 40
0.9999999999999999
 40
0.9999999999999999
 40
0.9999999999999999
 40
0.9999999999999999
 10
53.99688833560262
 20
84.65015436882685
 30
0.0
 10
54.00986499780798
 20
84.6506231342312
 30
0.0
 10
54.0978475307136
 20
84.65380139124053
 30
0.0
 10
54.30555645101828
 20
84.74045609365506
 30
0.0
 10
54.68468378898667
 20
84.79718754933343
 30
0.0
 10
55.19494096652807
 20
84.88933177497694
 30
0.0
 10
55.80901683796685
 20
84.97561487685408
 30
0.0
 10
56.4933310183881
 20
85.06920545871728
 30
0.0
 10
57.21159659088448
 20
85.16392558801714
 30
0.0
 10
57.91851497630371
 20
85.26596676475447
 30
0.0
 10
58.44201851957875
 20
85.34123460733758
 30
0.0
 10
58.72001191576584
 20
85.40141499624455
 30
0.0
 10
58.77911799754415
 20
85.41421036130349
 30
0.0
  0
SPLINE
  5
14F
330
1F
100
AcDbEntity
  8
0
  6
Continuous
 62
     7
370
    25
100
AcDbSpline
210
0.0
220
0.0
230
1.0
 70
     8
 71
     3
 72
    20
 73
    16
 74
     0
 42
0.00000001
 43
0.00000001
 40
0.0
 40
0.0
 40
0.0
 40
0.0
 40
0.0393258461035638
 40
0.1789186495603244
 40
0.319745740492133
 40
0.4532473678520866
 40
0.5700679449949161
 40
0.6622011538431558
 40
0.7316985296096697
 40
0.7804416469197472
 40
0.8137431442395878
 40
0.8449801036078718
 40
0.8929206212995708
 40
0.9623648313549986
 40
0.9999999999999999
 40
0.9999999999999999
 40
0.9999999999999999
 40
0.9999999999999999
 10
57.32935422267232
 20
85.78259151323299
 30
0.0
 10
57.26307108318834
 20
85.77318042592293
 30
0.0
 10
56.96150631141308
 20
85.73036331709393
 30
0.0
 10
56.42178499509083
 20
85.65955885605
 30
0.0
 10
55.72355243587653
 20
85.56483903522903
 30
0.0
 10
55.06452428867717
 20
85.46870031649709
 30
0.0
 10
54.48977881205018
 20
85.37222585538277
 30
0.0
 10
54.0257685076249
 20
85.26962352255202
 30
0.0
 10
53.68828940900311
 20
85.1504837769494
 30
0.0
 10
53.46934723135341
 20
84.99414733013867
 30
0.0
 10
53.3990558571574
 20
84.80442325572713
 30
0.0
 10
53.43254054459143
 20
84.60631047556703
 30
0.0
 10
53.62638151286918
 20
84.42194456335365
 30
0.0
 10
53.87345355089486
 20
84.32275396068178
 30
0.0
 10
54.05128541431989
 20
84.28242590431547
 30
0.0
 10
54.11378794516835
 20
84.2682518100978
 30
0.0
  0
SPLINE
  5
150
330
1F
100
AcDbEntity
  8
0
  6
Continuous
 62
     7
370
    25
100
AcDbSpline
210
0.0
220
0.0
230
1.0
 70
     8
 71
     3
 72
    24
 73
    20
 74
     0
 42
0.00000001
 43
0.00000001
 40
0.0
 40
0.0
 40
0.0
 40
0.0
 40
0.000240054379394
 40
0.0059117335501815
 40
0.0203841353416876
 40
0.0645061179596197
 40
0.12768879161069
 40
0.2092565581550097
 40
0.3048771960833431
 40
0.4070926453289549
 40
0.509967819156528
 40
0.6070414283603549
 40
0.6892023096270888
 40
0.7953552515748287
 40
0.8321738800602939
 40
0.8685105736476751
 40
0.8978063050184641
 40
0.9299006972598098
 40
0.9999999999999999
 40
0.9999999999999999
 40
0.9999999999999999
 40
0.9999999999999999
 10
59.21628826464924
 20
83.67359349864134
 30
0.0
 10
59.21633098259213
 20
83.67416798054558
 30
0.0
 10
59.21738298213036
 20
83.68831554142666
 30
0.0
 10
59.13998435973063
 20
83.65328333104469
 30
0.0
 10
59.03337487782235
 20
83.63440425258791
 30
0.0
 10
58.72341604918348
 20
83.55211280255418
 30
0.0
 10
58.30400255743959
 20
83.48332646512453
 30
0.0
 10
57.74174249780312
 20
83.39385603194991
 30
0.0
 10
57.09606523487529
 20
83.30490088987885
 30
0.0
 10
56.39765987880502
 20
83.21162814412406
 30
0.0
 10
55.69712828770107
 20
83.11635276771437
 30
0.0
 10
55.04296835474158
 20
83.02245119981778
 30
0.0
 10
54.38665739101312
 20
82.90470574546322
 30
0.0
 10
53.86426565419651
 20
82.80620708955684
 30
0.0
 10
53.49148533658596
 20
82.59105396395225
 30
0.0
 10
53.38355257543534
 20
82.34999735009866
 30
0.0
 10
53.45990408243577
 20
82.11732757930133
 30
0.0
 10
53.71093416874923
 20
81.91933033069954
 30
0.0
 10
53.94988245158095
 20
81.87496829701652
 30
0.0
 10
54.11378794516835
 20
81.84453836070905
 30
0.0
  0
SPLINE
  5
151
330
1F
100
AcDbEntity
  8
0
  6
Continuous
 62
     7
370
    25
100
AcDbSpline
210
0.0
220
0.0
230
1.0
 70
     8
 71
     3
 72
    23
 73
    19
 74
     0
 42
0.00000001
 43
0.00000001
 40
0.0
 40
0.0
 40
0.0
 40
0.0
 40
0.0021454020976798
 40
0.0334904871340312
 40
0.0876859303503842
 40
0.1656768343895365
 40
0.2626045826852961
 40
0.3678211355158863
 40
0.4743906301272925
 40
0.5753854373812473
 40
0.6615567998256097
 40
0.775291366909331
 40
0.817743524042343
 40
0.8604003356867742
 40
0.8884281815725791
 40
0.9125354579764517
 40
0.9977132580360039
 40
1.0
 40
1.0
 40
1.0
 40
1.0
 10
59.22946089114461
 20
81.2379861286522
 30
0.0
 10
59.22445747304046
 20
81.23866210098862
 30
0.0
 10
59.14635234308587
 20
81.24921426874326
 30
0.0
 10
58.95441498958454
 20
81.13574351729694
 30
0.0
 10
58.5742656142907
 20
81.09626108196946
 30
0.0
 10
58.04600134698518
 20
80.99038763019223
 30
0.0
 10
57.39487620576595
 20
80.90247868199684
 30
0.0
 10
56.67732349714401
 20
80.80390629766555
 30
0.0
 10
55.95005057133758
 20
80.70700177966795
 30
0.0
 10
55.26741141167765
 20
80.61141100660787
 30
0.0
 10
54.57137143920485
 20
80.49705469949494
 30
0.0
 10
54.01010079101343
 20
80.39353126652755
 30
0.0
 10
53.57467352038427
 20
80.21511633571068
 30
0.0
 10
53.39597611291882
 20
79.98326120918809
 30
0.0
 10
53.42327578243552
 20
79.74560168942457
 30
0.0
 10
53.63483418795252
 20
79.49005937453447
 30
0.0
 10
53.9078453839499
 20
79.41728476385292
 30
0.0
 10
54.10854080578508
 20
79.3752633597381
 30
0.0
 10
54.11378794516835
 20
79.3741647190095
 30
0.0
  0
SPLINE
  5
152
330
1F
100
AcDbEntity
  8
0
  6
Continuous
 62
     7
370
    25
100
AcDbSpline
210
0.0
220
0.0
230
1.0
 70
     8
 71
     3
 72
    23
 73
    19
 74
     0
 42
0.00000001
 43
0.00000001
 40
0.0
 40
0.0
 40
0.0
 40
0.0
 40
0.0137594859616248
 40
0.0531031430036077
 40
0.1181385799309833
 40
0.2063511672651104
 40
0.305418783089131
 40
0.408095589200247
 40
0.5079418627387038
 40
0.5988353000349956
 40
0.6759631569962478
 40
0.737812722972356
 40
0.8314590281340042
 40
0.871457878991273
 40
0.895128667278114
 40
0.9218999679907011
 40
0.9899863911496078
 40
1.0
 40
1.0
 40
1.0
 40
1.0
 10
59.23972779120716
 20
78.79600525262364
 30
0.0
 10
59.20868744165026
 20
78.7872355529791
 30
0.0
 10
59.08889080636906
 20
78.7533899125517
 30
0.0
 10
58.8200326775751
 20
78.68640062099301
 30
0.0
 10
58.37582799609962
 20
78.60448581780868
 30
0.0
 10
57.7915412003573
 20
78.51255858093205
 30
0.0
 10
57.11824191791913
 20
78.41887627434558
 30
0.0
 10
56.4175665504174
 20
78.32528095697408
 30
0.0
 10
55.73557524762304
 20
78.2332332217811
 30
0.0
 10
55.11527222599322
 20
78.14253521071576
 30
0.0
 10
54.58022496510166
 20
78.05585427557445
 30
0.0
 10
54.05718975245309
 20
77.94123929369394
 30
0.0
 10
53.56866865975035
 20
77.8299776277914
 30
0.0
 10
53.38596590471654
 20
77.46318781536951
 30
0.0
 10
53.4528144732201
 20
77.24792196275354
 30
0.0
 10
53.67271153913387
 20
77.0644332874441
 30
0.0
 10
53.91276421226936
 20
76.99086483743463
 30
0.0
 10
54.09094275330864
 20
76.94944189815365
 30
0.0
 10
54.11378794516835
 20
76.94413084896811
 30
0.0
  0
SPLINE
  5
153
330
1F
100
AcDbEntity
  8
0
  6
Continuous
 62
     7
370
    25
100
AcDbSpline
210
0.0
220
0.0
230
1.0
 70
     8
 71
     3
 72
     9
 73
     5
 74
     0
 42
0.00000001
 43
0.00000001
 40
0.0
 40
0.0
 40
0.0
 40
0.0
 40
0.3510346186330869
 40
1.0
 40
1.0
 40
1.0
 40
1.0
 10
59.62399893607412
 20
76.82702821108111
 30
0.0
 10
59.5680547222295
 20
76.85426877611634
 30
0.0
 10
59.40868521598977
 20
76.93186956985366
 30
0.0
 10
59.2298536035351
 20
76.93584144084522
 30
0.0
 10
59.11379807795797
 20
76.938419047618
 30
0.0
  0
SPLINE
  5
154
330
1F
100
AcDbEntity
  8
0
  6
Continuous
 62
     7
370
    25
100
AcDbSpline
210
0.0
220
0.0
230
1.0
 70
     8
 71
     3
 72
    18
 73
    14
 74
     0
 42
0.00000001
 43
0.00000001
 40
0.0
 40
0.0
 40
0.0
 40
0.0
 40
0.0238894359871642
 40
0.0707253326218087
 40
0.2000511476383991
 40
0.3355531157859202
 40
0.4433568299640184
 40
0.5782870980876693
 40
0.7569012513801934
 40
0.8486319399531026
 40
0.9267553037072839
 40
0.9810130858117385
 40
1.0
 40
1.0
 40
1.0
 40
1.0
 10
59.43637841548238
 20
76.8430320582033
 30
0.0
 10
59.39180255316162
 20
76.82841278282868
 30
0.0
 10
59.25983448613675
 20
76.78513201579354
 30
0.0
 10
58.86597982899703
 20
76.75959045350112
 30
0.0
 10
58.2598733163254
 20
76.70623669638819
 30
0.0
 10
57.5306168670852
 20
76.66281406112863
 30
0.0
 10
56.79130670424708
 20
76.62000000749327
 30
0.0
 10
55.96661258763912
 20
76.58085313948169
 30
0.0
 10
55.17599279555247
 20
76.5287012457075
 30
0.0
 10
54.49188997122049
 20
76.48533347890925
 30
0.0
 10
54.06322594070716
 20
76.42525873070296
 30
0.0
 10
53.75141897283304
 20
76.42896784920278
 30
0.0
 10
53.63133371831398
 20
76.34753800446218
 30
0.0
 10
53.6002045234612
 20
76.32642928870925
 30
0.0
  0
SPLINE
  5
155
330
1F
100
AcDbEntity
  8
0
  6
Continuous
 62
     7
370
    25
100
AcDbSpline
210
0.0
220
0.0
230
1.0
 70
     8
 71
     3
 72
    16
 73
    12
 74
     0
 42
0.00000001
 43
0.00000001
 40
0.0
 40
0.0
 40
0.0
 40
0.0
 40
0.1014007310244542
 40
0.1956477941906738
 40
0.3516549874775482
 40
0.4661383820046277
 40
0.5536035850306071
 40
0.6502980568058497
 40
0.7611863138034015
 40
0.8809350370878005
 40
1.0
 40
1.0
 40
1.0
 40
1.0
 10
59.46849041785511
 20
76.23382415982493
 30
0.0
 10
59.50260957771555
 20
76.23787483383639
 30
0.0
 10
59.56844084243025
 20
76.24569041294829
 30
0.0
 10
59.67638614993282
 20
76.29846126904937
 30
0.0
 10
59.76593156119684
 20
76.38841282052263
 30
0.0
 10
59.81100732113721
 20
76.50300105280182
 30
0.0
 10
59.81568424568768
 20
76.60486639607007
 30
0.0
 10
59.78759244060637
 20
76.70220218112613
 30
0.0
 10
59.72217791820039
 20
76.79310337396336
 30
0.0
 10
59.62184568143673
 20
76.8623519443628
 30
0.0
 10
59.54127770744424
 20
76.87330197696824
 30
0.0
 10
59.50110905970845
 20
76.87876131745585
 30
0.0
  0
SPLINE
  5
156
330
1F
100
AcDbEntity
  8
0
  6
Continuous
 62
     7
370
    25
100
AcDbSpline
210
0.0
220
0.0
230
1.0
 70
     8
 71
     3
 72
    19
 73
    15
 74
     0
 42
0.00000001
 43
0.00000001
 40
0.0
 40
0.0
 40
0.0
 40
0.0
 40
0.0022190474586499
 40
0.0323256297808057
 40
0.0796362877173636
 40
0.1390442648937583
 40
0.2646325876648014
 40
0.3703375380318082
 40
0.5075394883100788
 40
0.6968887168355034
 40
0.7987779516154248
 40
0.8903105479180929
 40
0.961096426695677
 40
1.0
 40
1.0
 40
1.0
 40
1.0
 10
53.86173480357441
 20
75.8013477584959
 30
0.0
 10
53.86352457978118
 20
75.80527443818261
 30
0.0
 10
53.88959686716071
 20
75.86247573566983
 30
0.0
 10
54.09148286041498
 20
75.81997583323886
 30
0.0
 10
54.32319936562498
 20
75.8785498231899
 30
0.0
 10
54.78024176767845
 20
75.89748328188921
 30
0.0
 10
55.32829714168841
 20
75.94345400338077
 30
0.0
 10
56.03445336788536
 20
75.98254950798596
 30
0.0
 10
56.86012342296986
 20
76.02355429365296
 30
0.0
 10
57.67885586046101
 20
76.07156986311387
 30
0.0
 10
58.41028204932348
 20
76.11839311423813
 30
0.0
 10
58.91331979723968
 20
76.16219169675615
 30
0.0
 10
59.29986493440678
 20
76.18424617307905
 30
0.0
 10
59.50278198103374
 20
76.23964411215408
 30
0.0
 10
59.57475059832845
 20
76.25929210695037
 30
0.0
  0
SPLINE
  5
157
330
1F
100
AcDbEntity
  8
0
  6
Continuous
 62
     7
370
    25
100
AcDbSpline
210
0.0
220
0.0
230
1.0
 70
     8
 71
     3
 72
    16
 73
    12
 74
     0
 42
0.00000001
 43
0.00000001
 40
0.0
 40
0.0
 40
0.0
 40
0.0
 40
0.1177342429703583
 40
0.2279851831978182
 40
0.3273012017784377
 40
0.4143490614122843
 40
0.5533024815259415
 40
0.6620788168199351
 40
0.7852875254116108
 40
0.9298532615860856
 40
1.0
 40
1.0
 40
1.0
 40
1.0
 10
53.72647696341787
 20
76.37876123549947
 30
0.0
 10
53.69475835339802
 20
76.37528384069667
 30
0.0
 10
53.63333719899374
 20
76.3685500776795
 30
0.0
 10
53.55340578583586
 20
76.3276055057961
 30
0.0
 10
53.49284244243457
 20
76.27466787947068
 30
0.0
 10
53.44199359501501
 20
76.20260220301851
 30
0.0
 10
53.41241493923229
 20
76.11528295662809
 30
0.0
 10
53.41341816460329
 20
76.01378522153449
 30
0.0
 10
53.44707011475609
 20
75.91734389873736
 30
0.0
 10
53.50078670704453
 20
75.83931667819235
 30
0.0
 10
53.55138364633018
 20
75.81069762592597
 30
0.0
 10
53.56791370715413
 20
75.8013477584959
 30
0.0
  0
SPLINE
  5
158
330
1F
100
AcDbEntity
  8
0
  6
Continuous
 62
     7
370
    25
100
AcDbSpline
210
0.0
220
0.0
230
1.0
 70
     8
 71
     3
 72
     9
 73
     5
 74
     0
 42
0.00000001
 43
0.00000001
 40
0.0
 40
0.0
 40
0.0
 40
0.0
 40
0.4385598811310263
 40
1.0
 40
1.0
 40
1.0
 40
1.0
 10
59.69682091082845
 20
75.8013477584959
 30
0.0
 10
59.67174716412685
 20
75.82103199644618
 30
0.0
 10
59.61457424936562
 20
75.86591580547022
 30
0.0
 10
59.54190723621151
 20
75.87414240853853
 30
0.0
 10
59.50110905970845
 20
75.87876115354308
 30
0.0
  0
SPLINE
  5
159
330
1F
100
AcDbEntity
  8
0
  6
Continuous
 62
     7
370
    25
100
AcDbSpline
210
0.0
220
0.0
230
1.0
 70
     8
 71
     3
 72
     9
 73
     5
 74
     0
 42
0.00000001
 43
0.00000001
 40
0.0
 40
0.0
 40
0.0
 40
0.0
 40
0.9078511298703549
 40
1.0
 40
1.0
 40
1.0
 40
1.0
 10
59.43637841548238
 20
75.84303189429053
 30
0.0
 10
59.39224640714419
 20
75.82625548908577
 30
0.0
 10
59.34363490368708
 20
75.80777624215551
 30
0.0
 10
59.29240088487472
 20
75.8018901547956
 30
0.0
 10
59.28767972792897
 20
75.8013477584959
 30
0.0
  0
SPLINE
  5
15A
330
1F
100
AcDbEntity
  8
0
  6
Continuous
 62
     7
370
    25
100
AcDbSpline
210
0.0
220
0.0
230
1.0
 70
     8
 71
     3
 72
     9
 73
     5
 74
     0
 42
0.00000001
 43
0.00000001
 40
0.0
 40
0.0
 40
0.0
 40
0.0
 40
0.4213662691796121
 40
0.9999999999999999
 40
0.9999999999999999
 40
0.9999999999999999
 40
0.9999999999999999
 10
59.62399893607412
 20
75.82702804716834
 30
0.0
 10
59.56821488663287
 20
75.85487453905607
 30
0.0
 10
59.4358263839891
 20
75.92096073039251
 30
0.0
 10
59.28722428106577
 20
75.92570783096474
 30
0.0
 10
59.20123809184346
 20
75.92845466347941
 30
0.0
  0
LINE
  5
15B
330
1F
100
AcDbEntity
  8
0
  6
Continuous
 62
     7
370
    25
100
AcDbLine
 10
53.1137859186
 20
75.8013477585
 30
0.0
 11
53.1137859186
 21
73.8013474307
 31
0.0
  0
LINE
  5
15C
330
1F
100
AcDbEntity
  8
0
  6
Continuous
 62
     7
370
    25
100
AcDbLine
 10
60.1138001045
 20
73.8013474307
 30
0.0
 11
60.1138001045
 21
75.8013477585
 31
0.0
  0
LINE
  5
15D
330
1F
100
AcDbEntity
  8
0
  6
Continuous
 62
     7
370
    25
100
AcDbLine
 10
59.113798078
 20
54.737860713
 30
0.0
 11
59.113798078
 21
73.8013474307
 31
0.0
  0
LINE
  5
15E
330
1F
100
AcDbEntity
  8
0
  6
Continuous
 62
     7
370
    25
100
AcDbLine
 10
59.113798078
 20
75.8013477585
 30
0.0
 11
59.113798078
 21
76.1797934807
 31
0.0
  0
LINE
  5
15F
330
1F
100
AcDbEntity
  8
0
  6
Continuous
 62
     7
370
    25
100
AcDbLine
 10
59.113798078
 20
76.7800197041
 30
0.0
 11
59.113798078
 21
78.1562062016
 31
0.0
  0
LINE
  5
160
330
1F
100
AcDbEntity
  8
0
  6
Continuous
 62
     7
370
    25
100
AcDbLine
 10
59.113798078
 20
78.7617912552
 30
0.0
 11
59.113798078
 21
80.5967984757
 31
0.0
  0
LINE
  5
161
330
1F
100
AcDbEntity
  8
0
  6
Continuous
 62
     7
370
    25
100
AcDbLine
 10
59.113798078
 20
81.210107453
 30
0.0
 11
59.113798078
 21
83.0439377146
 31
0.0
  0
LINE
  5
162
330
1F
100
AcDbEntity
  8
0
  6
Continuous
 62
     7
370
    25
100
AcDbLine
 10
59.113798078
 20
83.6772035378
 30
0.0
 11
59.113798078
 21
85.3699067644
 31
0.0
  0
LINE
  5
163
330
1F
100
AcDbEntity
  8
0
  6
Continuous
 62
     7
370
    25
100
AcDbLine
 10
54.1137879452
 20
86.5255014192
 30
0.0
 11
54.1137879452
 21
85.2799770924
 31
0.0
  0
LINE
  5
164
330
1F
100
AcDbEntity
  8
0
  6
Continuous
 62
     7
370
    25
100
AcDbLine
 10
54.1137879452
 20
84.67346514
 30
0.0
 11
54.1137879452
 21
82.8235716595
 31
0.0
  0
LINE
  5
165
330
1F
100
AcDbEntity
  8
0
  6
Continuous
 62
     7
370
    25
100
AcDbLine
 10
54.1137879452
 20
82.2313571385
 30
0.0
 11
54.1137879452
 21
80.3843372537
 31
0.0
  0
LINE
  5
166
330
1F
100
AcDbEntity
  8
0
  6
Continuous
 62
     7
370
    25
100
AcDbLine
 10
54.1137879452
 20
79.7859624996
 30
0.0
 11
54.1137879452
 21
77.9510814733
 31
0.0
  0
LINE
  5
167
330
1F
100
AcDbEntity
  8
0
  6
Continuous
 62
     7
370
    25
100
AcDbLine
 10
54.1137879452
 20
77.3432817346
 30
0.0
 11
54.1137879452
 21
76.4423081687
 31
0.0
  0
LINE
  5
168
330
1F
100
AcDbEntity
  8
0
  6
Continuous
 62
     7
370
    25
100
AcDbLine
 10
54.1137879452
 20
75.8476140014
 30
0.0
 11
54.1137879452
 21
75.8013477585
 31
0.0
  0
LINE
  5
169
330
1F
100
AcDbEntity
  8
0
  6
Continuous
 62
     7
370
    25
100
AcDbLine
 10
54.1137879452
 20
73.8013474307
 30
0.0
 11
54.1137879452
 21
55.8574147558
 31
0.0
  0
LINE
  5
16A
330
1F
100
AcDbEntity
  8
0
  6
Continuous
 62
     7
370
    25
100
AcDbLine
 10
56.9328492245
 20
75.8013477585
 30
0.0
 11
53.1137859186
 21
75.8013477585
 31
0.0
  0
LINE
  5
16B
330
1F
100
AcDbEntity
  8
0
  6
Continuous
 62
     7
370
    25
100
AcDbLine
 10
60.1138001045
 20
75.8013477585
 30
0.0
 11
56.9328492245
 21
75.8013477585
 31
0.0
  0
LINE
  5
16C
330
1F
100
AcDbEntity
  8
0
  6
Continuous
 62
     7
370
    25
100
AcDbLine
 10
56.9328492245
 20
73.8013474307
 30
0.0
 11
53.1137859186
 21
73.8013474307
 31
0.0
  0
LINE
  5
16D
330
1F
100
AcDbEntity
  8
0
  6
Continuous
 62
     7
370
    25
100
AcDbLine
 10
60.1138001045
 20
73.8013474307
 30
0.0
 11
56.9328492245
 21
73.8013474307
 31
0.0
  0
LINE
  5
16E
330
1F
100
AcDbEntity
  8
0
  6
Continuous
 62
     7
370
    25
100
AcDbLine
 10
54.1137879452
 20
37.5345756064
 30
0.0
 11
56.6138004621
 21
36.0912044297
 31
0.0
  0
LINE
  5
16F
330
1F
100
AcDbEntity
  8
0
  6
Continuous
 62
     7
370
    25
100
AcDbLine
 10
56.6138004621
 20
36.0912044297
 30
0.0
 11
59.113798078
 21
37.5345756064
 31
0.0
  0
LINE
  5
170
330
1F
100
AcDbEntity
  8
0
  6
Continuous
 62
     7
370
    25
100
AcDbLine
 10
59.113798078
 20
37.5345756064
 30
0.0
 11
59.113798078
 21
51.7378632675
 31
0.0
  0
LINE
  5
171
330
1F
100
AcDbEntity
  8
0
  6
Continuous
 62
     7
370
    25
100
AcDbLine
 10
54.1137879452
 20
52.857413585
 30
0.0
 11
54.1137879452
 21
37.5345756064
 31
0.0
  0
LINE
  5
172
330
1F
100
AcDbEntity
  8
0
  6
Continuous
 62
     7
370
    25
100
AcDbLine
 10
59.113798078
 20
37.5345756064
 30
0.0
 11
54.1137879452
 21
37.5345756064
 31
0.0
  0
DIMENSION
  5
173
330
1F
100
AcDbEntity
  8
0
  6
Continuous
 62
     7
370
    18
100
AcDbDimension
  2
_D
 10
63.0137933167
 20
101.935672174
 30
0.0
 11
43.2381385
 21
101.935672174
 31
0.0
 70
   160
  1
%%c<>
 71
     2
 42
-1.0
  3
SLDDIMSTYLE0
100
AcDbAlignedDimension
 13
50.2137933167
 23
107.6222946489
 33
0.0
 14
63.0137933167
 24
107.6222946489
 34
0.0
100
AcDbRotatedDimension
  0
DIMENSION
  5
186
330
1F
100
AcDbEntity
  8
0
  6
Continuous
 62
     7
370
    18
100
AcDbDimension
  2
_D_1
 10
31.3777422198
 20
73.8013477303
 30
0.0
 11
31.3777422198
 21
54.9462749048
 31
0.0
 70
   160
  1
L1=50～1000
 71
     2
 42
-1.0
  3
SLDDIMSTYLE1
100
AcDbAlignedDimension
 13
56.6137933167
 23
36.0912020793
 33
0.0
 14
53.1137933167
 24
73.8013477303
 34
0.0
 50
90.0
100
AcDbRotatedDimension
  0
DIMENSION
  5
191
330
1F
100
AcDbEntity
  8
0
  6
Continuous
 62
     7
370
    18
100
AcDbDimension
  2
_D_2
 10
31.3777422198
 20
73.8013477303
 30
0.0
 11
31.3777422198
 21
99.6762549463
 31
0.0
 70
   160
  1
50
 71
     2
 42
-1.0
  3
SLDDIMSTYLE1
100
AcDbAlignedDimension
 13
53.1137933167
 23
125.5511621624
 33
0.0
 14
53.1137933167
 24
73.8013477303
 34
0.0
 50
90.0
100
AcDbRotatedDimension
  0
DIMENSION
  5
19B
330
1F
100
AcDbEntity
  8
0
  6
Continuous
 62
     7
370
    18
100
AcDbDimension
  2
_D_3
 10
46.5802850181
 20
73.8013477303
 30
0.0
 11
46.5802850181
 21
69.2412622516
 31
0.0
 70
   160
  1
<>
 71
     2
 42
-1.0
  3
SLDDIMSTYLE2
100
AcDbAlignedDimension
 13
53.1137933167
 23
75.8013477303
 33
0.0
 14
53.1137933167
 24
73.8013477303
 34
0.0
 50
90.0
100
AcDbRotatedDimension
  0
DIMENSION
  5
1A8
330
1F
100
AcDbEntity
  8
0
  6
Continuous
 62
     7
370
    18
100
AcDbDimension
  2
_D_4
 10
31.3777422198
 20
142.6511621624
 30
0.0
 11
31.3777422198
 21
134.1011621624
 31
0.0
 70
   160
  1
<>
 71
     2
 42
-1.0
  3
SLDDIMSTYLE3
100
AcDbAlignedDimension
 13
53.1137933167
 23
125.5511621624
 33
0.0
 14
66.6137933167
 24
142.6511621624
 34
0.0
 50
90.0
100
AcDbRotatedDimension
  0
DIMENSION
  5
1B3
330
1F
100
AcDbEntity
  8
0
  6
Continuous
 62
     7
370
    18
100
AcDbDimension
  2
_D_5
 10
81.6137933167
 20
175.0782038975
 30
0.0
 11
69.1137933167
 21
175.0782038975
 31
0.0
 70
   160
  1
<>
 71
     2
 42
-1.0
  3
SLDDIMSTYLE1
100
AcDbAlignedDimension
 13
56.6137933167
 23
132.6511621624
 33
0.0
 14
81.6137933167
 24
145.1511621624
 34
0.0
100
AcDbRotatedDimension
  0
DIMENSION
  5
1BD
330
1F
100
AcDbEntity
  8
0
  6
Continuous
 62
     7
370
    18
100
AcDbDimension
  2
_D_6
 10
121.6137933167
 20
175.1782038975
 30
0.0
 11
101.6137933167
 21
175.1782038975
 31
0.0
 70
   160
  1
<>
 71
     2
 42
-1.0
  3
SLDDIMSTYLE1
100
AcDbAlignedDimension
 13
81.6137933167
 23
145.1511621624
 33
0.0
 14
121.6137933167
 24
146.6511621624
 34
0.0
100
AcDbRotatedDimension
  0
DIMENSION
  5
1C7
330
1F
100
AcDbEntity
  8
0
  6
Continuous
 62
     7
370
    18
100
AcDbDimension
  2
_D_7
 10
114.7324481018
 20
146.6511621624
 30
0.0
 11
114.7324481018
 21
158.8937194558
 31
0.0
 70
   160
  1
%%c<>
 71
     2
 42
-1.0
  3
SLDDIMSTYLE1
100
AcDbAlignedDimension
 13
121.6137933167
 23
138.6511621624
 33
0.0
 14
121.6137933167
 24
146.6511621624
 34
0.0
 50
90.0
100
AcDbRotatedDimension
  0
DIMENSION
  5
1D2
330
1F
100
AcDbEntity
  8
0
  6
Continuous
 62
     7
370
    18
100
AcDbDimension
  2
_D_8
 10
59.1137933167
 20
43.8230553186
 30
0.0
 11
46.5802850181
 21
43.8230553186
 31
0.0
 70
   160
  1
%%c<>
 71
     2
 42
-1.0
  3
SLDDIMSTYLE2
100
AcDbAlignedDimension
 13
54.1137933167
 23
37.5345777522
 33
0.0
 14
59.1137933167
 24
37.5345777522
 34
0.0
100
AcDbRotatedDimension
  0
DIMENSION
  5
1DD
330
1F
100
AcDbEntity
  8
0
  6
Continuous
 62
     7
370
    18
100
AcDbDimension
  2
_D_9
 10
60.1137933167
 20
69.2412622516
 30
0.0
 11
65.9636913448
 21
69.2412622516
 31
0.0
 70
   160
  1
%%c<>
 71
     2
 42
-1.0
  3
SLDDIMSTYLE1
100
AcDbAlignedDimension
 13
53.1137933167
 23
73.8013477303
 33
0.0
 14
60.1137933167
 24
73.8013477303
 34
0.0
100
AcDbRotatedDimension
  0
DIMENSION
  5
1E9
330
1F
100
AcDbEntity
  8
0
  6
Continuous
 62
     7
370
    18
100
AcDbDimension
  2
_D_10
 10
259.5653154427
 20
175.0782038975
 30
0.0
 11
190.5895543797
 21
175.0782038975
 31
0.0
 70
   160
  1
L=100～10000
 71
     2
 42
-1.0
  3
SLDDIMSTYLE1
100
AcDbAlignedDimension
 13
121.6137933167
 23
146.6511621624
 33
0.0
 14
259.5653154427
 24
154.2783170939
 34
0.0
100
AcDbRotatedDimension
  0
DIMENSION
  5
1F3
330
1F
100
AcDbEntity
  8
0
  6
Continuous
 62
     7
370
    18
100
AcDbDimension
  2
_D_11
 10
259.5653154427
 20
158.8937194558
 30
0.0
 11
226.9759709339
 21
158.8937194558
 31
0.0
 70
   160
  1
(80)
 71
     2
 42
-1.0
  3
SLDDIMSTYLE1
100
AcDbAlignedDimension
 13
194.3866264252
 23
145.1511621624
 33
0.0
 14
259.5653154427
 24
154.2783170939
 34
0.0
100
AcDbRotatedDimension
  0
DIMENSION
  5
1FF
330
1F
100
AcDbEntity
  8
0
  6
Continuous
 62
     7
370
    18
100
AcDbDimension
  2
_D_12
 10
41.9493448901
 20
123.5511621624
 30
0.0
 11
41.9493448901
 21
115.5511621624
 31
0.0
 70
   160
  1
(<>)
 71
     2
 42
-1.0
  3
SLDDIMSTYLE1
100
AcDbAlignedDimension
 13
49.6137933167
 23
107.5511621624
 33
0.0
 14
51.6137933167
 24
123.5511621624
 34
0.0
 50
90.0
100
AcDbRotatedDimension
  0
DIMENSION
  5
20B
330
1F
100
AcDbEntity
  8
0
  6
Continuous
 62
     7
370
    18
100
AcDbDimension
  2
_D_13
 10
63.6137933167
 20
97.7376112904
 30
0.0
 11
41.9493448901
 21
97.7376112904
 31
0.0
 70
   160
  1
%%c<>
 71
     2
 42
-1.0
  3
SLDDIMSTYLE1
100
AcDbAlignedDimension
 13
49.6137933167
 23
107.5511621624
 33
0.0
 14
63.6137933167
 24
107.5511621624
 34
0.0
100
AcDbRotatedDimension
  0
DIMENSION
  5
217
330
1F
100
AcDbEntity
  8
0
  6
Continuous
 62
     7
370
    18
100
AcDbDimension
  2
_D_14
 10
86.8137933167
 20
153.3747181589
 30
0.0
 11
84.2137933167
 21
153.3747181589
 31
0.0
 70
   160
  1
<>
 71
     2
 42
-1.0
  3
SLDDIMSTYLE4
100
AcDbAlignedDimension
 13
81.6137933167
 23
145.5961621624
 33
0.0
 14
86.8137933167
 24
146.6511621624
 34
0.0
100
AcDbRotatedDimension
  0
INSERT
  5
229
330
1F
100
AcDbEntity
  8
0
  6
Continuous
 62
     7
370
    18
100
AcDbBlockReference
  2
SW_NOTE_0
 10
71.9288840263
 20
29.6232069476
 30
0.0
  0
LEADER
  5
22B
330
1F
100
AcDbEntity
  8
0
  6
Continuous
 62
     7
370
    18
100
AcDbLeader
  3
SLDDIMSTYLE5
 76
     2
 10
59.1137933167
 20
37.5345777522
 30
0.0
 10
71.9288840263
 20
29.6232069476
 30
0.0
  0
INSERT
  5
231
330
1F
100
AcDbEntity
  8
0
  6
Continuous
 62
     7
370
    18
100
AcDbBlockReference
  2
SW_NOTE_0_1
 10
71.9288840263
 20
55.8814126368
 30
0.0
  0
LEADER
  5
232
330
1F
100
AcDbEntity
  8
0
  6
Continuous
 62
     7
370
    18
100
AcDbLeader
  3
SLDDIMSTYLE5
 76
     2
 10
58.9780166367
 20
63.7408459179
 30
0.0
 10
71.9288840263
 20
55.8814126368
 30
0.0
  0
INSERT
  5
238
330
1F
100
AcDbEntity
  8
0
  6
Continuous
 62
     7
370
    18
100
AcDbBlockReference
  2
SW_NOTE_0_2
 10
71.9288840263
 20
84.8748480854
 30
0.0
  0
LEADER
  5
239
330
1F
100
AcDbEntity
  8
0
  6
Continuous
 62
     7
370
    18
100
AcDbLeader
  3
SLDDIMSTYLE5
 76
     2
 10
59.8925404256
 20
92.402745686
 30
0.0
 10
71.9288840263
 20
84.8748480854
 30
0.0
  0
INSERT
  5
23F
330
1F
100
AcDbEntity
  8
0
  6
Continuous
 62
     7
370
    18
100
AcDbBlockReference
  2
SW_NOTE_0_3
 10
71.9288840263
 20
107.4131413021
 30
0.0
  0
LEADER
  5
240
330
1F
100
AcDbEntity
  8
0
  6
Continuous
 62
     7
370
    18
100
AcDbLeader
  3
SLDDIMSTYLE5
 76
     2
 10
63.6137933167
 20
113.7779494945
 30
0.0
 10
71.9288840263
 20
107.4131413021
 30
0.0
  0
INSERT
  5
246
330
1F
100
AcDbEntity
  8
0
  6
Continuous
 62
     7
370
    18
100
AcDbBlockReference
  2
SW_NOTE_0_4
 10
87.9026258206
 20
124.5903841905
 30
0.0
  0
LEADER
  5
247
330
1F
100
AcDbEntity
  8
0
  6
Continuous
 62
     7
370
    18
100
AcDbLeader
  3
SLDDIMSTYLE5
 76
     2
 10
83.3402737396
 20
139.7061621624
 30
0.0
 10
87.9026258206
 20
124.5903841905
 30
0.0
  0
INSERT
  5
24D
330
1F
100
AcDbEntity
  8
0
  6
Continuous
 62
     7
370
    18
100
AcDbBlockReference
  2
SW_NOTE_0_5
 10
109.6750547046
 20
125.0280209519
 30
0.0
  0
LEADER
  5
24E
330
1F
100
AcDbEntity
  8
0
  6
Continuous
 62
     7
370
    18
100
AcDbLeader
  3
SLDDIMSTYLE5
 76
     2
 10
105.8801364569
 20
138.6511621624
 30
0.0
 10
109.6750547046
 20
125.0280209519
 30
0.0
  0
INSERT
  5
255
330
1F
100
AcDbEntity
  8
0
  6
Continuous
 62
     7
370
    18
100
AcDbBlockReference
  2
SW_NOTE_0_6
 10
126.1958424508
 20
125.0013373087
 30
0.0
  0
LEADER
  5
256
330
1F
100
AcDbEntity
  8
0
  6
Continuous
 62
     7
370
    18
100
AcDbLeader
  3
SLDDIMSTYLE5
 76
     2
 10
121.6137933167
 20
140.2788540289
 30
0.0
 10
126.1958424508
 20
125.0013373087
 30
0.0
  0
INSERT
  5
25C
330
1F
100
AcDbEntity
  8
0
  6
Continuous
 62
     7
370
    18
100
AcDbBlockReference
  2
SW_NOTE_0_7
 10
163.3949671772
 20
125.0280209519
 30
0.0
  0
LEADER
  5
25D
330
1F
100
AcDbEntity
  8
0
  6
Continuous
 62
     7
370
    18
100
AcDbLeader
  3
SLDDIMSTYLE5
 76
     2
 10
158.8455323264
 20
140.2511621624
 30
0.0
 10
163.3949671772
 20
125.0280209519
 30
0.0
  0
INSERT
  5
263
330
1F
100
AcDbEntity
  8
0
  6
Continuous
 62
     7
370
    18
100
AcDbBlockReference
  2
SW_NOTE_0_8
 10
196.1083150985
 20
125.0280209519
 30
0.0
  0
LEADER
  5
264
330
1F
100
AcDbEntity
  8
0
  6
Continuous
 62
     7
370
    18
100
AcDbLeader
  3
SLDDIMSTYLE5
 76
     2
 10
192.3218757144
 20
140.1511621624
 30
0.0
 10
196.1083150985
 20
125.0280209519
 30
0.0
  0
INSERT
  5
26A
330
1F
100
AcDbEntity
  8
0
  6
Continuous
 62
     7
370
    18
100
AcDbBlockReference
  2
SW_NOTE_0_9
 10
254.7804958657
 20
121.0892900986
 30
0.0
  0
LEADER
  5
26B
330
1F
100
AcDbEntity
  8
0
  6
Continuous
 62
     7
370
    18
100
AcDbLeader
  3
SLDDIMSTYLE5
 76
     2
 10
257.4069051247
 20
132.2241204273
 30
0.0
 10
254.7804958657
 20
121.0892900986
 30
0.0
  0
MTEXT
  5
26C
330
1F
100
AcDbEntity
  8
0
  6
Continuous
 62
     7
370
    18
100
AcDbMText
 10
72.8531860638
 20
28.6906093932
 30
0.0
 40
2.6458333333
 41
0.0
 71
     1
 72
     1
  1
(ｱﾙｺﾞﾝ溶接)
  7
SLDTEXTSTYLE1
 73
     1
 44
1.0
  0
MTEXT
  5
26D
330
1F
100
AcDbEntity
  8
0
  6
Continuous
 62
     7
370
    18
100
AcDbMText
 10
71.7507557835
 20
55.1619287419
 30
0.0
 40
2.6458333333
 41
0.0
 71
     1
 72
     1
  1
(SUS304)
  7
SLDTEXTSTYLE0
 73
     1
 44
1.0
  0
MTEXT
  5
26E
330
1F
100
AcDbEntity
  8
0
  6
Continuous
 62
     7
370
    18
100
AcDbMText
 10
71.1652435253
 20
83.8497331969
 30
0.0
 40
2.6458333333
 41
0.0
 71
     1
 72
     1
  1
(SUS304)
  7
SLDTEXTSTYLE0
 73
     1
 44
1.0
  0
MTEXT
  5
26F
330
1F
100
AcDbEntity
  8
0
  6
Continuous
 62
     7
370
    18
100
AcDbMText
 10
76.0330868776
 20
106.6847953579
 30
0.0
 40
2.6458333333
 41
0.0
 71
     1
 72
     1
  1
(SUS304)
  7
SLDTEXTSTYLE0
 73
     1
 44
1.0
  0
MTEXT
  5
270
330
1F
100
AcDbEntity
  8
0
  6
Continuous
 62
     7
370
    18
100
AcDbMText
 10
126.478814311
 20
124.2469824152
 30
0.0
 40
2.6458333333
 41
0.0
 71
     1
 72
     1
  1
(耐熱温度120℃)
  7
SLDTEXTSTYLE1
 73
     1
 44
1.0
  0
MTEXT
  5
271
330
1F
100
AcDbEntity
  8
0
  6
Continuous
 62
     7
370
    18
100
AcDbMText
 10
162.9582807426
 20
124.2469824152
 30
0.0
 40
2.6458333333
 41
0.0
 71
     1
 72
     1
  1
(補償導線)
  7
SLDTEXTSTYLE1
 73
     1
 44
1.0
  0
MTEXT
  5
272
330
1F
100
AcDbEntity
  8
0
  6
Continuous
 62
     7
370
    18
100
AcDbMText
 10
267.740714718
 20
151.1742771361
 30
0.0
 40
2.6458333333
 41
0.0
 71
     1
 72
     1
  1
赤（+）
  7
SLDTEXTSTYLE1
 73
     1
 44
1.0
  0
MTEXT
  5
273
330
1F
100
AcDbEntity
  8
0
  6
Continuous
 62
     7
370
    18
100
AcDbMText
 10
267.740714718
 20
136.5766635545
 30
0.0
 40
2.6458333333
 41
0.0
 71
     1
 72
     1
  1
黒（-）
  7
SLDTEXTSTYLE1
 73
     1
 44
1.0
  0
INSERT
  5
279
330
1F
100
AcDbEntity
  8
0
  6
Continuous
 62
     7
370
    18
100
AcDbBlockReference
  2
SW_NOTE_0_10
 10
46.453102246
 20
150.7391806894
 30
0.0
  0
LEADER
  5
27A
330
1F
100
AcDbEntity
  8
0
  6
Continuous
 62
     7
370
    18
100
AcDbLeader
  3
SLDDIMSTYLE5
 76
     2
 10
59.5812587338
 20
139.7605543543
 30
0.0
 10
46.453102246
 20
150.7391806894
 30
0.0
  0
INSERT
  5
286
330
1F
100
AcDbEntity
  8
0
  6
Continuous
 62
     7
370
    18
100
AcDbBlockReference
  2
SW_CENTERMARKSYMBOL_0
 10
259.5653086306
 20
150.1782046108
 30
0.0
  0
INSERT
  5
292
330
1F
100
AcDbEntity
  8
0
  6
Continuous
 62
     7
370
    18
100
AcDbBlockReference
  2
SW_CENTERMARKSYMBOL_1
 10
259.5653086306
 20
135.1241202502
 30
0.0
  0
ARC
  5
293
330
1F
100
AcDbEntity
  8
0
  6
HIDDEN
 62
     7
370
    18
100
AcDbCircle
 10
59.4512933167
 20
59.1076382951
 30
0.0
 40
7.377500000000023
100
AcDbArc
 50
247.380135052
 51
292.619864948
  0
ARC
  5
294
330
1F
100
AcDbEntity
  8
0
  6
HIDDEN
 62
     7
370
    18
100
AcDbCircle
 10
53.7762933167
 20
45.4876382951
 30
0.0
 40
7.377500000000023
100
AcDbArc
 50
67.380135052
 51
112.619864948
  0
ARC
  5
295
330
1F
100
AcDbEntity
  8
0
  6
HIDDEN
 62
     7
370
    18
100
AcDbCircle
 10
59.4512933167
 20
62.1076382951
 30
0.0
 40
7.377500000000023
100
AcDbArc
 50
247.380135052
 51
292.619864948
  0
ARC
  5
296
330
1F
100
AcDbEntity
  8
0
  6
HIDDEN
 62
     7
370
    18
100
AcDbCircle
 10
53.7762933167
 20
48.4876382951
 30
0.0
 40
7.377500000000023
100
AcDbArc
 50
67.380135052
 51
112.619864948
  0
ARC
  5
297
330
1F
100
AcDbEntity
  8
0
  6
HIDDEN
 62
     7
370
    18
100
AcDbCircle
 10
156.1633389857
 20
145.4386621624
 30
0.0
 40
7.247500000000007
100
AcDbArc
 50
157.380135052
 51
202.619864948
  0
ARC
  5
298
330
1F
100
AcDbEntity
  8
0
  6
HIDDEN
 62
     7
370
    18
100
AcDbCircle
 10
142.7833389857
 20
139.8636621624
 30
0.0
 40
7.247500000000023
100
AcDbArc
 50
337.380135052
 51
22.619864948
  0
ARC
  5
299
330
1F
100
AcDbEntity
  8
0
  6
HIDDEN
 62
     7
370
    18
100
AcDbCircle
 10
159.1633389857
 20
145.4386621624
 30
0.0
 40
7.247500000000033
100
AcDbArc
 50
157.380135052
 51
202.619864948
  0
ARC
  5
29A
330
1F
100
AcDbEntity
  8
0
  6
HIDDEN
 62
     7
370
    18
100
AcDbCircle
 10
145.7833389857
 20
139.8636621624
 30
0.0
 40
7.247499999999996
100
AcDbArc
 50
337.380135052
 51
22.619864948
  0
ARC
  5
29B
330
1F
100
AcDbEntity
  8
0
  6
HIDDEN
 62
     7
370
    18
100
AcDbCircle
 10
59.9738199337
 20
93.1528909817
 30
0.0
 40
7.830356401352491
100
AcDbArc
 50
247.380135052
 51
292.619864948
  0
ARC
  5
29C
330
1F
100
AcDbEntity
  8
0
  6
HIDDEN
 62
     7
370
    18
100
AcDbCircle
 10
53.9504688557
 20
78.6968483946
 30
0.0
 40
7.830356401352502
100
AcDbArc
 50
67.380135052
 51
112.619864948
  0
ARC
  5
29D
330
1F
100
AcDbEntity
  8
0
  6
HIDDEN
 62
     7
370
    18
100
AcDbCircle
 10
59.2787385963
 20
96.1490010173
 30
0.0
 40
7.826142273178124
100
AcDbArc
 50
247.380135052
 51
292.619864948
  0
ARC
  5
29E
330
1F
100
AcDbEntity
  8
0
  6
HIDDEN
 62
     7
370
    18
100
AcDbCircle
 10
53.2586291554
 20
81.7007383591
 30
0.0
 40
7.826142273178132
100
AcDbArc
 50
67.380135052
 51
112.619864948
  0
ARC
  5
29F
330
1F
100
AcDbEntity
  8
0
  6
HIDDEN
 62
     7
370
    18
100
AcDbCircle
 10
236.5499916093
 20
146.3780326822
 30
0.0
 40
9.689863351579692
100
AcDbArc
 50
157.380135052
 51
202.619864948
  0
ARC
  5
2A0
330
1F
100
AcDbEntity
  8
0
  6
HIDDEN
 62
     7
370
    18
100
AcDbCircle
 10
218.6610131141
 20
138.9242916425
 30
0.0
 40
9.689863351579692
100
AcDbArc
 50
337.380135052
 51
22.619864948
  0
ARC
  5
2A1
330
1F
100
AcDbEntity
  8
0
  6
HIDDEN
 62
     7
370
    18
100
AcDbCircle
 10
241.5910287702
 20
147.2284648326
 30
0.0
 40
11.90098694252058
100
AcDbArc
 50
157.380135052
 51
202.619864948
  0
ARC
  5
2A2
330
1F
100
AcDbEntity
  8
0
  6
HIDDEN
 62
     7
370
    18
100
AcDbCircle
 10
219.6199759532
 20
138.0738594922
 30
0.0
 40
11.90098694252057
100
AcDbArc
 50
337.380135052
 51
22.619864948
  0
LINE
  5
2A3
330
1F
100
AcDbEntity
  8
0
  6
CENTERX2
 62
     7
370
    18
100
AcDbLine
 10
56.6138004621
 20
32.4832905779
 30
0.0
 11
56.6138004621
 21
52.2976365636
 31
0.0
  0
LINE
  5
2A4
330
1F
100
AcDbEntity
  8
0
  6
CENTERX2
 62
     7
370
    18
100
AcDbLine
 10
56.6138004621
 20
55.2976377344
 30
0.0
 11
56.6138004621
 21
86.0603518936
 31
0.0
  0
LINE
  5
2A5
330
1F
100
AcDbEntity
  8
0
  6
CENTERX2
 62
     7
370
    18
100
AcDbLine
 10
56.6138004621
 20
88.7905657583
 30
0.0
 11
56.6138004621
 21
132.6511607914
 31
0.0
  0
LINE
  5
2A6
330
1F
100
AcDbEntity
  8
0
  6
CENTERX2
 62
     7
370
    18
100
AcDbLine
 10
66.6137909254
 20
142.6511624305
 30
0.0
 11
149.4733368715
 21
142.6511624305
 31
0.0
  0
LINE
  5
2A7
330
1F
100
AcDbEntity
  8
0
  6
CENTERX2
 62
     7
370
    18
100
AcDbLine
 10
152.4733387784
 20
142.6511624305
 30
0.0
 11
227.6055001572
 21
142.6511624305
 31
0.0
  0
LINE
  5
2A8
330
1F
100
AcDbEntity
  8
0
  6
CENTERX2
 62
     7
370
    18
100
AcDbLine
 10
230.6054978968
 20
142.6511624305
 30
0.0
 11
266.0886048676
 21
142.6511624305
 31
0.0
  0
ARC
  5
2A9
330
1F
100
AcDbEntity
  8
0
  6
CENTERX2
 62
     7
370
    18
100
AcDbCircle
 10
66.6137878642
 20
132.6511750286
 30
0.0
 40
9.999987402081505
100
AcDbArc
 50
90.0003099462
 51
180.0000815732
  0
ENDSEC
  0
SECTION
  2
OBJECTS
  0
DICTIONARY
  5
C
330
0
100
AcDbDictionary
281
     1
  3
ACAD_GROUP
350
D
  3
ACAD_LAYOUT
350
1A
  3
ACAD_MLINESTYLE
350
17
  3
ACAD_PLOTSETTINGS
350
19
  3
ACAD_PLOTSTYLENAME
350
E
  3
ACAD_SCALELIST
350
47
  3
DWGPROPS
350
2AA
  0
DICTIONARY
  5
D
102
{ACAD_REACTORS
330
C
102
}
330
C
100
AcDbDictionary
281
     1
  0
DICTIONARY
  5
1A
102
{ACAD_REACTORS
330
C
102
}
330
C
100
AcDbDictionary
281
     1
  3
Layout1
350
1E
  3
Layout2
350
26
  3
Model
350
22
  0
DICTIONARY
  5
17
102
{ACAD_REACTORS
330
C
102
}
330
C
100
AcDbDictionary
281
     1
  3
Standard
350
18
  0
DICTIONARY
  5
19
102
{ACAD_REACTORS
330
C
102
}
330
C
100
AcDbDictionary
281
     1
  0
ACDBDICTIONARYWDFLT
  5
E
102
{ACAD_REACTORS
330
C
102
}
330
C
100
AcDbDictionary
281
     1
  3
Normal
350
F
100
AcDbDictionaryWithDefault
340
F
  0
DICTIONARY
  5
47
102
{ACAD_REACTORS
330
C
102
}
330
C
100
AcDbDictionary
281
     1
  3
A0
350
48
  3
A1
350
49
  3
A2
350
4A
  3
A3
350
4B
  3
A4
350
4C
  3
A5
350
4D
  3
A6
350
4E
  3
A7
350
4F
  3
A8
350
50
  3
A9
350
51
  3
B0
350
52
  3
B1
350
53
  3
B2
350
54
  3
B3
350
55
  3
B4
350
56
  3
B5
350
57
  3
B6
350
58
  3
B7
350
59
  3
B8
350
5A
  3
B9
350
5B
  3
C0
350
5C
  3
C1
350
5D
  3
C2
350
5E
  3
C3
350
5F
  3
C4
350
60
  3
C5
350
61
  3
C6
350
62
  3
C7
350
63
  3
C8
350
64
  3
C9
350
65
  3
D0
350
66
  3
D1
350
67
  3
D2
350
68
  0
XRECORD
  5
2AA
102
{ACAD_REACTORS
330
C
102
}
330
C
100
AcDbXrecord
280
     1
  1
DWGPROPS COOKIE
  2

  3

  4

  6

  7

  8
p870382
  9

300
=
301
=
302
=
303
=
304
=
305
=
306
=
307
=
308
=
309
=
 40
0.0
 41
2460791.202979468
 42
2460791.202983264
  1

 90
        0
  0
LAYOUT
  5
1E
102
{ACAD_REACTORS
330
1A
102
}
330
1A
100
AcDbPlotSettings
  1

  2
none_device
  4

  6

 40
0.0
 41
0.0
 42
0.0
 43
0.0
 44
0.0
 45
0.0
 46
0.0
 47
0.0
 48
0.0
 49
0.0
140
0.0
141
0.0
142
1.0
143
1.0
 70
   688
 72
     1
 73
     0
 74
     5
  7

 75
    16
147
1.0
148
0.0
149
0.0
100
AcDbLayout
  1
Layout1
 70
     1
 71
     1
 10
0.0
 20
0.0
 11
420.0
 21
297.0
 12
0.0
 22
0.0
 32
0.0
 14
1.0000000000E+20
 24
1.0000000000E+20
 34
1.0000000000E+20
 15
-1.0000000000E+20
 25
-1.0000000000E+20
 35
-1.0000000000E+20
146
0.0
 13
0.0
 23
0.0
 33
0.0
 16
1.0
 26
0.0
 36
0.0
 17
0.0
 27
1.0
 37
0.0
 76
     0
330
1B
  0
LAYOUT
  5
26
102
{ACAD_REACTORS
330
1A
102
}
330
1A
100
AcDbPlotSettings
  1

  2
none_device
  4

  6

 40
0.0
 41
0.0
 42
0.0
 43
0.0
 44
0.0
 45
0.0
 46
0.0
 47
0.0
 48
0.0
 49
0.0
140
0.0
141
0.0
142
1.0
143
1.0
 70
   688
 72
     1
 73
     0
 74
     5
  7

 75
    16
147
1.0
148
0.0
149
0.0
100
AcDbLayout
  1
Layout2
 70
     1
 71
     2
 10
0.0
 20
0.0
 11
0.0
 21
0.0
 12
0.0
 22
0.0
 32
0.0
 14
0.0
 24
0.0
 34
0.0
 15
0.0
 25
0.0
 35
0.0
146
0.0
 13
0.0
 23
0.0
 33
0.0
 16
1.0
 26
0.0
 36
0.0
 17
0.0
 27
1.0
 37
0.0
 76
     0
330
23
  0
LAYOUT
  5
22
102
{ACAD_REACTORS
330
1A
102
}
330
1A
100
AcDbPlotSettings
  1

  2
none_device
  4
Letter_(8.50_x_11.00_Inches)
  6

 40
6.35
 41
6.35
 42
6.35000508
 43
6.35000508
 44
215.9
 45
279.4
 46
0.0
 47
0.0
 48
0.0
 49
0.0
140
0.0
141
0.0
142
1.0
143
1.0
 70
  1712
 72
     1
 73
     0
 74
     0
  7

 75
     0
147
1.0
148
0.0
149
0.0
100
AcDbLayout
  1
Model
 70
     1
 71
     0
 10
0.0
 20
0.0
 11
297.0
 21
210.0
 12
0.0
 22
0.0
 32
0.0
 14
0.0
 24
0.0
 34
0.0
 15
297.0
 25
210.0
 35
0.0
146
0.0
 13
0.0
 23
0.0
 33
0.0
 16
1.0
 26
0.0
 36
0.0
 17
0.0
 27
1.0
 37
0.0
 76
     0
330
1F
331
29
  0
MLINESTYLE
  5
18
102
{ACAD_REACTORS
330
17
102
}
330
17
100
AcDbMlineStyle
  2
Standard
 70
     0
  3

 62
   256
 51
90.0
 52
90.0
 71
     2
 49
0.5
 62
   256
  6
BYLAYER
 49
-0.5
 62
   256
  6
BYLAYER
  0
ACDBPLACEHOLDER
  5
F
102
{ACAD_REACTORS
330
E
102
}
330
E
  0
SCALE
  5
48
102
{ACAD_REACTORS
330
47
102
}
330
47
100
AcDbScale
 70
     0
300
1:1
140
1.0
141
1.0
290
     1
  0
SCALE
  5
49
102
{ACAD_REACTORS
330
47
102
}
330
47
100
AcDbScale
 70
     0
300
1:2
140
1.0
141
2.0
290
     0
  0
SCALE
  5
4A
102
{ACAD_REACTORS
330
47
102
}
330
47
100
AcDbScale
 70
     0
300
1:4
140
1.0
141
4.0
290
     0
  0
SCALE
  5
4B
102
{ACAD_REACTORS
330
47
102
}
330
47
100
AcDbScale
 70
     0
300
1:5
140
1.0
141
5.0
290
     0
  0
SCALE
  5
4C
102
{ACAD_REACTORS
330
47
102
}
330
47
100
AcDbScale
 70
     0
300
1:8
140
1.0
141
8.0
290
     0
  0
SCALE
  5
4D
102
{ACAD_REACTORS
330
47
102
}
330
47
100
AcDbScale
 70
     0
300
1:10
140
1.0
141
10.0
290
     0
  0
SCALE
  5
4E
102
{ACAD_REACTORS
330
47
102
}
330
47
100
AcDbScale
 70
     0
300
1:16
140
1.0
141
16.0
290
     0
  0
SCALE
  5
4F
102
{ACAD_REACTORS
330
47
102
}
330
47
100
AcDbScale
 70
     0
300
1:20
140
1.0
141
20.0
290
     0
  0
SCALE
  5
50
102
{ACAD_REACTORS
330
47
102
}
330
47
100
AcDbScale
 70
     0
300
1:30
140
1.0
141
30.0
290
     0
  0
SCALE
  5
51
102
{ACAD_REACTORS
330
47
102
}
330
47
100
AcDbScale
 70
     0
300
1:40
140
1.0
141
40.0
290
     0
  0
SCALE
  5
52
102
{ACAD_REACTORS
330
47
102
}
330
47
100
AcDbScale
 70
     0
300
1:50
140
1.0
141
50.0
290
     0
  0
SCALE
  5
53
102
{ACAD_REACTORS
330
47
102
}
330
47
100
AcDbScale
 70
     0
300
1:100
140
1.0
141
100.0
290
     0
  0
SCALE
  5
54
102
{ACAD_REACTORS
330
47
102
}
330
47
100
AcDbScale
 70
     0
300
2:1
140
2.0
141
1.0
290
     0
  0
SCALE
  5
55
102
{ACAD_REACTORS
330
47
102
}
330
47
100
AcDbScale
 70
     0
300
4:1
140
4.0
141
1.0
290
     0
  0
SCALE
  5
56
102
{ACAD_REACTORS
330
47
102
}
330
47
100
AcDbScale
 70
     0
300
8:1
140
8.0
141
1.0
290
     0
  0
SCALE
  5
57
102
{ACAD_REACTORS
330
47
102
}
330
47
100
AcDbScale
 70
     0
300
10:1
140
10.0
141
1.0
290
     0
  0
SCALE
  5
58
102
{ACAD_REACTORS
330
47
102
}
330
47
100
AcDbScale
 70
     0
300
100:1
140
100.0
141
1.0
290
     0
  0
SCALE
  5
59
102
{ACAD_REACTORS
330
47
102
}
330
47
100
AcDbScale
 70
     0
300
1/128" = 1'-0"
140
0.0078125
141
12.0
290
     0
  0
SCALE
  5
5A
102
{ACAD_REACTORS
330
47
102
}
330
47
100
AcDbScale
 70
     0
300
1/64" = 1'-0"
140
0.015625
141
12.0
290
     0
  0
SCALE
  5
5B
102
{ACAD_REACTORS
330
47
102
}
330
47
100
AcDbScale
 70
     0
300
1/32" = 1'-0"
140
0.03125
141
12.0
290
     0
  0
SCALE
  5
5C
102
{ACAD_REACTORS
330
47
102
}
330
47
100
AcDbScale
 70
     0
300
1/16" = 1'-0"
140
0.0625
141
12.0
290
     0
  0
SCALE
  5
5D
102
{ACAD_REACTORS
330
47
102
}
330
47
100
AcDbScale
 70
     0
300
3/32" = 1'-0"
140
0.09375
141
12.0
290
     0
  0
SCALE
  5
5E
102
{ACAD_REACTORS
330
47
102
}
330
47
100
AcDbScale
 70
     0
300
1/8" = 1'-0"
140
0.125
141
12.0
290
     0
  0
SCALE
  5
5F
102
{ACAD_REACTORS
330
47
102
}
330
47
100
AcDbScale
 70
     0
300
3/16" = 1'-0"
140
0.1875
141
12.0
290
     0
  0
SCALE
  5
60
102
{ACAD_REACTORS
330
47
102
}
330
47
100
AcDbScale
 70
     0
300
1/4" = 1'-0"
140
0.25
141
12.0
290
     0
  0
SCALE
  5
61
102
{ACAD_REACTORS
330
47
102
}
330
47
100
AcDbScale
 70
     0
300
3/8" = 1'-0"
140
0.375
141
12.0
290
     0
  0
SCALE
  5
62
102
{ACAD_REACTORS
330
47
102
}
330
47
100
AcDbScale
 70
     0
300
1/2" = 1'-0"
140
0.5
141
12.0
290
     0
  0
SCALE
  5
63
102
{ACAD_REACTORS
330
47
102
}
330
47
100
AcDbScale
 70
     0
300
3/4" = 1'-0"
140
0.75
141
12.0
290
     0
  0
SCALE
  5
64
102
{ACAD_REACTORS
330
47
102
}
330
47
100
AcDbScale
 70
     0
300
1" = 1'-0"
140
1.0
141
12.0
290
     0
  0
SCALE
  5
65
102
{ACAD_REACTORS
330
47
102
}
330
47
100
AcDbScale
 70
     0
300
1-1/2" = 1'-0"
140
1.5
141
12.0
290
     0
  0
SCALE
  5
66
102
{ACAD_REACTORS
330
47
102
}
330
47
100
AcDbScale
 70
     0
300
3" = 1'-0"
140
3.0
141
12.0
290
     0
  0
SCALE
  5
67
102
{ACAD_REACTORS
330
47
102
}
330
47
100
AcDbScale
 70
     0
300
6" = 1'-0"
140
6.0
141
12.0
290
     0
  0
SCALE
  5
68
102
{ACAD_REACTORS
330
47
102
}
330
47
100
AcDbScale
 70
     0
300
1'-0" = 1'-0"
140
12.0
141
12.0
290
     0
  0
ENDSEC
  0
EOF
