  0
SECTION
  2
HEADER
  9
$ACADVER
  1
AC1015
  9
$ACADMAINTVER
 70
     6
  9
$DWGCODEPAGE
  3
DOS932
  9
$INSBASE
 10
0.0
 20
0.0
 30
0.0
  9
$EXTMIN
 10
0.0
 20
0.0
 30
0.0
  9
$EXTMAX
 10
420.0
 20
297.0
 30
0.0
  9
$LIMMIN
 10
0.0
 20
0.0
  9
$LIMMAX
 10
420.0
 20
297.0
  9
$ORTHOMODE
 70
     0
  9
$REGENMODE
 70
     1
  9
$FILLMODE
 70
     1
  9
$QTEXTMODE
 70
     0
  9
$MIRRTEXT
 70
     1
  9
$LTSCALE
 40
1.0
  9
$ATTMODE
 70
     1
  9
$TEXTSIZE
 40
3.5
  9
$TRACEWID
 40
1.0
  9
$TEXTSTYLE
  7
Standard
  9
$CLAYER
  8
0
  9
$CELTYPE
  6
ByLayer
  9
$CECOLOR
 62
   256
  9
$CELTSCALE
 40
1.0
  9
$DISPSILH
 70
     0
  9
$DIMSCALE
 40
1.0
  9
$DIMASZ
 40
3.0
  9
$DIMEXO
 40
1.0
  9
$DIMDLI
 40
3.75
  9
$DIMRND
 40
0.0
  9
$DIMDLE
 40
0.0
  9
$DIMEXE
 40
1.0
  9
$DIMTP
 40
0.0
  9
$DIMTM
 40
0.0
  9
$DIMTXT
 40
3.5
  9
$DIMCEN
 40
2.5
  9
$DIMTSZ
 40
0.0
  9
$DIMTOL
 70
     0
  9
$DIMLIM
 70
     0
  9
$DIMTIH
 70
     1
  9
$DIMTOH
 70
     1
  9
$DIMSE1
 70
     0
  9
$DIMSE2
 70
     0
  9
$DIMTAD
 70
     1
  9
$DIMZIN
 70
     0
  9
$DIMBLK
  1

  9
$DIMASO
 70
     1
  9
$DIMSHO
 70
     1
  9
$DIMPOST
  1

  9
$DIMAPOST
  1

  9
$DIMALT
 70
     0
  9
$DIMALTD
 70
     3
  9
$DIMALTF
 40
0.0393700787
  9
$DIMLFAC
 40
1.0
  9
$DIMTOFL
 70
     1
  9
$DIMTVP
 40
0.0
  9
$DIMTIX
 70
     0
  9
$DIMSOXD
 70
     0
  9
$DIMSAH
 70
     0
  9
$DIMBLK1
  1

  9
$DIMBLK2
  1

  9
$DIMSTYLE
  2
ISO-25
  9
$DIMCLRD
 70
     0
  9
$DIMCLRE
 70
     0
  9
$DIMCLRT
 70
     0
  9
$DIMTFAC
 40
1.0
  9
$DIMGAP
 40
1.524
  9
$DIMJUST
 70
     0
  9
$DIMSD1
 70
     0
  9
$DIMSD2
 70
     0
  9
$DIMTOLJ
 70
     0
  9
$DIMTZIN
 70
     0
  9
$DIMALTZ
 70
     0
  9
$DIMALTTZ
 70
     0
  9
$DIMUPT
 70
     0
  9
$DIMDEC
 70
     2
  9
$DIMTDEC
 70
     2
  9
$DIMALTU
 70
     2
  9
$DIMALTTD
 70
     3
  9
$DIMTXSTY
  7
Standard
  9
$DIMAUNIT
 70
     0
  9
$DIMADEC
 70
     0
  9
$DIMALTRND
 40
0.0
  9
$DIMAZIN
 70
     0
  9
$DIMDSEP
 70
    44
  9
$DIMATFIT
 70
     3
  9
$DIMFRAC
 70
     0
  9
$DIMLDRBLK
  1

  9
$DIMLUNIT
 70
     2
  9
$DIMLWD
 70
    -2
  9
$DIMLWE
 70
    -2
  9
$DIMTMOVE
 70
     0
  9
$LUNITS
 70
     2
  9
$LUPREC
 70
     2
  9
$SKETCHINC
 40
1.0
  9
$FILLETRAD
 40
10.0
  9
$AUNITS
 70
     0
  9
$AUPREC
 70
     0
  9
$MENU
  1
.
  9
$ELEVATION
 40
0.0
  9
$PELEVATION
 40
0.0
  9
$THICKNESS
 40
0.0
  9
$LIMCHECK
 70
     0
  9
$CHAMFERA
 40
10.0
  9
$CHAMFERB
 40
10.0
  9
$CHAMFERC
 40
20.0
  9
$CHAMFERD
 40
0.0
  9
$SKPOLY
 70
     0
  9
$TDCREATE
 40
2455022.763665486
  9
$TDUCREATE
 40
2455022.388665486
  9
$TDUPDATE
 40
2455022.763665498
  9
$TDUUPDATE
 40
2455022.388665498
  9
$TDINDWG
 40
0.0000000116
  9
$TDUSRTIMER
 40
0.0000000116
  9
$USRTIMER
 70
     1
  9
$ANGBASE
 50
0.0
  9
$ANGDIR
 70
     0
  9
$PDMODE
 70
     0
  9
$PDSIZE
 40
-1.0
  9
$PLINEWID
 40
0.0
  9
$SPLFRAME
 70
     0
  9
$SPLINETYPE
 70
     6
  9
$SPLINESEGS
 70
     8
  9
$HANDSEED
  5
45D
  9
$SURFTAB1
 70
     6
  9
$SURFTAB2
 70
     6
  9
$SURFTYPE
 70
     6
  9
$SURFU
 70
     6
  9
$SURFV
 70
     6
  9
$UCSBASE
  2

  9
$UCSNAME
  2

  9
$UCSORG
 10
0.0
 20
0.0
 30
0.0
  9
$UCSXDIR
 10
1.0
 20
0.0
 30
0.0
  9
$UCSYDIR
 10
0.0
 20
1.0
 30
0.0
  9
$UCSORTHOREF
  2

  9
$UCSORTHOVIEW
 70
     0
  9
$UCSORGTOP
 10
0.0
 20
0.0
 30
0.0
  9
$UCSORGBOTTOM
 10
0.0
 20
0.0
 30
0.0
  9
$UCSORGLEFT
 10
0.0
 20
0.0
 30
0.0
  9
$UCSORGRIGHT
 10
0.0
 20
0.0
 30
0.0
  9
$UCSORGFRONT
 10
0.0
 20
0.0
 30
0.0
  9
$UCSORGBACK
 10
0.0
 20
0.0
 30
0.0
  9
$PUCSBASE
  2

  9
$PUCSNAME
  2

  9
$PUCSORG
 10
0.0
 20
0.0
 30
0.0
  9
$PUCSXDIR
 10
1.0
 20
0.0
 30
0.0
  9
$PUCSYDIR
 10
0.0
 20
1.0
 30
0.0
  9
$PUCSORTHOREF
  2

  9
$PUCSORTHOVIEW
 70
     0
  9
$PUCSORGTOP
 10
0.0
 20
0.0
 30
0.0
  9
$PUCSORGBOTTOM
 10
0.0
 20
0.0
 30
0.0
  9
$PUCSORGLEFT
 10
0.0
 20
0.0
 30
0.0
  9
$PUCSORGRIGHT
 10
0.0
 20
0.0
 30
0.0
  9
$PUCSORGFRONT
 10
0.0
 20
0.0
 30
0.0
  9
$PUCSORGBACK
 10
0.0
 20
0.0
 30
0.0
  9
$USERI1
 70
     0
  9
$USERI2
 70
     0
  9
$USERI3
 70
     0
  9
$USERI4
 70
     0
  9
$USERI5
 70
     0
  9
$USERR1
 40
0.0
  9
$USERR2
 40
0.0
  9
$USERR3
 40
0.0
  9
$USERR4
 40
0.0
  9
$USERR5
 40
0.0
  9
$WORLDVIEW
 70
     1
  9
$SHADEDGE
 70
     3
  9
$SHADEDIF
 70
    70
  9
$TILEMODE
 70
     1
  9
$MAXACTVP
 70
    64
  9
$PINSBASE
 10
0.0
 20
0.0
 30
0.0
  9
$PLIMCHECK
 70
     0
  9
$PEXTMIN
 10
1.0000000000E+20
 20
1.0000000000E+20
 30
1.0000000000E+20
  9
$PEXTMAX
 10
-1.0000000000E+20
 20
-1.0000000000E+20
 30
-1.0000000000E+20
  9
$PLIMMIN
 10
0.0
 20
0.0
  9
$PLIMMAX
 10
420.0
 20
297.0
  9
$UNITMODE
 70
     0
  9
$VISRETAIN
 70
     1
  9
$PLINEGEN
 70
     0
  9
$PSLTSCALE
 70
     1
  9
$TREEDEPTH
 70
  3020
  9
$CMLSTYLE
  2
Standard
  9
$CMLJUST
 70
     0
  9
$CMLSCALE
 40
20.0
  9
$PROXYGRAPHICS
 70
     1
  9
$MEASUREMENT
 70
     1
  9
$CELWEIGHT
370
    -1
  9
$ENDCAPS
280
     0
  9
$JOINSTYLE
280
     0
  9
$LWDISPLAY
290
     1
  9
$INSUNITS
 70
     4
  9
$HYPERLINKBASE
  1

  9
$STYLESHEET
  1

  9
$XEDIT
290
     1
  9
$CEPSNTYPE
380
     0
  9
$PSTYLEMODE
290
     1
  9
$FINGERPRINTGUID
  2
{D238CBD7-7588-41A4-A440-611556109D7B}
  9
$VERSIONGUID
  2
{FAEB1C32-E019-11D5-929B-00C0DF256EC4}
  9
$EXTNAMES
290
     1
  9
$PSVPSCALE
 40
0.0
  9
$OLESTARTUP
290
     0
  0
ENDSEC
  0
SECTION
  2
CLASSES
  0
CLASS
  1
ACDBDICTIONARYWDFLT
  2
AcDbDictionaryWithDefault
  3
ObjectDBX Classes
 90
        0
280
     0
281
     0
  0
CLASS
  1
VISUALSTYLE
  2
AcDbVisualStyle
  3
ObjectDBX Classes
 90
     4095
280
     0
281
     0
  0
CLASS
  1
DICTIONARYVAR
  2
AcDbDictionaryVar
  3
ObjectDBX Classes
 90
        0
280
     0
281
     0
  0
CLASS
  1
ACDBPLACEHOLDER
  2
AcDbPlaceHolder
  3
ObjectDBX Classes
 90
        0
280
     0
281
     0
  0
CLASS
  1
LAYOUT
  2
AcDbLayout
  3
ObjectDBX Classes
 90
        0
280
     0
281
     0
  0
ENDSEC
  0
SECTION
  2
TABLES
  0
TABLE
  2
VPORT
  5
8
330
0
100
AcDbSymbolTable
 70
     1
  0
VPORT
  5
29
330
8
100
AcDbSymbolTableRecord
100
AcDbViewportTableRecord
  2
*Active
 70
     0
 10
0.0
 20
0.0
 11
1.0
 21
1.0
 12
210.0
 22
148.5
 13
0.0
 23
0.0
 14
10.0
 24
10.0
 15
10.0
 25
10.0
 16
0.0
 26
0.0
 36
1.0
 17
0.0
 27
0.0
 37
0.0
 40
297.0
 41
1.4141414141
 42
50.0
 43
0.0
 44
0.0
 50
0.0
 51
0.0
 71
     0
 72
  2000
 73
     1
 74
     3
 75
     0
 76
     0
 77
     0
 78
     0
281
     0
 65
     1
110
0.0
120
0.0
130
0.0
111
1.0
121
0.0
131
0.0
112
0.0
122
1.0
132
0.0
 79
     0
146
0.0
  0
ENDTAB
  0
TABLE
  2
LTYPE
  5
5
330
0
100
AcDbSymbolTable
 70
     6
  0
LTYPE
  5
14
330
5
100
AcDbSymbolTableRecord
100
AcDbLinetypeTableRecord
  2
ByBlock
 70
     0
  3

 72
    65
 73
     0
 40
0.0
  0
LTYPE
  5
15
330
5
100
AcDbSymbolTableRecord
100
AcDbLinetypeTableRecord
  2
ByLayer
 70
     0
  3

 72
    65
 73
     0
 40
0.0
  0
LTYPE
  5
16
330
5
100
AcDbSymbolTableRecord
100
AcDbLinetypeTableRecord
  2
Continuous
 70
     0
  3
Solid line
 72
    65
 73
     0
 40
0.0
  0
LTYPE
  5
3B
330
5
100
AcDbSymbolTableRecord
100
AcDbLinetypeTableRecord
  2
HIDDEN
 70
     0
  3
Hidden __ __ __ __ __ __ __ __ __ __ __ __ __ __
 72
    65
 73
     2
 40
1.905
 49
1.27
 74
     0
 49
-0.635
 74
     0
  0
LTYPE
  5
3C
330
5
100
AcDbSymbolTableRecord
100
AcDbLinetypeTableRecord
  2
PHANTOM
 70
     0
  3
Phantom ______  __  __  ______  __  __  ______
 72
    65
 73
     6
 40
12.7
 49
6.35
 74
     0
 49
-1.27
 74
     0
 49
1.27
 74
     0
 49
-1.27
 74
     0
 49
1.27
 74
     0
 49
-1.27
 74
     0
  0
LTYPE
  5
3D
330
5
100
AcDbSymbolTableRecord
100
AcDbLinetypeTableRecord
  2
CENTER
 70
     0
  3
Center ____ _ ____ _ ____ _ ____ _ ____ _ ____
 72
    65
 73
     4
 40
10.16
 49
6.35
 74
     0
 49
-1.27
 74
     0
 49
1.27
 74
     0
 49
-1.27
 74
     0
  0
LTYPE
  5
3E
330
5
100
AcDbSymbolTableRecord
100
AcDbLinetypeTableRecord
  2
CENTERX2
 70
     0
  3
Center (2x) ________  __  ________  __  _____
 72
    65
 73
     4
 40
20.32
 49
12.7
 74
     0
 49
-2.54
 74
     0
 49
2.54
 74
     0
 49
-2.54
 74
     0
  0
LTYPE
  5
3F
330
5
100
AcDbSymbolTableRecord
100
AcDbLinetypeTableRecord
  2
DOT2
 70
     0
  3
Dot (.5x) ........................................
 72
    65
 73
     2
 40
0.635
 49
0.0
 74
     0
 49
-0.635
 74
     0
  0
ENDTAB
  0
TABLE
  2
LAYER
  5
2
330
0
100
AcDbSymbolTable
 70
     1
  0
LAYER
  5
10
330
2
100
AcDbSymbolTableRecord
100
AcDbLayerTableRecord
  2
0
 70
     0
 62
     7
  6
Continuous
370
    -3
390
F
  0
ENDTAB
  0
TABLE
  2
STYLE
  5
3
330
0
100
AcDbSymbolTable
 70
     3
  0
STYLE
  5
11
330
3
100
AcDbSymbolTableRecord
100
AcDbTextStyleTableRecord
  2
Standard
 70
     0
 40
0.0
 41
1.0
 50
0.0
 71
     0
 42
2.5
  3
txt
  4
bigfont
  0
STYLE
  5
399
330
3
100
AcDbSymbolTableRecord
100
AcDbTextStyleTableRecord
  2
SLDTEXTSTYLE0
 70
     0
 40
0.0
 41
0.7
 50
0.0
 71
     0
 42
0.2
  3
TXT
  4
bigfont
  0
STYLE
  5
3D9
330
3
100
AcDbSymbolTableRecord
100
AcDbTextStyleTableRecord
  2
SLDTEXTSTYLE1
 70
     0
 40
0.0
 41
1.0
 50
0.0
 71
     0
 42
0.2
  3
TXT
  4
bigfont
  0
ENDTAB
  0
TABLE
  2
VIEW
  5
6
330
0
100
AcDbSymbolTable
 70
     0
  0
ENDTAB
  0
TABLE
  2
UCS
  5
7
330
0
100
AcDbSymbolTable
 70
     0
  0
ENDTAB
  0
TABLE
  2
APPID
  5
9
330
0
100
AcDbSymbolTable
 70
     1
  0
APPID
  5
12
330
9
100
AcDbSymbolTableRecord
100
AcDbRegAppTableRecord
  2
ACAD
 70
     0
  0
ENDTAB
  0
TABLE
  2
DIMSTYLE
  5
A
330
0
100
AcDbSymbolTable
 70
     6
100
AcDbDimStyleTable
  0
DIMSTYLE
105
27
330
A
100
AcDbSymbolTableRecord
100
AcDbDimStyleTableRecord
  2
ISO-25
 70
     0
 41
2.5
 42
0.625
 43
3.75
 44
1.25
 73
     0
 74
     0
 77
     1
 78
     8
140
2.5
141
2.5
143
0.0393700787
147
0.625
171
     3
172
     1
271
     2
272
     2
274
     3
278
    44
283
     0
284
     8
340
11
  0
DIMSTYLE
105
38A
102
{ACAD_REACTORS
330
389
330
41E
102
}
330
A
100
AcDbSymbolTableRecord
100
AcDbDimStyleTableRecord
  2
SLDDIMSTYLE0
 70
     0
 41
3.0
 44
0.0
 73
     0
 74
     0
 77
     3
 78
    12
140
3.5
147
0.875
173
     1
271
     2
272
     2
284
    12
340
11
341
38B
343
38B
344
38B
  0
DIMSTYLE
105
39C
102
{ACAD_REACTORS
330
39B
330
3A6
330
3C5
330
3CF
102
}
330
A
100
AcDbSymbolTableRecord
100
AcDbDimStyleTableRecord
  2
SLDDIMSTYLE1
 70
     0
 41
3.0
 44
0.0
 73
     0
 74
     0
 77
     3
 78
    12
140
3.5
147
0.875
173
     1
271
     1
272
     1
284
    12
340
11
341
38B
343
38B
344
38B
  0
DIMSTYLE
105
3B1
102
{ACAD_REACTORS
330
3B0
330
3BB
102
}
330
A
100
AcDbSymbolTableRecord
100
AcDbDimStyleTableRecord
  2
SLDDIMSTYLE2
 70
     0
 41
3.0
 44
0.0
 73
     0
 74
     0
 77
     3
 78
    12
140
3.5
147
0.875
173
     1
271
     0
272
     0
284
    12
340
11
341
38B
343
38B
344
38B
  0
DIMSTYLE
105
3E6
330
A
100
AcDbSymbolTableRecord
100
AcDbDimStyleTableRecord
  2
SLDDIMSTYLE3
 70
     0
 41
3.0
 44
0.0
140
3.0
147
0.75
173
     1
271
     0
272
     0
340
11
  0
DIMSTYLE
105
429
102
{ACAD_REACTORS
330
428
102
}
330
A
100
AcDbSymbolTableRecord
100
AcDbDimStyleTableRecord
  2
SLDDIMSTYLE4
 70
     0
 41
3.0
 44
0.0
 73
     0
 74
     0
 77
     3
 78
    12
140
3.5
147
0.875
173
     1
271
     1
272
     1
284
    12
340
11
341
38B
343
38B
344
38B
  0
ENDTAB
  0
TABLE
  2
BLOCK_RECORD
  5
1
330
0
100
AcDbSymbolTable
 70
    19
  0
BLOCK_RECORD
  5
1F
330
1
100
AcDbSymbolTableRecord
100
AcDbBlockTableRecord
  2
*Model_Space
340
22
  0
BLOCK_RECORD
  5
1B
330
1
100
AcDbSymbolTableRecord
100
AcDbBlockTableRecord
  2
*Paper_Space
340
1E
  0
BLOCK_RECORD
  5
23
330
1
100
AcDbSymbolTableRecord
100
AcDbBlockTableRecord
  2
*Paper_Space0
340
26
  0
BLOCK_RECORD
  5
38B
330
1
100
AcDbSymbolTableRecord
100
AcDbBlockTableRecord
  2
_OPEN30
340
0
102
{BLKREFS
331
394
331
395
331
3A0
331
3A1
331
3AA
331
3AB
331
3B5
331
3B6
331
3BF
331
3C0
331
3C9
331
3CA
331
3D3
331
3D4
331
422
331
423
331
42D
331
42E
102
}
  0
BLOCK_RECORD
  5
391
330
1
100
AcDbSymbolTableRecord
100
AcDbBlockTableRecord
  2
*D2
340
0
  0
BLOCK_RECORD
  5
39D
330
1
100
AcDbSymbolTableRecord
100
AcDbBlockTableRecord
  2
*D3
340
0
  0
BLOCK_RECORD
  5
3A7
330
1
100
AcDbSymbolTableRecord
100
AcDbBlockTableRecord
  2
*D4
340
0
  0
BLOCK_RECORD
  5
3B2
330
1
100
AcDbSymbolTableRecord
100
AcDbBlockTableRecord
  2
*D5
340
0
  0
BLOCK_RECORD
  5
3BC
330
1
100
AcDbSymbolTableRecord
100
AcDbBlockTableRecord
  2
*D6
340
0
  0
BLOCK_RECORD
  5
3C6
330
1
100
AcDbSymbolTableRecord
100
AcDbBlockTableRecord
  2
*D7
340
0
  0
BLOCK_RECORD
  5
3D0
330
1
100
AcDbSymbolTableRecord
100
AcDbBlockTableRecord
  2
*D8
340
0
  0
BLOCK_RECORD
  5
3DB
330
1
100
AcDbSymbolTableRecord
100
AcDbBlockTableRecord
  2
SW_NOTE_0
340
0
102
{BLKREFS
331
3E5
102
}
  0
BLOCK_RECORD
  5
3E8
330
1
100
AcDbSymbolTableRecord
100
AcDbBlockTableRecord
  2
SW_NOTE_1
340
0
102
{BLKREFS
331
3F2
102
}
  0
BLOCK_RECORD
  5
3F4
330
1
100
AcDbSymbolTableRecord
100
AcDbBlockTableRecord
  2
SW_NOTE_2
340
0
102
{BLKREFS
331
3F9
102
}
  0
BLOCK_RECORD
  5
3FC
330
1
100
AcDbSymbolTableRecord
100
AcDbBlockTableRecord
  2
SW_NOTE_3
340
0
102
{BLKREFS
331
406
102
}
  0
BLOCK_RECORD
  5
408
330
1
100
AcDbSymbolTableRecord
100
AcDbBlockTableRecord
  2
SW_NOTE_4
340
0
102
{BLKREFS
331
412
102
}
  0
BLOCK_RECORD
  5
41F
330
1
100
AcDbSymbolTableRecord
100
AcDbBlockTableRecord
  2
*D14
340
0
  0
BLOCK_RECORD
  5
42A
330
1
100
AcDbSymbolTableRecord
100
AcDbBlockTableRecord
  2
*D15
340
0
  0
BLOCK_RECORD
  5
435
330
1
100
AcDbSymbolTableRecord
100
AcDbBlockTableRecord
  2
SW_NOTE_5
340
0
102
{BLKREFS
331
43F
102
}
  0
BLOCK_RECORD
  5
441
330
1
100
AcDbSymbolTableRecord
100
AcDbBlockTableRecord
  2
SW_CENTERMARKSYMBOL_0
340
0
102
{BLKREFS
331
44C
102
}
  0
BLOCK_RECORD
  5
44D
330
1
100
AcDbSymbolTableRecord
100
AcDbBlockTableRecord
  2
SW_CENTERMARKSYMBOL_1
340
0
102
{BLKREFS
331
458
102
}
  0
ENDTAB
  0
ENDSEC
  0
SECTION
  2
BLOCKS
  0
BLOCK
  5
20
330
1F
100
AcDbEntity
  8
0
100
AcDbBlockBegin
  2
*Model_Space
 70
     0
 71
     0
 10
0.0
 20
0.0
 30
0.0
  3
*Model_Space
  1

  0
ENDBLK
  5
21
330
1F
100
AcDbEntity
  8
0
100
AcDbBlockEnd
  0
BLOCK
  5
1C
330
1B
100
AcDbEntity
 67
     1
  8
0
100
AcDbBlockBegin
  2
*Paper_Space
 70
     0
 71
     0
 10
0.0
 20
0.0
 30
0.0
  3
*Paper_Space
  1

  0
ENDBLK
  5
1D
330
1B
100
AcDbEntity
 67
     1
  8
0
100
AcDbBlockEnd
  0
BLOCK
  5
24
330
23
100
AcDbEntity
  8
0
100
AcDbBlockBegin
  2
*Paper_Space0
 70
     0
 71
     0
 10
0.0
 20
0.0
 30
0.0
  3
*Paper_Space0
  1

  0
ENDBLK
  5
25
330
23
100
AcDbEntity
  8
0
100
AcDbBlockEnd
  0
BLOCK
  5
38C
330
38B
100
AcDbEntity
  8
0
100
AcDbBlockBegin
  2
_OPEN30
 70
     0
 71
     0
 10
0.0
 20
0.0
 30
0.0
  3
_OPEN30
  1

  0
LINE
  5
38E
330
38B
100
AcDbEntity
  8
0
  6
ByBlock
 62
     0
370
    -2
100
AcDbLine
 10
-1.0
 20
0.267949
 30
0.0
 11
0.0
 21
0.0
 31
0.0
  0
LINE
  5
38F
330
38B
100
AcDbEntity
  8
0
  6
ByBlock
 62
     0
370
    -2
100
AcDbLine
 10
0.0
 20
0.0
 30
0.0
 11
-1.0
 21
-0.267949
 31
0.0
  0
LINE
  5
390
330
38B
100
AcDbEntity
  8
0
  6
ByBlock
 62
     0
370
    -2
100
AcDbLine
 10
0.0
 20
0.0
 30
0.0
 11
-1.0
 21
0.0
 31
0.0
  0
ENDBLK
  5
38D
330
38B
100
AcDbEntity
  8
0
100
AcDbBlockEnd
  0
BLOCK
  5
392
330
391
100
AcDbEntity
  8
0
100
AcDbBlockBegin
  2
*D2
 70
     1
 71
     0
 10
0.0
 20
0.0
 30
0.0
  3
*D2
  1

  0
INSERT
  5
394
330
391
100
AcDbEntity
  8
0
  6
Continuous
 62
     7
370
     0
100
AcDbBlockReference
  2
_OPEN30
 10
97.3937492354
 20
101.868090314
 30
0.1
 41
3.0
 42
3.0
 50
270.0
  0
INSERT
  5
395
330
391
100
AcDbEntity
  8
0
  6
Continuous
 62
     7
370
     0
100
AcDbBlockReference
  2
_OPEN30
 10
97.3937492354
 20
201.868090314
 30
0.1
 41
3.0
 42
3.0
 50
90.0
  0
LINE
  5
396
330
391
100
AcDbEntity
  8
0
  6
Continuous
 62
     7
370
     0
100
AcDbLine
 10
117.4080820611
 20
101.868090314
 30
0.0
 11
96.3937492354
 21
101.868090314
 31
0.0
  0
LINE
  5
397
330
391
100
AcDbEntity
  8
0
  6
Continuous
 62
     7
370
     0
100
AcDbLine
 10
127.6080820611
 20
201.868090314
 30
0.0
 11
96.3937492354
 21
201.868090314
 31
0.0
  0
LINE
  5
398
330
391
100
AcDbEntity
  8
0
  6
Continuous
 62
     7
370
     0
100
AcDbLine
 10
97.3937492354
 20
101.868090314
 30
0.0
 11
97.3937492354
 21
201.868090314
 31
0.0
  0
MTEXT
  5
39A
330
391
100
AcDbEntity
  8
0
  6
Continuous
 62
     7
370
     0
100
AcDbMText
 10
92.882012379
 20
148.9911399713
 30
0.0
 40
3.5
 41
0.0
 71
     1
 72
     1
  1
100
  7
SLDTEXTSTYLE0
 11
6.123233995736766E-17
 21
1.0
 31
0.0
 73
     1
 44
1.0
  0
ENDBLK
  5
393
330
391
100
AcDbEntity
  8
0
100
AcDbBlockEnd
  0
BLOCK
  5
39E
330
39D
100
AcDbEntity
  8
0
100
AcDbBlockBegin
  2
*D3
 70
     1
 71
     0
 10
0.0
 20
0.0
 30
0.0
  3
*D3
  1

  0
INSERT
  5
3A0
330
39D
100
AcDbEntity
  8
0
  6
Continuous
 62
     7
370
     0
100
AcDbBlockReference
  2
_OPEN30
 10
105.7895924708
 20
165.118090314
 30
0.1
 41
3.0
 42
3.0
 50
90.0
  0
INSERT
  5
3A1
330
39D
100
AcDbEntity
  8
0
  6
Continuous
 62
     7
370
     0
100
AcDbBlockReference
  2
_OPEN30
 10
105.7895924708
 20
138.618090314
 30
0.1
 41
3.0
 42
3.0
 50
270.0
  0
LINE
  5
3A2
330
39D
100
AcDbEntity
  8
0
  6
Continuous
 62
     7
370
     0
100
AcDbLine
 10
119.8580820611
 20
165.118090314
 30
0.0
 11
104.7895924708
 21
165.118090314
 31
0.0
  0
LINE
  5
3A3
330
39D
100
AcDbEntity
  8
0
  6
Continuous
 62
     7
370
     0
100
AcDbLine
 10
119.8580820611
 20
138.618090314
 30
0.0
 11
104.7895924708
 21
138.618090314
 31
0.0
  0
LINE
  5
3A4
330
39D
100
AcDbEntity
  8
0
  6
Continuous
 62
     7
370
     0
100
AcDbLine
 10
105.7895924708
 20
165.118090314
 30
0.0
 11
105.7895924708
 21
138.618090314
 31
0.0
  0
MTEXT
  5
3A5
330
39D
100
AcDbEntity
  8
0
  6
Continuous
 62
     7
370
     0
100
AcDbMText
 10
101.2778556144
 20
147.9730284344
 30
0.0
 40
3.5
 41
0.0
 71
     1
 72
     1
  1
26.5
  7
SLDTEXTSTYLE0
 11
-1.770233605404514E-14
 21
1.0
 31
0.0
 73
     1
 44
1.0
  0
ENDBLK
  5
39F
330
39D
100
AcDbEntity
  8
0
100
AcDbBlockEnd
  0
BLOCK
  5
3A8
330
3A7
100
AcDbEntity
  8
0
100
AcDbBlockBegin
  2
*D4
 70
     1
 71
     0
 10
0.0
 20
0.0
 30
0.0
  3
*D4
  1

  0
INSERT
  5
3AA
330
3A7
100
AcDbEntity
  8
0
  6
Continuous
 62
     7
370
     0
100
AcDbBlockReference
  2
_OPEN30
 10
151.7154872055
 20
119.018090314
 30
0.1
 41
3.0
 42
3.0
 50
270.0
  0
INSERT
  5
3AB
330
3A7
100
AcDbEntity
  8
0
  6
Continuous
 62
     7
370
     0
100
AcDbBlockReference
  2
_OPEN30
 10
151.7154872055
 20
184.718090314
 30
0.1
 41
3.0
 42
3.0
 50
90.0
  0
LINE
  5
3AC
330
3A7
100
AcDbEntity
  8
0
  6
Continuous
 62
     7
370
     0
100
AcDbLine
 10
132.7580820611
 20
119.018090314
 30
0.0
 11
152.7154872055
 21
119.018090314
 31
0.0
  0
LINE
  5
3AD
330
3A7
100
AcDbEntity
  8
0
  6
Continuous
 62
     7
370
     0
100
AcDbLine
 10
132.7580820611
 20
184.718090314
 30
0.0
 11
152.7154872055
 21
184.718090314
 31
0.0
  0
LINE
  5
3AE
330
3A7
100
AcDbEntity
  8
0
  6
Continuous
 62
     7
370
     0
100
AcDbLine
 10
151.7154872055
 20
119.018090314
 30
0.0
 11
151.7154872055
 21
184.718090314
 31
0.0
  0
MTEXT
  5
3AF
330
3A7
100
AcDbEntity
  8
0
  6
Continuous
 62
     7
370
     0
100
AcDbMText
 10
147.2037503492
 20
147.9730284344
 30
0.0
 40
3.5
 41
0.0
 71
     1
 72
     1
  1
65.7
  7
SLDTEXTSTYLE0
 11
6.123233995736766E-17
 21
1.0
 31
0.0
 73
     1
 44
1.0
  0
ENDBLK
  5
3A9
330
3A7
100
AcDbEntity
  8
0
100
AcDbBlockEnd
  0
BLOCK
  5
3B3
330
3B2
100
AcDbEntity
  8
0
100
AcDbBlockBegin
  2
*D5
 70
     1
 71
     0
 10
0.0
 20
0.0
 30
0.0
  3
*D5
  1

  0
INSERT
  5
3B5
330
3B2
100
AcDbEntity
  8
0
  6
Continuous
 62
     7
370
     0
100
AcDbBlockReference
  2
_OPEN30
 10
279.5697031169
 20
87.8492557909
 30
0.1
 41
3.0
 42
3.0
 50
0.0
  0
INSERT
  5
3B6
330
3B2
100
AcDbEntity
  8
0
  6
Continuous
 62
     7
370
     0
100
AcDbBlockReference
  2
_OPEN30
 10
193.6697031169
 20
87.8492557909
 30
0.1
 41
3.0
 42
3.0
 50
180.0
  0
LINE
  5
3B7
330
3B2
100
AcDbEntity
  8
0
  6
Continuous
 62
     7
370
     0
100
AcDbLine
 10
279.5697031169
 20
78.109912566
 30
0.0
 11
279.5697031169
 21
88.8492557909
 31
0.0
  0
LINE
  5
3B8
330
3B2
100
AcDbEntity
  8
0
  6
Continuous
 62
     7
370
     0
100
AcDbLine
 10
193.6697031169
 20
75.809913566
 30
0.0
 11
193.6697031169
 21
88.8492557909
 31
0.0
  0
LINE
  5
3B9
330
3B2
100
AcDbEntity
  8
0
  6
Continuous
 62
     7
370
     0
100
AcDbLine
 10
279.5697031169
 20
87.8492557909
 30
0.0
 11
193.6697031169
 21
87.8492557909
 31
0.0
  0
MTEXT
  5
3BA
330
3B2
100
AcDbEntity
  8
0
  6
Continuous
 62
     7
370
     0
100
AcDbMText
 10
236.9512962617
 20
92.3609926473
 30
0.0
 40
3.5
 41
0.0
 71
     1
 72
     1
  1
86
  7
SLDTEXTSTYLE0
 73
     1
 44
1.0
  0
ENDBLK
  5
3B4
330
3B2
100
AcDbEntity
  8
0
100
AcDbBlockEnd
  0
BLOCK
  5
3BD
330
3BC
100
AcDbEntity
  8
0
100
AcDbBlockBegin
  2
*D6
 70
     1
 71
     0
 10
0.0
 20
0.0
 30
0.0
  3
*D6
  1

  0
INSERT
  5
3BF
330
3BC
100
AcDbEntity
  8
0
  6
Continuous
 62
     7
370
     0
100
AcDbBlockReference
  2
_OPEN30
 10
279.5697031169
 20
96.3815239148
 30
0.1
 41
3.0
 42
3.0
 50
360.0
  0
INSERT
  5
3C0
330
3BC
100
AcDbEntity
  8
0
  6
Continuous
 62
     7
370
     0
100
AcDbBlockReference
  2
_OPEN30
 10
189.0697031169
 20
96.3815239148
 30
0.1
 41
3.0
 42
3.0
 50
180.0
  0
LINE
  5
3C1
330
3BC
100
AcDbEntity
  8
0
  6
Continuous
 62
     7
370
     0
100
AcDbLine
 10
279.5697031169
 20
78.109912566
 30
0.0
 11
279.5697031169
 21
97.3815239148
 31
0.0
  0
LINE
  5
3C2
330
3BC
100
AcDbEntity
  8
0
  6
Continuous
 62
     7
370
     0
100
AcDbLine
 10
189.0697031169
 20
63.609912566
 30
0.0
 11
189.0697031169
 21
97.3815239148
 31
0.0
  0
LINE
  5
3C3
330
3BC
100
AcDbEntity
  8
0
  6
Continuous
 62
     7
370
     0
100
AcDbLine
 10
279.5697031169
 20
96.3815239148
 30
0.0
 11
189.0697031169
 21
96.3815239148
 31
0.0
  0
MTEXT
  5
3C4
330
3BC
100
AcDbEntity
  8
0
  6
Continuous
 62
     7
370
     0
100
AcDbMText
 10
229.2650433987
 20
100.8932607711
 30
0.0
 40
3.5
 41
0.0
 71
     1
 72
     1
  1
91
  7
SLDTEXTSTYLE0
 73
     1
 44
1.0
  0
ENDBLK
  5
3BE
330
3BC
100
AcDbEntity
  8
0
100
AcDbBlockEnd
  0
BLOCK
  5
3C7
330
3C6
100
AcDbEntity
  8
0
100
AcDbBlockBegin
  2
*D7
 70
     1
 71
     0
 10
0.0
 20
0.0
 30
0.0
  3
*D7
  1

  0
INSERT
  5
3C9
330
3C6
100
AcDbEntity
  8
0
  6
Continuous
 62
     7
370
     0
100
AcDbBlockReference
  2
_OPEN30
 10
168.4300763236
 20
190.668091314
 30
0.1
 41
3.0
 42
3.0
 50
90.0
  0
INSERT
  5
3CA
330
3C6
100
AcDbEntity
  8
0
  6
Continuous
 62
     7
370
     0
100
AcDbBlockReference
  2
_OPEN30
 10
168.4300763236
 20
113.068090314
 30
0.1
 41
3.0
 42
3.0
 50
270.0
  0
LINE
  5
3CB
330
3C6
100
AcDbEntity
  8
0
  6
Continuous
 62
     7
370
     0
100
AcDbLine
 10
207.0697031169
 20
190.668091314
 30
0.0
 11
167.4300763236
 21
190.668091314
 31
0.0
  0
LINE
  5
3CC
330
3C6
100
AcDbEntity
  8
0
  6
Continuous
 62
     7
370
     0
100
AcDbLine
 10
207.0697031169
 20
113.068090314
 30
0.0
 11
167.4300763236
 21
113.068090314
 31
0.0
  0
LINE
  5
3CD
330
3C6
100
AcDbEntity
  8
0
  6
Continuous
 62
     7
370
     0
100
AcDbLine
 10
168.4300763236
 20
190.668091314
 30
0.0
 11
168.4300763236
 21
113.068090314
 31
0.0
  0
MTEXT
  5
3CE
330
3C6
100
AcDbEntity
  8
0
  6
Continuous
 62
     7
370
     0
100
AcDbMText
 10
163.9183394672
 20
147.9730284344
 30
0.0
 40
3.5
 41
0.0
 71
     1
 72
     1
  1
77.6
  7
SLDTEXTSTYLE0
 11
-8.820551857043885E-15
 21
1.0
 31
0.0
 73
     1
 44
1.0
  0
ENDBLK
  5
3C8
330
3C6
100
AcDbEntity
  8
0
100
AcDbBlockEnd
  0
BLOCK
  5
3D1
330
3D0
100
AcDbEntity
  8
0
100
AcDbBlockBegin
  2
*D8
 70
     1
 71
     0
 10
0.0
 20
0.0
 30
0.0
  3
*D8
  1

  0
INSERT
  5
3D3
330
3D0
100
AcDbEntity
  8
0
  6
Continuous
 62
     7
370
     0
100
AcDbBlockReference
  2
_OPEN30
 10
116.3080820611
 20
211.4161017334
 30
0.1
 41
3.0
 42
3.0
 50
180.0
  0
INSERT
  5
3D4
330
3D0
100
AcDbEntity
  8
0
  6
Continuous
 62
     7
370
     0
100
AcDbBlockReference
  2
_OPEN30
 10
137.8080820611
 20
211.4161017334
 30
0.1
 41
3.0
 42
3.0
 50
0.0
  0
LINE
  5
3D5
330
3D0
100
AcDbEntity
  8
0
  6
Continuous
 62
     7
370
     0
100
AcDbLine
 10
116.3080820611
 20
191.668090314
 30
0.0
 11
116.3080820611
 21
212.4161017334
 31
0.0
  0
LINE
  5
3D6
330
3D0
100
AcDbEntity
  8
0
  6
Continuous
 62
     7
370
     0
100
AcDbLine
 10
137.8080820611
 20
191.668090314
 30
0.0
 11
137.8080820611
 21
212.4161017334
 31
0.0
  0
LINE
  5
3D7
330
3D0
100
AcDbEntity
  8
0
  6
Continuous
 62
     7
370
     0
100
AcDbLine
 10
116.3080820611
 20
211.4161017334
 30
0.0
 11
137.8080820611
 21
211.4161017334
 31
0.0
  0
MTEXT
  5
3D8
330
3D0
100
AcDbEntity
  8
0
  6
Continuous
 62
     7
370
     0
100
AcDbMText
 10
123.1569404347
 20
215.9278385898
 30
0.0
 40
3.5
 41
0.0
 71
     1
 72
     1
  1
21.5
  7
SLDTEXTSTYLE0
 73
     1
 44
1.0
  0
ENDBLK
  5
3D2
330
3D0
100
AcDbEntity
  8
0
100
AcDbBlockEnd
  0
BLOCK
  5
3DC
330
3DB
100
AcDbEntity
  8
0
100
AcDbBlockBegin
  2
SW_NOTE_0
 70
     0
 71
     0
 10
0.0
 20
0.0
 30
0.0
  3
SW_NOTE_0
  1

  0
LINE
  5
3DE
330
3DB
100
AcDbEntity
  8
0
  6
Continuous
 62
     0
370
     0
100
AcDbLine
 10
0.0
 20
0.0001220939
 30
0.0
 11
10.1835053021
 21
0.0001220939
 31
0.0
  0
LINE
  5
3DF
330
3DB
100
AcDbEntity
  8
0
  6
Continuous
 62
     0
370
     0
100
AcDbLine
 10
10.1835053021
 20
0.0001220939
 30
0.0
 11
0.0
 21
0.0001220939
 31
0.0
  0
LINE
  5
3E0
330
3DB
100
AcDbEntity
  8
0
  6
Continuous
 62
     0
370
     0
100
AcDbLine
 10
0.0
 20
0.0001220939
 30
0.0
 11
10.1835053021
 21
0.0001220939
 31
0.0
  0
LINE
  5
3E1
330
3DB
100
AcDbEntity
  8
0
  6
Continuous
 62
     0
370
     0
100
AcDbLine
 10
10.1835053021
 20
0.0001220939
 30
0.0
 11
0.0
 21
0.0001220939
 31
0.0
  0
LINE
  5
3E2
330
3DB
100
AcDbEntity
  8
0
  6
Continuous
 62
     0
370
     0
100
AcDbLine
 10
0.0
 20
0.0001220939
 30
0.0
 11
10.1835053021
 21
0.0001220939
 31
0.0
  0
LINE
  5
3E3
330
3DB
100
AcDbEntity
  8
0
  6
Continuous
 62
     0
370
     0
100
AcDbLine
 10
10.1835053021
 20
0.0001220939
 30
0.0
 11
0.0
 21
0.0001220939
 31
0.0
  0
MTEXT
  5
3E4
330
3DB
100
AcDbEntity
  8
0
  6
Continuous
 62
     0
370
     0
100
AcDbMText
 10
0.000433313
 20
4.5126100818
 30
0.0
 40
3.5
 41
0.0
 71
     1
 72
     1
  1
\M+183D34.6
  7
SLDTEXTSTYLE0
 73
     1
 44
1.0
  0
ENDBLK
  5
3DD
330
3DB
100
AcDbEntity
  8
0
100
AcDbBlockEnd
  0
BLOCK
  5
3E9
330
3E8
100
AcDbEntity
  8
0
100
AcDbBlockBegin
  2
SW_NOTE_1
 70
     0
 71
     0
 10
0.0
 20
0.0
 30
0.0
  3
SW_NOTE_1
  1

  0
LINE
  5
3EB
330
3E8
100
AcDbEntity
  8
0
  6
Continuous
 62
     0
370
     0
100
AcDbLine
 10
-22.4056236111
 20
0.0001220939
 30
0.0
 11
0.0
 21
0.0001220939
 31
0.0
  0
LINE
  5
3EC
330
3E8
100
AcDbEntity
  8
0
  6
Continuous
 62
     0
370
     0
100
AcDbLine
 10
0.0
 20
0.0001220939
 30
0.0
 11
-22.4056236111
 21
0.0001220939
 31
0.0
  0
LINE
  5
3ED
330
3E8
100
AcDbEntity
  8
0
  6
Continuous
 62
     0
370
     0
100
AcDbLine
 10
-22.4056236111
 20
0.0001220939
 30
0.0
 11
0.0
 21
0.0001220939
 31
0.0
  0
LINE
  5
3EE
330
3E8
100
AcDbEntity
  8
0
  6
Continuous
 62
     0
370
     0
100
AcDbLine
 10
0.0
 20
0.0001220939
 30
0.0
 11
-22.4056236111
 21
0.0001220939
 31
0.0
  0
LINE
  5
3EF
330
3E8
100
AcDbEntity
  8
0
  6
Continuous
 62
     0
370
     0
100
AcDbLine
 10
-22.4056236111
 20
0.0001220939
 30
0.0
 11
0.0
 21
0.0001220939
 31
0.0
  0
LINE
  5
3F0
330
3E8
100
AcDbEntity
  8
0
  6
Continuous
 62
     0
370
     0
100
AcDbLine
 10
0.0
 20
0.0001220939
 30
0.0
 11
-22.4056236111
 21
0.0001220939
 31
0.0
  0
MTEXT
  5
3F1
330
3E8
100
AcDbEntity
  8
0
  6
Continuous
 62
     0
370
     0
100
AcDbMText
 10
-22.4061851466
 20
4.5132893805
 30
0.0
 40
3.5
 41
0.0
 71
     1
 72
     1
  1
\M+18140\M+183D34.6X5.6
  7
SLDTEXTSTYLE0
 73
     1
 44
1.0
  0
ENDBLK
  5
3EA
330
3E8
100
AcDbEntity
  8
0
100
AcDbBlockEnd
  0
BLOCK
  5
3F5
330
3F4
100
AcDbEntity
  8
0
100
AcDbBlockBegin
  2
SW_NOTE_2
 70
     0
 71
     0
 10
0.0
 20
0.0
 30
0.0
  3
SW_NOTE_2
  1

  0
MTEXT
  5
3F7
330
3F4
100
AcDbEntity
  8
0
  6
Continuous
 62
     0
370
     0
100
AcDbMText
 10
0.0
 20
10.3125419182
 30
0.0
 40
8.0
 41
0.0
 71
     1
 72
     1
  1
MODEL:SSN-15F
  7
SLDTEXTSTYLE0
 73
     1
 44
1.0
  0
MTEXT
  5
3F8
330
3F4
100
AcDbEntity
  8
0
  6
Continuous
 62
     0
370
     0
100
AcDbMText
 10
0.0
 20
1.0014312056
 30
0.0
 40
8.0
 41
0.0
 71
     1
 72
     1
  1
      SSN-25F
  7
SLDTEXTSTYLE0
 73
     1
 44
1.0
  0
ENDBLK
  5
3F6
330
3F4
100
AcDbEntity
  8
0
100
AcDbBlockEnd
  0
BLOCK
  5
3FD
330
3FC
100
AcDbEntity
  8
0
100
AcDbBlockBegin
  2
SW_NOTE_3
 70
     0
 71
     0
 10
0.0
 20
0.0
 30
0.0
  3
SW_NOTE_3
  1

  0
LINE
  5
3FF
330
3FC
100
AcDbEntity
  8
0
  6
Continuous
 62
     0
370
     0
100
AcDbLine
 10
-16.2945644566
 20
0.0001220939
 30
0.0
 11
0.0
 21
0.0001220939
 31
0.0
  0
LINE
  5
400
330
3FC
100
AcDbEntity
  8
0
  6
Continuous
 62
     0
370
     0
100
AcDbLine
 10
0.0
 20
0.0001220939
 30
0.0
 11
-16.2945644566
 21
0.0001220939
 31
0.0
  0
LINE
  5
401
330
3FC
100
AcDbEntity
  8
0
  6
Continuous
 62
     0
370
     0
100
AcDbLine
 10
-16.2945644566
 20
0.0001220939
 30
0.0
 11
0.0
 21
0.0001220939
 31
0.0
  0
LINE
  5
402
330
3FC
100
AcDbEntity
  8
0
  6
Continuous
 62
     0
370
     0
100
AcDbLine
 10
0.0
 20
0.0001220939
 30
0.0
 11
-16.2945644566
 21
0.0001220939
 31
0.0
  0
LINE
  5
403
330
3FC
100
AcDbEntity
  8
0
  6
Continuous
 62
     0
370
     0
100
AcDbLine
 10
-16.2945644566
 20
0.0001220939
 30
0.0
 11
0.0
 21
0.0001220939
 31
0.0
  0
LINE
  5
404
330
3FC
100
AcDbEntity
  8
0
  6
Continuous
 62
     0
370
     0
100
AcDbLine
 10
0.0
 20
0.0001220939
 30
0.0
 11
-16.2945644566
 21
0.0001220939
 31
0.0
  0
MTEXT
  5
405
330
3FC
100
AcDbEntity
  8
0
  6
Continuous
 62
     0
370
     0
100
AcDbMText
 10
-16.2927013603
 20
4.5129604717
 30
0.0
 40
3.5
 41
0.0
 71
     1
 72
     1
  1
2-M3.5X8
  7
SLDTEXTSTYLE0
 73
     1
 44
1.0
  0
ENDBLK
  5
3FE
330
3FC
100
AcDbEntity
  8
0
100
AcDbBlockEnd
  0
BLOCK
  5
409
330
408
100
AcDbEntity
  8
0
100
AcDbBlockBegin
  2
SW_NOTE_4
 70
     0
 71
     0
 10
0.0
 20
0.0
 30
0.0
  3
SW_NOTE_4
  1

  0
LINE
  5
40B
330
408
100
AcDbEntity
  8
0
  6
Continuous
 62
     0
370
     0
100
AcDbLine
 10
-15.0231200021
 20
0.1040841874
 30
0.0
 11
0.0
 21
0.1040841874
 31
0.0
  0
LINE
  5
40C
330
408
100
AcDbEntity
  8
0
  6
Continuous
 62
     0
370
     0
100
AcDbLine
 10
0.0
 20
0.1040841874
 30
0.0
 11
-15.0231200021
 21
0.1040841874
 31
0.0
  0
LINE
  5
40D
330
408
100
AcDbEntity
  8
0
  6
Continuous
 62
     0
370
     0
100
AcDbLine
 10
-15.0231200021
 20
0.1040841874
 30
0.0
 11
0.0
 21
0.1040841874
 31
0.0
  0
LINE
  5
40E
330
408
100
AcDbEntity
  8
0
  6
Continuous
 62
     0
370
     0
100
AcDbLine
 10
0.0
 20
0.1040841874
 30
0.0
 11
-15.0231200021
 21
0.1040841874
 31
0.0
  0
LINE
  5
40F
330
408
100
AcDbEntity
  8
0
  6
Continuous
 62
     0
370
     0
100
AcDbLine
 10
-15.0231200021
 20
0.1040841874
 30
0.0
 11
0.0
 21
0.1040841874
 31
0.0
  0
LINE
  5
410
330
408
100
AcDbEntity
  8
0
  6
Continuous
 62
     0
370
     0
100
AcDbLine
 10
0.0
 20
0.1040841874
 30
0.0
 11
-15.0231200021
 21
0.1040841874
 31
0.0
  0
MTEXT
  5
411
330
408
100
AcDbEntity
  8
0
  6
Continuous
 62
     0
370
     0
100
AcDbMText
 10
-15.0218747815
 20
4.7214149023
 30
0.0
 40
3.5
 41
0.0
 71
     1
 72
     1
  1
2-M5X10
  7
SLDTEXTSTYLE0
 73
     1
 44
1.0
  0
ENDBLK
  5
40A
330
408
100
AcDbEntity
  8
0
100
AcDbBlockEnd
  0
BLOCK
  5
420
330
41F
100
AcDbEntity
  8
0
100
AcDbBlockBegin
  2
*D14
 70
     1
 71
     0
 10
0.0
 20
0.0
 30
0.0
  3
*D14
  1

  0
INSERT
  5
422
330
41F
100
AcDbEntity
  8
0
  6
Continuous
 62
     7
370
     0
100
AcDbBlockReference
  2
_OPEN30
 10
383.2452049976
 20
195.7082138605
 30
-0.4
 41
3.0
 42
3.0
 50
90.0
  0
INSERT
  5
423
330
41F
100
AcDbEntity
  8
0
  6
Continuous
 62
     7
370
     0
100
AcDbBlockReference
  2
_OPEN30
 10
383.2452049976
 20
105.7082138605
 30
-0.4
 41
3.0
 42
3.0
 50
270.0
  0
LINE
  5
424
330
41F
100
AcDbEntity
  8
0
  6
Continuous
 62
     7
370
     0
100
AcDbLine
 10
363.9432468288
 20
195.7082138605
 30
0.0
 11
384.2452049976
 21
195.7082138605
 31
0.0
  0
LINE
  5
425
330
41F
100
AcDbEntity
  8
0
  6
Continuous
 62
     7
370
     0
100
AcDbLine
 10
353.1432468288
 20
105.7082138605
 30
0.0
 11
384.2452049976
 21
105.7082138605
 31
0.0
  0
LINE
  5
426
330
41F
100
AcDbEntity
  8
0
  6
Continuous
 62
     7
370
     0
100
AcDbLine
 10
383.2452049976
 20
195.7082138605
 30
0.0
 11
383.2452049976
 21
105.7082138605
 31
0.0
  0
MTEXT
  5
427
330
41F
100
AcDbEntity
  8
0
  6
Continuous
 62
     7
370
     0
100
AcDbMText
 10
378.7334681412
 20
146.7028943522
 30
0.0
 40
3.5
 41
0.0
 71
     1
 72
     1
  1
90
  7
SLDTEXTSTYLE0
 11
-7.044195017643634E-15
 21
1.0
 31
0.0
 73
     1
 44
1.0
  0
ENDBLK
  5
421
330
41F
100
AcDbEntity
  8
0
100
AcDbBlockEnd
  0
BLOCK
  5
42B
330
42A
100
AcDbEntity
  8
0
100
AcDbBlockBegin
  2
*D15
 70
     1
 71
     0
 10
0.0
 20
0.0
 30
0.0
  3
*D15
  1

  0
INSERT
  5
42D
330
42A
100
AcDbEntity
  8
0
  6
Continuous
 62
     7
370
     0
100
AcDbBlockReference
  2
_OPEN30
 10
358.4432468288
 20
90.7082138605
 30
-0.4
 41
3.0
 42
3.0
 50
180.0
  0
INSERT
  5
42E
330
42A
100
AcDbEntity
  8
0
  6
Continuous
 62
     7
370
     0
100
AcDbBlockReference
  2
_OPEN30
 10
347.6432468288
 20
90.7082138605
 30
-0.4
 41
3.0
 42
3.0
 50
360.0
  0
LINE
  5
42F
330
42A
100
AcDbEntity
  8
0
  6
Continuous
 62
     7
370
     0
100
AcDbLine
 10
358.4432468288
 20
190.2082138605
 30
0.0
 11
358.4432468288
 21
89.7082138605
 31
0.0
  0
LINE
  5
430
330
42A
100
AcDbEntity
  8
0
  6
Continuous
 62
     7
370
     0
100
AcDbLine
 10
347.6432468288
 20
100.2082138605
 30
0.0
 11
347.6432468288
 21
89.7082138605
 31
0.0
  0
LINE
  5
431
330
42A
100
AcDbEntity
  8
0
  6
Continuous
 62
     7
370
     0
100
AcDbLine
 10
358.4432468288
 20
90.7082138605
 30
0.0
 11
372.7874816671
 21
90.7082138605
 31
0.0
  0
LINE
  5
432
330
42A
100
AcDbEntity
  8
0
  6
Continuous
 62
     7
370
     0
100
AcDbLine
 10
358.4432468288
 20
90.7082138605
 30
0.0
 11
347.6432468288
 21
90.7082138605
 31
0.0
  0
LINE
  5
433
330
42A
100
AcDbEntity
  8
0
  6
Continuous
 62
     7
370
     0
100
AcDbLine
 10
347.6432468288
 20
90.7082138605
 30
0.0
 11
343.6432468288
 21
90.7082138605
 31
0.0
  0
MTEXT
  5
434
330
42A
100
AcDbEntity
  8
0
  6
Continuous
 62
     7
370
     0
100
AcDbMText
 10
363.055089372
 20
95.2199507169
 30
0.0
 40
3.5
 41
0.0
 71
     1
 72
     1
  1
10.8
  7
SLDTEXTSTYLE0
 73
     1
 44
1.0
  0
ENDBLK
  5
42C
330
42A
100
AcDbEntity
  8
0
100
AcDbBlockEnd
  0
BLOCK
  5
436
330
435
100
AcDbEntity
  8
0
100
AcDbBlockBegin
  2
SW_NOTE_5
 70
     0
 71
     0
 10
0.0
 20
0.0
 30
0.0
  3
SW_NOTE_5
  1

  0
LINE
  5
438
330
435
100
AcDbEntity
  8
0
  6
Continuous
 62
     0
370
     0
100
AcDbLine
 10
0.0
 20
0.0001220939
 30
0.0
 11
16.2945644566
 21
0.0001220939
 31
0.0
  0
LINE
  5
439
330
435
100
AcDbEntity
  8
0
  6
Continuous
 62
     0
370
     0
100
AcDbLine
 10
16.2945644566
 20
0.0001220939
 30
0.0
 11
0.0
 21
0.0001220939
 31
0.0
  0
LINE
  5
43A
330
435
100
AcDbEntity
  8
0
  6
Continuous
 62
     0
370
     0
100
AcDbLine
 10
0.0
 20
0.0001220939
 30
0.0
 11
16.2945644566
 21
0.0001220939
 31
0.0
  0
LINE
  5
43B
330
435
100
AcDbEntity
  8
0
  6
Continuous
 62
     0
370
     0
100
AcDbLine
 10
16.2945644566
 20
0.0001220939
 30
0.0
 11
0.0
 21
0.0001220939
 31
0.0
  0
LINE
  5
43C
330
435
100
AcDbEntity
  8
0
  6
Continuous
 62
     0
370
     0
100
AcDbLine
 10
0.0
 20
0.0001220939
 30
0.0
 11
16.2945644566
 21
0.0001220939
 31
0.0
  0
LINE
  5
43D
330
435
100
AcDbEntity
  8
0
  6
Continuous
 62
     0
370
     0
100
AcDbLine
 10
16.2945644566
 20
0.0001220939
 30
0.0
 11
0.0
 21
0.0001220939
 31
0.0
  0
MTEXT
  5
43E
330
435
100
AcDbEntity
  8
0
  6
Continuous
 62
     0
370
     0
100
AcDbMText
 10
0.0002781946
 20
4.5137198635
 30
0.0
 40
3.5
 41
0.0
 71
     1
 72
     1
  1
\M+18251\M+1817C\M+1826C\M+18253
  7
SLDTEXTSTYLE0
 73
     1
 44
1.0
  0
ENDBLK
  5
437
330
435
100
AcDbEntity
  8
0
100
AcDbBlockEnd
  0
BLOCK
  5
442
330
441
100
AcDbEntity
  8
0
100
AcDbBlockBegin
  2
SW_CENTERMARKSYMBOL_0
 70
     0
 71
     0
 10
0.0
 20
0.0
 30
0.0
  3
SW_CENTERMARKSYMBOL_0
  1

  0
LINE
  5
444
330
441
100
AcDbEntity
  8
0
  6
Continuous
 62
     0
370
     0
100
AcDbLine
 10
0.0
 20
0.0
 30
0.0
 11
0.0
 21
2.5
 31
0.0
  0
LINE
  5
445
330
441
100
AcDbEntity
  8
0
  6
Continuous
 62
     0
370
     0
100
AcDbLine
 10
0.0
 20
0.0
 30
0.0
 11
-2.5
 21
0.0
 31
0.0
  0
LINE
  5
446
330
441
100
AcDbEntity
  8
0
  6
Continuous
 62
     0
370
     0
100
AcDbLine
 10
0.0
 20
0.0
 30
0.0
 11
0.0
 21
-2.5
 31
0.0
  0
LINE
  5
447
330
441
100
AcDbEntity
  8
0
  6
Continuous
 62
     0
370
     0
100
AcDbLine
 10
0.0
 20
0.0
 30
0.0
 11
2.5
 21
0.0
 31
0.0
  0
LINE
  5
448
330
441
100
AcDbEntity
  8
0
  6
Continuous
 62
     0
370
     0
100
AcDbLine
 10
0.0
 20
2.5
 30
0.0
 11
0.0
 21
4.5
 31
0.0
  0
LINE
  5
449
330
441
100
AcDbEntity
  8
0
  6
Continuous
 62
     0
370
     0
100
AcDbLine
 10
-2.5
 20
0.0
 30
0.0
 11
-4.5
 21
0.0
 31
0.0
  0
LINE
  5
44A
330
441
100
AcDbEntity
  8
0
  6
Continuous
 62
     0
370
     0
100
AcDbLine
 10
0.0
 20
-2.5
 30
0.0
 11
0.0
 21
-4.5
 31
0.0
  0
LINE
  5
44B
330
441
100
AcDbEntity
  8
0
  6
Continuous
 62
     0
370
     0
100
AcDbLine
 10
2.5
 20
0.0
 30
0.0
 11
4.5
 21
0.0
 31
0.0
  0
ENDBLK
  5
443
330
441
100
AcDbEntity
  8
0
100
AcDbBlockEnd
  0
BLOCK
  5
44E
330
44D
100
AcDbEntity
  8
0
100
AcDbBlockBegin
  2
SW_CENTERMARKSYMBOL_1
 70
     0
 71
     0
 10
0.0
 20
0.0
 30
0.0
  3
SW_CENTERMARKSYMBOL_1
  1

  0
LINE
  5
450
330
44D
100
AcDbEntity
  8
0
  6
Continuous
 62
     0
370
     0
100
AcDbLine
 10
0.0
 20
0.0
 30
0.0
 11
0.0
 21
2.5
 31
0.0
  0
LINE
  5
451
330
44D
100
AcDbEntity
  8
0
  6
Continuous
 62
     0
370
     0
100
AcDbLine
 10
0.0
 20
0.0
 30
0.0
 11
-2.5
 21
0.0
 31
0.0
  0
LINE
  5
452
330
44D
100
AcDbEntity
  8
0
  6
Continuous
 62
     0
370
     0
100
AcDbLine
 10
0.0
 20
0.0
 30
0.0
 11
0.0
 21
-2.5
 31
0.0
  0
LINE
  5
453
330
44D
100
AcDbEntity
  8
0
  6
Continuous
 62
     0
370
     0
100
AcDbLine
 10
0.0
 20
0.0
 30
0.0
 11
2.5
 21
0.0
 31
0.0
  0
LINE
  5
454
330
44D
100
AcDbEntity
  8
0
  6
Continuous
 62
     0
370
     0
100
AcDbLine
 10
0.0
 20
2.5
 30
0.0
 11
0.0
 21
4.5
 31
0.0
  0
LINE
  5
455
330
44D
100
AcDbEntity
  8
0
  6
Continuous
 62
     0
370
     0
100
AcDbLine
 10
-2.5
 20
0.0
 30
0.0
 11
-4.5
 21
0.0
 31
0.0
  0
LINE
  5
456
330
44D
100
AcDbEntity
  8
0
  6
Continuous
 62
     0
370
     0
100
AcDbLine
 10
0.0
 20
-2.5
 30
0.0
 11
0.0
 21
-4.5
 31
0.0
  0
LINE
  5
457
330
44D
100
AcDbEntity
  8
0
  6
Continuous
 62
     0
370
     0
100
AcDbLine
 10
2.5
 20
0.0
 30
0.0
 11
4.5
 21
0.0
 31
0.0
  0
ENDBLK
  5
44F
330
44D
100
AcDbEntity
  8
0
100
AcDbBlockEnd
  0
ENDSEC
  0
SECTION
  2
ENTITIES
  0
LINE
  5
40
330
1F
100
AcDbEntity
  8
0
  6
Continuous
 62
   179
370
     0
100
AcDbLine
 10
194.1697031169
 20
74.709912566
 30
0.0
 11
194.1697031169
 21
64.409913566
 31
0.0
  0
LINE
  5
41
330
1F
100
AcDbEntity
  8
0
  6
Continuous
 62
   179
370
     0
100
AcDbLine
 10
186.1697031169
 20
77.009913566
 30
0.0
 11
186.1697031169
 21
65.909913566
 31
0.0
  0
LINE
  5
42
330
1F
100
AcDbEntity
  8
0
  6
Continuous
 62
   179
370
     0
100
AcDbLine
 10
183.1697031169
 20
75.609913566
 30
0.0
 11
183.1697031169
 21
73.109912566
 31
0.0
  0
LINE
  5
43
330
1F
100
AcDbEntity
  8
0
  6
Continuous
 62
   179
370
     0
100
AcDbLine
 10
206.4697031169
 20
56.909912566
 30
0.0
 11
206.4697031169
 21
76.009913566
 31
0.0
  0
LINE
  5
44
330
1F
100
AcDbEntity
  8
0
  6
Continuous
 62
   179
370
     0
100
AcDbLine
 10
182.0697031169
 20
75.609913566
 30
0.0
 11
182.0697031169
 21
56.009913566
 31
0.0
  0
LINE
  5
45
330
1F
100
AcDbEntity
  8
0
  6
Continuous
 62
   179
370
     0
100
AcDbLine
 10
181.0697031169
 20
56.009913566
 30
0.0
 11
181.0697031169
 21
77.009913566
 31
0.0
  0
LINE
  5
46
330
1F
100
AcDbEntity
  8
0
  6
Continuous
 62
   179
370
     0
100
AcDbLine
 10
193.6697031169
 20
74.809913566
 30
0.0
 11
193.6697031169
 21
64.409913566
 31
0.0
  0
LINE
  5
47
330
1F
100
AcDbEntity
  8
0
  6
Continuous
 62
   179
370
     0
100
AcDbLine
 10
268.7697031169
 20
77.109912566
 30
0.0
 11
268.7697031169
 21
72.409913566
 31
0.0
  0
LINE
  5
48
330
1F
100
AcDbEntity
  8
0
  6
Continuous
 62
   179
370
     0
100
AcDbLine
 10
277.9697031169
 20
55.709912566
 30
0.0
 11
277.9697031169
 21
74.309913566
 31
0.0
  0
LINE
  5
49
330
1F
100
AcDbEntity
  8
0
  6
Continuous
 62
   179
370
     0
100
AcDbLine
 10
279.5697031169
 20
55.709912566
 30
0.0
 11
279.5697031169
 21
77.109912566
 31
0.0
  0
LINE
  5
4A
330
1F
100
AcDbEntity
  8
0
  6
Continuous
 62
   179
370
     0
100
AcDbLine
 10
212.2697031169
 20
70.909913566
 30
0.0
 11
212.2697031169
 21
77.109912566
 31
0.0
  0
LINE
  5
4B
330
1F
100
AcDbEntity
  8
0
  6
Continuous
 62
   179
370
     0
100
AcDbLine
 10
222.2697031169
 20
70.709912566
 30
0.0
 11
221.9697031169
 21
77.109912566
 31
0.0
  0
LINE
  5
4C
330
1F
100
AcDbEntity
  8
0
  6
Continuous
 62
   179
370
     0
100
AcDbLine
 10
231.9697036169
 20
77.209913066
 30
0.0
 11
232.2697036169
 21
70.609913066
 31
0.0
  0
LINE
  5
4D
330
1F
100
AcDbEntity
  8
0
  6
Continuous
 62
   179
370
     0
100
AcDbLine
 10
241.9697036169
 20
77.109913066
 30
0.0
 11
242.2697036169
 21
70.409913066
 31
0.0
  0
LINE
  5
4E
330
1F
100
AcDbEntity
  8
0
  6
Continuous
 62
   179
370
     0
100
AcDbLine
 10
251.9697031169
 20
77.109912566
 30
0.0
 11
252.2697031169
 21
70.209912566
 31
0.0
  0
LINE
  5
4F
330
1F
100
AcDbEntity
  8
0
  6
Continuous
 62
   179
370
     0
100
AcDbLine
 10
261.9697031169
 20
77.109912566
 30
0.0
 11
262.2697031169
 21
70.109912566
 31
0.0
  0
LINE
  5
50
330
1F
100
AcDbEntity
  8
0
  6
Continuous
 62
   179
370
     0
100
AcDbLine
 10
220.2697031169
 20
69.309913566
 30
0.0
 11
220.4697031169
 21
77.109912566
 31
0.0
  0
LINE
  5
51
330
1F
100
AcDbEntity
  8
0
  6
Continuous
 62
   179
370
     0
100
AcDbLine
 10
230.4697031169
 20
77.109912566
 30
0.0
 11
230.2697031169
 21
69.109912566
 31
0.0
  0
LINE
  5
52
330
1F
100
AcDbEntity
  8
0
  6
Continuous
 62
   179
370
     0
100
AcDbLine
 10
240.4697036169
 20
77.109913066
 30
0.0
 11
240.2697036169
 21
68.909914066
 31
0.0
  0
LINE
  5
53
330
1F
100
AcDbEntity
  8
0
  6
Continuous
 62
   179
370
     0
100
AcDbLine
 10
250.4697031169
 20
77.109912566
 30
0.0
 11
250.2697031169
 21
68.809913566
 31
0.0
  0
LINE
  5
54
330
1F
100
AcDbEntity
  8
0
  6
Continuous
 62
   179
370
     0
100
AcDbLine
 10
260.4697031169
 20
77.109912566
 30
0.0
 11
260.2697031169
 21
68.609912566
 31
0.0
  0
LINE
  5
55
330
1F
100
AcDbEntity
  8
0
  6
Continuous
 62
   179
370
     0
100
AcDbLine
 10
208.2697031169
 20
55.709912566
 30
0.0
 11
208.2697031169
 21
77.109912566
 31
0.0
  0
LINE
  5
56
330
1F
100
AcDbEntity
  8
0
  6
Continuous
 62
   179
370
     0
100
AcDbLine
 10
193.7697031169
 20
64.559912566
 30
0.0
 11
193.7697031169
 21
74.609912566
 31
0.0
  0
LINE
  5
57
330
1F
100
AcDbEntity
  8
0
  6
CENTERX2
 62
     7
370
     0
100
AcDbLine
 10
127.0580820611
 20
111.868090314
 30
0.0
 11
127.0580820611
 21
191.2884114694
 31
0.0
  0
LINE
  5
58
330
1F
100
AcDbEntity
  8
0
  6
CENTERX2
 62
     7
370
     0
100
AcDbLine
 10
113.744430199
 20
151.9635925015
 30
0.0
 11
138.8286152896
 21
151.9635925015
 31
0.0
  0
LINE
  5
59
330
1F
100
AcDbEntity
  8
0
  6
CENTERX2
 62
     7
370
     0
100
AcDbLine
 10
274.5697031169
 20
151.9635925015
 30
0.0
 11
176.7202782371
 21
151.9635925015
 31
0.0
  0
LINE
  5
5A
330
1F
100
AcDbEntity
  8
0
  6
Continuous
 62
   179
370
     0
100
AcDbLine
 10
192.2773039621
 20
127.268091314
 30
0.0
 11
192.2773039621
 21
130.268091314
 31
0.0
  0
LINE
  5
5B
330
1F
100
AcDbEntity
  8
0
  6
Continuous
 62
   179
370
     0
100
AcDbLine
 10
192.2773039621
 20
130.468091314
 30
0.0
 11
192.2773039621
 21
127.068091314
 31
0.0
  0
LINE
  5
5C
330
1F
100
AcDbEntity
  8
0
  6
Continuous
 62
   179
370
     0
100
AcDbLine
 10
253.7697031169
 20
68.709912566
 30
0.0
 11
260.2697031169
 21
68.609912566
 31
0.0
  0
LINE
  5
5D
330
1F
100
AcDbEntity
  8
0
  6
Continuous
 62
   179
370
     0
100
AcDbLine
 10
253.7697031169
 20
64.109913566
 30
0.0
 11
260.2697031169
 21
64.209912566
 31
0.0
  0
LINE
  5
5E
330
1F
100
AcDbEntity
  8
0
  6
Continuous
 62
   179
370
     0
100
AcDbLine
 10
274.5697031169
 20
190.8590946891
 30
0.0
 11
274.5697031169
 21
113.068090314
 31
0.0
  0
LINE
  5
5F
330
1F
100
AcDbEntity
  8
0
  6
Continuous
 62
   179
370
     0
100
AcDbLine
 10
192.2773039621
 20
130.468091314
 30
0.0
 11
192.2773039621
 21
127.068091314
 31
0.0
  0
LINE
  5
60
330
1F
100
AcDbEntity
  8
0
  6
Continuous
 62
   179
370
     0
100
AcDbLine
 10
190.7773039621
 20
127.068091314
 30
0.0
 11
190.7773039621
 21
130.468091314
 31
0.0
  0
LINE
  5
61
330
1F
100
AcDbEntity
  8
0
  6
Continuous
 62
   179
370
     0
100
AcDbLine
 10
190.7773039621
 20
127.068091314
 30
0.0
 11
190.7773039621
 21
130.468091314
 31
0.0
  0
LINE
  5
62
330
1F
100
AcDbEntity
  8
0
  6
Continuous
 62
   179
370
     0
100
AcDbLine
 10
191.0773039621
 20
127.268091314
 30
0.0
 11
191.0773039621
 21
130.268091314
 31
0.0
  0
LINE
  5
63
330
1F
100
AcDbEntity
  8
0
  6
Continuous
 62
   179
370
     0
100
AcDbLine
 10
192.2773039621
 20
127.068091314
 30
0.0
 11
190.7773039621
 21
127.068091314
 31
0.0
  0
LINE
  5
64
330
1F
100
AcDbEntity
  8
0
  6
Continuous
 62
   179
370
     0
100
AcDbLine
 10
192.2773039621
 20
127.068091314
 30
0.0
 11
190.7773039621
 21
127.068091314
 31
0.0
  0
LINE
  5
65
330
1F
100
AcDbEntity
  8
0
  6
Continuous
 62
   179
370
     0
100
AcDbLine
 10
192.2773039621
 20
127.268091314
 30
0.0
 11
190.7773039621
 21
127.268091314
 31
0.0
  0
LINE
  5
66
330
1F
100
AcDbEntity
  8
0
  6
Continuous
 62
   179
370
     0
100
AcDbLine
 10
190.7773039621
 20
130.468091314
 30
0.0
 11
192.2773039621
 21
130.468091314
 31
0.0
  0
LINE
  5
67
330
1F
100
AcDbEntity
  8
0
  6
Continuous
 62
   179
370
     0
100
AcDbLine
 10
190.7773039621
 20
130.468091314
 30
0.0
 11
192.2773039621
 21
130.468091314
 31
0.0
  0
LINE
  5
68
330
1F
100
AcDbEntity
  8
0
  6
Continuous
 62
   179
370
     0
100
AcDbLine
 10
192.2773039621
 20
130.268091314
 30
0.0
 11
190.7773039621
 21
130.268091314
 31
0.0
  0
LINE
  5
69
330
1F
100
AcDbEntity
  8
0
  6
Continuous
 62
   179
370
     0
100
AcDbLine
 10
277.9697031169
 20
67.109913566
 30
0.0
 11
279.5697031169
 21
67.109913566
 31
0.0
  0
LINE
  5
6A
330
1F
100
AcDbEntity
  8
0
  6
Continuous
 62
   179
370
     0
100
AcDbLine
 10
277.9697031169
 20
71.909913566
 30
0.0
 11
279.5697031169
 21
71.909913566
 31
0.0
  0
LINE
  5
6B
330
1F
100
AcDbEntity
  8
0
  6
Continuous
 62
   179
370
     0
100
AcDbLine
 10
279.5697031169
 20
66.909913566
 30
0.0
 11
277.9697031169
 21
66.909913566
 31
0.0
  0
LINE
  5
6C
330
1F
100
AcDbEntity
  8
0
  6
Continuous
 62
   179
370
     0
100
AcDbLine
 10
279.5697031169
 20
72.109912566
 30
0.0
 11
277.9697031169
 21
72.109912566
 31
0.0
  0
LINE
  5
6D
330
1F
100
AcDbEntity
  8
0
  6
Continuous
 62
   179
370
     0
100
AcDbLine
 10
279.5697031169
 20
55.709912566
 30
0.0
 11
277.9697031169
 21
55.709912566
 31
0.0
  0
LINE
  5
6E
330
1F
100
AcDbEntity
  8
0
  6
Continuous
 62
   179
370
     0
100
AcDbLine
 10
270.7697031169
 20
65.209912566
 30
0.0
 11
270.7697031169
 21
57.609912566
 31
0.0
  0
LINE
  5
6F
330
1F
100
AcDbEntity
  8
0
  6
Continuous
 62
   179
370
     0
100
AcDbLine
 10
260.4697031169
 20
55.709912566
 30
0.0
 11
260.2697031169
 21
64.209912566
 31
0.0
  0
LINE
  5
70
330
1F
100
AcDbEntity
  8
0
  6
Continuous
 62
   179
370
     0
100
AcDbLine
 10
270.7697031169
 20
58.809913566
 30
0.0
 11
277.9697031169
 21
58.809913566
 31
0.0
  0
LINE
  5
71
330
1F
100
AcDbEntity
  8
0
  6
Continuous
 62
   179
370
     0
100
AcDbLine
 10
270.7697031169
 20
57.809913566
 30
0.0
 11
272.1697031169
 21
57.809913566
 31
0.0
  0
LINE
  5
72
330
1F
100
AcDbEntity
  8
0
  6
Continuous
 62
   179
370
     0
100
AcDbLine
 10
274.7697031169
 20
55.709912566
 30
0.0
 11
274.7697031169
 21
58.609912566
 31
0.0
  0
LINE
  5
73
330
1F
100
AcDbEntity
  8
0
  6
Continuous
 62
   179
370
     0
100
AcDbLine
 10
272.1697031169
 20
57.809913566
 30
0.0
 11
272.1697031169
 21
58.809913566
 31
0.0
  0
LINE
  5
74
330
1F
100
AcDbEntity
  8
0
  6
Continuous
 62
   179
370
     0
100
AcDbLine
 10
274.7697031169
 20
57.509913566
 30
0.0
 11
277.9697031169
 21
57.509913566
 31
0.0
  0
LINE
  5
75
330
1F
100
AcDbEntity
  8
0
  6
Continuous
 62
   179
370
     0
100
AcDbLine
 10
277.9697031169
 20
55.909913566
 30
0.0
 11
274.7697031169
 21
55.909913566
 31
0.0
  0
LINE
  5
76
330
1F
100
AcDbEntity
  8
0
  6
Continuous
 62
   179
370
     0
100
AcDbLine
 10
268.7697031169
 20
62.809913566
 30
0.0
 11
268.7697031169
 21
55.709912566
 31
0.0
  0
LINE
  5
77
330
1F
100
AcDbEntity
  8
0
  6
Continuous
 62
   179
370
     0
100
AcDbLine
 10
261.9697031169
 20
55.709912566
 30
0.0
 11
262.2697031169
 21
62.709912566
 31
0.0
  0
LINE
  5
78
330
1F
100
AcDbEntity
  8
0
  6
Continuous
 62
   179
370
     0
100
AcDbLine
 10
272.7697031169
 20
58.609912566
 30
0.0
 11
272.7697031169
 21
57.609912566
 31
0.0
  0
LINE
  5
79
330
1F
100
AcDbEntity
  8
0
  6
Continuous
 62
   179
370
     0
100
AcDbLine
 10
274.7697031169
 20
58.609912566
 30
0.0
 11
272.7697031169
 21
58.609912566
 31
0.0
  0
LINE
  5
7A
330
1F
100
AcDbEntity
  8
0
  6
Continuous
 62
   179
370
     0
100
AcDbLine
 10
260.4697031169
 20
55.709912566
 30
0.0
 11
261.9697031169
 21
55.709912566
 31
0.0
  0
LINE
  5
7B
330
1F
100
AcDbEntity
  8
0
  6
Continuous
 62
   179
370
     0
100
AcDbLine
 10
272.7697031169
 20
57.609912566
 30
0.0
 11
270.7697031169
 21
57.609912566
 31
0.0
  0
LINE
  5
7C
330
1F
100
AcDbEntity
  8
0
  6
Continuous
 62
   179
370
     0
100
AcDbLine
 10
268.7697031169
 20
55.709912566
 30
0.0
 11
274.7697031169
 21
55.709912566
 31
0.0
  0
LINE
  5
7D
330
1F
100
AcDbEntity
  8
0
  6
Continuous
 62
   179
370
     0
100
AcDbLine
 10
271.4697031169
 20
67.009912566
 30
0.0
 11
273.1697031169
 21
67.009912566
 31
0.0
  0
LINE
  5
7E
330
1F
100
AcDbEntity
  8
0
  6
Continuous
 62
   179
370
     0
100
AcDbLine
 10
275.5697031169
 20
67.509913566
 30
0.0
 11
275.2697031169
 21
67.509913566
 31
0.0
  0
LINE
  5
7F
330
1F
100
AcDbEntity
  8
0
  6
Continuous
 62
   179
370
     0
100
AcDbLine
 10
276.9697031169
 20
67.509913566
 30
0.0
 11
277.9697031169
 21
67.509913566
 31
0.0
  0
LINE
  5
80
330
1F
100
AcDbEntity
  8
0
  6
Continuous
 62
   179
370
     0
100
AcDbLine
 10
275.3697031169
 20
67.409913566
 30
0.0
 11
275.3697031169
 21
67.509913566
 31
0.0
  0
LINE
  5
81
330
1F
100
AcDbEntity
  8
0
  6
Continuous
 62
   179
370
     0
100
AcDbLine
 10
275.9697031169
 20
72.209913566
 30
0.0
 11
277.9697031169
 21
72.209913566
 31
0.0
  0
LINE
  5
82
330
1F
100
AcDbEntity
  8
0
  6
Continuous
 62
   179
370
     0
100
AcDbLine
 10
274.5697031169
 20
72.409913566
 30
0.0
 11
274.5697031169
 21
73.009913566
 31
0.0
  0
LINE
  5
83
330
1F
100
AcDbEntity
  8
0
  6
Continuous
 62
   179
370
     0
100
AcDbLine
 10
272.1697031169
 20
72.209913566
 30
0.0
 11
273.5697031169
 21
72.209913566
 31
0.0
  0
LINE
  5
84
330
1F
100
AcDbEntity
  8
0
  6
Continuous
 62
   179
370
     0
100
AcDbLine
 10
271.4697031169
 20
72.009913566
 30
0.0
 11
273.1697031169
 21
72.009913566
 31
0.0
  0
LINE
  5
85
330
1F
100
AcDbEntity
  8
0
  6
Continuous
 62
   179
370
     0
100
AcDbLine
 10
277.9697031169
 20
71.509913566
 30
0.0
 11
276.9697031169
 21
71.509913566
 31
0.0
  0
LINE
  5
86
330
1F
100
AcDbEntity
  8
0
  6
Continuous
 62
   179
370
     0
100
AcDbLine
 10
275.2697031169
 20
71.509913566
 30
0.0
 11
275.5697031169
 21
71.509913566
 31
0.0
  0
LINE
  5
87
330
1F
100
AcDbEntity
  8
0
  6
Continuous
 62
   179
370
     0
100
AcDbLine
 10
275.3697031169
 20
71.609912566
 30
0.0
 11
275.3697031169
 21
71.509913566
 31
0.0
  0
LINE
  5
88
330
1F
100
AcDbEntity
  8
0
  6
Continuous
 62
   179
370
     0
100
AcDbLine
 10
272.1697031169
 20
65.909913566
 30
0.0
 11
272.1697031169
 21
67.009912566
 31
0.0
  0
LINE
  5
89
330
1F
100
AcDbEntity
  8
0
  6
Continuous
 62
   179
370
     0
100
AcDbLine
 10
272.1697031169
 20
64.709912566
 30
0.0
 11
272.1697031169
 21
64.909913566
 31
0.0
  0
LINE
  5
8A
330
1F
100
AcDbEntity
  8
0
  6
Continuous
 62
   179
370
     0
100
AcDbLine
 10
272.1697031169
 20
73.009913566
 30
0.0
 11
272.1697031169
 21
72.009913566
 31
0.0
  0
LINE
  5
8B
330
1F
100
AcDbEntity
  8
0
  6
Continuous
 62
   179
370
     0
100
AcDbLine
 10
276.6697031169
 20
73.009913566
 30
0.0
 11
276.6697031169
 21
72.209913566
 31
0.0
  0
LINE
  5
8C
330
1F
100
AcDbEntity
  8
0
  6
Continuous
 62
   179
370
     0
100
AcDbLine
 10
274.2697031169
 20
71.509913566
 30
0.0
 11
274.0697031169
 21
71.509913566
 31
0.0
  0
LINE
  5
8D
330
1F
100
AcDbEntity
  8
0
  6
Continuous
 62
   179
370
     0
100
AcDbLine
 10
274.3697031169
 20
66.909913566
 30
0.0
 11
274.3697031169
 21
72.009913566
 31
0.0
  0
LINE
  5
8E
330
1F
100
AcDbEntity
  8
0
  6
Continuous
 62
   179
370
     0
100
AcDbLine
 10
274.2697031169
 20
67.509913566
 30
0.0
 11
274.0697031169
 21
67.509913566
 31
0.0
  0
LINE
  5
8F
330
1F
100
AcDbEntity
  8
0
  6
Continuous
 62
   179
370
     0
100
AcDbLine
 10
275.1697031169
 20
66.909913566
 30
0.0
 11
275.1697031169
 21
72.009913566
 31
0.0
  0
LINE
  5
90
330
1F
100
AcDbEntity
  8
0
  6
Continuous
 62
   179
370
     0
100
AcDbLine
 10
277.9697031169
 20
67.909913566
 30
0.0
 11
275.7697031169
 21
67.509913566
 31
0.0
  0
LINE
  5
91
330
1F
100
AcDbEntity
  8
0
  6
Continuous
 62
   179
370
     0
100
AcDbLine
 10
277.9697031169
 20
71.109912566
 30
0.0
 11
275.7697031169
 21
71.509913566
 31
0.0
  0
LINE
  5
92
330
1F
100
AcDbEntity
  8
0
  6
Continuous
 62
   179
370
     0
100
AcDbLine
 10
271.4697031169
 20
67.009912566
 30
0.0
 11
273.9697031169
 21
67.109913566
 31
0.0
  0
LINE
  5
93
330
1F
100
AcDbEntity
  8
0
  6
Continuous
 62
   179
370
     0
100
AcDbLine
 10
271.4697031169
 20
72.009913566
 30
0.0
 11
273.9697031169
 21
71.909913566
 31
0.0
  0
LINE
  5
94
330
1F
100
AcDbEntity
  8
0
  6
Continuous
 62
   179
370
     0
100
AcDbLine
 10
268.4697036169
 20
72.409913066
 30
0.0
 11
271.4697036169
 21
72.409913066
 31
0.0
  0
LINE
  5
95
330
1F
100
AcDbEntity
  8
0
  6
Continuous
 62
   179
370
     0
100
AcDbLine
 10
267.4697031169
 20
67.509913566
 30
0.0
 11
267.4697031169
 21
71.409912566
 31
0.0
  0
LINE
  5
96
330
1F
100
AcDbEntity
  8
0
  6
Continuous
 62
   179
370
     0
100
AcDbLine
 10
268.4697031169
 20
66.509913566
 30
0.0
 11
271.4697031169
 21
66.509913566
 31
0.0
  0
LINE
  5
97
330
1F
100
AcDbEntity
  8
0
  6
Continuous
 62
   179
370
     0
100
AcDbLine
 10
271.4697031169
 20
73.009913566
 30
0.0
 11
277.9697031169
 21
73.009913566
 31
0.0
  0
LINE
  5
98
330
1F
100
AcDbEntity
  8
0
  6
Continuous
 62
   179
370
     0
100
AcDbLine
 10
271.4697031169
 20
65.909913566
 30
0.0
 11
277.9697031169
 21
65.909913566
 31
0.0
  0
LINE
  5
99
330
1F
100
AcDbEntity
  8
0
  6
Continuous
 62
   179
370
     0
100
AcDbLine
 10
271.4697031169
 20
65.909913566
 30
0.0
 11
271.4697031169
 21
73.009913566
 31
0.0
  0
LINE
  5
9A
330
1F
100
AcDbEntity
  8
0
  6
Continuous
 62
   179
370
     0
100
AcDbLine
 10
270.4697031169
 20
72.409913566
 30
0.0
 11
270.4697031169
 21
73.009913566
 31
0.0
  0
LINE
  5
9B
330
1F
100
AcDbEntity
  8
0
  6
Continuous
 62
   179
370
     0
100
AcDbLine
 10
271.4697031169
 20
64.909913566
 30
0.0
 11
277.9697031169
 21
64.909913566
 31
0.0
  0
LINE
  5
9C
330
1F
100
AcDbEntity
  8
0
  6
Continuous
 62
   179
370
     0
100
AcDbLine
 10
270.4697031169
 20
65.909913566
 30
0.0
 11
270.4697031169
 21
66.509913566
 31
0.0
  0
LINE
  5
9D
330
1F
100
AcDbEntity
  8
0
  6
Continuous
 62
   179
370
     0
100
AcDbLine
 10
277.9697031169
 20
64.709912566
 30
0.0
 11
270.7697031169
 21
64.709912566
 31
0.0
  0
LINE
  5
9E
330
1F
100
AcDbEntity
  8
0
  6
Continuous
 62
   179
370
     0
100
AcDbLine
 10
263.7697031169
 20
68.609912566
 30
0.0
 11
267.2697031169
 21
68.509912566
 31
0.0
  0
LINE
  5
9F
330
1F
100
AcDbEntity
  8
0
  6
Continuous
 62
   179
370
     0
100
AcDbLine
 10
263.7697031169
 20
64.209912566
 30
0.0
 11
267.2697031169
 21
64.309913566
 31
0.0
  0
LINE
  5
A0
330
1F
100
AcDbEntity
  8
0
  6
Continuous
 62
   179
370
     0
100
AcDbLine
 10
137.6080825611
 20
126.268091814
 30
0.0
 11
137.6080825611
 21
177.468090814
 31
0.0
  0
LINE
  5
A1
330
1F
100
AcDbEntity
  8
0
  6
Continuous
 62
   179
370
     0
100
AcDbLine
 10
137.8080820611
 20
113.4680903139
 30
0.0
 11
137.8080820611
 21
190.2680903139
 31
0.0
  0
LINE
  5
A2
330
1F
100
AcDbEntity
  8
0
  6
Continuous
 62
   179
370
     0
100
AcDbLine
 10
116.5080820611
 20
126.268091314
 30
0.0
 11
116.5080820611
 21
149.968090314
 31
0.0
  0
LINE
  5
A3
330
1F
100
AcDbEntity
  8
0
  6
Continuous
 62
   179
370
     0
100
AcDbLine
 10
117.6080820611
 20
142.468090314
 30
0.0
 11
117.6080820611
 21
126.268091314
 31
0.0
  0
LINE
  5
A4
330
1F
100
AcDbEntity
  8
0
  6
Continuous
 62
   179
370
     0
100
AcDbLine
 10
126.3080825611
 20
126.268091814
 30
0.0
 11
126.3080825611
 21
177.468090814
 31
0.0
  0
LINE
  5
A5
330
1F
100
AcDbEntity
  8
0
  6
Continuous
 62
   179
370
     0
100
AcDbLine
 10
125.3080820611
 20
127.268090314
 30
0.0
 11
125.3080820611
 21
142.468090314
 31
0.0
  0
LINE
  5
A6
330
1F
100
AcDbEntity
  8
0
  6
Continuous
 62
   179
370
     0
100
AcDbLine
 10
116.3080820611
 20
113.468090314
 30
0.0
 11
116.3080820611
 21
190.268090314
 31
0.0
  0
LINE
  5
A7
330
1F
100
AcDbEntity
  8
0
  6
Continuous
 62
   179
370
     0
100
AcDbLine
 10
131.9080820611
 20
128.568090314
 30
0.0
 11
131.9080820611
 21
132.868090314
 31
0.0
  0
LINE
  5
A8
330
1F
100
AcDbEntity
  8
0
  6
Continuous
 62
   179
370
     0
100
AcDbLine
 10
136.2080820611
 20
128.568090314
 30
0.0
 11
136.2080820611
 21
132.868090314
 31
0.0
  0
LINE
  5
A9
330
1F
100
AcDbEntity
  8
0
  6
Continuous
 62
   179
370
     0
100
AcDbLine
 10
131.8521410611
 20
127.468090314
 30
0.0
 11
131.8521410611
 21
133.606569314
 31
0.0
  0
LINE
  5
AA
330
1F
100
AcDbEntity
  8
0
  6
Continuous
 62
   179
370
     0
100
AcDbLine
 10
126.7580820611
 20
176.368090314
 30
0.0
 11
126.7580820611
 21
127.468090314
 31
0.0
  0
LINE
  5
AB
330
1F
100
AcDbEntity
  8
0
  6
Continuous
 62
   179
370
     0
100
AcDbLine
 10
137.8080820611
 20
113.068090314
 30
0.0
 11
137.8080820611
 21
190.668090314
 31
0.0
  0
LINE
  5
AC
330
1F
100
AcDbEntity
  8
0
  6
Continuous
 62
   179
370
     0
100
AcDbLine
 10
135.9080820611
 20
133.068090314
 30
0.0
 11
135.9080820611
 21
113.068090314
 31
0.0
  0
LINE
  5
AD
330
1F
100
AcDbEntity
  8
0
  6
Continuous
 62
   179
370
     0
100
AcDbLine
 10
116.3080820611
 20
190.668090314
 30
0.0
 11
116.3080820611
 21
113.068090314
 31
0.0
  0
LINE
  5
AE
330
1F
100
AcDbEntity
  8
0
  6
Continuous
 62
   179
370
     0
100
AcDbLine
 10
182.0697031169
 20
126.768090314
 30
0.0
 11
182.0697031169
 21
113.3704169031
 31
0.0
  0
LINE
  5
AF
330
1F
100
AcDbEntity
  8
0
  6
Continuous
 62
   179
370
     0
100
AcDbLine
 10
116.5080820611
 20
153.568090314
 30
0.0
 11
116.5080820611
 21
177.468090314
 31
0.0
  0
LINE
  5
B0
330
1F
100
AcDbEntity
  8
0
  6
Continuous
 62
   179
370
     0
100
AcDbLine
 10
125.3080820611
 20
161.068090314
 30
0.0
 11
125.3080820611
 21
176.468090314
 31
0.0
  0
LINE
  5
B1
330
1F
100
AcDbEntity
  8
0
  6
Continuous
 62
   179
370
     0
100
AcDbLine
 10
117.5080820611
 20
161.068090314
 30
0.0
 11
117.5080820611
 21
177.468090314
 31
0.0
  0
LINE
  5
B2
330
1F
100
AcDbEntity
  8
0
  6
Continuous
 62
   179
370
     0
100
AcDbLine
 10
133.7080820611
 20
174.968090314
 30
0.0
 11
133.7080820611
 21
171.168090314
 31
0.0
  0
LINE
  5
B3
330
1F
100
AcDbEntity
  8
0
  6
Continuous
 62
   179
370
     0
100
AcDbLine
 10
136.2080820611
 20
174.968090314
 30
0.0
 11
136.2080820611
 21
170.668091314
 31
0.0
  0
LINE
  5
B4
330
1F
100
AcDbEntity
  8
0
  6
Continuous
 62
   179
370
     0
100
AcDbLine
 10
131.9080820611
 20
174.968090314
 30
0.0
 11
131.9080820611
 21
170.668091314
 31
0.0
  0
LINE
  5
B5
330
1F
100
AcDbEntity
  8
0
  6
Continuous
 62
   179
370
     0
100
AcDbLine
 10
131.8521410611
 20
170.230436314
 30
0.0
 11
131.8521410611
 21
176.368090314
 31
0.0
  0
LINE
  5
B6
330
1F
100
AcDbEntity
  8
0
  6
Continuous
 62
   179
370
     0
100
AcDbLine
 10
208.0697031169
 20
113.068090314
 30
0.0
 11
182.0697031169
 21
113.3704169031
 31
0.0
  0
LINE
  5
B7
330
1F
100
AcDbEntity
  8
0
  6
Continuous
 62
   179
370
     0
100
AcDbLine
 10
135.9080820611
 20
170.468090314
 30
0.0
 11
135.9080820611
 21
190.668090314
 31
0.0
  0
LINE
  5
B8
330
1F
100
AcDbEntity
  8
0
  6
Continuous
 62
   179
370
     0
100
AcDbLine
 10
137.6080825611
 20
177.468090814
 30
0.0
 11
126.3080825611
 21
177.468090814
 31
0.0
  0
LINE
  5
B9
330
1F
100
AcDbEntity
  8
0
  6
Continuous
 62
   179
370
     0
100
AcDbLine
 10
135.3080820611
 20
190.568090314
 30
0.0
 11
124.9080820611
 21
190.568090314
 31
0.0
  0
LINE
  5
BA
330
1F
100
AcDbEntity
  8
0
  6
Continuous
 62
   179
370
     0
100
AcDbLine
 10
137.4080820611
 20
190.668090314
 30
0.0
 11
116.7080820611
 21
190.668090314
 31
0.0
  0
LINE
  5
BB
330
1F
100
AcDbEntity
  8
0
  6
Continuous
 62
   179
370
     0
100
AcDbLine
 10
131.8521410611
 20
176.368090314
 30
0.0
 11
126.7580820611
 21
176.368090314
 31
0.0
  0
LINE
  5
BC
330
1F
100
AcDbEntity
  8
0
  6
Continuous
 62
   179
370
     0
100
AcDbLine
 10
137.8080820611
 20
190.668090314
 30
0.0
 11
116.3080820611
 21
190.668090314
 31
0.0
  0
LINE
  5
BD
330
1F
100
AcDbEntity
  8
0
  6
Continuous
 62
   179
370
     0
100
AcDbLine
 10
133.6580820611
 20
189.718090314
 30
0.0
 11
126.6580820611
 21
189.718090314
 31
0.0
  0
LINE
  5
BE
330
1F
100
AcDbEntity
  8
0
  6
Continuous
 62
   179
370
     0
100
AcDbLine
 10
126.6580820611
 20
179.718090314
 30
0.0
 11
133.6580820611
 21
179.718090314
 31
0.0
  0
LINE
  5
BF
330
1F
100
AcDbEntity
  8
0
  6
Continuous
 62
   179
370
     0
100
AcDbLine
 10
129.6580820611
 20
184.118090314
 30
0.0
 11
126.9655820611
 21
184.118090314
 31
0.0
  0
LINE
  5
C0
330
1F
100
AcDbEntity
  8
0
  6
Continuous
 62
   179
370
     0
100
AcDbLine
 10
129.6580820611
 20
185.318090314
 30
0.0
 11
126.9655820611
 21
185.318090314
 31
0.0
  0
LINE
  5
C1
330
1F
100
AcDbEntity
  8
0
  6
Continuous
 62
   179
370
     0
100
AcDbLine
 10
126.6080820611
 20
190.668090314
 30
0.0
 11
126.6080820611
 21
199.868090314
 31
0.0
  0
LINE
  5
C2
330
1F
100
AcDbEntity
  8
0
  6
Continuous
 62
   179
370
     0
100
AcDbLine
 10
123.8080820611
 20
190.668090314
 30
0.0
 11
123.8080820611
 21
176.468090314
 31
0.0
  0
LINE
  5
C3
330
1F
100
AcDbEntity
  8
0
  6
Continuous
 62
   179
370
     0
100
AcDbLine
 10
124.9080820611
 20
190.568090314
 30
0.0
 11
124.9080820611
 21
178.268090314
 31
0.0
  0
LINE
  5
C4
330
1F
100
AcDbEntity
  8
0
  6
Continuous
 62
   179
370
     0
100
AcDbLine
 10
117.7080820611
 20
190.668090314
 30
0.0
 11
117.7080820611
 21
177.468090314
 31
0.0
  0
LINE
  5
C5
330
1F
100
AcDbEntity
  8
0
  6
Continuous
 62
   179
370
     0
100
AcDbLine
 10
117.5080820611
 20
177.468090314
 30
0.0
 11
117.5080820611
 21
190.668090314
 31
0.0
  0
LINE
  5
C6
330
1F
100
AcDbEntity
  8
0
  6
Continuous
 62
   179
370
     0
100
AcDbLine
 10
116.5080820611
 20
177.468090314
 30
0.0
 11
116.5080820611
 21
190.568090314
 31
0.0
  0
LINE
  5
C7
330
1F
100
AcDbEntity
  8
0
  6
Continuous
 62
   179
370
     0
100
AcDbLine
 10
124.8080825611
 20
177.468090814
 30
0.0
 11
124.8080825611
 21
190.668090814
 31
0.0
  0
LINE
  5
C8
330
1F
100
AcDbEntity
  8
0
  6
Continuous
 62
   179
370
     0
100
AcDbLine
 10
126.1580820611
 20
189.218090314
 30
0.0
 11
126.1580820611
 21
180.218090314
 31
0.0
  0
LINE
  5
C9
330
1F
100
AcDbEntity
  8
0
  6
Continuous
 62
   179
370
     0
100
AcDbLine
 10
127.1580820611
 20
183.468090314
 30
0.0
 11
127.1580820611
 21
179.718090314
 31
0.0
  0
LINE
  5
CA
330
1F
100
AcDbEntity
  8
0
  6
Continuous
 62
   179
370
     0
100
AcDbLine
 10
127.1580820611
 20
185.968090314
 30
0.0
 11
127.1580820611
 21
189.718090314
 31
0.0
  0
LINE
  5
CB
330
1F
100
AcDbEntity
  8
0
  6
Continuous
 62
   179
370
     0
100
AcDbLine
 10
127.1580820611
 20
185.968090314
 30
0.0
 11
126.1580820611
 21
185.968090314
 31
0.0
  0
LINE
  5
CC
330
1F
100
AcDbEntity
  8
0
  6
Continuous
 62
   179
370
     0
100
AcDbLine
 10
127.1580820611
 20
183.468090314
 30
0.0
 11
126.1580820611
 21
183.468090314
 31
0.0
  0
LINE
  5
CD
330
1F
100
AcDbEntity
  8
0
  6
Continuous
 62
   179
370
     0
100
AcDbLine
 10
126.3080825611
 20
178.268090814
 30
0.0
 11
124.8080825611
 21
178.268090814
 31
0.0
  0
LINE
  5
CE
330
1F
100
AcDbEntity
  8
0
  6
Continuous
 62
   179
370
     0
100
AcDbLine
 10
126.3080825611
 20
177.468090814
 30
0.0
 11
126.3080825611
 21
178.268090814
 31
0.0
  0
LINE
  5
CF
330
1F
100
AcDbEntity
  8
0
  6
Continuous
 62
   179
370
     0
100
AcDbLine
 10
117.7080820611
 20
177.468090314
 30
0.0
 11
117.5080820611
 21
177.468090314
 31
0.0
  0
LINE
  5
D0
330
1F
100
AcDbEntity
  8
0
  6
Continuous
 62
   179
370
     0
100
AcDbLine
 10
124.8080825611
 20
177.468090814
 30
0.0
 11
126.3080825611
 21
177.468090814
 31
0.0
  0
LINE
  5
D1
330
1F
100
AcDbEntity
  8
0
  6
Continuous
 62
   179
370
     0
100
AcDbLine
 10
125.3080820611
 20
176.468090314
 30
0.0
 11
123.8080820611
 21
176.468090314
 31
0.0
  0
LINE
  5
D2
330
1F
100
AcDbEntity
  8
0
  6
Continuous
 62
   179
370
     0
100
AcDbLine
 10
116.5080820611
 20
171.868090314
 30
0.0
 11
117.5080820611
 21
171.868090314
 31
0.0
  0
LINE
  5
D3
330
1F
100
AcDbEntity
  8
0
  6
Continuous
 62
   179
370
     0
100
AcDbLine
 10
116.5080820611
 20
177.468090314
 30
0.0
 11
117.5080820611
 21
177.468090314
 31
0.0
  0
LINE
  5
D4
330
1F
100
AcDbEntity
  8
0
  6
Continuous
 62
   179
370
     0
100
AcDbLine
 10
134.5080820611
 20
190.668090314
 30
0.0
 11
134.5080820611
 21
191.868090314
 31
0.0
  0
LINE
  5
D5
330
1F
100
AcDbEntity
  8
0
  6
Continuous
 62
   179
370
     0
100
AcDbLine
 10
135.8080820611
 20
201.868090314
 30
0.0
 11
128.6080820611
 21
201.868090314
 31
0.0
  0
LINE
  5
D6
330
1F
100
AcDbEntity
  8
0
  6
CENTERX2
 62
   179
370
     0
100
AcDbLine
 10
135.3080820611
 20
196.868090314
 30
0.0
 11
129.6080820611
 21
196.868090314
 31
0.0
  0
LINE
  5
D7
330
1F
100
AcDbEntity
  8
0
  6
CENTERX2
 62
   179
370
     0
100
AcDbLine
 10
132.5080820611
 20
199.868090314
 30
0.0
 11
132.5080820611
 21
193.868090314
 31
0.0
  0
LINE
  5
D8
330
1F
100
AcDbEntity
  8
0
  6
Continuous
 62
   179
370
     0
100
AcDbLine
 10
137.8080820611
 20
193.868090314
 30
0.0
 11
137.8080820611
 21
199.868090314
 31
0.0
  0
LINE
  5
D9
330
1F
100
AcDbEntity
  8
0
  6
Continuous
 62
   179
370
     0
100
AcDbLine
 10
135.8080820611
 20
191.868090314
 30
0.0
 11
134.5080820611
 21
191.868090314
 31
0.0
  0
LINE
  5
DA
330
1F
100
AcDbEntity
  8
0
  6
Continuous
 62
   179
370
     0
100
AcDbLine
 10
135.3080820611
 20
190.568090314
 30
0.0
 11
135.3080820611
 21
177.468090314
 31
0.0
  0
LINE
  5
DB
330
1F
100
AcDbEntity
  8
0
  6
Continuous
 62
   179
370
     0
100
AcDbLine
 10
135.9080820611
 20
190.468091314
 30
0.0
 11
135.9080820611
 21
177.468090314
 31
0.0
  0
LINE
  5
DC
330
1F
100
AcDbEntity
  8
0
  6
Continuous
 62
   179
370
     0
100
AcDbLine
 10
137.6080825611
 20
190.168090814
 30
0.0
 11
137.6080825611
 21
177.468090814
 31
0.0
  0
LINE
  5
DD
330
1F
100
AcDbEntity
  8
0
  6
Continuous
 62
   179
370
     0
100
AcDbLine
 10
128.4080820611
 20
181.968090314
 30
0.0
 11
128.4080820611
 21
179.718090314
 31
0.0
  0
LINE
  5
DE
330
1F
100
AcDbEntity
  8
0
  6
Continuous
 62
   179
370
     0
100
AcDbLine
 10
131.9080820611
 20
181.968090314
 30
0.0
 11
131.9080820611
 21
179.718090314
 31
0.0
  0
LINE
  5
DF
330
1F
100
AcDbEntity
  8
0
  6
Continuous
 62
   179
370
     0
100
AcDbLine
 10
133.1580820611
 20
183.468090314
 30
0.0
 11
133.1580820611
 21
179.718090314
 31
0.0
  0
LINE
  5
E0
330
1F
100
AcDbEntity
  8
0
  6
Continuous
 62
   179
370
     0
100
AcDbLine
 10
134.1580820611
 20
189.218090314
 30
0.0
 11
134.1580820611
 21
180.218090314
 31
0.0
  0
LINE
  5
E1
330
1F
100
AcDbEntity
  8
0
  6
Continuous
 62
   179
370
     0
100
AcDbLine
 10
135.3080820611
 20
190.568090314
 30
0.0
 11
135.9080820611
 21
190.468091314
 31
0.0
  0
LINE
  5
E2
330
1F
100
AcDbEntity
  8
0
  6
Continuous
 62
   179
370
     0
100
AcDbLine
 10
137.3080820611
 20
190.468091314
 30
0.0
 11
135.9080820611
 21
190.468091314
 31
0.0
  0
LINE
  5
E3
330
1F
100
AcDbEntity
  8
0
  6
Continuous
 62
   179
370
     0
100
AcDbLine
 10
133.1580820611
 20
185.968090314
 30
0.0
 11
133.1580820611
 21
189.718090314
 31
0.0
  0
LINE
  5
E4
330
1F
100
AcDbEntity
  8
0
  6
Continuous
 62
   179
370
     0
100
AcDbLine
 10
131.9080820611
 20
187.468090314
 30
0.0
 11
131.9080820611
 21
189.718090314
 31
0.0
  0
LINE
  5
E5
330
1F
100
AcDbEntity
  8
0
  6
Continuous
 62
   179
370
     0
100
AcDbLine
 10
128.4080820611
 20
187.468090314
 30
0.0
 11
128.4080820611
 21
189.718090314
 31
0.0
  0
LINE
  5
E6
330
1F
100
AcDbEntity
  8
0
  6
Continuous
 62
   179
370
     0
100
AcDbLine
 10
133.1580820611
 20
183.468090314
 30
0.0
 11
134.1580820611
 21
183.468090314
 31
0.0
  0
LINE
  5
E7
330
1F
100
AcDbEntity
  8
0
  6
Continuous
 62
   179
370
     0
100
AcDbLine
 10
133.1580820611
 20
185.968090314
 30
0.0
 11
134.1580820611
 21
185.968090314
 31
0.0
  0
LINE
  5
E8
330
1F
100
AcDbEntity
  8
0
  6
Continuous
 62
   179
370
     0
100
AcDbLine
 10
130.6580820611
 20
185.318090314
 30
0.0
 11
133.3505830611
 21
185.318090314
 31
0.0
  0
LINE
  5
E9
330
1F
100
AcDbEntity
  8
0
  6
CENTERX2
 62
   179
370
     0
100
AcDbLine
 10
131.7580820611
 20
184.718090314
 30
0.0
 11
128.5580820611
 21
184.718090314
 31
0.0
  0
LINE
  5
EA
330
1F
100
AcDbEntity
  8
0
  6
Continuous
 62
   179
370
     0
100
AcDbLine
 10
130.6580820611
 20
184.118090314
 30
0.0
 11
133.3505820611
 21
184.118090314
 31
0.0
  0
LINE
  5
EB
330
1F
100
AcDbEntity
  8
0
  6
Continuous
 62
   179
370
     0
100
AcDbLine
 10
130.6580820611
 20
182.718090314
 30
0.0
 11
130.6580820611
 21
184.118090314
 31
0.0
  0
LINE
  5
EC
330
1F
100
AcDbEntity
  8
0
  6
Continuous
 62
   179
370
     0
100
AcDbLine
 10
129.6580820611
 20
182.718090314
 30
0.0
 11
130.6580820611
 21
182.718090314
 31
0.0
  0
LINE
  5
ED
330
1F
100
AcDbEntity
  8
0
  6
Continuous
 62
   179
370
     0
100
AcDbLine
 10
129.6580820611
 20
184.118090314
 30
0.0
 11
129.6580820611
 21
182.718090314
 31
0.0
  0
LINE
  5
EE
330
1F
100
AcDbEntity
  8
0
  6
CENTERX2
 62
   179
370
     0
100
AcDbLine
 10
130.1580820611
 20
186.318090314
 30
0.0
 11
130.1580820611
 21
183.118090314
 31
0.0
  0
LINE
  5
EF
330
1F
100
AcDbEntity
  8
0
  6
Continuous
 62
   179
370
     0
100
AcDbLine
 10
130.6580820611
 20
186.718090314
 30
0.0
 11
130.6580820611
 21
185.318090314
 31
0.0
  0
LINE
  5
F0
330
1F
100
AcDbEntity
  8
0
  6
Continuous
 62
   179
370
     0
100
AcDbLine
 10
129.6580820611
 20
185.318090314
 30
0.0
 11
129.6580820611
 21
186.718090314
 31
0.0
  0
LINE
  5
F1
330
1F
100
AcDbEntity
  8
0
  6
Continuous
 62
   179
370
     0
100
AcDbLine
 10
129.6580820611
 20
186.718090314
 30
0.0
 11
130.6580820611
 21
186.718090314
 31
0.0
  0
LINE
  5
F2
330
1F
100
AcDbEntity
  8
0
  6
Continuous
 62
   179
370
     0
100
AcDbLine
 10
130.8080820611
 20
177.468090314
 30
0.0
 11
129.4080820611
 21
177.468090314
 31
0.0
  0
LINE
  5
F3
330
1F
100
AcDbEntity
  8
0
  6
Continuous
 62
   179
370
     0
100
AcDbLine
 10
131.3080820611
 20
178.268090314
 30
0.0
 11
131.3080820611
 21
177.468090314
 31
0.0
  0
LINE
  5
F4
330
1F
100
AcDbEntity
  8
0
  6
Continuous
 62
   179
370
     0
100
AcDbLine
 10
135.3080820611
 20
178.268090314
 30
0.0
 11
131.3080820611
 21
178.268090314
 31
0.0
  0
LINE
  5
F5
330
1F
100
AcDbEntity
  8
0
  6
Continuous
 62
   179
370
     0
100
AcDbLine
 10
136.2080820611
 20
174.968090314
 30
0.0
 11
131.9080820611
 21
174.968090314
 31
0.0
  0
LINE
  5
F6
330
1F
100
AcDbEntity
  8
0
  6
Continuous
 62
   179
370
     0
100
AcDbLine
 10
136.4080820611
 20
177.468090314
 30
0.0
 11
136.4080820611
 21
177.068090314
 31
0.0
  0
LINE
  5
F7
330
1F
100
AcDbEntity
  8
0
  6
Continuous
 62
   179
370
     0
100
AcDbLine
 10
117.8080820611
 20
159.868090314
 30
0.0
 11
117.8080820611
 21
143.768091314
 31
0.0
  0
LINE
  5
F8
330
1F
100
AcDbEntity
  8
0
  6
Continuous
 62
   179
370
     0
100
AcDbLine
 10
118.8080820611
 20
150.768091314
 30
0.0
 11
118.8080820611
 21
152.768090314
 31
0.0
  0
LINE
  5
F9
330
1F
100
AcDbEntity
  8
0
  6
Continuous
 62
   179
370
     0
100
AcDbLine
 10
182.0697031169
 20
113.368091314
 30
0.0
 11
181.0697031169
 21
113.368091314
 31
0.0
  0
LINE
  5
FA
330
1F
100
AcDbEntity
  8
0
  6
Continuous
 62
   179
370
     0
100
AcDbLine
 10
192.2773039621
 20
173.6590936891
 30
0.0
 11
190.7773039621
 21
173.6590936891
 31
0.0
  0
LINE
  5
FB
330
1F
100
AcDbEntity
  8
0
  6
Continuous
 62
   179
370
     0
100
AcDbLine
 10
118.8080820611
 20
160.268091314
 30
0.0
 11
118.8080820611
 21
143.268091314
 31
0.0
  0
LINE
  5
FC
330
1F
100
AcDbEntity
  8
0
  6
Continuous
 62
   179
370
     0
100
AcDbLine
 10
117.8080820611
 20
143.268091314
 30
0.0
 11
117.8080820611
 21
160.268091314
 31
0.0
  0
LINE
  5
FD
330
1F
100
AcDbEntity
  8
0
  6
Continuous
 62
   179
370
     0
100
AcDbLine
 10
117.9080820611
 20
161.368090314
 30
0.0
 11
117.9080820611
 21
168.668090314
 31
0.0
  0
LINE
  5
FE
330
1F
100
AcDbEntity
  8
0
  6
Continuous
 62
   179
370
     0
100
AcDbLine
 10
124.9080820611
 20
168.668090314
 30
0.0
 11
124.9080820611
 21
161.368090314
 31
0.0
  0
LINE
  5
FF
330
1F
100
AcDbEntity
  8
0
  6
Continuous
 62
   179
370
     0
100
AcDbLine
 10
117.5080820611
 20
168.868090314
 30
0.0
 11
125.3080820611
 21
168.868090314
 31
0.0
  0
LINE
  5
100
330
1F
100
AcDbEntity
  8
0
  6
Continuous
 62
   179
370
     0
100
AcDbLine
 10
117.9080820611
 20
168.668090314
 30
0.0
 11
124.9080820611
 21
168.668090314
 31
0.0
  0
LINE
  5
101
330
1F
100
AcDbEntity
  8
0
  6
Continuous
 62
   179
370
     0
100
AcDbLine
 10
124.9080820611
 20
167.368090314
 30
0.0
 11
124.9080820611
 21
162.668090314
 31
0.0
  0
LINE
  5
102
330
1F
100
AcDbEntity
  8
0
  6
Continuous
 62
   179
370
     0
100
AcDbLine
 10
117.8580820611
 20
168.368090314
 30
0.0
 11
117.8580820611
 21
161.868090314
 31
0.0
  0
LINE
  5
103
330
1F
100
AcDbEntity
  8
0
  6
Continuous
 62
   179
370
     0
100
AcDbLine
 10
118.1032760611
 20
168.618090314
 30
0.0
 11
124.6080820611
 21
168.618090314
 31
0.0
  0
LINE
  5
104
330
1F
100
AcDbEntity
  8
0
  6
Continuous
 62
   179
370
     0
100
AcDbLine
 10
124.8580820611
 20
161.868090314
 30
0.0
 11
124.8580820611
 21
168.368090314
 31
0.0
  0
LINE
  5
105
330
1F
100
AcDbEntity
  8
0
  6
Continuous
 62
   179
370
     0
100
AcDbLine
 10
121.8580820611
 20
163.618090314
 30
0.0
 11
121.8580820611
 21
164.618090314
 31
0.0
  0
LINE
  5
106
330
1F
100
AcDbEntity
  8
0
  6
Continuous
 62
   179
370
     0
100
AcDbLine
 10
123.8080820611
 20
164.618090314
 30
0.0
 11
121.8580820611
 21
164.618090314
 31
0.0
  0
LINE
  5
107
330
1F
100
AcDbEntity
  8
0
  6
Continuous
 62
   179
370
     0
100
AcDbLine
 10
123.8080820611
 20
165.618090314
 30
0.0
 11
121.8580820611
 21
165.618090314
 31
0.0
  0
LINE
  5
108
330
1F
100
AcDbEntity
  8
0
  6
Continuous
 62
   179
370
     0
100
AcDbLine
 10
121.8580820611
 20
165.618090314
 30
0.0
 11
121.8580820611
 21
166.618090314
 31
0.0
  0
LINE
  5
109
330
1F
100
AcDbEntity
  8
0
  6
Continuous
 62
   179
370
     0
100
AcDbLine
 10
121.8580820611
 20
166.618090314
 30
0.0
 11
120.8580820611
 21
166.618090314
 31
0.0
  0
LINE
  5
10A
330
1F
100
AcDbEntity
  8
0
  6
Continuous
 62
   179
370
     0
100
AcDbLine
 10
120.8580820611
 20
166.618090314
 30
0.0
 11
120.8580820611
 21
165.618090314
 31
0.0
  0
LINE
  5
10B
330
1F
100
AcDbEntity
  8
0
  6
Continuous
 62
   179
370
     0
100
AcDbLine
 10
120.8580820611
 20
165.618090314
 30
0.0
 11
118.9080820611
 21
165.618090314
 31
0.0
  0
LINE
  5
10C
330
1F
100
AcDbEntity
  8
0
  6
Continuous
 62
   179
370
     0
100
AcDbLine
 10
120.8580820611
 20
164.618090314
 30
0.0
 11
118.9080820611
 21
164.618090314
 31
0.0
  0
LINE
  5
10D
330
1F
100
AcDbEntity
  8
0
  6
Continuous
 62
   179
370
     0
100
AcDbLine
 10
120.8580820611
 20
164.618090314
 30
0.0
 11
120.8580820611
 21
163.618090314
 31
0.0
  0
LINE
  5
10E
330
1F
100
AcDbEntity
  8
0
  6
Continuous
 62
   179
370
     0
100
AcDbLine
 10
121.8580820611
 20
163.618090314
 30
0.0
 11
120.8580820611
 21
163.618090314
 31
0.0
  0
LINE
  5
10F
330
1F
100
AcDbEntity
  8
0
  6
Continuous
 62
   179
370
     0
100
AcDbLine
 10
121.3580820611
 20
164.618090314
 30
0.0
 11
121.3580820611
 21
165.618090314
 31
0.0
  0
LINE
  5
110
330
1F
100
AcDbEntity
  8
0
  6
Continuous
 62
   179
370
     0
100
AcDbLine
 10
121.8580820611
 20
165.118090314
 30
0.0
 11
120.8580820611
 21
165.118090314
 31
0.0
  0
LINE
  5
111
330
1F
100
AcDbEntity
  8
0
  6
Continuous
 62
   179
370
     0
100
AcDbLine
 10
190.7773039621
 20
173.4590936891
 30
0.0
 11
192.2773039621
 21
173.4590936891
 31
0.0
  0
LINE
  5
112
330
1F
100
AcDbEntity
  8
0
  6
Continuous
 62
   179
370
     0
100
AcDbLine
 10
116.5080820611
 20
153.568090314
 30
0.0
 11
117.8080820611
 21
153.568090314
 31
0.0
  0
LINE
  5
113
330
1F
100
AcDbEntity
  8
0
  6
Continuous
 62
   179
370
     0
100
AcDbLine
 10
125.3080820611
 20
161.068090314
 30
0.0
 11
117.5080820611
 21
161.068090314
 31
0.0
  0
LINE
  5
114
330
1F
100
AcDbEntity
  8
0
  6
Continuous
 62
   179
370
     0
100
AcDbLine
 10
117.8080820611
 20
159.868090314
 30
0.0
 11
118.3080820611
 21
159.868090314
 31
0.0
  0
LINE
  5
115
330
1F
100
AcDbEntity
  8
0
  6
Continuous
 62
   179
370
     0
100
AcDbLine
 10
118.3080820611
 20
159.868090314
 30
0.0
 11
118.3080820611
 21
152.768090314
 31
0.0
  0
LINE
  5
116
330
1F
100
AcDbEntity
  8
0
  6
Continuous
 62
   179
370
     0
100
AcDbLine
 10
118.8080820611
 20
152.768090314
 30
0.0
 11
117.8080820611
 21
152.768090314
 31
0.0
  0
LINE
  5
117
330
1F
100
AcDbEntity
  8
0
  6
Continuous
 62
   179
370
     0
100
AcDbLine
 10
117.7080820611
 20
159.868090314
 30
0.0
 11
117.8080820611
 21
159.868090314
 31
0.0
  0
LINE
  5
118
330
1F
100
AcDbEntity
  8
0
  6
Continuous
 62
   179
370
     0
100
AcDbLine
 10
116.5080820611
 20
159.868090314
 30
0.0
 11
117.7080820611
 21
159.868090314
 31
0.0
  0
LINE
  5
119
330
1F
100
AcDbEntity
  8
0
  6
Continuous
 62
   179
370
     0
100
AcDbLine
 10
190.7773039621
 20
173.4590936891
 30
0.0
 11
192.2773039621
 21
173.4590936891
 31
0.0
  0
LINE
  5
11A
330
1F
100
AcDbEntity
  8
0
  6
Continuous
 62
   179
370
     0
100
AcDbLine
 10
117.8080820611
 20
160.268091314
 30
0.0
 11
118.8080820611
 21
160.268091314
 31
0.0
  0
LINE
  5
11B
330
1F
100
AcDbEntity
  8
0
  6
Continuous
 62
   179
370
     0
100
AcDbLine
 10
124.9080820611
 20
161.368090314
 30
0.0
 11
117.9080820611
 21
161.368090314
 31
0.0
  0
LINE
  5
11C
330
1F
100
AcDbEntity
  8
0
  6
Continuous
 62
   179
370
     0
100
AcDbLine
 10
124.6080820611
 20
161.618090314
 30
0.0
 11
118.1080820611
 21
161.618090314
 31
0.0
  0
LINE
  5
11D
330
1F
100
AcDbEntity
  8
0
  6
Continuous
 62
   179
370
     0
100
AcDbLine
 10
117.8080820611
 20
143.768091314
 30
0.0
 11
116.5080820611
 21
143.768091314
 31
0.0
  0
LINE
  5
11E
330
1F
100
AcDbEntity
  8
0
  6
Continuous
 62
   179
370
     0
100
AcDbLine
 10
116.5080820611
 20
149.968090314
 30
0.0
 11
117.8080820611
 21
149.968090314
 31
0.0
  0
LINE
  5
11F
330
1F
100
AcDbEntity
  8
0
  6
Continuous
 62
   179
370
     0
100
AcDbLine
 10
125.3080820611
 20
142.468090314
 30
0.0
 11
117.6080820611
 21
142.468090314
 31
0.0
  0
LINE
  5
120
330
1F
100
AcDbEntity
  8
0
  6
Continuous
 62
   179
370
     0
100
AcDbLine
 10
118.3080820611
 20
150.768091314
 30
0.0
 11
118.3080820611
 21
143.768091314
 31
0.0
  0
LINE
  5
121
330
1F
100
AcDbEntity
  8
0
  6
Continuous
 62
   179
370
     0
100
AcDbLine
 10
118.3080820611
 20
143.768091314
 30
0.0
 11
117.8080820611
 21
143.768091314
 31
0.0
  0
LINE
  5
122
330
1F
100
AcDbEntity
  8
0
  6
Continuous
 62
   179
370
     0
100
AcDbLine
 10
117.8080820611
 20
150.768091314
 30
0.0
 11
118.8080820611
 21
150.768091314
 31
0.0
  0
LINE
  5
123
330
1F
100
AcDbEntity
  8
0
  6
Continuous
 62
   179
370
     0
100
AcDbLine
 10
118.8080820611
 20
143.268091314
 30
0.0
 11
117.8080820611
 21
143.268091314
 31
0.0
  0
LINE
  5
124
330
1F
100
AcDbEntity
  8
0
  6
Continuous
 62
   179
370
     0
100
AcDbLine
 10
117.6080820611
 20
134.568090314
 30
0.0
 11
125.3080820611
 21
134.568090314
 31
0.0
  0
LINE
  5
125
330
1F
100
AcDbEntity
  8
0
  6
Continuous
 62
   179
370
     0
100
AcDbLine
 10
117.9080820611
 20
142.168090314
 30
0.0
 11
124.9080820611
 21
142.168090314
 31
0.0
  0
LINE
  5
126
330
1F
100
AcDbEntity
  8
0
  6
Continuous
 62
   179
370
     0
100
AcDbLine
 10
117.9080820611
 20
134.868090314
 30
0.0
 11
117.9080820611
 21
142.168090314
 31
0.0
  0
LINE
  5
127
330
1F
100
AcDbEntity
  8
0
  6
Continuous
 62
   179
370
     0
100
AcDbLine
 10
124.9080820611
 20
134.868090314
 30
0.0
 11
117.9080820611
 21
134.868090314
 31
0.0
  0
LINE
  5
128
330
1F
100
AcDbEntity
  8
0
  6
Continuous
 62
   179
370
     0
100
AcDbLine
 10
124.9080820611
 20
142.168090314
 30
0.0
 11
124.9080820611
 21
134.868090314
 31
0.0
  0
LINE
  5
129
330
1F
100
AcDbEntity
  8
0
  6
Continuous
 62
   179
370
     0
100
AcDbLine
 10
124.9080820611
 20
140.868090314
 30
0.0
 11
124.9080820611
 21
136.168090314
 31
0.0
  0
LINE
  5
12A
330
1F
100
AcDbEntity
  8
0
  6
Continuous
 62
   179
370
     0
100
AcDbLine
 10
124.8580820611
 20
135.368090314
 30
0.0
 11
124.8580820611
 21
141.868090314
 31
0.0
  0
LINE
  5
12B
330
1F
100
AcDbEntity
  8
0
  6
Continuous
 62
   179
370
     0
100
AcDbLine
 10
118.1032760611
 20
142.118090314
 30
0.0
 11
124.6080820611
 21
142.118090314
 31
0.0
  0
LINE
  5
12C
330
1F
100
AcDbEntity
  8
0
  6
Continuous
 62
   179
370
     0
100
AcDbLine
 10
117.8580820611
 20
141.868090314
 30
0.0
 11
117.8580820611
 21
135.368090314
 31
0.0
  0
LINE
  5
12D
330
1F
100
AcDbEntity
  8
0
  6
Continuous
 62
   179
370
     0
100
AcDbLine
 10
124.6080820611
 20
135.118090314
 30
0.0
 11
118.1080820611
 21
135.118090314
 31
0.0
  0
LINE
  5
12E
330
1F
100
AcDbEntity
  8
0
  6
Continuous
 62
   179
370
     0
100
AcDbLine
 10
123.8080820611
 20
138.118090314
 30
0.0
 11
121.8580820611
 21
138.118090314
 31
0.0
  0
LINE
  5
12F
330
1F
100
AcDbEntity
  8
0
  6
Continuous
 62
   179
370
     0
100
AcDbLine
 10
123.8080820611
 20
139.118090314
 30
0.0
 11
121.8580820611
 21
139.118090314
 31
0.0
  0
LINE
  5
130
330
1F
100
AcDbEntity
  8
0
  6
Continuous
 62
   179
370
     0
100
AcDbLine
 10
121.8580820611
 20
139.118090314
 30
0.0
 11
121.8580820611
 21
140.118090314
 31
0.0
  0
LINE
  5
131
330
1F
100
AcDbEntity
  8
0
  6
Continuous
 62
   179
370
     0
100
AcDbLine
 10
120.8580820611
 20
140.118090314
 30
0.0
 11
120.8580820611
 21
139.118090314
 31
0.0
  0
LINE
  5
132
330
1F
100
AcDbEntity
  8
0
  6
Continuous
 62
   179
370
     0
100
AcDbLine
 10
121.8580820611
 20
140.118090314
 30
0.0
 11
120.8580820611
 21
140.118090314
 31
0.0
  0
LINE
  5
133
330
1F
100
AcDbEntity
  8
0
  6
Continuous
 62
   179
370
     0
100
AcDbLine
 10
121.3580820611
 20
138.118090314
 30
0.0
 11
121.3580820611
 21
139.118090314
 31
0.0
  0
LINE
  5
134
330
1F
100
AcDbEntity
  8
0
  6
Continuous
 62
   179
370
     0
100
AcDbLine
 10
121.8580820611
 20
138.618090314
 30
0.0
 11
120.8580820611
 21
138.618090314
 31
0.0
  0
LINE
  5
135
330
1F
100
AcDbEntity
  8
0
  6
Continuous
 62
   179
370
     0
100
AcDbLine
 10
120.8580820611
 20
139.118090314
 30
0.0
 11
118.9080820611
 21
139.118090314
 31
0.0
  0
LINE
  5
136
330
1F
100
AcDbEntity
  8
0
  6
Continuous
 62
   179
370
     0
100
AcDbLine
 10
120.8580820611
 20
138.118090314
 30
0.0
 11
118.9080820611
 21
138.118090314
 31
0.0
  0
LINE
  5
137
330
1F
100
AcDbEntity
  8
0
  6
Continuous
 62
   179
370
     0
100
AcDbLine
 10
120.8580820611
 20
138.118090314
 30
0.0
 11
120.8580820611
 21
137.118090314
 31
0.0
  0
LINE
  5
138
330
1F
100
AcDbEntity
  8
0
  6
Continuous
 62
   179
370
     0
100
AcDbLine
 10
121.8580820611
 20
137.118090314
 30
0.0
 11
120.8580820611
 21
137.118090314
 31
0.0
  0
LINE
  5
139
330
1F
100
AcDbEntity
  8
0
  6
Continuous
 62
   179
370
     0
100
AcDbLine
 10
121.8580820611
 20
137.118090314
 30
0.0
 11
121.8580820611
 21
138.118090314
 31
0.0
  0
LINE
  5
13A
330
1F
100
AcDbEntity
  8
0
  6
Continuous
 62
   179
370
     0
100
AcDbLine
 10
137.2580820611
 20
133.605595314
 30
0.0
 11
137.2580820611
 21
170.230435314
 31
0.0
  0
LINE
  5
13B
330
1F
100
AcDbEntity
  8
0
  6
Continuous
 62
   179
370
     0
100
AcDbLine
 10
136.2080820611
 20
171.168090314
 30
0.0
 11
131.9080820611
 21
171.168090314
 31
0.0
  0
LINE
  5
13C
330
1F
100
AcDbEntity
  8
0
  6
Continuous
 62
   179
370
     0
100
AcDbLine
 10
136.2080820611
 20
170.668091314
 30
0.0
 11
131.9080820611
 21
170.668091314
 31
0.0
  0
LINE
  5
13D
330
1F
100
AcDbEntity
  8
0
  6
Continuous
 62
   179
370
     0
100
AcDbLine
 10
137.2580820611
 20
170.230435314
 30
0.0
 11
131.8521410611
 21
170.230436314
 31
0.0
  0
LINE
  5
13E
330
1F
100
AcDbEntity
  8
0
  6
Continuous
 62
   179
370
     0
100
AcDbLine
 10
133.1080820611
 20
170.468090314
 30
0.0
 11
133.1080820611
 21
170.228090314
 31
0.0
  0
LINE
  5
13F
330
1F
100
AcDbEntity
  8
0
  6
Continuous
 62
   179
370
     0
100
AcDbLine
 10
135.9080820611
 20
170.468090314
 30
0.0
 11
133.1080820611
 21
170.468090314
 31
0.0
  0
LINE
  5
140
330
1F
100
AcDbEntity
  8
0
  6
Continuous
 62
   179
370
     0
100
AcDbLine
 10
136.2080820611
 20
132.868090314
 30
0.0
 11
131.9080820611
 21
132.868090314
 31
0.0
  0
LINE
  5
141
330
1F
100
AcDbEntity
  8
0
  6
Continuous
 62
   179
370
     0
100
AcDbLine
 10
131.8521410611
 20
133.605744314
 30
0.0
 11
137.2580820611
 21
133.605744314
 31
0.0
  0
LINE
  5
142
330
1F
100
AcDbEntity
  8
0
  6
Continuous
 62
   179
370
     0
100
AcDbLine
 10
133.1080820611
 20
133.068090314
 30
0.0
 11
133.1080820611
 21
133.608090314
 31
0.0
  0
LINE
  5
143
330
1F
100
AcDbEntity
  8
0
  6
Continuous
 62
   179
370
     0
100
AcDbLine
 10
135.9080820611
 20
133.068090314
 30
0.0
 11
133.1080820611
 21
133.068090314
 31
0.0
  0
LINE
  5
144
330
1F
100
AcDbEntity
  8
0
  6
Continuous
 62
   179
370
     0
100
AcDbLine
 10
182.0697031169
 20
56.009913566
 30
0.0
 11
181.0697031169
 21
56.009913566
 31
0.0
  0
LINE
  5
145
330
1F
100
AcDbEntity
  8
0
  6
Continuous
 62
   179
370
     0
100
AcDbLine
 10
220.4697031169
 20
55.709912566
 30
0.0
 11
221.9697031169
 21
55.709912566
 31
0.0
  0
LINE
  5
146
330
1F
100
AcDbEntity
  8
0
  6
Continuous
 62
   179
370
     0
100
AcDbLine
 10
233.7697036169
 20
69.109913066
 30
0.0
 11
240.2697036169
 21
68.909914066
 31
0.0
  0
LINE
  5
147
330
1F
100
AcDbEntity
  8
0
  6
Continuous
 62
   179
370
     0
100
AcDbLine
 10
233.7697026169
 20
63.709913066
 30
0.0
 11
240.2697026169
 21
63.809914066
 31
0.0
  0
LINE
  5
148
330
1F
100
AcDbEntity
  8
0
  6
Continuous
 62
   179
370
     0
100
AcDbLine
 10
250.4697026169
 20
55.709913066
 30
0.0
 11
250.2697026169
 21
64.009913066
 31
0.0
  0
LINE
  5
149
330
1F
100
AcDbEntity
  8
0
  6
Continuous
 62
   179
370
     0
100
AcDbLine
 10
240.4697026169
 20
55.709913066
 30
0.0
 11
240.2697026169
 21
63.809914066
 31
0.0
  0
LINE
  5
14A
330
1F
100
AcDbEntity
  8
0
  6
Continuous
 62
   179
370
     0
100
AcDbLine
 10
251.9697026169
 20
55.709913066
 30
0.0
 11
252.2697026169
 21
62.609913066
 31
0.0
  0
LINE
  5
14B
330
1F
100
AcDbEntity
  8
0
  6
Continuous
 62
   179
370
     0
100
AcDbLine
 10
241.9697026169
 20
55.709913066
 30
0.0
 11
242.2697026169
 21
62.409914066
 31
0.0
  0
LINE
  5
14C
330
1F
100
AcDbEntity
  8
0
  6
Continuous
 62
   179
370
     0
100
AcDbLine
 10
250.4697026169
 20
55.709913066
 30
0.0
 11
251.9697026169
 21
55.709913066
 31
0.0
  0
LINE
  5
14D
330
1F
100
AcDbEntity
  8
0
  6
Continuous
 62
   179
370
     0
100
AcDbLine
 10
240.4697026169
 20
55.709913066
 30
0.0
 11
241.9697026169
 21
55.709913066
 31
0.0
  0
LINE
  5
14E
330
1F
100
AcDbEntity
  8
0
  6
Continuous
 62
   179
370
     0
100
AcDbLine
 10
243.7697031169
 20
68.909913566
 30
0.0
 11
250.2697031169
 21
68.809913566
 31
0.0
  0
LINE
  5
14F
330
1F
100
AcDbEntity
  8
0
  6
Continuous
 62
   179
370
     0
100
AcDbLine
 10
243.7697026169
 20
63.909914066
 30
0.0
 11
250.2697026169
 21
64.009913066
 31
0.0
  0
LINE
  5
150
330
1F
100
AcDbEntity
  8
0
  6
Continuous
 62
   179
370
     0
100
AcDbLine
 10
231.9697031169
 20
55.709912566
 30
0.0
 11
232.2697031169
 21
62.209913566
 31
0.0
  0
LINE
  5
151
330
1F
100
AcDbEntity
  8
0
  6
Continuous
 62
   179
370
     0
100
AcDbLine
 10
222.2697031169
 20
62.109913566
 30
0.0
 11
221.9697031169
 21
55.709912566
 31
0.0
  0
LINE
  5
152
330
1F
100
AcDbEntity
  8
0
  6
Continuous
 62
   179
370
     0
100
AcDbLine
 10
223.7697031169
 20
63.609913566
 30
0.0
 11
230.2697031169
 21
63.709912566
 31
0.0
  0
LINE
  5
153
330
1F
100
AcDbEntity
  8
0
  6
Continuous
 62
   179
370
     0
100
AcDbLine
 10
230.4697031169
 20
55.709912566
 30
0.0
 11
230.2697031169
 21
63.709912566
 31
0.0
  0
LINE
  5
154
330
1F
100
AcDbEntity
  8
0
  6
Continuous
 62
   179
370
     0
100
AcDbLine
 10
230.4697031169
 20
55.709912566
 30
0.0
 11
231.9697031169
 21
55.709912566
 31
0.0
  0
LINE
  5
155
330
1F
100
AcDbEntity
  8
0
  6
Continuous
 62
   179
370
     0
100
AcDbLine
 10
223.7697031169
 20
69.209912566
 30
0.0
 11
230.2697031169
 21
69.109912566
 31
0.0
  0
LINE
  5
156
330
1F
100
AcDbEntity
  8
0
  6
Continuous
 62
   179
370
     0
100
AcDbLine
 10
187.7697031169
 20
55.909913566
 30
0.0
 11
208.2697031169
 21
55.709912566
 31
0.0
  0
LINE
  5
157
330
1F
100
AcDbEntity
  8
0
  6
Continuous
 62
   179
370
     0
100
AcDbLine
 10
208.2697031169
 20
55.709912566
 30
0.0
 11
208.2697031169
 21
56.709912566
 31
0.0
  0
LINE
  5
158
330
1F
100
AcDbEntity
  8
0
  6
Continuous
 62
   179
370
     0
100
AcDbLine
 10
208.0697031169
 20
56.909912566
 30
0.0
 11
208.2697031169
 21
56.709912566
 31
0.0
  0
LINE
  5
159
330
1F
100
AcDbEntity
  8
0
  6
Continuous
 62
   179
370
     0
100
AcDbLine
 10
206.4697031169
 20
56.909912566
 30
0.0
 11
208.0697031169
 21
56.909912566
 31
0.0
  0
LINE
  5
15A
330
1F
100
AcDbEntity
  8
0
  6
Continuous
 62
   179
370
     0
100
AcDbLine
 10
208.0697031169
 20
56.909912566
 30
0.0
 11
208.2697031169
 21
56.909912566
 31
0.0
  0
LINE
  5
15B
330
1F
100
AcDbEntity
  8
0
  6
Continuous
 62
   179
370
     0
100
AcDbLine
 10
212.2697031169
 20
61.909913566
 30
0.0
 11
212.2697031169
 21
55.709912566
 31
0.0
  0
LINE
  5
15C
330
1F
100
AcDbEntity
  8
0
  6
Continuous
 62
   179
370
     0
100
AcDbLine
 10
220.2697031169
 20
63.509913566
 30
0.0
 11
220.4697031169
 21
55.709912566
 31
0.0
  0
LINE
  5
15D
330
1F
100
AcDbEntity
  8
0
  6
Continuous
 62
   179
370
     0
100
AcDbLine
 10
220.2697031169
 20
63.509913566
 30
0.0
 11
213.7697031169
 21
63.409913566
 31
0.0
  0
LINE
  5
15E
330
1F
100
AcDbEntity
  8
0
  6
Continuous
 62
   179
370
     0
100
AcDbLine
 10
208.2697031169
 20
55.709912566
 30
0.0
 11
212.2697031169
 21
55.709912566
 31
0.0
  0
LINE
  5
15F
330
1F
100
AcDbEntity
  8
0
  6
Continuous
 62
   179
370
     0
100
AcDbLine
 10
220.2697031169
 20
69.309913566
 30
0.0
 11
213.7697031169
 21
69.409913566
 31
0.0
  0
LINE
  5
160
330
1F
100
AcDbEntity
  8
0
  6
Continuous
 62
   179
370
     0
100
AcDbLine
 10
182.0697031169
 20
64.209912566
 30
0.0
 11
182.0697031169
 21
63.509913566
 31
0.0
  0
LINE
  5
161
330
1F
100
AcDbEntity
  8
0
  6
Continuous
 62
   179
370
     0
100
AcDbLine
 10
182.0697031169
 20
65.609912566
 30
0.0
 11
182.0697031169
 21
56.209913566
 31
0.0
  0
LINE
  5
162
330
1F
100
AcDbEntity
  8
0
  6
Continuous
 62
   179
370
     0
100
AcDbLine
 10
193.1697031169
 20
64.409913566
 30
0.0
 11
193.1697031169
 21
57.109912566
 31
0.0
  0
LINE
  5
163
330
1F
100
AcDbEntity
  8
0
  6
Continuous
 62
   179
370
     0
100
AcDbLine
 10
191.8697031169
 20
62.809913566
 30
0.0
 11
182.2697031169
 21
62.909913566
 31
0.0
  0
LINE
  5
164
330
1F
100
AcDbEntity
  8
0
  6
Continuous
 62
   179
370
     0
100
AcDbLine
 10
191.8697031169
 20
57.209913566
 30
0.0
 11
191.8697031169
 21
62.809913566
 31
0.0
  0
LINE
  5
165
330
1F
100
AcDbEntity
  8
0
  6
Continuous
 62
   179
370
     0
100
AcDbLine
 10
187.7697031169
 20
55.909913566
 30
0.0
 11
182.2697031169
 21
56.009913566
 31
0.0
  0
LINE
  5
166
330
1F
100
AcDbEntity
  8
0
  6
Continuous
 62
   179
370
     0
100
AcDbLine
 10
182.2697031169
 20
57.009913566
 30
0.0
 11
189.2697031169
 21
57.109912566
 31
0.0
  0
LINE
  5
167
330
1F
100
AcDbEntity
  8
0
  6
Continuous
 62
   179
370
     0
100
AcDbLine
 10
189.2697031169
 20
57.209913566
 30
0.0
 11
191.8697031169
 21
57.209913566
 31
0.0
  0
LINE
  5
168
330
1F
100
AcDbEntity
  8
0
  6
Continuous
 62
   179
370
     0
100
AcDbLine
 10
189.2697031169
 20
62.809913566
 30
0.0
 11
189.2697031169
 21
57.209913566
 31
0.0
  0
LINE
  5
169
330
1F
100
AcDbEntity
  8
0
  6
Continuous
 62
   179
370
     0
100
AcDbLine
 10
189.2697031169
 20
57.109912566
 30
0.0
 11
193.1697031169
 21
57.109912566
 31
0.0
  0
LINE
  5
16A
330
1F
100
AcDbEntity
  8
0
  6
Continuous
 62
   179
370
     0
100
AcDbLine
 10
187.7697031169
 20
57.109912566
 30
0.0
 11
187.7697031169
 21
55.909913566
 31
0.0
  0
LINE
  5
16B
330
1F
100
AcDbEntity
  8
0
  6
Continuous
 62
   179
370
     0
100
AcDbLine
 10
187.7697031169
 20
57.109912566
 30
0.0
 11
189.2697031169
 21
57.109912566
 31
0.0
  0
LINE
  5
16C
330
1F
100
AcDbEntity
  8
0
  6
Continuous
 62
   179
370
     0
100
AcDbLine
 10
189.0697031169
 20
62.609912566
 30
0.0
 11
189.2697031169
 21
62.609912566
 31
0.0
  0
LINE
  5
16D
330
1F
100
AcDbEntity
  8
0
  6
Continuous
 62
   179
370
     0
100
AcDbLine
 10
189.0697031169
 20
57.309912566
 30
0.0
 11
189.0697031169
 21
62.609912566
 31
0.0
  0
LINE
  5
16E
330
1F
100
AcDbEntity
  8
0
  6
Continuous
 62
   179
370
     0
100
AcDbLine
 10
188.5697031169
 20
58.031340566
 30
0.0
 11
188.5697031169
 21
61.888483566
 31
0.0
  0
LINE
  5
16F
330
1F
100
AcDbEntity
  8
0
  6
Continuous
 62
   179
370
     0
100
AcDbLine
 10
186.7030361169
 20
59.718840566
 30
0.0
 11
187.0141471169
 21
59.718840566
 31
0.0
  0
LINE
  5
170
330
1F
100
AcDbEntity
  8
0
  6
Continuous
 62
   179
370
     0
100
AcDbLine
 10
187.0141471169
 20
60.200983566
 30
0.0
 11
186.7030361169
 21
60.200983566
 31
0.0
  0
LINE
  5
171
330
1F
100
AcDbEntity
  8
0
  6
Continuous
 62
   179
370
     0
100
AcDbLine
 10
186.7030361169
 20
60.200983566
 30
0.0
 11
186.7064631169
 21
60.251199566
 31
0.0
  0
LINE
  5
172
330
1F
100
AcDbEntity
  8
0
  6
Continuous
 62
   179
370
     0
100
AcDbLine
 10
186.7064631169
 20
60.251199566
 30
0.0
 11
186.7183491169
 21
60.376369566
 31
0.0
  0
LINE
  5
173
330
1F
100
AcDbEntity
  8
0
  6
Continuous
 62
   179
370
     0
100
AcDbLine
 10
186.7183491169
 20
60.376369566
 30
0.0
 11
186.7349591169
 21
60.500823566
 31
0.0
  0
LINE
  5
174
330
1F
100
AcDbEntity
  8
0
  6
Continuous
 62
   179
370
     0
100
AcDbLine
 10
186.7349591169
 20
60.500823566
 30
0.0
 11
186.7562611169
 21
60.624322566
 31
0.0
  0
LINE
  5
175
330
1F
100
AcDbEntity
  8
0
  6
Continuous
 62
   179
370
     0
100
AcDbLine
 10
186.7562611169
 20
60.624322566
 30
0.0
 11
186.7822131169
 21
60.746632566
 31
0.0
  0
LINE
  5
176
330
1F
100
AcDbEntity
  8
0
  6
Continuous
 62
   179
370
     0
100
AcDbLine
 10
186.7822131169
 20
60.746632566
 30
0.0
 11
186.8127661169
 21
60.867521566
 31
0.0
  0
LINE
  5
177
330
1F
100
AcDbEntity
  8
0
  6
Continuous
 62
   179
370
     0
100
AcDbLine
 10
186.8127661169
 20
60.867521566
 30
0.0
 11
186.8478631169
 21
60.986757566
 31
0.0
  0
LINE
  5
178
330
1F
100
AcDbEntity
  8
0
  6
Continuous
 62
   179
370
     0
100
AcDbLine
 10
186.8478631169
 20
60.986757566
 30
0.0
 11
186.8874361169
 21
61.104114566
 31
0.0
  0
LINE
  5
179
330
1F
100
AcDbEntity
  8
0
  6
Continuous
 62
   179
370
     0
100
AcDbLine
 10
186.8874361169
 20
61.104114566
 30
0.0
 11
186.9314111169
 21
61.219370566
 31
0.0
  0
LINE
  5
17A
330
1F
100
AcDbEntity
  8
0
  6
Continuous
 62
   179
370
     0
100
AcDbLine
 10
186.9314111169
 20
61.219370566
 30
0.0
 11
186.9697031169
 21
61.309912566
 31
0.0
  0
LINE
  5
17B
330
1F
100
AcDbEntity
  8
0
  6
Continuous
 62
   179
370
     0
100
AcDbLine
 10
186.9697031169
 20
61.309912566
 30
0.0
 11
186.8852581169
 21
61.309912566
 31
0.0
  0
LINE
  5
17C
330
1F
100
AcDbEntity
  8
0
  6
Continuous
 62
   179
370
     0
100
AcDbLine
 10
186.7030361169
 20
59.718840566
 30
0.0
 11
186.7064631169
 21
59.668624566
 31
0.0
  0
LINE
  5
17D
330
1F
100
AcDbEntity
  8
0
  6
Continuous
 62
   179
370
     0
100
AcDbLine
 10
186.7064631169
 20
59.668624566
 30
0.0
 11
186.7183491169
 21
59.543454566
 31
0.0
  0
LINE
  5
17E
330
1F
100
AcDbEntity
  8
0
  6
Continuous
 62
   179
370
     0
100
AcDbLine
 10
186.7183491169
 20
59.543454566
 30
0.0
 11
186.7349591169
 21
59.419000566
 31
0.0
  0
LINE
  5
17F
330
1F
100
AcDbEntity
  8
0
  6
Continuous
 62
   179
370
     0
100
AcDbLine
 10
186.7349591169
 20
59.419000566
 30
0.0
 11
186.7562611169
 21
59.295501566
 31
0.0
  0
LINE
  5
180
330
1F
100
AcDbEntity
  8
0
  6
Continuous
 62
   179
370
     0
100
AcDbLine
 10
186.7562611169
 20
59.295501566
 30
0.0
 11
186.7822131169
 21
59.173191566
 31
0.0
  0
LINE
  5
181
330
1F
100
AcDbEntity
  8
0
  6
Continuous
 62
   179
370
     0
100
AcDbLine
 10
186.7822131169
 20
59.173191566
 30
0.0
 11
186.8127661169
 21
59.052302566
 31
0.0
  0
LINE
  5
182
330
1F
100
AcDbEntity
  8
0
  6
Continuous
 62
   179
370
     0
100
AcDbLine
 10
186.8127661169
 20
59.052302566
 30
0.0
 11
186.8478631169
 21
58.933066566
 31
0.0
  0
LINE
  5
183
330
1F
100
AcDbEntity
  8
0
  6
Continuous
 62
   179
370
     0
100
AcDbLine
 10
186.8478631169
 20
58.933066566
 30
0.0
 11
186.8874361169
 21
58.815709566
 31
0.0
  0
LINE
  5
184
330
1F
100
AcDbEntity
  8
0
  6
Continuous
 62
   179
370
     0
100
AcDbLine
 10
186.8874361169
 20
58.815709566
 30
0.0
 11
186.9314111169
 21
58.700453566
 31
0.0
  0
LINE
  5
185
330
1F
100
AcDbEntity
  8
0
  6
Continuous
 62
   179
370
     0
100
AcDbLine
 10
186.9314111169
 20
58.700453566
 30
0.0
 11
186.9697031169
 21
58.609911566
 31
0.0
  0
LINE
  5
186
330
1F
100
AcDbEntity
  8
0
  6
Continuous
 62
   179
370
     0
100
AcDbLine
 10
186.9697031169
 20
58.609911566
 30
0.0
 11
186.8852591169
 21
58.609911566
 31
0.0
  0
LINE
  5
187
330
1F
100
AcDbEntity
  8
0
  6
Continuous
 62
   179
370
     0
100
AcDbLine
 10
187.6808141169
 20
61.888483566
 30
0.0
 11
187.6323481169
 21
61.886647566
 31
0.0
  0
LINE
  5
188
330
1F
100
AcDbEntity
  8
0
  6
Continuous
 62
   179
370
     0
100
AcDbLine
 10
187.6323481169
 20
61.886647566
 30
0.0
 11
187.5839751169
 21
61.881144566
 31
0.0
  0
LINE
  5
189
330
1F
100
AcDbEntity
  8
0
  6
Continuous
 62
   179
370
     0
100
AcDbLine
 10
187.5839751169
 20
61.881144566
 30
0.0
 11
187.5357851169
 21
61.871984566
 31
0.0
  0
LINE
  5
18A
330
1F
100
AcDbEntity
  8
0
  6
Continuous
 62
   179
370
     0
100
AcDbLine
 10
187.5357851169
 20
61.871984566
 30
0.0
 11
187.4878711169
 21
61.859184566
 31
0.0
  0
LINE
  5
18B
330
1F
100
AcDbEntity
  8
0
  6
Continuous
 62
   179
370
     0
100
AcDbLine
 10
187.4878711169
 20
61.859184566
 30
0.0
 11
187.4403261169
 21
61.842768566
 31
0.0
  0
LINE
  5
18C
330
1F
100
AcDbEntity
  8
0
  6
Continuous
 62
   179
370
     0
100
AcDbLine
 10
187.4403261169
 20
61.842768566
 30
0.0
 11
187.3932371169
 21
61.822768566
 31
0.0
  0
LINE
  5
18D
330
1F
100
AcDbEntity
  8
0
  6
Continuous
 62
   179
370
     0
100
AcDbLine
 10
187.3932371169
 20
61.822768566
 30
0.0
 11
187.3466971169
 21
61.799223566
 31
0.0
  0
LINE
  5
18E
330
1F
100
AcDbEntity
  8
0
  6
Continuous
 62
   179
370
     0
100
AcDbLine
 10
187.3466971169
 20
61.799223566
 30
0.0
 11
187.3007911169
 21
61.772176566
 31
0.0
  0
LINE
  5
18F
330
1F
100
AcDbEntity
  8
0
  6
Continuous
 62
   179
370
     0
100
AcDbLine
 10
187.3007911169
 20
61.772176566
 30
0.0
 11
187.2556101169
 21
61.741679566
 31
0.0
  0
LINE
  5
190
330
1F
100
AcDbEntity
  8
0
  6
Continuous
 62
   179
370
     0
100
AcDbLine
 10
187.2556101169
 20
61.741679566
 30
0.0
 11
187.2112381169
 21
61.707791566
 31
0.0
  0
LINE
  5
191
330
1F
100
AcDbEntity
  8
0
  6
Continuous
 62
   179
370
     0
100
AcDbLine
 10
187.2112381169
 20
61.707791566
 30
0.0
 11
187.1677601169
 21
61.670575566
 31
0.0
  0
LINE
  5
192
330
1F
100
AcDbEntity
  8
0
  6
Continuous
 62
   179
370
     0
100
AcDbLine
 10
187.1677601169
 20
61.670575566
 30
0.0
 11
187.1252591169
 21
61.630104566
 31
0.0
  0
LINE
  5
193
330
1F
100
AcDbEntity
  8
0
  6
Continuous
 62
   179
370
     0
100
AcDbLine
 10
187.1252591169
 20
61.630104566
 30
0.0
 11
187.0838151169
 21
61.586452566
 31
0.0
  0
LINE
  5
194
330
1F
100
AcDbEntity
  8
0
  6
Continuous
 62
   179
370
     0
100
AcDbLine
 10
187.0838151169
 20
61.586452566
 30
0.0
 11
187.0435071169
 21
61.539705566
 31
0.0
  0
LINE
  5
195
330
1F
100
AcDbEntity
  8
0
  6
Continuous
 62
   179
370
     0
100
AcDbLine
 10
187.0435071169
 20
61.539705566
 30
0.0
 11
187.0044121169
 21
61.489950566
 31
0.0
  0
LINE
  5
196
330
1F
100
AcDbEntity
  8
0
  6
Continuous
 62
   179
370
     0
100
AcDbLine
 10
187.0044121169
 20
61.489950566
 30
0.0
 11
186.9666061169
 21
61.437283566
 31
0.0
  0
LINE
  5
197
330
1F
100
AcDbEntity
  8
0
  6
Continuous
 62
   179
370
     0
100
AcDbLine
 10
186.9666061169
 20
61.437283566
 30
0.0
 11
186.9301581169
 21
61.381803566
 31
0.0
  0
LINE
  5
198
330
1F
100
AcDbEntity
  8
0
  6
Continuous
 62
   179
370
     0
100
AcDbLine
 10
186.9301581169
 20
61.381803566
 30
0.0
 11
186.8951401169
 21
61.323617566
 31
0.0
  0
LINE
  5
199
330
1F
100
AcDbEntity
  8
0
  6
Continuous
 62
   179
370
     0
100
AcDbLine
 10
186.8951401169
 20
61.323617566
 30
0.0
 11
186.8616171169
 21
61.262836566
 31
0.0
  0
LINE
  5
19A
330
1F
100
AcDbEntity
  8
0
  6
Continuous
 62
   179
370
     0
100
AcDbLine
 10
186.8616171169
 20
61.262836566
 30
0.0
 11
186.8296541169
 21
61.199573566
 31
0.0
  0
LINE
  5
19B
330
1F
100
AcDbEntity
  8
0
  6
Continuous
 62
   179
370
     0
100
AcDbLine
 10
186.8296541169
 20
61.199573566
 30
0.0
 11
186.7993111169
 21
61.133952566
 31
0.0
  0
LINE
  5
19C
330
1F
100
AcDbEntity
  8
0
  6
Continuous
 62
   179
370
     0
100
AcDbLine
 10
186.7993111169
 20
61.133952566
 30
0.0
 11
186.7706451169
 21
61.066095566
 31
0.0
  0
LINE
  5
19D
330
1F
100
AcDbEntity
  8
0
  6
Continuous
 62
   179
370
     0
100
AcDbLine
 10
186.7706451169
 20
61.066095566
 30
0.0
 11
186.7437121169
 21
60.996132566
 31
0.0
  0
LINE
  5
19E
330
1F
100
AcDbEntity
  8
0
  6
Continuous
 62
   179
370
     0
100
AcDbLine
 10
186.7437121169
 20
60.996132566
 30
0.0
 11
186.7185631169
 21
60.924197566
 31
0.0
  0
LINE
  5
19F
330
1F
100
AcDbEntity
  8
0
  6
Continuous
 62
   179
370
     0
100
AcDbLine
 10
186.7185631169
 20
60.924197566
 30
0.0
 11
186.6952471169
 21
60.850426566
 31
0.0
  0
LINE
  5
1A0
330
1F
100
AcDbEntity
  8
0
  6
Continuous
 62
   179
370
     0
100
AcDbLine
 10
186.6952471169
 20
60.850426566
 30
0.0
 11
186.6738061169
 21
60.774961566
 31
0.0
  0
LINE
  5
1A1
330
1F
100
AcDbEntity
  8
0
  6
Continuous
 62
   179
370
     0
100
AcDbLine
 10
186.6738061169
 20
60.774961566
 30
0.0
 11
186.6542811169
 21
60.697944566
 31
0.0
  0
LINE
  5
1A2
330
1F
100
AcDbEntity
  8
0
  6
Continuous
 62
   179
370
     0
100
AcDbLine
 10
186.6542811169
 20
60.697944566
 30
0.0
 11
186.6367111169
 21
60.619522566
 31
0.0
  0
LINE
  5
1A3
330
1F
100
AcDbEntity
  8
0
  6
Continuous
 62
   179
370
     0
100
AcDbLine
 10
186.6367111169
 20
60.619522566
 30
0.0
 11
186.6211281169
 21
60.539844566
 31
0.0
  0
LINE
  5
1A4
330
1F
100
AcDbEntity
  8
0
  6
Continuous
 62
   179
370
     0
100
AcDbLine
 10
186.6211281169
 20
60.539844566
 30
0.0
 11
186.6075631169
 21
60.459062566
 31
0.0
  0
LINE
  5
1A5
330
1F
100
AcDbEntity
  8
0
  6
Continuous
 62
   179
370
     0
100
AcDbLine
 10
186.6075631169
 20
60.459062566
 30
0.0
 11
186.5960411169
 21
60.377331566
 31
0.0
  0
LINE
  5
1A6
330
1F
100
AcDbEntity
  8
0
  6
Continuous
 62
   179
370
     0
100
AcDbLine
 10
186.5960411169
 20
60.377331566
 30
0.0
 11
186.5865831169
 21
60.294805566
 31
0.0
  0
LINE
  5
1A7
330
1F
100
AcDbEntity
  8
0
  6
Continuous
 62
   179
370
     0
100
AcDbLine
 10
186.5865831169
 20
60.294805566
 30
0.0
 11
186.5792091169
 21
60.211641566
 31
0.0
  0
LINE
  5
1A8
330
1F
100
AcDbEntity
  8
0
  6
Continuous
 62
   179
370
     0
100
AcDbLine
 10
186.5792091169
 20
60.211641566
 30
0.0
 11
186.5739311169
 21
60.127998566
 31
0.0
  0
LINE
  5
1A9
330
1F
100
AcDbEntity
  8
0
  6
Continuous
 62
   179
370
     0
100
AcDbLine
 10
186.5739311169
 20
60.127998566
 30
0.0
 11
186.5707601169
 21
60.044035566
 31
0.0
  0
LINE
  5
1AA
330
1F
100
AcDbEntity
  8
0
  6
Continuous
 62
   179
370
     0
100
AcDbLine
 10
186.5707601169
 20
60.044035566
 30
0.0
 11
186.5697031169
 21
59.959912566
 31
0.0
  0
LINE
  5
1AB
330
1F
100
AcDbEntity
  8
0
  6
Continuous
 62
   179
370
     0
100
AcDbLine
 10
186.5697031169
 20
59.959912566
 30
0.0
 11
186.5707601169
 21
59.875788566
 31
0.0
  0
LINE
  5
1AC
330
1F
100
AcDbEntity
  8
0
  6
Continuous
 62
   179
370
     0
100
AcDbLine
 10
186.5707601169
 20
59.875788566
 30
0.0
 11
186.5739311169
 21
59.791825566
 31
0.0
  0
LINE
  5
1AD
330
1F
100
AcDbEntity
  8
0
  6
Continuous
 62
   179
370
     0
100
AcDbLine
 10
186.5739311169
 20
59.791825566
 30
0.0
 11
186.5792091169
 21
59.708182566
 31
0.0
  0
LINE
  5
1AE
330
1F
100
AcDbEntity
  8
0
  6
Continuous
 62
   179
370
     0
100
AcDbLine
 10
186.5792091169
 20
59.708182566
 30
0.0
 11
186.5865831169
 21
59.625018566
 31
0.0
  0
LINE
  5
1AF
330
1F
100
AcDbEntity
  8
0
  6
Continuous
 62
   179
370
     0
100
AcDbLine
 10
186.5865831169
 20
59.625018566
 30
0.0
 11
186.5960411169
 21
59.542492566
 31
0.0
  0
LINE
  5
1B0
330
1F
100
AcDbEntity
  8
0
  6
Continuous
 62
   179
370
     0
100
AcDbLine
 10
186.5960411169
 20
59.542492566
 30
0.0
 11
186.6075631169
 21
59.460761566
 31
0.0
  0
LINE
  5
1B1
330
1F
100
AcDbEntity
  8
0
  6
Continuous
 62
   179
370
     0
100
AcDbLine
 10
186.6075631169
 20
59.460761566
 30
0.0
 11
186.6211281169
 21
59.379979566
 31
0.0
  0
LINE
  5
1B2
330
1F
100
AcDbEntity
  8
0
  6
Continuous
 62
   179
370
     0
100
AcDbLine
 10
186.6211281169
 20
59.379979566
 30
0.0
 11
186.6367111169
 21
59.300301566
 31
0.0
  0
LINE
  5
1B3
330
1F
100
AcDbEntity
  8
0
  6
Continuous
 62
   179
370
     0
100
AcDbLine
 10
186.6367111169
 20
59.300301566
 30
0.0
 11
186.6542811169
 21
59.221879566
 31
0.0
  0
LINE
  5
1B4
330
1F
100
AcDbEntity
  8
0
  6
Continuous
 62
   179
370
     0
100
AcDbLine
 10
186.6542811169
 20
59.221879566
 30
0.0
 11
186.6738061169
 21
59.144862566
 31
0.0
  0
LINE
  5
1B5
330
1F
100
AcDbEntity
  8
0
  6
Continuous
 62
   179
370
     0
100
AcDbLine
 10
186.6738061169
 20
59.144862566
 30
0.0
 11
186.6952471169
 21
59.069397566
 31
0.0
  0
LINE
  5
1B6
330
1F
100
AcDbEntity
  8
0
  6
Continuous
 62
   179
370
     0
100
AcDbLine
 10
186.6952471169
 20
59.069397566
 30
0.0
 11
186.7185631169
 21
58.995626566
 31
0.0
  0
LINE
  5
1B7
330
1F
100
AcDbEntity
  8
0
  6
Continuous
 62
   179
370
     0
100
AcDbLine
 10
186.7185631169
 20
58.995626566
 30
0.0
 11
186.7437121169
 21
58.923691566
 31
0.0
  0
LINE
  5
1B8
330
1F
100
AcDbEntity
  8
0
  6
Continuous
 62
   179
370
     0
100
AcDbLine
 10
186.7437121169
 20
58.923691566
 30
0.0
 11
186.7706451169
 21
58.853728566
 31
0.0
  0
LINE
  5
1B9
330
1F
100
AcDbEntity
  8
0
  6
Continuous
 62
   179
370
     0
100
AcDbLine
 10
186.7706451169
 20
58.853728566
 30
0.0
 11
186.7993111169
 21
58.785871566
 31
0.0
  0
LINE
  5
1BA
330
1F
100
AcDbEntity
  8
0
  6
Continuous
 62
   179
370
     0
100
AcDbLine
 10
186.7993111169
 20
58.785871566
 30
0.0
 11
186.8296541169
 21
58.720250566
 31
0.0
  0
LINE
  5
1BB
330
1F
100
AcDbEntity
  8
0
  6
Continuous
 62
   179
370
     0
100
AcDbLine
 10
186.8296541169
 20
58.720250566
 30
0.0
 11
186.8616171169
 21
58.656987566
 31
0.0
  0
LINE
  5
1BC
330
1F
100
AcDbEntity
  8
0
  6
Continuous
 62
   179
370
     0
100
AcDbLine
 10
186.8616171169
 20
58.656987566
 30
0.0
 11
186.8951401169
 21
58.596206566
 31
0.0
  0
LINE
  5
1BD
330
1F
100
AcDbEntity
  8
0
  6
Continuous
 62
   179
370
     0
100
AcDbLine
 10
186.8951401169
 20
58.596206566
 30
0.0
 11
186.9301581169
 21
58.538020566
 31
0.0
  0
LINE
  5
1BE
330
1F
100
AcDbEntity
  8
0
  6
Continuous
 62
   179
370
     0
100
AcDbLine
 10
186.9301581169
 20
58.538020566
 30
0.0
 11
186.9666061169
 21
58.482540566
 31
0.0
  0
LINE
  5
1BF
330
1F
100
AcDbEntity
  8
0
  6
Continuous
 62
   179
370
     0
100
AcDbLine
 10
186.9666061169
 20
58.482540566
 30
0.0
 11
187.0044121169
 21
58.429873566
 31
0.0
  0
LINE
  5
1C0
330
1F
100
AcDbEntity
  8
0
  6
Continuous
 62
   179
370
     0
100
AcDbLine
 10
187.0044121169
 20
58.429873566
 30
0.0
 11
187.0435071169
 21
58.380118566
 31
0.0
  0
LINE
  5
1C1
330
1F
100
AcDbEntity
  8
0
  6
Continuous
 62
   179
370
     0
100
AcDbLine
 10
187.0435071169
 20
58.380118566
 30
0.0
 11
187.0838151169
 21
58.333371566
 31
0.0
  0
LINE
  5
1C2
330
1F
100
AcDbEntity
  8
0
  6
Continuous
 62
   179
370
     0
100
AcDbLine
 10
187.0838151169
 20
58.333371566
 30
0.0
 11
187.1252591169
 21
58.289719566
 31
0.0
  0
LINE
  5
1C3
330
1F
100
AcDbEntity
  8
0
  6
Continuous
 62
   179
370
     0
100
AcDbLine
 10
187.1252591169
 20
58.289719566
 30
0.0
 11
187.1677601169
 21
58.249248566
 31
0.0
  0
LINE
  5
1C4
330
1F
100
AcDbEntity
  8
0
  6
Continuous
 62
   179
370
     0
100
AcDbLine
 10
187.1677601169
 20
58.249248566
 30
0.0
 11
187.2112381169
 21
58.212032566
 31
0.0
  0
LINE
  5
1C5
330
1F
100
AcDbEntity
  8
0
  6
Continuous
 62
   179
370
     0
100
AcDbLine
 10
187.2112381169
 20
58.212032566
 30
0.0
 11
187.2556101169
 21
58.178144566
 31
0.0
  0
LINE
  5
1C6
330
1F
100
AcDbEntity
  8
0
  6
Continuous
 62
   179
370
     0
100
AcDbLine
 10
187.2556101169
 20
58.178144566
 30
0.0
 11
187.3007911169
 21
58.147647566
 31
0.0
  0
LINE
  5
1C7
330
1F
100
AcDbEntity
  8
0
  6
Continuous
 62
   179
370
     0
100
AcDbLine
 10
187.3007911169
 20
58.147647566
 30
0.0
 11
187.3466971169
 21
58.120600566
 31
0.0
  0
LINE
  5
1C8
330
1F
100
AcDbEntity
  8
0
  6
Continuous
 62
   179
370
     0
100
AcDbLine
 10
187.3466971169
 20
58.120600566
 30
0.0
 11
187.3932371169
 21
58.097055566
 31
0.0
  0
LINE
  5
1C9
330
1F
100
AcDbEntity
  8
0
  6
Continuous
 62
   179
370
     0
100
AcDbLine
 10
187.3932371169
 20
58.097055566
 30
0.0
 11
187.4403261169
 21
58.077055566
 31
0.0
  0
LINE
  5
1CA
330
1F
100
AcDbEntity
  8
0
  6
Continuous
 62
   179
370
     0
100
AcDbLine
 10
187.4403261169
 20
58.077055566
 30
0.0
 11
187.4878711169
 21
58.060639566
 31
0.0
  0
LINE
  5
1CB
330
1F
100
AcDbEntity
  8
0
  6
Continuous
 62
   179
370
     0
100
AcDbLine
 10
187.4878711169
 20
58.060639566
 30
0.0
 11
187.5357851169
 21
58.047839566
 31
0.0
  0
LINE
  5
1CC
330
1F
100
AcDbEntity
  8
0
  6
Continuous
 62
   179
370
     0
100
AcDbLine
 10
187.5357851169
 20
58.047839566
 30
0.0
 11
187.5839751169
 21
58.038679566
 31
0.0
  0
LINE
  5
1CD
330
1F
100
AcDbEntity
  8
0
  6
Continuous
 62
   179
370
     0
100
AcDbLine
 10
187.5839751169
 20
58.038679566
 30
0.0
 11
187.6323481169
 21
58.033176566
 31
0.0
  0
LINE
  5
1CE
330
1F
100
AcDbEntity
  8
0
  6
Continuous
 62
   179
370
     0
100
AcDbLine
 10
187.6323481169
 20
58.033176566
 30
0.0
 11
187.6808141169
 21
58.031340566
 31
0.0
  0
LINE
  5
1CF
330
1F
100
AcDbEntity
  8
0
  6
Continuous
 62
   179
370
     0
100
AcDbLine
 10
187.0141471169
 20
59.718840566
 30
0.0
 11
187.0141471169
 21
60.200983566
 31
0.0
  0
LINE
  5
1D0
330
1F
100
AcDbEntity
  8
0
  6
Continuous
 62
   179
370
     0
100
AcDbLine
 10
188.5697031169
 20
61.888483566
 30
0.0
 11
188.3474811169
 21
61.888483566
 31
0.0
  0
LINE
  5
1D1
330
1F
100
AcDbEntity
  8
0
  6
Continuous
 62
   179
370
     0
100
AcDbLine
 10
188.3474811169
 20
58.031340566
 30
0.0
 11
188.5697031169
 21
58.031340566
 31
0.0
  0
LINE
  5
1D2
330
1F
100
AcDbEntity
  8
0
  6
Continuous
 62
   179
370
     0
100
AcDbLine
 10
187.6808141169
 20
61.888483566
 30
0.0
 11
188.3474811169
 21
61.888483566
 31
0.0
  0
LINE
  5
1D3
330
1F
100
AcDbEntity
  8
0
  6
Continuous
 62
   179
370
     0
100
AcDbLine
 10
187.6808141169
 20
58.031340566
 30
0.0
 11
188.3474811169
 21
58.031340566
 31
0.0
  0
LINE
  5
1D4
330
1F
100
AcDbEntity
  8
0
  6
Continuous
 62
   179
370
     0
100
AcDbLine
 10
188.3474811169
 20
58.031340566
 30
0.0
 11
188.3474811169
 21
61.888483566
 31
0.0
  0
LINE
  5
1D5
330
1F
100
AcDbEntity
  8
0
  6
Continuous
 62
   179
370
     0
100
AcDbLine
 10
188.5697031169
 20
57.888484566
 30
0.0
 11
188.5697031169
 21
57.459912566
 31
0.0
  0
LINE
  5
1D6
330
1F
100
AcDbEntity
  8
0
  6
Continuous
 62
   179
370
     0
100
AcDbLine
 10
188.5697031169
 20
58.745626566
 30
0.0
 11
188.5697031169
 21
59.245626566
 31
0.0
  0
LINE
  5
1D7
330
1F
100
AcDbEntity
  8
0
  6
Continuous
 62
   179
370
     0
100
AcDbLine
 10
188.5697031169
 20
60.674198566
 30
0.0
 11
188.5697031169
 21
61.174198566
 31
0.0
  0
LINE
  5
1D8
330
1F
100
AcDbEntity
  8
0
  6
Continuous
 62
   179
370
     0
100
AcDbLine
 10
188.5697031169
 20
62.459912566
 30
0.0
 11
188.5697031169
 21
62.031340566
 31
0.0
  0
LINE
  5
1D9
330
1F
100
AcDbEntity
  8
0
  6
Continuous
 62
   179
370
     0
100
AcDbLine
 10
188.7572031169
 20
61.888484566
 30
0.0
 11
188.5697031169
 21
62.031340566
 31
0.0
  0
LINE
  5
1DA
330
1F
100
AcDbEntity
  8
0
  6
Continuous
 62
   179
370
     0
100
AcDbLine
 10
188.5697031169
 20
61.174198566
 30
0.0
 11
188.7572031169
 21
61.317055566
 31
0.0
  0
LINE
  5
1DB
330
1F
100
AcDbEntity
  8
0
  6
Continuous
 62
   179
370
     0
100
AcDbLine
 10
188.7572031169
 20
60.531340566
 30
0.0
 11
188.5697031169
 21
60.674198566
 31
0.0
  0
LINE
  5
1DC
330
1F
100
AcDbEntity
  8
0
  6
Continuous
 62
   179
370
     0
100
AcDbLine
 10
188.5697031169
 20
59.245626566
 30
0.0
 11
188.7572031169
 21
59.388484566
 31
0.0
  0
LINE
  5
1DD
330
1F
100
AcDbEntity
  8
0
  6
Continuous
 62
   179
370
     0
100
AcDbLine
 10
188.7572031169
 20
58.602769566
 30
0.0
 11
188.5697031169
 21
58.745626566
 31
0.0
  0
LINE
  5
1DE
330
1F
100
AcDbEntity
  8
0
  6
Continuous
 62
   179
370
     0
100
AcDbLine
 10
188.5697031169
 20
57.888484566
 30
0.0
 11
188.7572031169
 21
58.031341566
 31
0.0
  0
LINE
  5
1DF
330
1F
100
AcDbEntity
  8
0
  6
Continuous
 62
   179
370
     0
100
AcDbLine
 10
188.8822031169
 20
57.745626566
 30
0.0
 11
189.0697031169
 21
57.888484566
 31
0.0
  0
LINE
  5
1E0
330
1F
100
AcDbEntity
  8
0
  6
Continuous
 62
   179
370
     0
100
AcDbLine
 10
188.8822031169
 20
57.459912566
 30
0.0
 11
188.8822031169
 21
57.745626566
 31
0.0
  0
LINE
  5
1E1
330
1F
100
AcDbEntity
  8
0
  6
Continuous
 62
   179
370
     0
100
AcDbLine
 10
188.5697031169
 20
57.459912566
 30
0.0
 11
188.8822031169
 21
57.459912566
 31
0.0
  0
LINE
  5
1E2
330
1F
100
AcDbEntity
  8
0
  6
Continuous
 62
   179
370
     0
100
AcDbLine
 10
188.8822031169
 20
59.031340566
 30
0.0
 11
189.0697031169
 21
58.888483566
 31
0.0
  0
LINE
  5
1E3
330
1F
100
AcDbEntity
  8
0
  6
Continuous
 62
   179
370
     0
100
AcDbLine
 10
188.8822031169
 20
60.888484566
 30
0.0
 11
188.8822031169
 21
59.031340566
 31
0.0
  0
LINE
  5
1E4
330
1F
100
AcDbEntity
  8
0
  6
Continuous
 62
   179
370
     0
100
AcDbLine
 10
189.0697031169
 20
61.031340566
 30
0.0
 11
188.8822031169
 21
60.888484566
 31
0.0
  0
LINE
  5
1E5
330
1F
100
AcDbEntity
  8
0
  6
Continuous
 62
   179
370
     0
100
AcDbLine
 10
188.8822031169
 20
62.174198566
 30
0.0
 11
189.0697031169
 21
62.031340566
 31
0.0
  0
LINE
  5
1E6
330
1F
100
AcDbEntity
  8
0
  6
Continuous
 62
   179
370
     0
100
AcDbLine
 10
188.8822031169
 20
62.459912566
 30
0.0
 11
188.8822031169
 21
62.174198566
 31
0.0
  0
LINE
  5
1E7
330
1F
100
AcDbEntity
  8
0
  6
Continuous
 62
   179
370
     0
100
AcDbLine
 10
188.8822031169
 20
62.459912566
 30
0.0
 11
188.5697031169
 21
62.459912566
 31
0.0
  0
LINE
  5
1E8
330
1F
100
AcDbEntity
  8
0
  6
Continuous
 62
   179
370
     0
100
AcDbLine
 10
188.7572031169
 20
61.888484566
 30
0.0
 11
188.7572031169
 21
61.317055566
 31
0.0
  0
LINE
  5
1E9
330
1F
100
AcDbEntity
  8
0
  6
Continuous
 62
   179
370
     0
100
AcDbLine
 10
188.7572031169
 20
60.531340566
 30
0.0
 11
188.7572031169
 21
59.388484566
 31
0.0
  0
LINE
  5
1EA
330
1F
100
AcDbEntity
  8
0
  6
Continuous
 62
   179
370
     0
100
AcDbLine
 10
188.7572031169
 20
58.031341566
 30
0.0
 11
188.7572031169
 21
58.602769566
 31
0.0
  0
LINE
  5
1EB
330
1F
100
AcDbEntity
  8
0
  6
Continuous
 62
   179
370
     0
100
AcDbLine
 10
188.4175291169
 20
58.051628566
 30
0.0
 11
188.4175291169
 21
61.897782566
 31
0.0
  0
LINE
  5
1EC
330
1F
100
AcDbEntity
  8
0
  6
Continuous
 62
   179
370
     0
100
AcDbLine
 10
189.2697031169
 20
57.309912566
 30
0.0
 11
189.0697031169
 21
57.309912566
 31
0.0
  0
LINE
  5
1ED
330
1F
100
AcDbEntity
  8
0
  6
Continuous
 62
   179
370
     0
100
AcDbLine
 10
182.2697031169
 20
64.009912566
 30
0.0
 11
193.6697031169
 21
64.409913566
 31
0.0
  0
LINE
  5
1EE
330
1F
100
AcDbEntity
  8
0
  6
Continuous
 62
   179
370
     0
100
AcDbLine
 10
182.2697031169
 20
65.809913566
 30
0.0
 11
186.1697031169
 21
65.909913566
 31
0.0
  0
LINE
  5
1EF
330
1F
100
AcDbEntity
  8
0
  6
Continuous
 62
   179
370
     0
100
AcDbLine
 10
183.1697031169
 20
73.109912566
 30
0.0
 11
186.1697031169
 21
71.409912566
 31
0.0
  0
LINE
  5
1F0
330
1F
100
AcDbEntity
  8
0
  6
Continuous
 62
   179
370
     0
100
AcDbLine
 10
182.0697031169
 20
72.809913566
 30
0.0
 11
183.6697031169
 21
72.809913566
 31
0.0
  0
LINE
  5
1F1
330
1F
100
AcDbEntity
  8
0
  6
Continuous
 62
   179
370
     0
100
AcDbLine
 10
193.1697031169
 20
64.409913566
 30
0.0
 11
194.1697031169
 21
64.409913566
 31
0.0
  0
LINE
  5
1F2
330
1F
100
AcDbEntity
  8
0
  6
Continuous
 62
   179
370
     0
100
AcDbLine
 10
192.8697031169
 20
66.909912566
 30
0.0
 11
192.8697031169
 21
72.309912566
 31
0.0
  0
LINE
  5
1F3
330
1F
100
AcDbEntity
  8
0
  6
Continuous
 62
   179
370
     0
100
AcDbLine
 10
189.8830361169
 20
69.272412566
 30
0.0
 11
190.3808141169
 21
69.272412566
 31
0.0
  0
LINE
  5
1F4
330
1F
100
AcDbEntity
  8
0
  6
Continuous
 62
   179
370
     0
100
AcDbLine
 10
190.3808141169
 20
69.947412566
 30
0.0
 11
189.8830361169
 21
69.947412566
 31
0.0
  0
LINE
  5
1F5
330
1F
100
AcDbEntity
  8
0
  6
Continuous
 62
   179
370
     0
100
AcDbLine
 10
189.8830361169
 20
69.947412566
 30
0.0
 11
189.8885191169
 21
70.017714566
 31
0.0
  0
LINE
  5
1F6
330
1F
100
AcDbEntity
  8
0
  6
Continuous
 62
   179
370
     0
100
AcDbLine
 10
189.8885191169
 20
70.017714566
 30
0.0
 11
189.9075381169
 21
70.192952566
 31
0.0
  0
LINE
  5
1F7
330
1F
100
AcDbEntity
  8
0
  6
Continuous
 62
   179
370
     0
100
AcDbLine
 10
189.9075381169
 20
70.192952566
 30
0.0
 11
189.9341131169
 21
70.367187566
 31
0.0
  0
LINE
  5
1F8
330
1F
100
AcDbEntity
  8
0
  6
Continuous
 62
   179
370
     0
100
AcDbLine
 10
189.9341131169
 20
70.367187566
 30
0.0
 11
189.9681951169
 21
70.540086566
 31
0.0
  0
LINE
  5
1F9
330
1F
100
AcDbEntity
  8
0
  6
Continuous
 62
   179
370
     0
100
AcDbLine
 10
189.9681951169
 20
70.540086566
 30
0.0
 11
190.0097191169
 21
70.711321566
 31
0.0
  0
LINE
  5
1FA
330
1F
100
AcDbEntity
  8
0
  6
Continuous
 62
   179
370
     0
100
AcDbLine
 10
190.0097191169
 20
70.711321566
 30
0.0
 11
190.0586041169
 21
70.880565566
 31
0.0
  0
LINE
  5
1FB
330
1F
100
AcDbEntity
  8
0
  6
Continuous
 62
   179
370
     0
100
AcDbLine
 10
190.0586041169
 20
70.880565566
 30
0.0
 11
190.1147591169
 21
71.047495566
 31
0.0
  0
LINE
  5
1FC
330
1F
100
AcDbEntity
  8
0
  6
Continuous
 62
   179
370
     0
100
AcDbLine
 10
190.1147591169
 20
71.047495566
 30
0.0
 11
190.1780761169
 21
71.211796566
 31
0.0
  0
LINE
  5
1FD
330
1F
100
AcDbEntity
  8
0
  6
Continuous
 62
   179
370
     0
100
AcDbLine
 10
190.1780761169
 20
71.211796566
 30
0.0
 11
190.2484361169
 21
71.373153566
 31
0.0
  0
LINE
  5
1FE
330
1F
100
AcDbEntity
  8
0
  6
Continuous
 62
   179
370
     0
100
AcDbLine
 10
190.2484361169
 20
71.373153566
 30
0.0
 11
190.3097031169
 21
71.499912566
 31
0.0
  0
LINE
  5
1FF
330
1F
100
AcDbEntity
  8
0
  6
Continuous
 62
   179
370
     0
100
AcDbLine
 10
190.3097031169
 20
71.499912566
 30
0.0
 11
190.1745921169
 21
71.499912566
 31
0.0
  0
LINE
  5
200
330
1F
100
AcDbEntity
  8
0
  6
Continuous
 62
   179
370
     0
100
AcDbLine
 10
189.8830361169
 20
69.272412566
 30
0.0
 11
189.8885191169
 21
69.202110566
 31
0.0
  0
LINE
  5
201
330
1F
100
AcDbEntity
  8
0
  6
Continuous
 62
   179
370
     0
100
AcDbLine
 10
189.8885191169
 20
69.202110566
 30
0.0
 11
189.9075381169
 21
69.026872566
 31
0.0
  0
LINE
  5
202
330
1F
100
AcDbEntity
  8
0
  6
Continuous
 62
   179
370
     0
100
AcDbLine
 10
189.9075381169
 20
69.026872566
 30
0.0
 11
189.9341131169
 21
68.852637566
 31
0.0
  0
LINE
  5
203
330
1F
100
AcDbEntity
  8
0
  6
Continuous
 62
   179
370
     0
100
AcDbLine
 10
189.9341131169
 20
68.852637566
 30
0.0
 11
189.9681951169
 21
68.679738566
 31
0.0
  0
LINE
  5
204
330
1F
100
AcDbEntity
  8
0
  6
Continuous
 62
   179
370
     0
100
AcDbLine
 10
189.9681951169
 20
68.679738566
 30
0.0
 11
190.0097191169
 21
68.508503566
 31
0.0
  0
LINE
  5
205
330
1F
100
AcDbEntity
  8
0
  6
Continuous
 62
   179
370
     0
100
AcDbLine
 10
190.0097191169
 20
68.508503566
 30
0.0
 11
190.0586041169
 21
68.339259566
 31
0.0
  0
LINE
  5
206
330
1F
100
AcDbEntity
  8
0
  6
Continuous
 62
   179
370
     0
100
AcDbLine
 10
190.0586041169
 20
68.339259566
 30
0.0
 11
190.1147591169
 21
68.172329566
 31
0.0
  0
LINE
  5
207
330
1F
100
AcDbEntity
  8
0
  6
Continuous
 62
   179
370
     0
100
AcDbLine
 10
190.1147591169
 20
68.172329566
 30
0.0
 11
190.1780761169
 21
68.008028566
 31
0.0
  0
LINE
  5
208
330
1F
100
AcDbEntity
  8
0
  6
Continuous
 62
   179
370
     0
100
AcDbLine
 10
190.1780761169
 20
68.008028566
 30
0.0
 11
190.2484361169
 21
67.846671566
 31
0.0
  0
LINE
  5
209
330
1F
100
AcDbEntity
  8
0
  6
Continuous
 62
   179
370
     0
100
AcDbLine
 10
190.2484361169
 20
67.846671566
 30
0.0
 11
190.3097031169
 21
67.719912566
 31
0.0
  0
LINE
  5
20A
330
1F
100
AcDbEntity
  8
0
  6
Continuous
 62
   179
370
     0
100
AcDbLine
 10
190.3097031169
 20
67.719912566
 30
0.0
 11
190.1745921169
 21
67.719912566
 31
0.0
  0
LINE
  5
20B
330
1F
100
AcDbEntity
  8
0
  6
Continuous
 62
   179
370
     0
100
AcDbLine
 10
191.4474811169
 20
72.309912566
 30
0.0
 11
191.3699351169
 21
72.307342566
 31
0.0
  0
LINE
  5
20C
330
1F
100
AcDbEntity
  8
0
  6
Continuous
 62
   179
370
     0
100
AcDbLine
 10
191.3699351169
 20
72.307342566
 30
0.0
 11
191.2925371169
 21
72.299638566
 31
0.0
  0
LINE
  5
20D
330
1F
100
AcDbEntity
  8
0
  6
Continuous
 62
   179
370
     0
100
AcDbLine
 10
191.2925371169
 20
72.299638566
 30
0.0
 11
191.2154341169
 21
72.286813566
 31
0.0
  0
LINE
  5
20E
330
1F
100
AcDbEntity
  8
0
  6
Continuous
 62
   179
370
     0
100
AcDbLine
 10
191.2154341169
 20
72.286813566
 30
0.0
 11
191.1387731169
 21
72.268893566
 31
0.0
  0
LINE
  5
20F
330
1F
100
AcDbEntity
  8
0
  6
Continuous
 62
   179
370
     0
100
AcDbLine
 10
191.1387731169
 20
72.268893566
 30
0.0
 11
191.0626991169
 21
72.245911566
 31
0.0
  0
LINE
  5
210
330
1F
100
AcDbEntity
  8
0
  6
Continuous
 62
   179
370
     0
100
AcDbLine
 10
191.0626991169
 20
72.245911566
 30
0.0
 11
190.9873581169
 21
72.217912566
 31
0.0
  0
LINE
  5
211
330
1F
100
AcDbEntity
  8
0
  6
Continuous
 62
   179
370
     0
100
AcDbLine
 10
190.9873581169
 20
72.217912566
 30
0.0
 11
190.9128931169
 21
72.184948566
 31
0.0
  0
LINE
  5
212
330
1F
100
AcDbEntity
  8
0
  6
Continuous
 62
   179
370
     0
100
AcDbLine
 10
190.9128931169
 20
72.184948566
 30
0.0
 11
190.8394451169
 21
72.147082566
 31
0.0
  0
LINE
  5
213
330
1F
100
AcDbEntity
  8
0
  6
Continuous
 62
   179
370
     0
100
AcDbLine
 10
190.8394451169
 20
72.147082566
 30
0.0
 11
190.7671541169
 21
72.104387566
 31
0.0
  0
LINE
  5
214
330
1F
100
AcDbEntity
  8
0
  6
Continuous
 62
   179
370
     0
100
AcDbLine
 10
190.7671541169
 20
72.104387566
 30
0.0
 11
190.6961591169
 21
72.056943566
 31
0.0
  0
LINE
  5
215
330
1F
100
AcDbEntity
  8
0
  6
Continuous
 62
   179
370
     0
100
AcDbLine
 10
190.6961591169
 20
72.056943566
 30
0.0
 11
190.6265951169
 21
72.004841566
 31
0.0
  0
LINE
  5
216
330
1F
100
AcDbEntity
  8
0
  6
Continuous
 62
   179
370
     0
100
AcDbLine
 10
190.6265951169
 20
72.004841566
 30
0.0
 11
190.5585921169
 21
71.948181566
 31
0.0
  0
LINE
  5
217
330
1F
100
AcDbEntity
  8
0
  6
Continuous
 62
   179
370
     0
100
AcDbLine
 10
190.5585921169
 20
71.948181566
 30
0.0
 11
190.4922811169
 21
71.887069566
 31
0.0
  0
LINE
  5
218
330
1F
100
AcDbEntity
  8
0
  6
Continuous
 62
   179
370
     0
100
AcDbLine
 10
190.4922811169
 20
71.887069566
 30
0.0
 11
190.4277891169
 21
71.821622566
 31
0.0
  0
LINE
  5
219
330
1F
100
AcDbEntity
  8
0
  6
Continuous
 62
   179
370
     0
100
AcDbLine
 10
190.4277891169
 20
71.821622566
 30
0.0
 11
190.3652381169
 21
71.751966566
 31
0.0
  0
LINE
  5
21A
330
1F
100
AcDbEntity
  8
0
  6
Continuous
 62
   179
370
     0
100
AcDbLine
 10
190.3652381169
 20
71.751966566
 30
0.0
 11
190.3047471169
 21
71.678232566
 31
0.0
  0
LINE
  5
21B
330
1F
100
AcDbEntity
  8
0
  6
Continuous
 62
   179
370
     0
100
AcDbLine
 10
190.3047471169
 20
71.678232566
 30
0.0
 11
190.2464311169
 21
71.600561566
 31
0.0
  0
LINE
  5
21C
330
1F
100
AcDbEntity
  8
0
  6
Continuous
 62
   179
370
     0
100
AcDbLine
 10
190.2464311169
 20
71.600561566
 30
0.0
 11
190.1904021169
 21
71.519100566
 31
0.0
  0
LINE
  5
21D
330
1F
100
AcDbEntity
  8
0
  6
Continuous
 62
   179
370
     0
100
AcDbLine
 10
190.1904021169
 20
71.519100566
 30
0.0
 11
190.1367661169
 21
71.434006566
 31
0.0
  0
LINE
  5
21E
330
1F
100
AcDbEntity
  8
0
  6
Continuous
 62
   179
370
     0
100
AcDbLine
 10
190.1367661169
 20
71.434006566
 30
0.0
 11
190.0856241169
 21
71.345438566
 31
0.0
  0
LINE
  5
21F
330
1F
100
AcDbEntity
  8
0
  6
Continuous
 62
   179
370
     0
100
AcDbLine
 10
190.0856241169
 20
71.345438566
 30
0.0
 11
190.0370751169
 21
71.253568566
 31
0.0
  0
LINE
  5
220
330
1F
100
AcDbEntity
  8
0
  6
Continuous
 62
   179
370
     0
100
AcDbLine
 10
190.0370751169
 20
71.253568566
 30
0.0
 11
189.9912111169
 21
71.158569566
 31
0.0
  0
LINE
  5
221
330
1F
100
AcDbEntity
  8
0
  6
Continuous
 62
   179
370
     0
100
AcDbLine
 10
189.9912111169
 20
71.158569566
 30
0.0
 11
189.9481181169
 21
71.060621566
 31
0.0
  0
LINE
  5
222
330
1F
100
AcDbEntity
  8
0
  6
Continuous
 62
   179
370
     0
100
AcDbLine
 10
189.9481181169
 20
71.060621566
 30
0.0
 11
189.9078801169
 21
70.959912566
 31
0.0
  0
LINE
  5
223
330
1F
100
AcDbEntity
  8
0
  6
Continuous
 62
   179
370
     0
100
AcDbLine
 10
189.9078801169
 20
70.959912566
 30
0.0
 11
189.8705731169
 21
70.856633566
 31
0.0
  0
LINE
  5
224
330
1F
100
AcDbEntity
  8
0
  6
Continuous
 62
   179
370
     0
100
AcDbLine
 10
189.8705731169
 20
70.856633566
 30
0.0
 11
189.8362671169
 21
70.750981566
 31
0.0
  0
LINE
  5
225
330
1F
100
AcDbEntity
  8
0
  6
Continuous
 62
   179
370
     0
100
AcDbLine
 10
189.8362671169
 20
70.750981566
 30
0.0
 11
189.8050281169
 21
70.643157566
 31
0.0
  0
LINE
  5
226
330
1F
100
AcDbEntity
  8
0
  6
Continuous
 62
   179
370
     0
100
AcDbLine
 10
189.8050281169
 20
70.643157566
 30
0.0
 11
189.7769171169
 21
70.533367566
 31
0.0
  0
LINE
  5
227
330
1F
100
AcDbEntity
  8
0
  6
Continuous
 62
   179
370
     0
100
AcDbLine
 10
189.7769171169
 20
70.533367566
 30
0.0
 11
189.7519841169
 21
70.421818566
 31
0.0
  0
LINE
  5
228
330
1F
100
AcDbEntity
  8
0
  6
Continuous
 62
   179
370
     0
100
AcDbLine
 10
189.7519841169
 20
70.421818566
 30
0.0
 11
189.7302801169
 21
70.308723566
 31
0.0
  0
LINE
  5
229
330
1F
100
AcDbEntity
  8
0
  6
Continuous
 62
   179
370
     0
100
AcDbLine
 10
189.7302801169
 20
70.308723566
 30
0.0
 11
189.7118431169
 21
70.194299566
 31
0.0
  0
LINE
  5
22A
330
1F
100
AcDbEntity
  8
0
  6
Continuous
 62
   179
370
     0
100
AcDbLine
 10
189.7118431169
 20
70.194299566
 30
0.0
 11
189.6967121169
 21
70.078762566
 31
0.0
  0
LINE
  5
22B
330
1F
100
AcDbEntity
  8
0
  6
Continuous
 62
   179
370
     0
100
AcDbLine
 10
189.6967121169
 20
70.078762566
 30
0.0
 11
189.6849121169
 21
69.962333566
 31
0.0
  0
LINE
  5
22C
330
1F
100
AcDbEntity
  8
0
  6
Continuous
 62
   179
370
     0
100
AcDbLine
 10
189.6849121169
 20
69.962333566
 30
0.0
 11
189.6764681169
 21
69.845233566
 31
0.0
  0
LINE
  5
22D
330
1F
100
AcDbEntity
  8
0
  6
Continuous
 62
   179
370
     0
100
AcDbLine
 10
189.6764681169
 20
69.845233566
 30
0.0
 11
189.6713951169
 21
69.727685566
 31
0.0
  0
LINE
  5
22E
330
1F
100
AcDbEntity
  8
0
  6
Continuous
 62
   179
370
     0
100
AcDbLine
 10
189.6713951169
 20
69.727685566
 30
0.0
 11
189.6697031169
 21
69.609912566
 31
0.0
  0
LINE
  5
22F
330
1F
100
AcDbEntity
  8
0
  6
Continuous
 62
   179
370
     0
100
AcDbLine
 10
189.6697031169
 20
69.609912566
 30
0.0
 11
189.6713951169
 21
69.492139566
 31
0.0
  0
LINE
  5
230
330
1F
100
AcDbEntity
  8
0
  6
Continuous
 62
   179
370
     0
100
AcDbLine
 10
189.6713951169
 20
69.492139566
 30
0.0
 11
189.6764681169
 21
69.374591566
 31
0.0
  0
LINE
  5
231
330
1F
100
AcDbEntity
  8
0
  6
Continuous
 62
   179
370
     0
100
AcDbLine
 10
189.6764681169
 20
69.374591566
 30
0.0
 11
189.6849121169
 21
69.257491566
 31
0.0
  0
LINE
  5
232
330
1F
100
AcDbEntity
  8
0
  6
Continuous
 62
   179
370
     0
100
AcDbLine
 10
189.6849121169
 20
69.257491566
 30
0.0
 11
189.6967121169
 21
69.141062566
 31
0.0
  0
LINE
  5
233
330
1F
100
AcDbEntity
  8
0
  6
Continuous
 62
   179
370
     0
100
AcDbLine
 10
189.6967121169
 20
69.141062566
 30
0.0
 11
189.7118431169
 21
69.025525566
 31
0.0
  0
LINE
  5
234
330
1F
100
AcDbEntity
  8
0
  6
Continuous
 62
   179
370
     0
100
AcDbLine
 10
189.7118431169
 20
69.025525566
 30
0.0
 11
189.7302801169
 21
68.911101566
 31
0.0
  0
LINE
  5
235
330
1F
100
AcDbEntity
  8
0
  6
Continuous
 62
   179
370
     0
100
AcDbLine
 10
189.7302801169
 20
68.911101566
 30
0.0
 11
189.7519841169
 21
68.798006566
 31
0.0
  0
LINE
  5
236
330
1F
100
AcDbEntity
  8
0
  6
Continuous
 62
   179
370
     0
100
AcDbLine
 10
189.7519841169
 20
68.798006566
 30
0.0
 11
189.7769171169
 21
68.686457566
 31
0.0
  0
LINE
  5
237
330
1F
100
AcDbEntity
  8
0
  6
Continuous
 62
   179
370
     0
100
AcDbLine
 10
189.7769171169
 20
68.686457566
 30
0.0
 11
189.8050281169
 21
68.576667566
 31
0.0
  0
LINE
  5
238
330
1F
100
AcDbEntity
  8
0
  6
Continuous
 62
   179
370
     0
100
AcDbLine
 10
189.8050281169
 20
68.576667566
 30
0.0
 11
189.8362671169
 21
68.468843566
 31
0.0
  0
LINE
  5
239
330
1F
100
AcDbEntity
  8
0
  6
Continuous
 62
   179
370
     0
100
AcDbLine
 10
189.8362671169
 20
68.468843566
 30
0.0
 11
189.8705731169
 21
68.363191566
 31
0.0
  0
LINE
  5
23A
330
1F
100
AcDbEntity
  8
0
  6
Continuous
 62
   179
370
     0
100
AcDbLine
 10
189.8705731169
 20
68.363191566
 30
0.0
 11
189.9078801169
 21
68.259912566
 31
0.0
  0
LINE
  5
23B
330
1F
100
AcDbEntity
  8
0
  6
Continuous
 62
   179
370
     0
100
AcDbLine
 10
189.9078801169
 20
68.259912566
 30
0.0
 11
189.9481181169
 21
68.159203566
 31
0.0
  0
LINE
  5
23C
330
1F
100
AcDbEntity
  8
0
  6
Continuous
 62
   179
370
     0
100
AcDbLine
 10
189.9481181169
 20
68.159203566
 30
0.0
 11
189.9912111169
 21
68.061255566
 31
0.0
  0
LINE
  5
23D
330
1F
100
AcDbEntity
  8
0
  6
Continuous
 62
   179
370
     0
100
AcDbLine
 10
189.9912111169
 20
68.061255566
 30
0.0
 11
190.0370751169
 21
67.966256566
 31
0.0
  0
LINE
  5
23E
330
1F
100
AcDbEntity
  8
0
  6
Continuous
 62
   179
370
     0
100
AcDbLine
 10
190.0370751169
 20
67.966256566
 30
0.0
 11
190.0856241169
 21
67.874386566
 31
0.0
  0
LINE
  5
23F
330
1F
100
AcDbEntity
  8
0
  6
Continuous
 62
   179
370
     0
100
AcDbLine
 10
190.0856241169
 20
67.874386566
 30
0.0
 11
190.1367661169
 21
67.785818566
 31
0.0
  0
LINE
  5
240
330
1F
100
AcDbEntity
  8
0
  6
Continuous
 62
   179
370
     0
100
AcDbLine
 10
190.1367661169
 20
67.785818566
 30
0.0
 11
190.1904021169
 21
67.700724566
 31
0.0
  0
LINE
  5
241
330
1F
100
AcDbEntity
  8
0
  6
Continuous
 62
   179
370
     0
100
AcDbLine
 10
190.1904021169
 20
67.700724566
 30
0.0
 11
190.2464311169
 21
67.619263566
 31
0.0
  0
LINE
  5
242
330
1F
100
AcDbEntity
  8
0
  6
Continuous
 62
   179
370
     0
100
AcDbLine
 10
190.2464311169
 20
67.619263566
 30
0.0
 11
190.3047471169
 21
67.541592566
 31
0.0
  0
LINE
  5
243
330
1F
100
AcDbEntity
  8
0
  6
Continuous
 62
   179
370
     0
100
AcDbLine
 10
190.3047471169
 20
67.541592566
 30
0.0
 11
190.3652381169
 21
67.467858566
 31
0.0
  0
LINE
  5
244
330
1F
100
AcDbEntity
  8
0
  6
Continuous
 62
   179
370
     0
100
AcDbLine
 10
190.3652381169
 20
67.467858566
 30
0.0
 11
190.4277891169
 21
67.398202566
 31
0.0
  0
LINE
  5
245
330
1F
100
AcDbEntity
  8
0
  6
Continuous
 62
   179
370
     0
100
AcDbLine
 10
190.4277891169
 20
67.398202566
 30
0.0
 11
190.4922811169
 21
67.332755566
 31
0.0
  0
LINE
  5
246
330
1F
100
AcDbEntity
  8
0
  6
Continuous
 62
   179
370
     0
100
AcDbLine
 10
190.4922811169
 20
67.332755566
 30
0.0
 11
190.5585921169
 21
67.271643566
 31
0.0
  0
LINE
  5
247
330
1F
100
AcDbEntity
  8
0
  6
Continuous
 62
   179
370
     0
100
AcDbLine
 10
190.5585921169
 20
67.271643566
 30
0.0
 11
190.6265951169
 21
67.214983566
 31
0.0
  0
LINE
  5
248
330
1F
100
AcDbEntity
  8
0
  6
Continuous
 62
   179
370
     0
100
AcDbLine
 10
190.6265951169
 20
67.214983566
 30
0.0
 11
190.6961591169
 21
67.162881566
 31
0.0
  0
LINE
  5
249
330
1F
100
AcDbEntity
  8
0
  6
Continuous
 62
   179
370
     0
100
AcDbLine
 10
190.6961591169
 20
67.162881566
 30
0.0
 11
190.7671541169
 21
67.115437566
 31
0.0
  0
LINE
  5
24A
330
1F
100
AcDbEntity
  8
0
  6
Continuous
 62
   179
370
     0
100
AcDbLine
 10
190.7671541169
 20
67.115437566
 30
0.0
 11
190.8394451169
 21
67.072742566
 31
0.0
  0
LINE
  5
24B
330
1F
100
AcDbEntity
  8
0
  6
Continuous
 62
   179
370
     0
100
AcDbLine
 10
190.8394451169
 20
67.072742566
 30
0.0
 11
190.9128931169
 21
67.034876566
 31
0.0
  0
LINE
  5
24C
330
1F
100
AcDbEntity
  8
0
  6
Continuous
 62
   179
370
     0
100
AcDbLine
 10
190.9128931169
 20
67.034876566
 30
0.0
 11
190.9873581169
 21
67.001912566
 31
0.0
  0
LINE
  5
24D
330
1F
100
AcDbEntity
  8
0
  6
Continuous
 62
   179
370
     0
100
AcDbLine
 10
190.9873581169
 20
67.001912566
 30
0.0
 11
191.0626991169
 21
66.973913566
 31
0.0
  0
LINE
  5
24E
330
1F
100
AcDbEntity
  8
0
  6
Continuous
 62
   179
370
     0
100
AcDbLine
 10
191.0626991169
 20
66.973913566
 30
0.0
 11
191.1387731169
 21
66.950931566
 31
0.0
  0
LINE
  5
24F
330
1F
100
AcDbEntity
  8
0
  6
Continuous
 62
   179
370
     0
100
AcDbLine
 10
191.1387731169
 20
66.950931566
 30
0.0
 11
191.2154341169
 21
66.933011566
 31
0.0
  0
LINE
  5
250
330
1F
100
AcDbEntity
  8
0
  6
Continuous
 62
   179
370
     0
100
AcDbLine
 10
191.2154341169
 20
66.933011566
 30
0.0
 11
191.2925371169
 21
66.920186566
 31
0.0
  0
LINE
  5
251
330
1F
100
AcDbEntity
  8
0
  6
Continuous
 62
   179
370
     0
100
AcDbLine
 10
191.2925371169
 20
66.920186566
 30
0.0
 11
191.3699351169
 21
66.912482566
 31
0.0
  0
LINE
  5
252
330
1F
100
AcDbEntity
  8
0
  6
Continuous
 62
   179
370
     0
100
AcDbLine
 10
191.3699351169
 20
66.912482566
 30
0.0
 11
191.4474811169
 21
66.909912566
 31
0.0
  0
LINE
  5
253
330
1F
100
AcDbEntity
  8
0
  6
Continuous
 62
   179
370
     0
100
AcDbLine
 10
190.3808141169
 20
69.272412566
 30
0.0
 11
190.3808141169
 21
69.947412566
 31
0.0
  0
LINE
  5
254
330
1F
100
AcDbEntity
  8
0
  6
Continuous
 62
   179
370
     0
100
AcDbLine
 10
192.8697031169
 20
72.309912566
 30
0.0
 11
192.5141471169
 21
72.309912566
 31
0.0
  0
LINE
  5
255
330
1F
100
AcDbEntity
  8
0
  6
Continuous
 62
   179
370
     0
100
AcDbLine
 10
192.5141471169
 20
66.909912566
 30
0.0
 11
192.8697031169
 21
66.909912566
 31
0.0
  0
LINE
  5
256
330
1F
100
AcDbEntity
  8
0
  6
Continuous
 62
   179
370
     0
100
AcDbLine
 10
191.4474811169
 20
72.309912566
 30
0.0
 11
192.5141471169
 21
72.309912566
 31
0.0
  0
LINE
  5
257
330
1F
100
AcDbEntity
  8
0
  6
Continuous
 62
   179
370
     0
100
AcDbLine
 10
191.4474811169
 20
66.909912566
 30
0.0
 11
192.5141471169
 21
66.909912566
 31
0.0
  0
LINE
  5
258
330
1F
100
AcDbEntity
  8
0
  6
Continuous
 62
   179
370
     0
100
AcDbLine
 10
192.5141471169
 20
66.909912566
 30
0.0
 11
192.5141471169
 21
72.309912566
 31
0.0
  0
LINE
  5
259
330
1F
100
AcDbEntity
  8
0
  6
Continuous
 62
   179
370
     0
100
AcDbLine
 10
192.8697031169
 20
66.709912566
 30
0.0
 11
192.8697031169
 21
66.109912566
 31
0.0
  0
LINE
  5
25A
330
1F
100
AcDbEntity
  8
0
  6
Continuous
 62
   179
370
     0
100
AcDbLine
 10
192.8697031169
 20
67.909912566
 30
0.0
 11
192.8697031169
 21
68.609912566
 31
0.0
  0
LINE
  5
25B
330
1F
100
AcDbEntity
  8
0
  6
Continuous
 62
   179
370
     0
100
AcDbLine
 10
192.8697031169
 20
70.609912566
 30
0.0
 11
192.8697031169
 21
71.309912566
 31
0.0
  0
LINE
  5
25C
330
1F
100
AcDbEntity
  8
0
  6
Continuous
 62
   179
370
     0
100
AcDbLine
 10
192.8697031169
 20
73.109912566
 30
0.0
 11
192.8697031169
 21
72.509912566
 31
0.0
  0
LINE
  5
25D
330
1F
100
AcDbEntity
  8
0
  6
Continuous
 62
   179
370
     0
100
AcDbLine
 10
193.1697031169
 20
72.309912566
 30
0.0
 11
192.8697031169
 21
72.509912566
 31
0.0
  0
LINE
  5
25E
330
1F
100
AcDbEntity
  8
0
  6
Continuous
 62
   179
370
     0
100
AcDbLine
 10
192.8697031169
 20
71.309912566
 30
0.0
 11
193.1697031169
 21
71.509912566
 31
0.0
  0
LINE
  5
25F
330
1F
100
AcDbEntity
  8
0
  6
Continuous
 62
   179
370
     0
100
AcDbLine
 10
193.1697031169
 20
70.409912566
 30
0.0
 11
192.8697031169
 21
70.609912566
 31
0.0
  0
LINE
  5
260
330
1F
100
AcDbEntity
  8
0
  6
Continuous
 62
   179
370
     0
100
AcDbLine
 10
192.8697031169
 20
68.609912566
 30
0.0
 11
193.1697031169
 21
68.809912566
 31
0.0
  0
LINE
  5
261
330
1F
100
AcDbEntity
  8
0
  6
Continuous
 62
   179
370
     0
100
AcDbLine
 10
193.1697031169
 20
67.709912566
 30
0.0
 11
192.8697031169
 21
67.909912566
 31
0.0
  0
LINE
  5
262
330
1F
100
AcDbEntity
  8
0
  6
Continuous
 62
   179
370
     0
100
AcDbLine
 10
192.8697031169
 20
66.709912566
 30
0.0
 11
193.1697031169
 21
66.909912566
 31
0.0
  0
LINE
  5
263
330
1F
100
AcDbEntity
  8
0
  6
Continuous
 62
   179
370
     0
100
AcDbLine
 10
193.3697031169
 20
66.509912566
 30
0.0
 11
193.6697031169
 21
66.709912566
 31
0.0
  0
LINE
  5
264
330
1F
100
AcDbEntity
  8
0
  6
Continuous
 62
   179
370
     0
100
AcDbLine
 10
193.3697031169
 20
66.109912566
 30
0.0
 11
193.3697031169
 21
66.509912566
 31
0.0
  0
LINE
  5
265
330
1F
100
AcDbEntity
  8
0
  6
Continuous
 62
   179
370
     0
100
AcDbLine
 10
192.8697031169
 20
66.109912566
 30
0.0
 11
193.3697031169
 21
66.109912566
 31
0.0
  0
LINE
  5
266
330
1F
100
AcDbEntity
  8
0
  6
Continuous
 62
   179
370
     0
100
AcDbLine
 10
193.3697031169
 20
68.309912566
 30
0.0
 11
193.6697031169
 21
68.109912566
 31
0.0
  0
LINE
  5
267
330
1F
100
AcDbEntity
  8
0
  6
Continuous
 62
   179
370
     0
100
AcDbLine
 10
193.3697031169
 20
70.909912566
 30
0.0
 11
193.3697031169
 21
68.309912566
 31
0.0
  0
LINE
  5
268
330
1F
100
AcDbEntity
  8
0
  6
Continuous
 62
   179
370
     0
100
AcDbLine
 10
193.6697031169
 20
71.109912566
 30
0.0
 11
193.3697031169
 21
70.909912566
 31
0.0
  0
LINE
  5
269
330
1F
100
AcDbEntity
  8
0
  6
Continuous
 62
   179
370
     0
100
AcDbLine
 10
193.3697031169
 20
72.709912566
 30
0.0
 11
193.6697031169
 21
72.509912566
 31
0.0
  0
LINE
  5
26A
330
1F
100
AcDbEntity
  8
0
  6
Continuous
 62
   179
370
     0
100
AcDbLine
 10
193.3697031169
 20
73.109912566
 30
0.0
 11
193.3697031169
 21
72.709912566
 31
0.0
  0
LINE
  5
26B
330
1F
100
AcDbEntity
  8
0
  6
Continuous
 62
   179
370
     0
100
AcDbLine
 10
193.3697031169
 20
73.109912566
 30
0.0
 11
192.8697031169
 21
73.109912566
 31
0.0
  0
LINE
  5
26C
330
1F
100
AcDbEntity
  8
0
  6
Continuous
 62
   179
370
     0
100
AcDbLine
 10
193.1697031169
 20
72.309912566
 30
0.0
 11
193.1697031169
 21
71.509912566
 31
0.0
  0
LINE
  5
26D
330
1F
100
AcDbEntity
  8
0
  6
Continuous
 62
   179
370
     0
100
AcDbLine
 10
193.1697031169
 20
70.409912566
 30
0.0
 11
193.1697031169
 21
68.809912566
 31
0.0
  0
LINE
  5
26E
330
1F
100
AcDbEntity
  8
0
  6
Continuous
 62
   179
370
     0
100
AcDbLine
 10
193.1697031169
 20
66.909912566
 30
0.0
 11
193.1697031169
 21
67.709912566
 31
0.0
  0
LINE
  5
26F
330
1F
100
AcDbEntity
  8
0
  6
Continuous
 62
   179
370
     0
100
AcDbLine
 10
194.1697031169
 20
64.559912566
 30
0.0
 11
193.7697031169
 21
64.559912566
 31
0.0
  0
LINE
  5
270
330
1F
100
AcDbEntity
  8
0
  6
Continuous
 62
   179
370
     0
100
AcDbLine
 10
137.6080825611
 20
126.268091814
 30
0.0
 11
124.8080825611
 21
126.268091814
 31
0.0
  0
LINE
  5
271
330
1F
100
AcDbEntity
  8
0
  6
Continuous
 62
   179
370
     0
100
AcDbLine
 10
137.4080820611
 20
113.068090314
 30
0.0
 11
116.7080820611
 21
113.068090314
 31
0.0
  0
LINE
  5
272
330
1F
100
AcDbEntity
  8
0
  6
Continuous
 62
   179
370
     0
100
AcDbLine
 10
135.3080830611
 20
113.168090314
 30
0.0
 11
124.9080830611
 21
113.168090314
 31
0.0
  0
LINE
  5
273
330
1F
100
AcDbEntity
  8
0
  6
Continuous
 62
   179
370
     0
100
AcDbLine
 10
126.7580820611
 20
127.468090314
 30
0.0
 11
131.8521410611
 21
127.468090314
 31
0.0
  0
LINE
  5
274
330
1F
100
AcDbEntity
  8
0
  6
Continuous
 62
   179
370
     0
100
AcDbLine
 10
116.3080820611
 20
113.068090314
 30
0.0
 11
137.8080820611
 21
113.068090314
 31
0.0
  0
LINE
  5
275
330
1F
100
AcDbEntity
  8
0
  6
Continuous
 62
   179
370
     0
100
AcDbLine
 10
127.2080820611
 20
110.068090314
 30
0.0
 11
133.1080820611
 21
110.068090314
 31
0.0
  0
LINE
  5
276
330
1F
100
AcDbEntity
  8
0
  6
Continuous
 62
   179
370
     0
100
AcDbLine
 10
134.7080820611
 20
111.068090314
 30
0.0
 11
125.6080820611
 21
111.068090314
 31
0.0
  0
LINE
  5
277
330
1F
100
AcDbEntity
  8
0
  6
Continuous
 62
   179
370
     0
100
AcDbLine
 10
133.6580820611
 20
124.018090314
 30
0.0
 11
126.6580820611
 21
124.018090314
 31
0.0
  0
LINE
  5
278
330
1F
100
AcDbEntity
  8
0
  6
Continuous
 62
   179
370
     0
100
AcDbLine
 10
129.6580820611
 20
118.418090314
 30
0.0
 11
126.9655820611
 21
118.418090314
 31
0.0
  0
LINE
  5
279
330
1F
100
AcDbEntity
  8
0
  6
Continuous
 62
   179
370
     0
100
AcDbLine
 10
129.6580820611
 20
119.618090314
 30
0.0
 11
126.9655820611
 21
119.618090314
 31
0.0
  0
LINE
  5
27A
330
1F
100
AcDbEntity
  8
0
  6
Continuous
 62
   179
370
     0
100
AcDbLine
 10
126.6580820611
 20
114.018090314
 30
0.0
 11
133.6580820611
 21
114.018090314
 31
0.0
  0
LINE
  5
27B
330
1F
100
AcDbEntity
  8
0
  6
Continuous
 62
   179
370
     0
100
AcDbLine
 10
137.8080820611
 20
112.868090314
 30
0.0
 11
116.3080820611
 21
112.868090314
 31
0.0
  0
LINE
  5
27C
330
1F
100
AcDbEntity
  8
0
  6
Continuous
 62
   179
370
     0
100
AcDbLine
 10
125.6080820611
 20
113.068090314
 30
0.0
 11
125.6080820611
 21
111.068090314
 31
0.0
  0
LINE
  5
27D
330
1F
100
AcDbEntity
  8
0
  6
Continuous
 62
   179
370
     0
100
AcDbLine
 10
119.4080820611
 20
113.068090314
 30
0.0
 11
119.4080820611
 21
111.868090314
 31
0.0
  0
LINE
  5
27E
330
1F
100
AcDbEntity
  8
0
  6
Continuous
 62
   179
370
     0
100
AcDbLine
 10
192.2773039621
 20
176.6590936891
 30
0.0
 11
190.7773039621
 21
176.6590936891
 31
0.0
  0
LINE
  5
27F
330
1F
100
AcDbEntity
  8
0
  6
Continuous
 62
   179
370
     0
100
AcDbLine
 10
124.9080830611
 20
113.168090314
 30
0.0
 11
124.9080830611
 21
125.468090314
 31
0.0
  0
LINE
  5
280
330
1F
100
AcDbEntity
  8
0
  6
Continuous
 62
   179
370
     0
100
AcDbLine
 10
123.8080820611
 20
113.068090314
 30
0.0
 11
123.8080820611
 21
127.268090314
 31
0.0
  0
LINE
  5
281
330
1F
100
AcDbEntity
  8
0
  6
Continuous
 62
   179
370
     0
100
AcDbLine
 10
124.8080825611
 20
113.068090814
 30
0.0
 11
124.8080825611
 21
126.268091814
 31
0.0
  0
LINE
  5
282
330
1F
100
AcDbEntity
  8
0
  6
Continuous
 62
   179
370
     0
100
AcDbLine
 10
117.8080820611
 20
113.068090314
 30
0.0
 11
117.8080820611
 21
126.268091314
 31
0.0
  0
LINE
  5
283
330
1F
100
AcDbEntity
  8
0
  6
Continuous
 62
   179
370
     0
100
AcDbLine
 10
116.5080820611
 20
126.268091314
 30
0.0
 11
116.5080820611
 21
113.168090314
 31
0.0
  0
LINE
  5
284
330
1F
100
AcDbEntity
  8
0
  6
Continuous
 62
   179
370
     0
100
AcDbLine
 10
117.6080820611
 20
126.268091314
 30
0.0
 11
117.6080820611
 21
113.068090314
 31
0.0
  0
LINE
  5
285
330
1F
100
AcDbEntity
  8
0
  6
Continuous
 62
   179
370
     0
100
AcDbLine
 10
127.1580820611
 20
120.268090314
 30
0.0
 11
127.1580820611
 21
124.018090314
 31
0.0
  0
LINE
  5
286
330
1F
100
AcDbEntity
  8
0
  6
Continuous
 62
   179
370
     0
100
AcDbLine
 10
126.1580820611
 20
123.518090314
 30
0.0
 11
126.1580820611
 21
114.518090314
 31
0.0
  0
LINE
  5
287
330
1F
100
AcDbEntity
  8
0
  6
Continuous
 62
   179
370
     0
100
AcDbLine
 10
126.3080825611
 20
126.268091814
 30
0.0
 11
126.3080825611
 21
125.468090814
 31
0.0
  0
LINE
  5
288
330
1F
100
AcDbEntity
  8
0
  6
Continuous
 62
   179
370
     0
100
AcDbLine
 10
126.3080825611
 20
125.468090814
 30
0.0
 11
124.8080825611
 21
125.468090814
 31
0.0
  0
LINE
  5
289
330
1F
100
AcDbEntity
  8
0
  6
Continuous
 62
   179
370
     0
100
AcDbLine
 10
117.8080820611
 20
126.268091314
 30
0.0
 11
117.6080820611
 21
126.268091314
 31
0.0
  0
LINE
  5
28A
330
1F
100
AcDbEntity
  8
0
  6
Continuous
 62
   179
370
     0
100
AcDbLine
 10
117.6080820611
 20
126.268091314
 30
0.0
 11
116.5080820611
 21
126.268091314
 31
0.0
  0
LINE
  5
28B
330
1F
100
AcDbEntity
  8
0
  6
Continuous
 62
   179
370
     0
100
AcDbLine
 10
117.6080820611
 20
131.668090314
 30
0.0
 11
116.5080820611
 21
131.668090314
 31
0.0
  0
LINE
  5
28C
330
1F
100
AcDbEntity
  8
0
  6
Continuous
 62
   179
370
     0
100
AcDbLine
 10
123.8080820611
 20
127.268090314
 30
0.0
 11
125.3080820611
 21
127.268090314
 31
0.0
  0
LINE
  5
28D
330
1F
100
AcDbEntity
  8
0
  6
Continuous
 62
   179
370
     0
100
AcDbLine
 10
127.1580820611
 20
120.268090314
 30
0.0
 11
126.1580820611
 21
120.268090314
 31
0.0
  0
LINE
  5
28E
330
1F
100
AcDbEntity
  8
0
  6
Continuous
 62
   179
370
     0
100
AcDbLine
 10
127.1580820611
 20
117.768090314
 30
0.0
 11
126.1580820611
 21
117.768090314
 31
0.0
  0
LINE
  5
28F
330
1F
100
AcDbEntity
  8
0
  6
Continuous
 62
   179
370
     0
100
AcDbLine
 10
127.1580820611
 20
117.768090314
 30
0.0
 11
127.1580820611
 21
114.018090314
 31
0.0
  0
LINE
  5
290
330
1F
100
AcDbEntity
  8
0
  6
Continuous
 62
   179
370
     0
100
AcDbLine
 10
192.2773039621
 20
176.8590936891
 30
0.0
 11
190.7773039621
 21
176.8590936891
 31
0.0
  0
LINE
  5
291
330
1F
100
AcDbEntity
  8
0
  6
Continuous
 62
   179
370
     0
100
AcDbLine
 10
192.2773039621
 20
176.8590936891
 30
0.0
 11
190.7773039621
 21
176.8590936891
 31
0.0
  0
LINE
  5
292
330
1F
100
AcDbEntity
  8
0
  6
Continuous
 62
   179
370
     0
100
AcDbLine
 10
121.7080820611
 20
112.368090314
 30
0.0
 11
121.7080820611
 21
110.868090314
 31
0.0
  0
LINE
  5
293
330
1F
100
AcDbEntity
  8
0
  6
CENTERX2
 62
   179
370
     0
100
AcDbLine
 10
124.4080820611
 20
106.868090314
 30
0.0
 11
119.0080820611
 21
106.868090314
 31
0.0
  0
LINE
  5
294
330
1F
100
AcDbEntity
  8
0
  6
CENTERX2
 62
   179
370
     0
100
AcDbLine
 10
121.7080820611
 20
110.368090314
 30
0.0
 11
121.7080820611
 21
103.368090314
 31
0.0
  0
LINE
  5
295
330
1F
100
AcDbEntity
  8
0
  6
Continuous
 62
   179
370
     0
100
AcDbLine
 10
127.2080820611
 20
111.068090314
 30
0.0
 11
127.2080820611
 21
110.068090314
 31
0.0
  0
LINE
  5
296
330
1F
100
AcDbEntity
  8
0
  6
Continuous
 62
   179
370
     0
100
AcDbLine
 10
127.5080820611
 20
110.068090314
 30
0.0
 11
127.5080820611
 21
103.868090314
 31
0.0
  0
LINE
  5
297
330
1F
100
AcDbEntity
  8
0
  6
Continuous
 62
   179
370
     0
100
AcDbLine
 10
118.4080820611
 20
111.868090314
 30
0.0
 11
119.4080820611
 21
111.868090314
 31
0.0
  0
LINE
  5
298
330
1F
100
AcDbEntity
  8
0
  6
Continuous
 62
   179
370
     0
100
AcDbLine
 10
119.4080830611
 20
106.368088014
 30
0.0
 11
119.4080820611
 21
107.368090314
 31
0.0
  0
LINE
  5
299
330
1F
100
AcDbEntity
  8
0
  6
Continuous
 62
   179
370
     0
100
AcDbLine
 10
124.0080810611
 20
106.368088014
 30
0.0
 11
124.0080820611
 21
107.368086864
 31
0.0
  0
LINE
  5
29A
330
1F
100
AcDbEntity
  8
0
  6
Continuous
 62
   179
370
     0
100
AcDbLine
 10
116.4080820611
 20
103.868090314
 30
0.0
 11
116.4080820611
 21
109.868090314
 31
0.0
  0
LINE
  5
29B
330
1F
100
AcDbEntity
  8
0
  6
Continuous
 62
   179
370
     0
100
AcDbLine
 10
125.6080820611
 20
101.868090314
 30
0.0
 11
118.4080820611
 21
101.868090314
 31
0.0
  0
LINE
  5
29C
330
1F
100
AcDbEntity
  8
0
  6
Continuous
 62
   179
370
     0
100
AcDbLine
 10
134.7080820611
 20
113.068090314
 30
0.0
 11
134.7080820611
 21
111.068090314
 31
0.0
  0
LINE
  5
29D
330
1F
100
AcDbEntity
  8
0
  6
Continuous
 62
   179
370
     0
100
AcDbLine
 10
136.0080820611
 20
112.368090314
 30
0.0
 11
136.0080820611
 21
113.068090314
 31
0.0
  0
LINE
  5
29E
330
1F
100
AcDbEntity
  8
0
  6
Continuous
 62
   179
370
     0
100
AcDbLine
 10
135.9080830611
 20
113.268091314
 30
0.0
 11
135.9080830611
 21
126.268091314
 31
0.0
  0
LINE
  5
29F
330
1F
100
AcDbEntity
  8
0
  6
Continuous
 62
   179
370
     0
100
AcDbLine
 10
137.6080825611
 20
113.568090814
 30
0.0
 11
137.6080825611
 21
126.268091814
 31
0.0
  0
LINE
  5
2A0
330
1F
100
AcDbEntity
  8
0
  6
Continuous
 62
   179
370
     0
100
AcDbLine
 10
135.3080830611
 20
113.168090314
 30
0.0
 11
135.3080830611
 21
126.268091314
 31
0.0
  0
LINE
  5
2A1
330
1F
100
AcDbEntity
  8
0
  6
Continuous
 62
   179
370
     0
100
AcDbLine
 10
134.1580820611
 20
123.518090314
 30
0.0
 11
134.1580820611
 21
114.518090314
 31
0.0
  0
LINE
  5
2A2
330
1F
100
AcDbEntity
  8
0
  6
Continuous
 62
   179
370
     0
100
AcDbLine
 10
133.1580820611
 20
120.268090314
 30
0.0
 11
133.1580820611
 21
124.018090314
 31
0.0
  0
LINE
  5
2A3
330
1F
100
AcDbEntity
  8
0
  6
Continuous
 62
   179
370
     0
100
AcDbLine
 10
131.9080820611
 20
121.768090314
 30
0.0
 11
131.9080820611
 21
124.018090314
 31
0.0
  0
LINE
  5
2A4
330
1F
100
AcDbEntity
  8
0
  6
Continuous
 62
   179
370
     0
100
AcDbLine
 10
128.4080820611
 20
121.768090314
 30
0.0
 11
128.4080820611
 21
124.018090314
 31
0.0
  0
LINE
  5
2A5
330
1F
100
AcDbEntity
  8
0
  6
Continuous
 62
   179
370
     0
100
AcDbLine
 10
135.3080820611
 20
125.468090314
 30
0.0
 11
131.3080820611
 21
125.468090314
 31
0.0
  0
LINE
  5
2A6
330
1F
100
AcDbEntity
  8
0
  6
Continuous
 62
   179
370
     0
100
AcDbLine
 10
131.3080820611
 20
125.468090314
 30
0.0
 11
131.3080820611
 21
126.268091314
 31
0.0
  0
LINE
  5
2A7
330
1F
100
AcDbEntity
  8
0
  6
Continuous
 62
   179
370
     0
100
AcDbLine
 10
133.7080820611
 20
128.568090314
 30
0.0
 11
133.7080820611
 21
132.368090314
 31
0.0
  0
LINE
  5
2A8
330
1F
100
AcDbEntity
  8
0
  6
Continuous
 62
   179
370
     0
100
AcDbLine
 10
136.2080820611
 20
128.568090314
 30
0.0
 11
131.9080820611
 21
128.568090314
 31
0.0
  0
LINE
  5
2A9
330
1F
100
AcDbEntity
  8
0
  6
Continuous
 62
   179
370
     0
100
AcDbLine
 10
136.2080820611
 20
132.368090314
 30
0.0
 11
131.9080820611
 21
132.368090314
 31
0.0
  0
LINE
  5
2AA
330
1F
100
AcDbEntity
  8
0
  6
Continuous
 62
   179
370
     0
100
AcDbLine
 10
137.3080830611
 20
113.268091314
 30
0.0
 11
135.9080830611
 21
113.268091314
 31
0.0
  0
LINE
  5
2AB
330
1F
100
AcDbEntity
  8
0
  6
Continuous
 62
   179
370
     0
100
AcDbLine
 10
135.3080830611
 20
113.168090314
 30
0.0
 11
135.9080830611
 21
113.268091314
 31
0.0
  0
LINE
  5
2AC
330
1F
100
AcDbEntity
  8
0
  6
Continuous
 62
   179
370
     0
100
AcDbLine
 10
128.4080820611
 20
116.268090314
 30
0.0
 11
128.4080820611
 21
114.018090314
 31
0.0
  0
LINE
  5
2AD
330
1F
100
AcDbEntity
  8
0
  6
CENTERX2
 62
   179
370
     0
100
AcDbLine
 10
131.7580820611
 20
119.018090314
 30
0.0
 11
128.5580820611
 21
119.018090314
 31
0.0
  0
LINE
  5
2AE
330
1F
100
AcDbEntity
  8
0
  6
Continuous
 62
   179
370
     0
100
AcDbLine
 10
130.6580820611
 20
121.018090314
 30
0.0
 11
130.6580820611
 21
119.618090314
 31
0.0
  0
LINE
  5
2AF
330
1F
100
AcDbEntity
  8
0
  6
CENTERX2
 62
   179
370
     0
100
AcDbLine
 10
130.1580820611
 20
117.418090314
 30
0.0
 11
130.1580820611
 21
120.618090314
 31
0.0
  0
LINE
  5
2B0
330
1F
100
AcDbEntity
  8
0
  6
Continuous
 62
   179
370
     0
100
AcDbLine
 10
129.6580820611
 20
119.618090314
 30
0.0
 11
129.6580820611
 21
121.018090314
 31
0.0
  0
LINE
  5
2B1
330
1F
100
AcDbEntity
  8
0
  6
Continuous
 62
   179
370
     0
100
AcDbLine
 10
129.6580820611
 20
121.018090314
 30
0.0
 11
130.6580820611
 21
121.018090314
 31
0.0
  0
LINE
  5
2B2
330
1F
100
AcDbEntity
  8
0
  6
Continuous
 62
   179
370
     0
100
AcDbLine
 10
130.6580820611
 20
118.418090314
 30
0.0
 11
133.3505820611
 21
118.418090314
 31
0.0
  0
LINE
  5
2B3
330
1F
100
AcDbEntity
  8
0
  6
Continuous
 62
   179
370
     0
100
AcDbLine
 10
130.6580820611
 20
117.018090314
 30
0.0
 11
130.6580820611
 21
118.418090314
 31
0.0
  0
LINE
  5
2B4
330
1F
100
AcDbEntity
  8
0
  6
Continuous
 62
   179
370
     0
100
AcDbLine
 10
129.6580820611
 20
118.418090314
 30
0.0
 11
129.6580820611
 21
117.018090314
 31
0.0
  0
LINE
  5
2B5
330
1F
100
AcDbEntity
  8
0
  6
Continuous
 62
   179
370
     0
100
AcDbLine
 10
129.6580820611
 20
117.018090314
 30
0.0
 11
130.6580820611
 21
117.018090314
 31
0.0
  0
LINE
  5
2B6
330
1F
100
AcDbEntity
  8
0
  6
Continuous
 62
   179
370
     0
100
AcDbLine
 10
130.6580820611
 20
119.618090314
 30
0.0
 11
133.3505830611
 21
119.618090314
 31
0.0
  0
LINE
  5
2B7
330
1F
100
AcDbEntity
  8
0
  6
Continuous
 62
   179
370
     0
100
AcDbLine
 10
133.1580820611
 20
120.268090314
 30
0.0
 11
134.1580820611
 21
120.268090314
 31
0.0
  0
LINE
  5
2B8
330
1F
100
AcDbEntity
  8
0
  6
Continuous
 62
   179
370
     0
100
AcDbLine
 10
133.1580820611
 20
117.768090314
 30
0.0
 11
134.1580820611
 21
117.768090314
 31
0.0
  0
LINE
  5
2B9
330
1F
100
AcDbEntity
  8
0
  6
Continuous
 62
   179
370
     0
100
AcDbLine
 10
133.1580820611
 20
117.768090314
 30
0.0
 11
133.1580820611
 21
114.018090314
 31
0.0
  0
LINE
  5
2BA
330
1F
100
AcDbEntity
  8
0
  6
Continuous
 62
   179
370
     0
100
AcDbLine
 10
131.9080820611
 20
116.268090314
 30
0.0
 11
131.9080820611
 21
114.018090314
 31
0.0
  0
LINE
  5
2BB
330
1F
100
AcDbEntity
  8
0
  6
Continuous
 62
   179
370
     0
100
AcDbLine
 10
133.1080820611
 20
111.068090314
 30
0.0
 11
133.1080820611
 21
110.068090314
 31
0.0
  0
LINE
  5
2BC
330
1F
100
AcDbEntity
  8
0
  6
Continuous
 62
   179
370
     0
100
AcDbLine
 10
134.7080820611
 20
111.868090314
 30
0.0
 11
135.5080820611
 21
111.868090314
 31
0.0
  0
LINE
  5
2BD
330
1F
100
AcDbEntity
  8
0
  6
Continuous
 62
   179
370
     0
100
AcDbLine
 10
279.5697031169
 20
75.309913566
 30
0.0
 11
277.9697031169
 21
75.309913566
 31
0.0
  0
LINE
  5
2BE
330
1F
100
AcDbEntity
  8
0
  6
Continuous
 62
   179
370
     0
100
AcDbLine
 10
279.5697031169
 20
77.109912566
 30
0.0
 11
277.9697031169
 21
77.109912566
 31
0.0
  0
LINE
  5
2BF
330
1F
100
AcDbEntity
  8
0
  6
Continuous
 62
   179
370
     0
100
AcDbLine
 10
272.1697031169
 20
75.009913566
 30
0.0
 11
272.1697031169
 21
74.009913566
 31
0.0
  0
LINE
  5
2C0
330
1F
100
AcDbEntity
  8
0
  6
Continuous
 62
   179
370
     0
100
AcDbLine
 10
270.7697031169
 20
75.209912566
 30
0.0
 11
270.7697031169
 21
73.809913566
 31
0.0
  0
LINE
  5
2C1
330
1F
100
AcDbEntity
  8
0
  6
Continuous
 62
   179
370
     0
100
AcDbLine
 10
271.4697031169
 20
74.009913566
 30
0.0
 11
277.9697031169
 21
74.009913566
 31
0.0
  0
LINE
  5
2C2
330
1F
100
AcDbEntity
  8
0
  6
Continuous
 62
   179
370
     0
100
AcDbLine
 10
274.7697031169
 20
77.109912566
 30
0.0
 11
274.7697031169
 21
74.109912566
 31
0.0
  0
LINE
  5
2C3
330
1F
100
AcDbEntity
  8
0
  6
Continuous
 62
   179
370
     0
100
AcDbLine
 10
277.9697031169
 20
75.309913566
 30
0.0
 11
277.9697031169
 21
74.309913566
 31
0.0
  0
LINE
  5
2C4
330
1F
100
AcDbEntity
  8
0
  6
Continuous
 62
   179
370
     0
100
AcDbLine
 10
272.7697031169
 20
74.109912566
 30
0.0
 11
272.7697031169
 21
75.209912566
 31
0.0
  0
LINE
  5
2C5
330
1F
100
AcDbEntity
  8
0
  6
Continuous
 62
   179
370
     0
100
AcDbLine
 10
274.7697031169
 20
74.109912566
 30
0.0
 11
272.7697031169
 21
74.109912566
 31
0.0
  0
LINE
  5
2C6
330
1F
100
AcDbEntity
  8
0
  6
Continuous
 62
   179
370
     0
100
AcDbLine
 10
270.7697031169
 20
75.009913566
 30
0.0
 11
272.1697031169
 21
75.009913566
 31
0.0
  0
LINE
  5
2C7
330
1F
100
AcDbEntity
  8
0
  6
Continuous
 62
   179
370
     0
100
AcDbLine
 10
274.7697031169
 20
76.909913566
 30
0.0
 11
277.9697031169
 21
76.909913566
 31
0.0
  0
LINE
  5
2C8
330
1F
100
AcDbEntity
  8
0
  6
Continuous
 62
   179
370
     0
100
AcDbLine
 10
277.9697031169
 20
75.309913566
 30
0.0
 11
274.7697031169
 21
75.309913566
 31
0.0
  0
LINE
  5
2C9
330
1F
100
AcDbEntity
  8
0
  6
Continuous
 62
   179
370
     0
100
AcDbLine
 10
277.9697031169
 20
76.909913566
 30
0.0
 11
277.9697031169
 21
77.109912566
 31
0.0
  0
LINE
  5
2CA
330
1F
100
AcDbEntity
  8
0
  6
Continuous
 62
   179
370
     0
100
AcDbLine
 10
260.4697031169
 20
77.109912566
 30
0.0
 11
261.9697031169
 21
77.109912566
 31
0.0
  0
LINE
  5
2CB
330
1F
100
AcDbEntity
  8
0
  6
Continuous
 62
   179
370
     0
100
AcDbLine
 10
272.7697031169
 20
75.209912566
 30
0.0
 11
270.7697031169
 21
75.209912566
 31
0.0
  0
LINE
  5
2CC
330
1F
100
AcDbEntity
  8
0
  6
Continuous
 62
   179
370
     0
100
AcDbLine
 10
274.7697031169
 20
77.109912566
 30
0.0
 11
268.7697031169
 21
77.109912566
 31
0.0
  0
LINE
  5
2CD
330
1F
100
AcDbEntity
  8
0
  6
Continuous
 62
   179
370
     0
100
AcDbLine
 10
181.0697031169
 20
77.009913566
 30
0.0
 11
186.0697031169
 21
77.009913566
 31
0.0
  0
LINE
  5
2CE
330
1F
100
AcDbEntity
  8
0
  6
Continuous
 62
   179
370
     0
100
AcDbLine
 10
220.4697031169
 20
77.109912566
 30
0.0
 11
221.9697031169
 21
77.109912566
 31
0.0
  0
LINE
  5
2CF
330
1F
100
AcDbEntity
  8
0
  6
Continuous
 62
   179
370
     0
100
AcDbLine
 10
250.4697031169
 20
77.109912566
 30
0.0
 11
251.9697031169
 21
77.109912566
 31
0.0
  0
LINE
  5
2D0
330
1F
100
AcDbEntity
  8
0
  6
Continuous
 62
   179
370
     0
100
AcDbLine
 10
240.4697036169
 20
77.109913066
 30
0.0
 11
241.9697036169
 21
77.109913066
 31
0.0
  0
LINE
  5
2D1
330
1F
100
AcDbEntity
  8
0
  6
Continuous
 62
   179
370
     0
100
AcDbLine
 10
230.4697031169
 20
77.109912566
 30
0.0
 11
231.9697031169
 21
77.109912566
 31
0.0
  0
LINE
  5
2D2
330
1F
100
AcDbEntity
  8
0
  6
Continuous
 62
   179
370
     0
100
AcDbLine
 10
186.3697031169
 20
77.009913566
 30
0.0
 11
208.2697031169
 21
77.209912566
 31
0.0
  0
LINE
  5
2D3
330
1F
100
AcDbEntity
  8
0
  6
Continuous
 62
   179
370
     0
100
AcDbLine
 10
206.4697031169
 20
76.009913566
 30
0.0
 11
208.0697031169
 21
76.009913566
 31
0.0
  0
LINE
  5
2D4
330
1F
100
AcDbEntity
  8
0
  6
Continuous
 62
   179
370
     0
100
AcDbLine
 10
208.2697031169
 20
76.209912566
 30
0.0
 11
208.0697031169
 21
76.009913566
 31
0.0
  0
LINE
  5
2D5
330
1F
100
AcDbEntity
  8
0
  6
Continuous
 62
   179
370
     0
100
AcDbLine
 10
208.2697031169
 20
77.209912566
 30
0.0
 11
208.2697031169
 21
76.209912566
 31
0.0
  0
LINE
  5
2D6
330
1F
100
AcDbEntity
  8
0
  6
Continuous
 62
   179
370
     0
100
AcDbLine
 10
208.0697031169
 20
76.009913566
 30
0.0
 11
208.2697031169
 21
76.009913566
 31
0.0
  0
LINE
  5
2D7
330
1F
100
AcDbEntity
  8
0
  6
Continuous
 62
   179
370
     0
100
AcDbLine
 10
208.2697031169
 20
77.109912566
 30
0.0
 11
212.2697031169
 21
77.109912566
 31
0.0
  0
LINE
  5
2D8
330
1F
100
AcDbEntity
  8
0
  6
Continuous
 62
   179
370
     0
100
AcDbLine
 10
186.1697031169
 20
77.009913566
 30
0.0
 11
186.2697031169
 21
77.009913566
 31
0.0
  0
LINE
  5
2D9
330
1F
100
AcDbEntity
  8
0
  6
Continuous
 62
   179
370
     0
100
AcDbLine
 10
186.1697031169
 20
76.809913566
 30
0.0
 11
186.1697031169
 21
75.509913566
 31
0.0
  0
LINE
  5
2DA
330
1F
100
AcDbEntity
  8
0
  6
Continuous
 62
   179
370
     0
100
AcDbLine
 10
184.3697031169
 20
75.609913566
 30
0.0
 11
183.1697031169
 21
75.609913566
 31
0.0
  0
LINE
  5
2DB
330
1F
100
AcDbEntity
  8
0
  6
Continuous
 62
   179
370
     0
100
AcDbLine
 10
186.3697031169
 20
75.309913566
 30
0.0
 11
194.1697031169
 21
74.709912566
 31
0.0
  0
LINE
  5
2DC
330
1F
100
AcDbEntity
  8
0
  6
Continuous
 62
   179
370
     0
100
AcDbLine
 10
186.0697031169
 20
75.609913566
 30
0.0
 11
182.0697031169
 21
75.609913566
 31
0.0
  0
LINE
  5
2DD
330
1F
100
AcDbEntity
  8
0
  6
Continuous
 62
   179
370
     0
100
AcDbLine
 10
193.7697031169
 20
74.609912566
 30
0.0
 11
194.1697031169
 21
74.609912566
 31
0.0
  0
LINE
  5
2DE
330
1F
100
AcDbEntity
  8
0
  6
Continuous
 62
   179
370
     0
100
AcDbLine
 10
191.0773039621
 20
176.6590936891
 30
0.0
 11
191.0773039621
 21
173.6590936891
 31
0.0
  0
LINE
  5
2DF
330
1F
100
AcDbEntity
  8
0
  6
Continuous
 62
   179
370
     0
100
AcDbLine
 10
190.7773039621
 20
176.8590936891
 30
0.0
 11
190.7773039621
 21
173.4590936891
 31
0.0
  0
LINE
  5
2E0
330
1F
100
AcDbEntity
  8
0
  6
Continuous
 62
   179
370
     0
100
AcDbLine
 10
190.7773039621
 20
176.8590936891
 30
0.0
 11
190.7773039621
 21
173.4590936891
 31
0.0
  0
LINE
  5
2E1
330
1F
100
AcDbEntity
  8
0
  6
Continuous
 62
   179
370
     0
100
AcDbLine
 10
192.2773039621
 20
173.4590936891
 30
0.0
 11
192.2773039621
 21
176.8590936891
 31
0.0
  0
LINE
  5
2E2
330
1F
100
AcDbEntity
  8
0
  6
Continuous
 62
   179
370
     0
100
AcDbLine
 10
192.2773039621
 20
173.4590936891
 30
0.0
 11
192.2773039621
 21
176.8590936891
 31
0.0
  0
LINE
  5
2E3
330
1F
100
AcDbEntity
  8
0
  6
Continuous
 62
   179
370
     0
100
AcDbLine
 10
192.2773039621
 20
176.6590936891
 30
0.0
 11
192.2773039621
 21
173.6590936891
 31
0.0
  0
LINE
  5
2E4
330
1F
100
AcDbEntity
  8
0
  6
Continuous
 62
   179
370
     0
100
AcDbLine
 10
189.0697031169
 20
113.2890212829
 30
0.0
 11
189.0697031169
 21
190.468090314
 31
0.0
  0
LINE
  5
2E5
330
1F
100
AcDbEntity
  8
0
  6
Continuous
 62
   179
370
     0
100
AcDbLine
 10
182.0697031169
 20
177.168090314
 30
0.0
 11
182.0697031169
 21
190.268091314
 31
0.0
  0
LINE
  5
2E6
330
1F
100
AcDbEntity
  8
0
  6
Continuous
 62
   179
370
     0
100
AcDbLine
 10
208.0697031169
 20
190.668091314
 30
0.0
 11
182.2697031169
 21
190.468090314
 31
0.0
  0
LINE
  5
2E7
330
1F
100
AcDbEntity
  8
0
  6
Continuous
 62
   179
370
     0
100
AcDbLine
 10
181.0697031169
 20
190.468090314
 30
0.0
 11
182.0697031169
 21
190.468090314
 31
0.0
  0
LINE
  5
2E8
330
1F
100
AcDbEntity
  8
0
  6
Continuous
 62
   179
370
     0
100
AcDbLine
 10
208.0697031169
 20
190.668091314
 30
0.0
 11
208.0697031169
 21
113.068090314
 31
0.0
  0
LINE
  5
2E9
330
1F
100
AcDbEntity
  8
0
  6
Continuous
 62
   179
370
     0
100
AcDbLine
 10
252.0697031169
 20
190.668091314
 30
0.0
 11
252.0697031169
 21
113.068090314
 31
0.0
  0
LINE
  5
2EA
330
1F
100
AcDbEntity
  8
0
  6
Continuous
 62
   179
370
     0
100
AcDbLine
 10
250.0697031169
 20
190.668091314
 30
0.0
 11
250.0697031169
 21
113.068090314
 31
0.0
  0
LINE
  5
2EB
330
1F
100
AcDbEntity
  8
0
  6
Continuous
 62
   179
370
     0
100
AcDbLine
 10
242.0697031169
 20
190.668091314
 30
0.0
 11
242.0697031169
 21
113.068090314
 31
0.0
  0
LINE
  5
2EC
330
1F
100
AcDbEntity
  8
0
  6
Continuous
 62
   179
370
     0
100
AcDbLine
 10
240.0697031169
 20
190.668091314
 30
0.0
 11
240.0697031169
 21
113.068090314
 31
0.0
  0
LINE
  5
2ED
330
1F
100
AcDbEntity
  8
0
  6
Continuous
 62
   179
370
     0
100
AcDbLine
 10
232.0697031169
 20
190.668091314
 30
0.0
 11
232.0697031169
 21
113.068090314
 31
0.0
  0
LINE
  5
2EE
330
1F
100
AcDbEntity
  8
0
  6
Continuous
 62
   179
370
     0
100
AcDbLine
 10
230.0697031169
 20
190.668091314
 30
0.0
 11
230.0697031169
 21
113.068090314
 31
0.0
  0
LINE
  5
2EF
330
1F
100
AcDbEntity
  8
0
  6
Continuous
 62
   179
370
     0
100
AcDbLine
 10
222.0697031169
 20
190.668091314
 30
0.0
 11
222.0697031169
 21
113.068090314
 31
0.0
  0
LINE
  5
2F0
330
1F
100
AcDbEntity
  8
0
  6
Continuous
 62
   179
370
     0
100
AcDbLine
 10
220.0697031169
 20
190.668091314
 30
0.0
 11
220.0697031169
 21
113.068090314
 31
0.0
  0
LINE
  5
2F1
330
1F
100
AcDbEntity
  8
0
  6
Continuous
 62
   179
370
     0
100
AcDbLine
 10
212.0697031169
 20
190.668091314
 30
0.0
 11
212.0697031169
 21
113.068090314
 31
0.0
  0
LINE
  5
2F2
330
1F
100
AcDbEntity
  8
0
  6
Continuous
 62
   179
370
     0
100
AcDbLine
 10
220.2697031169
 20
190.668091314
 30
0.0
 11
220.2697031169
 21
113.068090314
 31
0.0
  0
LINE
  5
2F3
330
1F
100
AcDbEntity
  8
0
  6
Continuous
 62
   179
370
     0
100
AcDbLine
 10
221.7697031169
 20
190.668091314
 30
0.0
 11
221.7697031169
 21
113.068090314
 31
0.0
  0
LINE
  5
2F4
330
1F
100
AcDbEntity
  8
0
  6
Continuous
 62
   179
370
     0
100
AcDbLine
 10
230.2697031169
 20
190.668091314
 30
0.0
 11
230.2697031169
 21
113.068090314
 31
0.0
  0
LINE
  5
2F5
330
1F
100
AcDbEntity
  8
0
  6
Continuous
 62
   179
370
     0
100
AcDbLine
 10
231.7697031169
 20
190.668091314
 30
0.0
 11
231.7697031169
 21
113.068090314
 31
0.0
  0
LINE
  5
2F6
330
1F
100
AcDbEntity
  8
0
  6
Continuous
 62
   179
370
     0
100
AcDbLine
 10
240.2697031169
 20
190.668091314
 30
0.0
 11
240.2697031169
 21
113.068090314
 31
0.0
  0
LINE
  5
2F7
330
1F
100
AcDbEntity
  8
0
  6
Continuous
 62
   179
370
     0
100
AcDbLine
 10
241.7697031169
 20
190.668091314
 30
0.0
 11
241.7697031169
 21
113.068090314
 31
0.0
  0
LINE
  5
2F8
330
1F
100
AcDbEntity
  8
0
  6
Continuous
 62
   179
370
     0
100
AcDbLine
 10
250.2697031169
 20
190.668091314
 30
0.0
 11
250.2697031169
 21
113.068090314
 31
0.0
  0
LINE
  5
2F9
330
1F
100
AcDbEntity
  8
0
  6
Continuous
 62
   179
370
     0
100
AcDbLine
 10
251.7697031169
 20
190.668091314
 30
0.0
 11
251.7697031169
 21
113.068090314
 31
0.0
  0
LINE
  5
2FA
330
1F
100
AcDbEntity
  8
0
  6
Continuous
 62
   179
370
     0
100
AcDbLine
 10
181.0697031169
 20
113.368091314
 30
0.0
 11
181.0697031169
 21
190.468090314
 31
0.0
  0
LINE
  5
2FB
330
1F
100
AcDbEntity
  8
0
  6
Continuous
 62
   179
370
     0
100
AcDbLine
 10
182.0697031169
 20
190.468090314
 30
0.0
 11
182.0697031169
 21
113.368091314
 31
0.0
  0
LINE
  5
2FC
330
1F
100
AcDbEntity
  8
0
  6
Continuous
 62
   179
370
     0
100
AcDbLine
 10
208.0697031169
 20
113.068090314
 30
0.0
 11
208.0697031169
 21
190.668091314
 31
0.0
  0
LINE
  5
2FD
330
1F
100
AcDbEntity
  8
0
  6
Continuous
 62
   179
370
     0
100
AcDbLine
 10
182.0697031169
 20
126.668090314
 30
0.0
 11
182.0697031169
 21
177.168090314
 31
0.0
  0
LINE
  5
2FE
330
1F
100
AcDbEntity
  8
0
  6
Continuous
 62
   179
370
     0
100
AcDbLine
 10
270.2697031169
 20
111.068090314
 30
0.0
 11
267.2697031169
 21
111.068090314
 31
0.0
  0
LINE
  5
2FF
330
1F
100
AcDbEntity
  8
0
  6
Continuous
 62
   179
370
     0
100
AcDbLine
 10
267.2697031169
 20
111.068090314
 30
0.0
 11
267.2697031169
 21
110.068091314
 31
0.0
  0
LINE
  5
300
330
1F
100
AcDbEntity
  8
0
  6
Continuous
 62
   179
370
     0
100
AcDbLine
 10
267.2697031169
 20
110.068091314
 30
0.0
 11
270.2697027836
 21
110.068090314
 31
0.0
  0
LINE
  5
301
330
1F
100
AcDbEntity
  8
0
  6
Continuous
 62
   179
370
     0
100
AcDbLine
 10
276.2697031169
 20
111.068090314
 30
0.0
 11
270.2697031169
 21
111.068090314
 31
0.0
  0
LINE
  5
302
330
1F
100
AcDbEntity
  8
0
  6
Continuous
 62
   179
370
     0
100
AcDbLine
 10
277.7697031169
 20
101.868090314
 30
0.0
 11
279.3697031169
 21
101.868090314
 31
0.0
  0
LINE
  5
303
330
1F
100
AcDbEntity
  8
0
  6
Continuous
 62
   179
370
     0
100
AcDbLine
 10
277.7697031169
 20
111.868090314
 30
0.0
 11
279.3697031169
 21
111.868090314
 31
0.0
  0
LINE
  5
304
330
1F
100
AcDbEntity
  8
0
  6
Continuous
 62
   179
370
     0
100
AcDbLine
 10
275.0697031169
 20
114.868090314
 30
0.0
 11
279.3697031169
 21
114.868090314
 31
0.0
  0
LINE
  5
305
330
1F
100
AcDbEntity
  8
0
  6
Continuous
 62
   179
370
     0
100
AcDbLine
 10
279.3697031169
 20
129.068090314
 30
0.0
 11
275.0697031169
 21
129.068090314
 31
0.0
  0
LINE
  5
306
330
1F
100
AcDbEntity
  8
0
  6
Continuous
 62
   179
370
     0
100
AcDbLine
 10
277.7697031169
 20
114.868090314
 30
0.0
 11
277.7697031169
 21
101.868090314
 31
0.0
  0
LINE
  5
307
330
1F
100
AcDbEntity
  8
0
  6
Continuous
 62
   179
370
     0
100
AcDbLine
 10
270.2697031169
 20
113.068090314
 30
0.0
 11
270.2697031169
 21
111.068090314
 31
0.0
  0
LINE
  5
308
330
1F
100
AcDbEntity
  8
0
  6
Continuous
 62
   179
370
     0
100
AcDbLine
 10
275.1697031169
 20
137.268091314
 30
0.0
 11
275.1697031169
 21
138.868090314
 31
0.0
  0
LINE
  5
309
330
1F
100
AcDbEntity
  8
0
  6
Continuous
 62
   179
370
     0
100
AcDbLine
 10
274.5697031169
 20
132.468090314
 30
0.0
 11
277.7697031169
 21
132.468090314
 31
0.0
  0
LINE
  5
30A
330
1F
100
AcDbEntity
  8
0
  6
Continuous
 62
   179
370
     0
100
AcDbLine
 10
274.5697031169
 20
137.268091314
 30
0.0
 11
275.1697031169
 21
137.268091314
 31
0.0
  0
LINE
  5
30B
330
1F
100
AcDbEntity
  8
0
  6
Continuous
 62
   179
370
     0
100
AcDbLine
 10
275.1697031169
 20
138.868090314
 30
0.0
 11
274.5697031169
 21
138.868090314
 31
0.0
  0
LINE
  5
30C
330
1F
100
AcDbEntity
  8
0
  6
Continuous
 62
   179
370
     0
100
AcDbLine
 10
274.5697031169
 20
134.068090314
 30
0.0
 11
277.7697031169
 21
134.068090314
 31
0.0
  0
LINE
  5
30D
330
1F
100
AcDbEntity
  8
0
  6
Continuous
 62
   179
370
     0
100
AcDbLine
 10
274.5697031169
 20
134.068090314
 30
0.0
 11
277.7697031169
 21
134.068090314
 31
0.0
  0
LINE
  5
30E
330
1F
100
AcDbEntity
  8
0
  6
Continuous
 62
   179
370
     0
100
AcDbLine
 10
274.5697031169
 20
135.068091314
 30
0.0
 11
276.2697031169
 21
135.068091314
 31
0.0
  0
LINE
  5
30F
330
1F
100
AcDbEntity
  8
0
  6
Continuous
 62
   179
370
     0
100
AcDbLine
 10
276.2697031169
 20
135.068091314
 30
0.0
 11
276.7697031169
 21
136.068090314
 31
0.0
  0
LINE
  5
310
330
1F
100
AcDbEntity
  8
0
  6
Continuous
 62
   179
370
     0
100
AcDbLine
 10
279.5697031169
 20
134.068090314
 30
0.0
 11
279.5697031169
 21
132.568091314
 31
0.0
  0
LINE
  5
311
330
1F
100
AcDbEntity
  8
0
  6
Continuous
 62
   179
370
     0
100
AcDbLine
 10
279.5697031169
 20
132.568091314
 30
0.0
 11
279.3697031169
 21
132.568091314
 31
0.0
  0
LINE
  5
312
330
1F
100
AcDbEntity
  8
0
  6
Continuous
 62
   179
370
     0
100
AcDbLine
 10
276.7697031169
 20
136.068090314
 30
0.0
 11
279.5697031169
 21
134.068090314
 31
0.0
  0
LINE
  5
313
330
1F
100
AcDbEntity
  8
0
  6
Continuous
 62
   179
370
     0
100
AcDbLine
 10
275.3697031169
 20
166.568091314
 30
0.0
 11
275.3697031169
 21
164.568091314
 31
0.0
  0
LINE
  5
314
330
1F
100
AcDbEntity
  8
0
  6
Continuous
 62
   179
370
     0
100
AcDbLine
 10
276.5697031169
 20
169.368090314
 30
0.0
 11
276.5697031169
 21
168.368090314
 31
0.0
  0
LINE
  5
315
330
1F
100
AcDbEntity
  8
0
  6
Continuous
 62
   179
370
     0
100
AcDbLine
 10
277.0697031169
 20
167.868090314
 30
0.0
 11
277.8697031169
 21
167.868090314
 31
0.0
  0
LINE
  5
316
330
1F
100
AcDbEntity
  8
0
  6
Continuous
 62
   179
370
     0
100
AcDbLine
 10
274.8697031169
 20
164.068091314
 30
0.0
 11
274.5697031169
 21
164.068091314
 31
0.0
  0
LINE
  5
317
330
1F
100
AcDbEntity
  8
0
  6
Continuous
 62
   179
370
     0
100
AcDbLine
 10
274.8697031169
 20
167.068091314
 30
0.0
 11
274.5697031169
 21
167.068091314
 31
0.0
  0
LINE
  5
318
330
1F
100
AcDbEntity
  8
0
  6
Continuous
 62
   179
370
     0
100
AcDbLine
 10
274.5697031169
 20
169.368090314
 30
0.0
 11
276.5697031169
 21
169.368090314
 31
0.0
  0
LINE
  5
319
330
1F
100
AcDbEntity
  8
0
  6
Continuous
 62
   179
370
     0
100
AcDbLine
 10
274.5697031169
 20
178.168090314
 30
0.0
 11
277.8697031169
 21
177.568090314
 31
0.0
  0
LINE
  5
31A
330
1F
100
AcDbEntity
  8
0
  6
Continuous
 62
   179
370
     0
100
AcDbLine
 10
274.5697031169
 20
188.868090314
 30
0.0
 11
277.7697031169
 21
188.868090314
 31
0.0
  0
LINE
  5
31B
330
1F
100
AcDbEntity
  8
0
  6
Continuous
 62
   179
370
     0
100
AcDbLine
 10
274.5697031169
 20
190.468090314
 30
0.0
 11
277.7697031169
 21
190.468090314
 31
0.0
  0
LINE
  5
31C
330
1F
100
AcDbEntity
  8
0
  6
Continuous
 62
   179
370
     0
100
AcDbLine
 10
277.7697031169
 20
201.868090314
 30
0.0
 11
279.3697031169
 21
201.868090314
 31
0.0
  0
LINE
  5
31D
330
1F
100
AcDbEntity
  8
0
  6
Continuous
 62
   179
370
     0
100
AcDbLine
 10
277.7697031169
 20
190.468090314
 30
0.0
 11
277.7697031169
 21
201.868090314
 31
0.0
  0
LINE
  5
31E
330
1F
100
AcDbEntity
  8
0
  6
Continuous
 62
   179
370
     0
100
AcDbLine
 10
279.3697031169
 20
201.868090314
 30
0.0
 11
279.3697031169
 21
190.468090314
 31
0.0
  0
LINE
  5
31F
330
1F
100
AcDbEntity
  8
0
  6
Continuous
 62
   179
370
     0
100
AcDbLine
 10
278.8697031169
 20
176.168090314
 30
0.0
 11
278.8697031169
 21
168.868090314
 31
0.0
  0
LINE
  5
320
330
1F
100
AcDbEntity
  8
0
  6
Continuous
 62
   179
370
     0
100
AcDbLine
 10
268.5697031169
 20
190.668091314
 30
0.0
 11
268.5697031169
 21
113.068090314
 31
0.0
  0
LINE
  5
321
330
1F
100
AcDbEntity
  8
0
  6
Continuous
 62
   179
370
     0
100
AcDbLine
 10
262.0697031169
 20
190.668091314
 30
0.0
 11
262.0697031169
 21
113.068090314
 31
0.0
  0
LINE
  5
322
330
1F
100
AcDbEntity
  8
0
  6
Continuous
 62
   179
370
     0
100
AcDbLine
 10
260.0697031169
 20
190.668091314
 30
0.0
 11
260.0697031169
 21
113.068090314
 31
0.0
  0
LINE
  5
323
330
1F
100
AcDbEntity
  8
0
  6
Continuous
 62
   179
370
     0
100
AcDbLine
 10
260.2697031169
 20
190.668091314
 30
0.0
 11
260.2697031169
 21
113.068090314
 31
0.0
  0
LINE
  5
324
330
1F
100
AcDbEntity
  8
0
  6
Continuous
 62
   179
370
     0
100
AcDbLine
 10
261.7697031169
 20
190.668091314
 30
0.0
 11
261.7697031169
 21
113.068090314
 31
0.0
  0
LINE
  5
325
330
1F
100
AcDbEntity
  8
0
  6
Continuous
 62
   179
370
     0
100
AcDbLine
 10
279.3697031169
 20
132.468090314
 30
0.0
 11
279.3697031169
 21
101.868090314
 31
0.0
  0
LINE
  5
326
330
1F
100
AcDbEntity
  8
0
  6
Continuous
 62
   179
370
     0
100
AcDbLine
 10
277.7697031169
 20
132.468090314
 30
0.0
 11
277.7697031169
 21
129.068090314
 31
0.0
  0
LINE
  5
327
330
1F
100
AcDbEntity
  8
0
  6
Continuous
 62
   179
370
     0
100
AcDbLine
 10
208.0697031169
 20
190.668091314
 30
0.0
 11
274.5697031169
 21
190.668091314
 31
0.0
  0
LINE
  5
328
330
1F
100
AcDbEntity
  8
0
  6
Continuous
 62
   179
370
     0
100
AcDbLine
 10
274.5697031169
 20
113.068090314
 30
0.0
 11
208.0697031169
 21
113.068090314
 31
0.0
  0
ARC
  5
329
330
1F
100
AcDbEntity
  8
0
  6
Continuous
 62
   179
370
     0
100
AcDbCircle
 10
271.4697031169
 20
73.009913566
 30
0.0
 40
1.000000000000114
100
AcDbArc
 50
90.0
 51
180.0
  0
ARC
  5
32A
330
1F
100
AcDbEntity
  8
0
  6
Continuous
 62
   179
370
     0
100
AcDbCircle
 10
267.2697031169
 20
62.809913566
 30
0.0
 40
1.5
100
AcDbArc
 50
360.0
 51
90.0
  0
ARC
  5
32B
330
1F
100
AcDbEntity
  8
0
  6
Continuous
 62
   179
370
     0
100
AcDbCircle
 10
263.7697031169
 20
62.709912566
 30
0.0
 40
1.500000000000007
100
AcDbArc
 50
90.0
 51
180.0
  0
ARC
  5
32C
330
1F
100
AcDbEntity
  8
0
  6
Continuous
 62
   179
370
     0
100
AcDbCircle
 10
267.2697031169
 20
70.009912566
 30
0.0
 40
1.499999999999994
100
AcDbArc
 50
270.0
 51
278.000002774
  0
ARC
  5
32D
330
1F
100
AcDbEntity
  8
0
  6
Continuous
 62
   179
370
     0
100
AcDbCircle
 10
274.7697031169
 20
69.509913566
 30
0.0
 40
2.90000000000002
100
AcDbArc
 50
90.0
 51
125.0000006009
  0
ARC
  5
32E
330
1F
100
AcDbEntity
  8
0
  6
Continuous
 62
   179
370
     0
100
AcDbCircle
 10
274.7697031169
 20
69.509913566
 30
0.0
 40
2.90000000000002
100
AcDbArc
 50
37.0000009114
 51
90.0
  0
ARC
  5
32F
330
1F
100
AcDbEntity
  8
0
  6
Continuous
 62
   179
370
     0
100
AcDbCircle
 10
274.7697031169
 20
69.509913566
 30
0.0
 40
2.099999999999988
100
AcDbArc
 50
63.0000020941
 51
78.9999991113
  0
ARC
  5
330
330
1F
100
AcDbEntity
  8
0
  6
Continuous
 62
   179
370
     0
100
AcDbCircle
 10
274.7697031169
 20
69.509913566
 30
0.0
 40
2.099999999999991
100
AcDbArc
 50
101.0000008887
 51
109.0000024214
  0
ARC
  5
331
330
1F
100
AcDbEntity
  8
0
  6
Continuous
 62
   179
370
     0
100
AcDbCircle
 10
274.7697031169
 20
69.509913566
 30
0.0
 40
2.100000000000008
100
AcDbArc
 50
250.9999975786
 51
258.9999991113
  0
ARC
  5
332
330
1F
100
AcDbEntity
  8
0
  6
Continuous
 62
   179
370
     0
100
AcDbCircle
 10
274.7697031169
 20
69.509913566
 30
0.0
 40
2.100000000000009
100
AcDbArc
 50
281.0000008887
 51
296.899997383
  0
ARC
  5
333
330
1F
100
AcDbEntity
  8
0
  6
Continuous
 62
   179
370
     0
100
AcDbCircle
 10
274.7697031169
 20
69.509913566
 30
0.0
 40
2.899999999999997
100
AcDbArc
 50
236.0000003804
 51
323.9999983087
  0
ARC
  5
334
330
1F
100
AcDbEntity
  8
0
  6
Continuous
 62
   179
370
     0
100
AcDbCircle
 10
274.7697031169
 20
72.009913566
 30
0.0
 40
0.4000000000001194
100
AcDbArc
 50
90.0
 51
180.0
  0
ARC
  5
335
330
1F
100
AcDbEntity
  8
0
  6
Continuous
 62
   179
370
     0
100
AcDbCircle
 10
274.7697031169
 20
72.009913566
 30
0.0
 40
0.4000000000001194
100
AcDbArc
 50
0.0
 51
90.0
  0
ARC
  5
336
330
1F
100
AcDbEntity
  8
0
  6
Continuous
 62
   179
370
     0
100
AcDbCircle
 10
274.7697031169
 20
71.509913566
 30
0.0
 40
0.5
100
AcDbArc
 50
322.9999990886
 51
0.0
  0
ARC
  5
337
330
1F
100
AcDbEntity
  8
0
  6
Continuous
 62
   179
370
     0
100
AcDbCircle
 10
274.7697031169
 20
71.509913566
 30
0.0
 40
0.5000000000000138
100
AcDbArc
 50
180.0
 51
217.0000009114
  0
ARC
  5
338
330
1F
100
AcDbEntity
  8
0
  6
Continuous
 62
   179
370
     0
100
AcDbCircle
 10
274.7697031169
 20
71.909913566
 30
0.0
 40
0.8000000000000114
100
AcDbArc
 50
180.0
 51
239.9999999816
  0
ARC
  5
339
330
1F
100
AcDbEntity
  8
0
  6
Continuous
 62
   179
370
     0
100
AcDbCircle
 10
274.7697031169
 20
67.509913566
 30
0.0
 40
0.5
100
AcDbArc
 50
0.0
 51
37.0000009114
  0
ARC
  5
33A
330
1F
100
AcDbEntity
  8
0
  6
Continuous
 62
   179
370
     0
100
AcDbCircle
 10
274.7697031169
 20
67.509913566
 30
0.0
 40
0.5
100
AcDbArc
 50
143.9999983086
 51
180.0
  0
ARC
  5
33B
330
1F
100
AcDbEntity
  8
0
  6
Continuous
 62
   179
370
     0
100
AcDbCircle
 10
274.7697031169
 20
66.909913566
 30
0.0
 40
0.4000000000000909
100
AcDbArc
 50
180.0
 51
0.0
  0
ARC
  5
33C
330
1F
100
AcDbEntity
  8
0
  6
Continuous
 62
   179
370
     0
100
AcDbCircle
 10
274.7697031169
 20
67.109913566
 30
0.0
 40
0.8000000000000114
100
AcDbArc
 50
120.0000000184
 51
180.0
  0
ARC
  5
33D
330
1F
100
AcDbEntity
  8
0
  6
Continuous
 62
   179
370
     0
100
AcDbCircle
 10
268.4697036169
 20
71.409912566
 30
0.0
 40
1.000000499999985
100
AcDbArc
 50
90.0
 51
180.0
  0
ARC
  5
33E
330
1F
100
AcDbEntity
  8
0
  6
Continuous
 62
   179
370
     0
100
AcDbCircle
 10
268.4697031169
 20
67.509913566
 30
0.0
 40
1.0
100
AcDbArc
 50
180.0
 51
270.0
  0
ARC
  5
33F
330
1F
100
AcDbEntity
  8
0
  6
Continuous
 62
   179
370
     0
100
AcDbCircle
 10
271.4697031169
 20
65.909913566
 30
0.0
 40
1.0
100
AcDbArc
 50
180.0
 51
270.0
  0
ARC
  5
340
330
1F
100
AcDbEntity
  8
0
  6
Continuous
 62
   179
370
     0
100
AcDbCircle
 10
263.7697031169
 20
70.109912566
 30
0.0
 40
1.5
100
AcDbArc
 50
180.0
 51
270.0000000001
  0
ARC
  5
341
330
1F
100
AcDbEntity
  8
0
  6
Continuous
 62
   179
370
     0
100
AcDbCircle
 10
128.6080820611
 20
199.868090314
 30
0.0
 40
2.000000000000057
100
AcDbArc
 50
90.0
 51
180.0
  0
CIRCLE
  5
342
330
1F
100
AcDbEntity
  8
0
  6
Continuous
 62
   179
370
     0
100
AcDbCircle
 10
130.1580820611
 20
184.718090314
 30
0.0
 40
3.25000000000002
  0
ARC
  5
343
330
1F
100
AcDbEntity
  8
0
  6
Continuous
 62
   179
370
     0
100
AcDbCircle
 10
116.7080820611
 20
190.268090314
 30
0.0
 40
0.4000000000000341
100
AcDbArc
 50
90.0
 51
180.0
  0
ARC
  5
344
330
1F
100
AcDbEntity
  8
0
  6
Continuous
 62
   179
370
     0
100
AcDbCircle
 10
126.6580820611
 20
189.218090314
 30
0.0
 40
0.5000000000001137
100
AcDbArc
 50
90.0000000002
 51
180.0
  0
ARC
  5
345
330
1F
100
AcDbEntity
  8
0
  6
Continuous
 62
   179
370
     0
100
AcDbCircle
 10
126.6580820611
 20
180.218090314
 30
0.0
 40
0.5000000000001705
100
AcDbArc
 50
180.0
 51
269.999999999
  0
ARC
  5
346
330
1F
100
AcDbEntity
  8
0
  6
Continuous
 62
   179
370
     0
100
AcDbCircle
 10
135.8080820611
 20
199.868090314
 30
0.0
 40
1.999999999999972
100
AcDbArc
 50
359.9999999999
 51
90.0
  0
CIRCLE
  5
347
330
1F
100
AcDbEntity
  8
0
  6
Continuous
 62
   179
370
     0
100
AcDbCircle
 10
132.5080820611
 20
196.868090314
 30
0.0
 40
2.299999000000003
  0
ARC
  5
348
330
1F
100
AcDbEntity
  8
0
  6
Continuous
 62
   179
370
     0
100
AcDbCircle
 10
135.8080820611
 20
193.868090314
 30
0.0
 40
1.999999999999858
100
AcDbArc
 50
270.0
 51
0.0
  0
ARC
  5
349
330
1F
100
AcDbEntity
  8
0
  6
Continuous
 62
   179
370
     0
100
AcDbCircle
 10
137.4080820611
 20
190.268090314
 30
0.0
 40
0.4000000000008015
100
AcDbArc
 50
359.9999999987
 51
90.0
  0
ARC
  5
34A
330
1F
100
AcDbEntity
  8
0
  6
Continuous
 62
   179
370
     0
100
AcDbCircle
 10
137.3080820611
 20
190.168090814
 30
0.0
 40
0.3000004999999533
100
AcDbArc
 50
0.0
 51
90.0
  0
ARC
  5
34B
330
1F
100
AcDbEntity
  8
0
  6
Continuous
 62
   179
370
     0
100
AcDbCircle
 10
133.6580820611
 20
189.218090314
 30
0.0
 40
0.5000000000000284
100
AcDbArc
 50
359.9999999999
 51
89.9999999993
  0
ARC
  5
34C
330
1F
100
AcDbEntity
  8
0
  6
Continuous
 62
   179
370
     0
100
AcDbCircle
 10
133.6580820611
 20
180.218090314
 30
0.0
 40
0.4999999999999716
100
AcDbArc
 50
270.0
 51
359.9999999999
  0
ARC
  5
34D
330
1F
100
AcDbEntity
  8
0
  6
Continuous
 62
   179
370
     0
100
AcDbCircle
 10
118.1080820611
 20
161.868090314
 30
0.0
 40
0.2499999999999716
100
AcDbArc
 50
180.0
 51
270.0
  0
ARC
  5
34E
330
1F
100
AcDbEntity
  8
0
  6
Continuous
 62
   179
370
     0
100
AcDbCircle
 10
124.6080820611
 20
161.868090314
 30
0.0
 40
0.25
100
AcDbArc
 50
270.0
 51
0.0
  0
ARC
  5
34F
330
1F
100
AcDbEntity
  8
0
  6
Continuous
 62
   179
370
     0
100
AcDbCircle
 10
118.1080820611
 20
168.368090314
 30
0.0
 40
0.2499999999999432
100
AcDbArc
 50
90.0
 51
180.0
  0
ARC
  5
350
330
1F
100
AcDbEntity
  8
0
  6
Continuous
 62
   179
370
     0
100
AcDbCircle
 10
124.6080820611
 20
168.368090314
 30
0.0
 40
0.2500000000000284
100
AcDbArc
 50
0.0
 51
90.0
  0
CIRCLE
  5
351
330
1F
100
AcDbEntity
  8
0
  6
Continuous
 62
   179
370
     0
100
AcDbCircle
 10
121.3580820611
 20
165.118090314
 30
0.0
 40
2.499999999999998
  0
CIRCLE
  5
352
330
1F
100
AcDbEntity
  8
0
  6
Continuous
 62
   179
370
     0
100
AcDbCircle
 10
121.1080820611
 20
156.468090314
 30
0.0
 40
1.700000000000009
  0
CIRCLE
  5
353
330
1F
100
AcDbEntity
  8
0
  6
Continuous
 62
   179
370
     0
100
AcDbCircle
 10
121.1080820611
 20
156.468090314
 30
0.0
 40
2.49999999999999
  0
ARC
  5
354
330
1F
100
AcDbEntity
  8
0
  6
Continuous
 62
   179
370
     0
100
AcDbCircle
 10
124.6080820611
 20
141.868090314
 30
0.0
 40
0.2499999999998579
100
AcDbArc
 50
0.0
 51
90.0
  0
ARC
  5
355
330
1F
100
AcDbEntity
  8
0
  6
Continuous
 62
   179
370
     0
100
AcDbCircle
 10
118.1080820611
 20
141.868090314
 30
0.0
 40
0.2500000000000284
100
AcDbArc
 50
90.0
 51
180.0
  0
ARC
  5
356
330
1F
100
AcDbEntity
  8
0
  6
Continuous
 62
   179
370
     0
100
AcDbCircle
 10
118.1080820611
 20
135.368090314
 30
0.0
 40
0.2500000000000853
100
AcDbArc
 50
180.0
 51
269.9999999991
  0
ARC
  5
357
330
1F
100
AcDbEntity
  8
0
  6
Continuous
 62
   179
370
     0
100
AcDbCircle
 10
124.6080820611
 20
135.368090314
 30
0.0
 40
0.2499999999999005
100
AcDbArc
 50
270.0
 51
359.9999999995
  0
CIRCLE
  5
358
330
1F
100
AcDbEntity
  8
0
  6
Continuous
 62
   179
370
     0
100
AcDbCircle
 10
121.3580820611
 20
138.618090314
 30
0.0
 40
2.500000000000012
  0
ARC
  5
359
330
1F
100
AcDbEntity
  8
0
  6
Continuous
 62
   179
370
     0
100
AcDbCircle
 10
253.7697031169
 20
62.609913066
 30
0.0
 40
1.500000500000112
100
AcDbArc
 50
90.0
 51
180.0
  0
ARC
  5
35A
330
1F
100
AcDbEntity
  8
0
  6
Continuous
 62
   179
370
     0
100
AcDbCircle
 10
243.7697026169
 20
62.409914066
 30
0.0
 40
1.500000000000007
100
AcDbArc
 50
90.0
 51
180.0
  0
ARC
  5
35B
330
1F
100
AcDbEntity
  8
0
  6
Continuous
 62
   179
370
     0
100
AcDbCircle
 10
243.7697031169
 20
70.409913066
 30
0.0
 40
1.499999500000058
100
AcDbArc
 50
180.0
 51
270.0000000001
  0
ARC
  5
35C
330
1F
100
AcDbEntity
  8
0
  6
Continuous
 62
   179
370
     0
100
AcDbCircle
 10
253.7697031169
 20
70.209912566
 30
0.0
 40
1.5
100
AcDbArc
 50
180.0
 51
270.0
  0
ARC
  5
35D
330
1F
100
AcDbEntity
  8
0
  6
Continuous
 62
   179
370
     0
100
AcDbCircle
 10
223.7697031169
 20
62.109913566
 30
0.0
 40
1.5
100
AcDbArc
 50
90.0
 51
180.0
  0
ARC
  5
35E
330
1F
100
AcDbEntity
  8
0
  6
Continuous
 62
   179
370
     0
100
AcDbCircle
 10
233.7697026169
 20
62.209913566
 30
0.0
 40
1.499999500000001
100
AcDbArc
 50
90.0
 51
180.0000000001
  0
ARC
  5
35F
330
1F
100
AcDbEntity
  8
0
  6
Continuous
 62
   179
370
     0
100
AcDbCircle
 10
223.7697031169
 20
70.709912566
 30
0.0
 40
1.5
100
AcDbArc
 50
180.0
 51
270.0
  0
ARC
  5
360
330
1F
100
AcDbEntity
  8
0
  6
Continuous
 62
   179
370
     0
100
AcDbCircle
 10
233.7697036169
 20
70.609913066
 30
0.0
 40
1.500000000000057
100
AcDbArc
 50
180.0
 51
270.0
  0
ARC
  5
361
330
1F
100
AcDbEntity
  8
0
  6
Continuous
 62
   179
370
     0
100
AcDbCircle
 10
213.7697031169
 20
61.909913566
 30
0.0
 40
1.499999999999972
100
AcDbArc
 50
90.0000000002
 51
180.0
  0
ARC
  5
362
330
1F
100
AcDbEntity
  8
0
  6
Continuous
 62
   179
370
     0
100
AcDbCircle
 10
213.7697031169
 20
70.909913566
 30
0.0
 40
1.5
100
AcDbArc
 50
180.0
 51
269.9999999999
  0
ARC
  5
363
330
1F
100
AcDbEntity
  8
0
  6
Continuous
 62
   179
370
     0
100
AcDbCircle
 10
182.2697031169
 20
63.109913566
 30
0.0
 40
0.1999999999999886
100
AcDbArc
 50
180.0
 51
269.0000027062
  0
ARC
  5
364
330
1F
100
AcDbEntity
  8
0
  6
Continuous
 62
   179
370
     0
100
AcDbCircle
 10
182.2697031169
 20
56.209913566
 30
0.0
 40
0.2000000000002728
100
AcDbArc
 50
180.0
 51
269.0000027041
  0
ARC
  5
365
330
1F
100
AcDbEntity
  8
0
  6
Continuous
 62
   179
370
     0
100
AcDbCircle
 10
182.2697031169
 20
56.809913566
 30
0.0
 40
0.1999999999999886
100
AcDbArc
 50
90.9999972938
 51
180.0
  0
ARC
  5
366
330
1F
100
AcDbEntity
  8
0
  6
Continuous
 62
   179
370
     0
100
AcDbCircle
 10
182.2697031169
 20
63.809913566
 30
0.0
 40
0.1999999999999921
100
AcDbArc
 50
90.9999972938
 51
180.0
  0
ARC
  5
367
330
1F
100
AcDbEntity
  8
0
  6
Continuous
 62
   179
370
     0
100
AcDbCircle
 10
182.2697031169
 20
65.609912566
 30
0.0
 40
0.2000000000000455
100
AcDbArc
 50
90.9999972938
 51
180.0
  0
ARC
  5
368
330
1F
100
AcDbEntity
  8
0
  6
Continuous
 62
   179
370
     0
100
AcDbCircle
 10
125.5080820611
 20
103.868090314
 30
0.0
 40
2.0
100
AcDbArc
 50
269.9999999999
 51
0.0
  0
CIRCLE
  5
369
330
1F
100
AcDbEntity
  8
0
  6
Continuous
 62
   179
370
     0
100
AcDbCircle
 10
130.1580820611
 20
119.018090314
 30
0.0
 40
3.249999999999965
  0
ARC
  5
36A
330
1F
100
AcDbEntity
  8
0
  6
Continuous
 62
   179
370
     0
100
AcDbCircle
 10
126.6580820611
 20
123.518090314
 30
0.0
 40
0.5000000000001137
100
AcDbArc
 50
90.0000000002
 51
180.0
  0
ARC
  5
36B
330
1F
100
AcDbEntity
  8
0
  6
Continuous
 62
   179
370
     0
100
AcDbCircle
 10
116.7080820611
 20
113.468090314
 30
0.0
 40
0.4000000000000057
100
AcDbArc
 50
180.0
 51
270.0
  0
ARC
  5
36C
330
1F
100
AcDbEntity
  8
0
  6
Continuous
 62
   179
370
     0
100
AcDbCircle
 10
126.6580820611
 20
114.518090314
 30
0.0
 40
0.5000000000002274
100
AcDbArc
 50
180.0
 51
269.999999999
  0
ARC
  5
36D
330
1F
100
AcDbEntity
  8
0
  6
Continuous
 62
   179
370
     0
100
AcDbCircle
 10
118.4080820611
 20
103.868090314
 30
0.0
 40
2.0
100
AcDbArc
 50
180.0
 51
270.0
  0
ARC
  5
36E
330
1F
100
AcDbEntity
  8
0
  6
Continuous
 62
   179
370
     0
100
AcDbCircle
 10
118.4080820611
 20
109.868090314
 30
0.0
 40
1.999999999999943
100
AcDbArc
 50
90.0
 51
180.0
  0
ARC
  5
36F
330
1F
100
AcDbEntity
  8
0
  6
Continuous
 62
   179
370
     0
100
AcDbCircle
 10
121.7080820611
 20
106.368090314
 30
0.0
 40
2.29999900000115
100
AcDbArc
 50
270.0000000004
 51
359.9999427042
  0
ARC
  5
370
330
1F
100
AcDbEntity
  8
0
  6
Continuous
 62
   179
370
     0
100
AcDbCircle
 10
121.7080820611
 20
106.368090314
 30
0.0
 40
2.299998999999403
100
AcDbArc
 50
180.0000572958
 51
270.0000000004
  0
ARC
  5
371
330
1F
100
AcDbEntity
  8
0
  6
Continuous
 62
   179
370
     0
100
AcDbCircle
 10
121.7080820611
 20
107.368088589
 30
0.0
 40
2.300000000000601
100
AcDbArc
 50
359.9999570282
 51
179.9999570282
  0
ARC
  5
372
330
1F
100
AcDbEntity
  8
0
  6
Continuous
 62
   179
370
     0
100
AcDbCircle
 10
133.6580820611
 20
123.518090314
 30
0.0
 40
0.500000000000199
100
AcDbArc
 50
359.9999999999
 51
89.9999999993
  0
ARC
  5
373
330
1F
100
AcDbEntity
  8
0
  6
Continuous
 62
   179
370
     0
100
AcDbCircle
 10
137.4080820611
 20
113.468090314
 30
0.0
 40
0.4000000000000199
100
AcDbArc
 50
270.0
 51
359.9999999987
  0
ARC
  5
374
330
1F
100
AcDbEntity
  8
0
  6
Continuous
 62
   179
370
     0
100
AcDbCircle
 10
137.3080830611
 20
113.568090814
 30
0.0
 40
0.2999994999999558
100
AcDbArc
 50
270.0
 51
360.0
  0
ARC
  5
375
330
1F
100
AcDbEntity
  8
0
  6
Continuous
 62
   179
370
     0
100
AcDbCircle
 10
133.6580820611
 20
114.518090314
 30
0.0
 40
0.5
100
AcDbArc
 50
270.0
 51
359.9999999999
  0
ARC
  5
376
330
1F
100
AcDbEntity
  8
0
  6
Continuous
 62
   179
370
     0
100
AcDbCircle
 10
135.5080820611
 20
112.368090314
 30
0.0
 40
0.5000000000000853
100
AcDbArc
 50
270.0
 51
0.0
  0
ARC
  5
377
330
1F
100
AcDbEntity
  8
0
  6
Continuous
 62
   179
370
     0
100
AcDbCircle
 10
277.9697031169
 20
75.309913566
 30
0.0
 40
1.599999999999966
100
AcDbArc
 50
0.0
 51
90.0
  0
ARC
  5
378
330
1F
100
AcDbEntity
  8
0
  6
Continuous
 62
   179
370
     0
100
AcDbCircle
 10
186.1697031169
 20
77.009913566
 30
0.0
 40
2.299998999999929
100
AcDbArc
 50
218.0000013329
 51
270.0
  0
ARC
  5
379
330
1F
100
AcDbEntity
  8
0
  6
Continuous
 62
   179
370
     0
100
AcDbCircle
 10
186.3697031169
 20
75.509913566
 30
0.0
 40
0.2000000000000458
100
AcDbArc
 50
180.0
 51
268.0000013436
  0
ARC
  5
37A
330
1F
100
AcDbEntity
  8
0
  6
Continuous
 62
   179
370
     0
100
AcDbCircle
 10
186.3697031169
 20
76.809913566
 30
0.0
 40
0.2000000000000028
100
AcDbArc
 50
90.0
 51
180.0
  0
ARC
  5
37B
330
1F
100
AcDbEntity
  8
0
  6
Continuous
 62
   179
370
     0
100
AcDbCircle
 10
185.9697031169
 20
76.609913566
 30
0.0
 40
1.799999999999975
100
AcDbArc
 50
214.000000809
 51
275.9999979513
  0
ARC
  5
37C
330
1F
100
AcDbEntity
  8
0
  6
Continuous
 62
   179
370
     0
100
AcDbCircle
 10
182.2697031169
 20
113.568090314
 30
0.0
 40
0.2000000000001876
100
AcDbArc
 50
180.0
 51
269.0000027066
  0
ARC
  5
37D
330
1F
100
AcDbEntity
  8
0
  6
Continuous
 62
   179
370
     0
100
AcDbCircle
 10
182.2697031169
 20
190.268091314
 30
0.0
 40
0.2000000000000081
100
AcDbArc
 50
90.9999972917
 51
180.0
  0
ARC
  5
37E
330
1F
100
AcDbEntity
  8
0
  6
Continuous
 62
   179
370
     0
100
AcDbCircle
 10
276.2697031169
 20
112.568090814
 30
0.0
 40
1.50000050000007
100
AcDbArc
 50
270.0
 51
360.0
  0
ARC
  5
37F
330
1F
100
AcDbEntity
  8
0
  6
Continuous
 62
   179
370
     0
100
AcDbCircle
 10
270.2697031169
 20
111.068090314
 30
0.0
 40
1.0
100
AcDbArc
 50
269.9999809014
 51
0.0
  0
ARC
  5
380
330
1F
100
AcDbEntity
  8
0
  6
Continuous
 62
   179
370
     0
100
AcDbCircle
 10
275.0697031169
 20
115.368090314
 30
0.0
 40
0.5
100
AcDbArc
 50
180.0
 51
270.0
  0
ARC
  5
381
330
1F
100
AcDbEntity
  8
0
  6
Continuous
 62
   179
370
     0
100
AcDbCircle
 10
275.0697031169
 20
128.568090314
 30
0.0
 40
0.5000000000000568
100
AcDbArc
 50
90.0
 51
180.0
  0
ARC
  5
382
330
1F
100
AcDbEntity
  8
0
  6
Continuous
 62
   179
370
     0
100
AcDbCircle
 10
277.7697031169
 20
132.468090314
 30
0.0
 40
1.60000000000008
100
AcDbArc
 50
0.0
 51
90.0
  0
ARC
  5
383
330
1F
100
AcDbEntity
  8
0
  6
Continuous
 62
   179
370
     0
100
AcDbCircle
 10
274.8697031169
 20
166.568091314
 30
0.0
 40
0.5000000000000568
100
AcDbArc
 50
0.0
 51
90.0
  0
ARC
  5
384
330
1F
100
AcDbEntity
  8
0
  6
Continuous
 62
   179
370
     0
100
AcDbCircle
 10
274.8697031169
 20
164.568091314
 30
0.0
 40
0.5000000000000568
100
AcDbArc
 50
270.0
 51
0.0
  0
ARC
  5
385
330
1F
100
AcDbEntity
  8
0
  6
Continuous
 62
   179
370
     0
100
AcDbCircle
 10
277.8697031169
 20
168.868090314
 30
0.0
 40
1.0
100
AcDbArc
 50
270.0
 51
0.0
  0
ARC
  5
386
330
1F
100
AcDbEntity
  8
0
  6
Continuous
 62
   179
370
     0
100
AcDbCircle
 10
277.0697031169
 20
168.368090314
 30
0.0
 40
0.5000000000000568
100
AcDbArc
 50
180.0
 51
270.0
  0
ARC
  5
387
330
1F
100
AcDbEntity
  8
0
  6
Continuous
 62
   179
370
     0
100
AcDbCircle
 10
277.3697031169
 20
176.168090314
 30
0.0
 40
1.499999999999985
100
AcDbArc
 50
0.0
 51
69.9999994136
  0
ARC
  5
388
330
1F
100
AcDbEntity
  8
0
  6
Continuous
 62
   179
370
     0
100
AcDbCircle
 10
277.7697031169
 20
190.468090314
 30
0.0
 40
1.600000000000051
100
AcDbArc
 50
270.0
 51
0.0
  0
DIMENSION
  5
389
330
1F
100
AcDbEntity
  8
0
  6
Continuous
 62
     7
370
     0
100
AcDbDimension
  2
*D2
 10
97.3937492354
 20
201.868090314
 30
0.0
 11
97.3937492354
 21
152.045474582
 31
0.0
 70
   160
 71
     2
 42
-1.0
  3
SLDDIMSTYLE0
100
AcDbAlignedDimension
 13
118.4080820611
 23
101.868090314
 33
0.0
 14
128.6080820611
 24
201.868090314
 34
0.0
 50
90.0
100
AcDbRotatedDimension
  0
DIMENSION
  5
39B
330
1F
100
AcDbEntity
  8
0
  6
Continuous
 62
     7
370
     0
100
AcDbDimension
  2
*D3
 10
105.7895924708
 20
138.618090314
 30
0.0
 11
105.7895924708
 21
152.045474582
 31
0.0
 70
   160
 71
     2
 42
-1.0
  3
SLDDIMSTYLE1
100
AcDbAlignedDimension
 13
120.8580820611
 23
165.118090314
 33
0.0
 14
120.8580820611
 24
138.618090314
 34
0.0
 50
90.0
100
AcDbRotatedDimension
  0
DIMENSION
  5
3A6
330
1F
100
AcDbEntity
  8
0
  6
Continuous
 62
     7
370
     0
100
AcDbDimension
  2
*D4
 10
151.7154872055
 20
184.718090314
 30
0.0
 11
151.7154872055
 21
152.045474582
 31
0.0
 70
   160
 71
     2
 42
-1.0
  3
SLDDIMSTYLE1
100
AcDbAlignedDimension
 13
131.7580820611
 23
119.018090314
 33
0.0
 14
131.7580820611
 24
184.718090314
 34
0.0
 50
90.0
100
AcDbRotatedDimension
  0
DIMENSION
  5
3B0
330
1F
100
AcDbEntity
  8
0
  6
Continuous
 62
     7
370
     0
100
AcDbDimension
  2
*D5
 10
193.6697031169
 20
87.8492557909
 30
0.0
 11
238.9875193355
 21
87.8492557909
 31
0.0
 70
   160
 71
     2
 42
-1.0
  3
SLDDIMSTYLE2
100
AcDbAlignedDimension
 13
279.5697031169
 23
77.109912566
 33
0.0
 14
193.6697031169
 24
74.809913566
 34
0.0
100
AcDbRotatedDimension
  0
DIMENSION
  5
3BB
330
1F
100
AcDbEntity
  8
0
  6
Continuous
 62
     7
370
     0
100
AcDbDimension
  2
*D6
 10
189.0697031169
 20
96.3815239148
 30
0.0
 11
231.3012664724
 21
96.3815239148
 31
0.0
 70
   160
 71
     2
 42
-1.0
  3
SLDDIMSTYLE2
100
AcDbAlignedDimension
 13
279.5697031169
 23
77.109912566
 33
0.0
 14
189.0697031169
 24
62.609912566
 34
0.0
100
AcDbRotatedDimension
  0
DIMENSION
  5
3C5
330
1F
100
AcDbEntity
  8
0
  6
Continuous
 62
     7
370
     0
100
AcDbDimension
  2
*D7
 10
168.4300763236
 20
113.068090314
 30
0.0
 11
168.4300763236
 21
152.045474582
 31
0.0
 70
   160
 71
     2
 42
-1.0
  3
SLDDIMSTYLE1
100
AcDbAlignedDimension
 13
208.0697031169
 23
190.668091314
 33
0.0
 14
208.0697031169
 24
113.068090314
 34
0.0
 50
90.0
100
AcDbRotatedDimension
  0
DIMENSION
  5
3CF
330
1F
100
AcDbEntity
  8
0
  6
Continuous
 62
     7
370
     0
100
AcDbDimension
  2
*D8
 10
137.8080820611
 20
211.4161017334
 30
0.0
 11
127.2293865822
 21
211.4161017334
 31
0.0
 70
   160
 71
     2
 42
-1.0
  3
SLDDIMSTYLE1
100
AcDbAlignedDimension
 13
116.3080820611
 23
190.668090314
 33
0.0
 14
137.8080820611
 24
190.668090314
 34
0.0
100
AcDbRotatedDimension
  0
MTEXT
  5
3DA
330
1F
100
AcDbEntity
  8
0
  6
Continuous
 62
   179
370
     0
100
AcDbMText
 10
174.2941665597
 20
50.009912566
 30
0.0
 40
3.0
 41
0.0
 71
     1
 72
     1
  1
\M+1817E
  7
SLDTEXTSTYLE1
 11
-3.491481338843133E-15
 21
1.0
 31
0.0
 73
     1
 44
1.0
  0
INSERT
  5
3E5
330
1F
100
AcDbEntity
  8
0
  6
Continuous
 62
     7
370
     0
100
AcDbBlockReference
  2
SW_NOTE_0
 10
142.2004338301
 20
206.2926304674
 30
0.0
  0
LEADER
  5
3E7
330
1F
100
AcDbEntity
  8
0
  6
Continuous
 62
     7
370
     0
100
AcDbLeader
  3
SLDDIMSTYLE3
 76
     2
 10
133.9766717702
 20
198.6381862623
 30
0.0
 10
142.2004338301
 20
206.2926304674
 30
0.0
  0
INSERT
  5
3F2
330
1F
100
AcDbEntity
  8
0
  6
Continuous
 62
     7
370
     0
100
AcDbBlockReference
  2
SW_NOTE_1
 10
91.6246677653
 20
128.0486079177
 30
0.0
  0
LEADER
  5
3F3
330
1F
100
AcDbEntity
  8
0
  6
Continuous
 62
     7
370
     0
100
AcDbLeader
  3
SLDDIMSTYLE3
 76
     2
 10
119.666796433
 20
108.4278777117
 30
0.0
 10
91.6246677653
 20
128.0486079177
 30
0.0
  0
INSERT
  5
3F9
330
1F
100
AcDbEntity
  8
0
  6
Continuous
 62
     7
370
     0
100
AcDbBlockReference
  2
SW_NOTE_2
 10
317.2380616487
 20
26.5462995911
 30
0.0
  0
MTEXT
  5
3FA
330
1F
100
AcDbEntity
  8
0
  6
Continuous
 62
     7
370
     0
100
AcDbMText
 10
317.2380616487
 20
16.9092873076
 30
0.0
 40
8.0
 41
0.0
 71
     1
 72
     1
  1
RKC INSTRUMENT INC.
  7
SLDTEXTSTYLE0
 73
     1
 44
1.0
  0
MTEXT
  5
3FB
330
1F
100
AcDbEntity
  8
0
  6
Continuous
 62
     7
370
     0
100
AcDbMText
 10
326.3961168959
 20
83.4897885102
 30
0.0
 40
5.0
 41
0.0
 71
     1
 72
     1
  1
\LMOUNTING DIMENSIONS
  7
SLDTEXTSTYLE0
 73
     1
 44
1.0
  0
INSERT
  5
406
330
1F
100
AcDbEntity
  8
0
  6
Continuous
 62
     7
370
     0
100
AcDbBlockReference
  2
SW_NOTE_3
 10
168.2961142791
 20
68.9981387782
 30
0.0
  0
LEADER
  5
407
330
1F
100
AcDbEntity
  8
0
  6
Continuous
 62
     7
370
     0
100
AcDbLeader
  3
SLDDIMSTYLE3
 76
     2
 10
186.7562611169
 20
59.295501566
 30
0.0
 10
168.2961142791
 20
68.9981387782
 30
0.0
  0
INSERT
  5
412
330
1F
100
AcDbEntity
  8
0
  6
Continuous
 62
     7
370
     0
100
AcDbBlockReference
  2
SW_NOTE_4
 10
170.1052937003
 20
80.2451643477
 30
0.0
  0
LEADER
  5
413
330
1F
100
AcDbEntity
  8
0
  6
Continuous
 62
     7
370
     0
100
AcDbLeader
  3
SLDDIMSTYLE3
 76
     2
 10
189.8362671169
 20
70.750981566
 30
0.0
 10
170.1052937003
 20
80.2451643477
 30
0.0
  0
CIRCLE
  5
414
330
1F
100
AcDbEntity
  8
0
  6
Continuous
 62
     7
370
     0
100
AcDbCircle
 10
358.4432468288
 20
195.7082138605
 30
0.0
 40
1.999999999999995
  0
CIRCLE
  5
415
330
1F
100
AcDbEntity
  8
0
  6
Continuous
 62
     7
370
     0
100
AcDbCircle
 10
358.4432468288
 20
195.7082138605
 30
0.0
 40
2.500000000000012
  0
CIRCLE
  5
416
330
1F
100
AcDbEntity
  8
0
  6
Continuous
 62
     7
370
     0
100
AcDbCircle
 10
347.6432468288
 20
105.7082138605
 30
0.0
 40
1.999999999999995
  0
CIRCLE
  5
417
330
1F
100
AcDbEntity
  8
0
  6
Continuous
 62
     7
370
     0
100
AcDbCircle
 10
347.6432468288
 20
105.7082138605
 30
0.0
 40
2.500000000000008
  0
CIRCLE
  5
418
330
1F
100
AcDbEntity
  8
0
  6
PHANTOM
 62
     7
370
     0
100
AcDbCircle
 10
347.6432468288
 20
105.7082138605
 30
0.0
 40
2.0
  0
LINE
  5
419
330
1F
100
AcDbEntity
  8
0
  6
PHANTOM
 62
     7
370
     0
100
AcDbLine
 10
363.7932468288
 20
200.7082138605
 30
0.0
 11
342.2932468288
 21
200.7082138605
 31
0.0
  0
LINE
  5
41A
330
1F
100
AcDbEntity
  8
0
  6
PHANTOM
 62
     7
370
     0
100
AcDbLine
 10
363.7932468288
 20
100.7082138605
 30
0.0
 11
363.7932468288
 21
200.7082138605
 31
0.0
  0
LINE
  5
41B
330
1F
100
AcDbEntity
  8
0
  6
PHANTOM
 62
     7
370
     0
100
AcDbLine
 10
342.2932468288
 20
100.7082138605
 30
0.0
 11
363.7932468288
 21
100.7082138605
 31
0.0
  0
LINE
  5
41C
330
1F
100
AcDbEntity
  8
0
  6
PHANTOM
 62
     7
370
     0
100
AcDbLine
 10
342.2932468288
 20
200.7082138605
 30
0.0
 11
342.2932468288
 21
100.7082138605
 31
0.0
  0
CIRCLE
  5
41D
330
1F
100
AcDbEntity
  8
0
  6
PHANTOM
 62
     7
370
     0
100
AcDbCircle
 10
358.4432468288
 20
195.7082138605
 30
0.0
 40
2.0
  0
DIMENSION
  5
41E
330
1F
100
AcDbEntity
  8
0
  6
Continuous
 62
     7
370
     0
100
AcDbDimension
  2
*D14
 10
383.2452049976
 20
105.7082138605
 30
0.0
 11
383.2452049976
 21
148.739117426
 31
0.0
 70
   160
 71
     2
 42
-1.0
  3
SLDDIMSTYLE0
100
AcDbAlignedDimension
 13
362.9432468288
 23
195.7082138605
 33
0.0
 14
352.1432468288
 24
105.7082138605
 34
0.0
 50
90.0
100
AcDbRotatedDimension
  0
DIMENSION
  5
428
330
1F
100
AcDbEntity
  8
0
  6
Continuous
 62
     7
370
     0
100
AcDbDimension
  2
*D15
 10
347.6432468288
 20
90.7082138605
 30
0.0
 11
367.1275355196
 21
90.7082138605
 31
0.0
 70
   160
 71
     2
 42
-1.0
  3
SLDDIMSTYLE4
100
AcDbAlignedDimension
 13
358.4432468288
 23
191.2082138605
 33
0.0
 14
347.6432468288
 24
101.2082138605
 34
0.0
100
AcDbRotatedDimension
  0
INSERT
  5
43F
330
1F
100
AcDbEntity
  8
0
  6
Continuous
 62
     7
370
     0
100
AcDbBlockReference
  2
SW_NOTE_5
 10
368.4554084714
 20
204.1393006676
 30
0.0
  0
LEADER
  5
440
330
1F
100
AcDbEntity
  8
0
  6
Continuous
 62
     7
370
     0
100
AcDbLeader
  3
SLDDIMSTYLE3
 76
     2
 10
360.1684945889
 20
197.5175010589
 30
0.0
 10
368.4554084714
 20
204.1393006676
 30
0.0
  0
INSERT
  5
44C
330
1F
100
AcDbEntity
  8
0
  6
Continuous
 62
     7
370
     0
100
AcDbBlockReference
  2
SW_CENTERMARKSYMBOL_0
 10
358.4432468288
 20
195.7082138605
 30
0.0
  0
INSERT
  5
458
330
1F
100
AcDbEntity
  8
0
  6
Continuous
 62
     7
370
     0
100
AcDbBlockReference
  2
SW_CENTERMARKSYMBOL_1
 10
347.6432468288
 20
105.7082138605
 30
0.0
  0
ENDSEC
  0
SECTION
  2
OBJECTS
  0
DICTIONARY
  5
C
330
0
100
AcDbDictionary
281
     1
  3
ACAD_GROUP
350
D
  3
ACAD_LAYOUT
350
1A
  3
ACAD_MLINESTYLE
350
17
  3
ACAD_PLOTSETTINGS
350
19
  3
ACAD_PLOTSTYLENAME
350
E
  3
ACAD_TABLESTYLE
350
459
  3
ACAD_VISUALSTYLE
350
2A
  3
AcDbVariableDictionary
350
45A
  0
DICTIONARY
  5
D
102
{ACAD_REACTORS
330
C
102
}
330
C
100
AcDbDictionary
281
     1
  0
DICTIONARY
  5
1A
102
{ACAD_REACTORS
330
C
102
}
330
C
100
AcDbDictionary
281
     1
  3
Layout1
350
1E
  3
Layout2
350
26
  3
Model
350
22
  0
DICTIONARY
  5
17
102
{ACAD_REACTORS
330
C
102
}
330
C
100
AcDbDictionary
281
     1
  3
Standard
350
18
  0
DICTIONARY
  5
19
102
{ACAD_REACTORS
330
C
102
}
330
C
100
AcDbDictionary
281
     1
  0
ACDBDICTIONARYWDFLT
  5
E
102
{ACAD_REACTORS
330
C
102
}
330
C
100
AcDbDictionary
281
     1
  3
Normal
350
F
100
AcDbDictionaryWithDefault
340
F
  0
DICTIONARY
  5
459
102
{ACAD_REACTORS
330
C
102
}
330
C
100
AcDbDictionary
281
     1
  0
DICTIONARY
  5
2A
102
{ACAD_REACTORS
330
C
102
}
330
C
100
AcDbDictionary
281
     1
  3
2dWireframe
350
2F
  3
3D Hidden
350
31
  3
3dWireframe
350
30
  3
Basic
350
32
  3
Brighten
350
36
  3
ColorChange
350
3A
  3
Conceptual
350
34
  3
Dim
350
35
  3
Facepattern
350
39
  3
Flat
350
2B
  3
FlatWithEdges
350
2C
  3
Gouraud
350
2D
  3
GouraudWithEdges
350
2E
  3
Linepattern
350
38
  3
Realistic
350
33
  3
Thicken
350
37
  0
DICTIONARY
  5
45A
102
{ACAD_REACTORS
330
C
102
}
330
C
100
AcDbDictionary
281
     1
  3
PSOLHEIGHT
350
45C
  3
PSOLWIDTH
350
45B
  0
LAYOUT
  5
1E
102
{ACAD_REACTORS
330
1A
102
}
330
1A
100
AcDbPlotSettings
  1

  2
none_device
  4

  6

 40
0.0
 41
0.0
 42
0.0
 43
0.0
 44
0.0
 45
0.0
 46
0.0
 47
0.0
 48
0.0
 49
0.0
140
0.0
141
0.0
142
1.0
143
1.0
 70
   688
 72
     0
 73
     0
 74
     5
  7

 75
    16
147
1.0
148
0.0
149
0.0
100
AcDbLayout
  1
Layout1
 70
     1
 71
     1
 10
0.0
 20
0.0
 11
420.0
 21
297.0
 12
0.0
 22
0.0
 32
0.0
 14
1.0000000000E+20
 24
1.0000000000E+20
 34
1.0000000000E+20
 15
-1.0000000000E+20
 25
-1.0000000000E+20
 35
-1.0000000000E+20
146
0.0
 13
0.0
 23
0.0
 33
0.0
 16
1.0
 26
0.0
 36
0.0
 17
0.0
 27
1.0
 37
0.0
 76
     0
330
1B
  0
LAYOUT
  5
26
102
{ACAD_REACTORS
330
1A
102
}
330
1A
100
AcDbPlotSettings
  1

  2
none_device
  4

  6

 40
0.0
 41
0.0
 42
0.0
 43
0.0
 44
0.0
 45
0.0
 46
0.0
 47
0.0
 48
0.0
 49
0.0
140
0.0
141
0.0
142
1.0
143
1.0
 70
   688
 72
     0
 73
     0
 74
     5
  7

 75
    16
147
1.0
148
0.0
149
0.0
100
AcDbLayout
  1
Layout2
 70
     1
 71
     2
 10
0.0
 20
0.0
 11
0.0
 21
0.0
 12
0.0
 22
0.0
 32
0.0
 14
0.0
 24
0.0
 34
0.0
 15
0.0
 25
0.0
 35
0.0
146
0.0
 13
0.0
 23
0.0
 33
0.0
 16
1.0
 26
0.0
 36
0.0
 17
0.0
 27
1.0
 37
0.0
 76
     0
330
23
  0
LAYOUT
  5
22
102
{ACAD_REACTORS
330
1A
102
}
330
1A
100
AcDbPlotSettings
  1

  2
none_device
  4

  6

 40
0.0
 41
0.0
 42
0.0
 43
0.0
 44
0.0
 45
0.0
 46
0.0
 47
0.0
 48
0.0
 49
0.0
140
0.0
141
0.0
142
1.0
143
1.0
 70
  1712
 72
     0
 73
     0
 74
     0
  7

 75
     0
147
1.0
148
0.0
149
0.0
100
AcDbLayout
  1
Model
 70
     1
 71
     0
 10
0.0
 20
0.0
 11
420.0
 21
297.0
 12
0.0
 22
0.0
 32
0.0
 14
0.0
 24
0.0
 34
0.0
 15
420.0
 25
297.0
 35
0.0
146
0.0
 13
0.0
 23
0.0
 33
0.0
 16
1.0
 26
0.0
 36
0.0
 17
0.0
 27
1.0
 37
0.0
 76
     0
330
1F
331
29
  0
MLINESTYLE
  5
18
102
{ACAD_REACTORS
330
17
102
}
330
17
100
AcDbMlineStyle
  2
Standard
 70
     0
  3

 62
   256
 51
90.0
 52
90.0
 71
     2
 49
0.5
 62
   256
  6
BYLAYER
 49
-0.5
 62
   256
  6
BYLAYER
  0
ACDBPLACEHOLDER
  5
F
102
{ACAD_REACTORS
330
E
102
}
330
E
  0
VISUALSTYLE
  5
2F
102
{ACAD_REACTORS
330
2A
102
}
330
2A
100
AcDbVisualStyle
  2
2dWireframe
 70
     4
 71
     0
 72
     2
 73
     0
 90
        0
 40
-0.6
 41
-30.0
 62
     5
 63
     7
 74
     1
 91
        4
 64
     7
 65
   257
 75
     1
175
     1
 42
1.0
 92
        0
 66
   257
 43
1.0
 76
     1
 77
     6
 78
     2
 67
     7
 79
     5
170
     0
171
     0
290
     0
174
     0
 93
        1
 44
0.0
173
     0
291
     0
 45
0.0
1001
ACAD
1000
AcDbSavedByObjectVersion
1070
     0
  0
VISUALSTYLE
  5
31
102
{ACAD_REACTORS
330
2A
102
}
330
2A
100
AcDbVisualStyle
  2
3D Hidden
 70
     6
 71
     1
 72
     2
 73
     2
 90
        0
 40
-0.6
 41
-30.0
 62
     5
 63
     7
 74
     2
 91
        2
 64
     7
 65
   257
 75
     2
175
     1
 42
40.0
 92
        0
 66
   257
 43
1.0
 76
     1
 77
     6
 78
     2
 67
     7
 79
     3
170
     0
171
     0
290
     0
174
     0
 93
        1
 44
0.0
173
     0
291
     0
 45
0.0
1001
ACAD
1000
AcDbSavedByObjectVersion
1070
     0
  0
VISUALSTYLE
  5
30
102
{ACAD_REACTORS
330
2A
102
}
330
2A
100
AcDbVisualStyle
  2
3dWireframe
 70
     5
 71
     0
 72
     2
 73
     0
 90
        0
 40
-0.6
 41
-30.0
 62
     5
 63
     7
 74
     1
 91
        4
 64
     7
 65
   257
 75
     1
175
     1
 42
1.0
 92
        0
 66
   257
 43
1.0
 76
     1
 77
     6
 78
     2
 67
     7
 79
     5
170
     0
171
     0
290
     0
174
     0
 93
        1
 44
0.0
173
     0
291
     0
 45
0.0
1001
ACAD
1000
AcDbSavedByObjectVersion
1070
     0
  0
VISUALSTYLE
  5
32
102
{ACAD_REACTORS
330
2A
102
}
330
2A
100
AcDbVisualStyle
  2
Basic
 70
     7
 71
     1
 72
     0
 73
     1
 90
        0
 40
-0.6
 41
-30.0
 62
     5
 63
     7
 74
     0
 91
        4
 64
     7
 65
   257
 75
     1
175
     1
 42
1.0
 92
        8
 66
     7
 43
1.0
 76
     1
 77
     6
 78
     2
 67
     7
 79
     5
170
     0
171
     0
290
     0
174
     0
 93
        1
 44
0.0
173
     0
291
     1
 45
0.0
1001
ACAD
1000
AcDbSavedByObjectVersion
1070
     0
  0
VISUALSTYLE
  5
36
102
{ACAD_REACTORS
330
2A
102
}
330
2A
100
AcDbVisualStyle
  2
Brighten
 70
    12
 71
     2
 72
     2
 73
     0
 90
        0
 40
-0.6
 41
-30.0
 62
     5
 63
     7
 74
     1
 91
        4
 64
     7
 65
   257
 75
     1
175
     1
 42
1.0
 92
        8
 66
     7
 43
1.0
 76
     1
 77
     6
 78
     2
 67
     7
 79
     5
170
     0
171
     0
290
     0
174
     0
 93
        1
 44
50.0
173
     0
291
     1
 45
0.0
1001
ACAD
1000
AcDbSavedByObjectVersion
1070
     0
  0
VISUALSTYLE
  5
3A
102
{ACAD_REACTORS
330
2A
102
}
330
2A
100
AcDbVisualStyle
  2
ColorChange
 70
    16
 71
     2
 72
     2
 73
     3
 90
        0
 40
-0.6
 41
-30.0
 62
     5
 63
     8
 74
     1
 91
        4
 64
     7
 65
   257
 75
     1
175
     1
 42
1.0
 92
        8
 66
     8
 43
1.0
 76
     1
 77
     6
 78
     2
 67
     7
 79
     5
170
     0
171
     0
290
     0
174
     0
 93
        1
 44
0.0
173
     0
291
     1
 45
0.0
1001
ACAD
1000
AcDbSavedByObjectVersion
1070
     0
  0
VISUALSTYLE
  5
34
102
{ACAD_REACTORS
330
2A
102
}
330
2A
100
AcDbVisualStyle
  2
Conceptual
 70
     9
 71
     3
 72
     2
 73
     0
 90
        0
 40
-0.6
 41
-30.0
 62
     5
 63
     7
 74
     2
 91
        2
 64
     7
 65
   257
 75
     1
175
     1
 42
40.0
 92
        8
 66
     7
 43
1.0
 76
     1
 77
     6
 78
     2
 67
     7
 79
     3
170
     0
171
     0
290
     0
174
     0
 93
        1
 44
0.0
173
     0
291
     0
 45
0.0
1001
ACAD
1000
AcDbSavedByObjectVersion
1070
     0
  0
VISUALSTYLE
  5
35
102
{ACAD_REACTORS
330
2A
102
}
330
2A
100
AcDbVisualStyle
  2
Dim
 70
    11
 71
     2
 72
     2
 73
     0
 90
        0
 40
-0.6
 41
-30.0
 62
     5
 63
     7
 74
     1
 91
        4
 64
     7
 65
   257
 75
     1
175
     1
 42
1.0
 92
        8
 66
     7
 43
1.0
 76
     1
 77
     6
 78
     2
 67
     7
 79
     5
170
     0
171
     0
290
     0
174
     0
 93
        1
 44
-50.0
173
     0
291
     1
 45
0.0
1001
ACAD
1000
AcDbSavedByObjectVersion
1070
     0
  0
VISUALSTYLE
  5
39
102
{ACAD_REACTORS
330
2A
102
}
330
2A
100
AcDbVisualStyle
  2
Facepattern
 70
    15
 71
     2
 72
     2
 73
     0
 90
        0
 40
-0.6
 41
-30.0
 62
     5
 63
     7
 74
     1
 91
        4
 64
     7
 65
   257
 75
     1
175
     1
 42
1.0
 92
        8
 66
     7
 43
1.0
 76
     1
 77
     6
 78
     2
 67
     7
 79
     5
170
     0
171
     0
290
     0
174
     0
 93
        1
 44
0.0
173
     0
291
     1
 45
0.0
1001
ACAD
1000
AcDbSavedByObjectVersion
1070
     0
  0
VISUALSTYLE
  5
2B
102
{ACAD_REACTORS
330
2A
102
}
330
2A
100
AcDbVisualStyle
  2
Flat
 70
     0
 71
     2
 72
     1
 73
     1
 90
        2
 40
-0.6
 41
30.0
 62
     5
 63
     7
 74
     0
 91
        4
 64
     7
 65
   257
 75
     1
175
     1
 42
1.0
 92
        8
 66
     7
 43
1.0
 76
     1
 77
     6
 78
     2
 67
     7
 79
     5
170
     0
171
     0
290
     0
174
     0
 93
       13
 44
0.0
173
     0
291
     1
 45
0.0
1001
ACAD
1000
AcDbSavedByObjectVersion
1070
     0
  0
VISUALSTYLE
  5
2C
102
{ACAD_REACTORS
330
2A
102
}
330
2A
100
AcDbVisualStyle
  2
FlatWithEdges
 70
     1
 71
     2
 72
     1
 73
     1
 90
        2
 40
-0.6
 41
30.0
 62
     5
 63
     7
 74
     1
 91
        4
 64
     7
 65
   257
 75
     1
175
     1
 42
1.0
 92
        0
 66
   257
 43
1.0
 76
     1
 77
     6
 78
     2
 67
     7
 79
     5
170
     0
171
     0
290
     0
174
     0
 93
       13
 44
0.0
173
     0
291
     1
 45
0.0
1001
ACAD
1000
AcDbSavedByObjectVersion
1070
     0
  0
VISUALSTYLE
  5
2D
102
{ACAD_REACTORS
330
2A
102
}
330
2A
100
AcDbVisualStyle
  2
Gouraud
 70
     2
 71
     2
 72
     2
 73
     1
 90
        2
 40
-0.6
 41
30.0
 62
     5
 63
     7
 74
     0
 91
        4
 64
     7
 65
   257
 75
     1
175
     1
 42
1.0
 92
        0
 66
     7
 43
1.0
 76
     1
 77
     6
 78
     2
 67
     7
 79
     5
170
     0
171
     0
290
     0
174
     0
 93
       13
 44
0.0
173
     0
291
     1
 45
0.0
1001
ACAD
1000
AcDbSavedByObjectVersion
1070
     0
  0
VISUALSTYLE
  5
2E
102
{ACAD_REACTORS
330
2A
102
}
330
2A
100
AcDbVisualStyle
  2
GouraudWithEdges
 70
     3
 71
     2
 72
     2
 73
     1
 90
        2
 40
-0.6
 41
30.0
 62
     5
 63
     7
 74
     1
 91
        4
 64
     7
 65
   257
 75
     1
175
     1
 42
1.0
 92
        0
 66
   257
 43
1.0
 76
     1
 77
     6
 78
     2
 67
     7
 79
     5
170
     0
171
     0
290
     0
174
     0
 93
       13
 44
0.0
173
     0
291
     1
 45
0.0
1001
ACAD
1000
AcDbSavedByObjectVersion
1070
     0
  0
VISUALSTYLE
  5
38
102
{ACAD_REACTORS
330
2A
102
}
330
2A
100
AcDbVisualStyle
  2
Linepattern
 70
    14
 71
     2
 72
     2
 73
     0
 90
        0
 40
-0.6
 41
-30.0
 62
     5
 63
     7
 74
     1
 91
        4
 64
     7
 65
   257
 75
     7
175
     7
 42
1.0
 92
        8
 66
     7
 43
1.0
 76
     1
 77
     6
 78
     2
 67
     7
 79
     5
170
     0
171
     0
290
     0
174
     0
 93
        1
 44
0.0
173
     0
291
     1
 45
0.0
1001
ACAD
1000
AcDbSavedByObjectVersion
1070
     0
  0
VISUALSTYLE
  5
33
102
{ACAD_REACTORS
330
2A
102
}
330
2A
100
AcDbVisualStyle
  2
Realistic
 70
     8
 71
     2
 72
     2
 73
     0
 90
        0
 40
-0.6
 41
-30.0
 62
     5
 63
     7
 74
     1
 91
        0
 64
     7
 65
   257
 75
     1
175
     1
 42
1.0
 92
        8
 66
     8
 43
1.0
 76
     1
 77
     6
 78
     2
 67
     7
 79
     5
170
     0
171
     0
290
     0
174
     0
 93
       13
 44
0.0
173
     0
291
     0
 45
0.0
1001
ACAD
1000
AcDbSavedByObjectVersion
1070
     0
  0
VISUALSTYLE
  5
37
102
{ACAD_REACTORS
330
2A
102
}
330
2A
100
AcDbVisualStyle
  2
Thicken
 70
    13
 71
     2
 72
     2
 73
     0
 90
        0
 40
-0.6
 41
-30.0
 62
     5
 63
     7
 74
     1
 91
        4
 64
     7
 65
   257
 75
     1
175
     1
 42
1.0
 92
       12
 66
     7
 43
1.0
 76
     1
 77
     6
 78
     2
 67
     7
 79
     5
170
     0
171
     0
290
     0
174
     0
 93
        1
 44
0.0
173
     0
291
     1
 45
0.0
1001
ACAD
1000
AcDbSavedByObjectVersion
1070
     0
  0
DICTIONARYVAR
  5
45C
102
{ACAD_REACTORS
330
45A
102
}
330
45A
100
DictionaryVariables
280
     0
  1
80.000000
  0
DICTIONARYVAR
  5
45B
102
{ACAD_REACTORS
330
45A
102
}
330
45A
100
DictionaryVariables
280
     0
  1
5.000000
  0
ENDSEC
  0
EOF
