  0
SECTION
  2
HEADER
  9
$ACADVER
  1
AC1015
  9
$ACADMAINTVER
 70
     6
  9
$DWGCODEPAGE
  3
DOS932
  9
$INSBASE
 10
0.0
 20
0.0
 30
0.0
  9
$EXTMIN
 10
0.0
 20
0.0
 30
0.0
  9
$EXTMAX
 10
297.0
 20
210.0
 30
0.0
  9
$LIMMIN
 10
0.0
 20
0.0
  9
$LIMMAX
 10
297.0
 20
210.0
  9
$ORTHOMODE
 70
     0
  9
$REGENMODE
 70
     1
  9
$FILLMODE
 70
     1
  9
$QTEXTMODE
 70
     0
  9
$MIRRTEXT
 70
     1
  9
$LTSCALE
 40
1.0
  9
$ATTMODE
 70
     1
  9
$TEXTSIZE
 40
3.2
  9
$TRACEWID
 40
1.0
  9
$TEXTSTYLE
  7
Standard
  9
$CLAYER
  8
0
  9
$CELTYPE
  6
ByLayer
  9
$CECOLOR
 62
   256
  9
$CELTSCALE
 40
1.0
  9
$DISPSILH
 70
     0
  9
$DIMSCALE
 40
1.0
  9
$DIMASZ
 40
3.0
  9
$DIMEXO
 40
1.0
  9
$DIMDLI
 40
3.75
  9
$DIMRND
 40
0.0
  9
$DIMDLE
 40
0.0
  9
$DIMEXE
 40
1.0
  9
$DIMTP
 40
0.0
  9
$DIMTM
 40
0.0
  9
$DIMTXT
 40
3.2
  9
$DIMCEN
 40
2.5
  9
$DIMTSZ
 40
0.0
  9
$DIMTOL
 70
     0
  9
$DIMLIM
 70
     0
  9
$DIMTIH
 70
     1
  9
$DIMTOH
 70
     1
  9
$DIMSE1
 70
     0
  9
$DIMSE2
 70
     0
  9
$DIMTAD
 70
     1
  9
$DIMZIN
 70
     0
  9
$DIMBLK
  1

  9
$DIMASO
 70
     1
  9
$DIMSHO
 70
     1
  9
$DIMPOST
  1

  9
$DIMAPOST
  1

  9
$DIMALT
 70
     0
  9
$DIMALTD
 70
     3
  9
$DIMALTF
 40
0.0393700787
  9
$DIMLFAC
 40
5.0
  9
$DIMTOFL
 70
     1
  9
$DIMTVP
 40
0.0
  9
$DIMTIX
 70
     0
  9
$DIMSOXD
 70
     0
  9
$DIMSAH
 70
     0
  9
$DIMBLK1
  1

  9
$DIMBLK2
  1

  9
$DIMSTYLE
  2
ISO-25
  9
$DIMCLRD
 70
     0
  9
$DIMCLRE
 70
     0
  9
$DIMCLRT
 70
     0
  9
$DIMTFAC
 40
1.0
  9
$DIMGAP
 40
1.524
  9
$DIMJUST
 70
     0
  9
$DIMSD1
 70
     0
  9
$DIMSD2
 70
     0
  9
$DIMTOLJ
 70
     0
  9
$DIMTZIN
 70
     0
  9
$DIMALTZ
 70
     0
  9
$DIMALTTZ
 70
     0
  9
$DIMUPT
 70
     0
  9
$DIMDEC
 70
     8
  9
$DIMTDEC
 70
     2
  9
$DIMALTU
 70
     2
  9
$DIMALTTD
 70
     3
  9
$DIMTXSTY
  7
Standard
  9
$DIMAUNIT
 70
     0
  9
$DIMADEC
 70
     8
  9
$DIMALTRND
 40
0.0
  9
$DIMAZIN
 70
     0
  9
$DIMDSEP
 70
    44
  9
$DIMATFIT
 70
     3
  9
$DIMFRAC
 70
     0
  9
$DIMLDRBLK
  1

  9
$DIMLUNIT
 70
     2
  9
$DIMLWD
 70
    -2
  9
$DIMLWE
 70
    -2
  9
$DIMTMOVE
 70
     0
  9
$LUNITS
 70
     2
  9
$LUPREC
 70
     8
  9
$SKETCHINC
 40
1.0
  9
$FILLETRAD
 40
10.0
  9
$AUNITS
 70
     0
  9
$AUPREC
 70
     8
  9
$MENU
  1
.
  9
$ELEVATION
 40
0.0
  9
$PELEVATION
 40
0.0
  9
$THICKNESS
 40
0.0
  9
$LIMCHECK
 70
     0
  9
$CHAMFERA
 40
0.0
  9
$CHAMFERB
 40
0.0
  9
$CHAMFERC
 40
0.0
  9
$CHAMFERD
 40
0.0
  9
$SKPOLY
 70
     0
  9
$TDCREATE
 40
2460073.749951667
  9
$TDUCREATE
 40
2460073.374951667
  9
$TDUPDATE
 40
2460073.749953634
  9
$TDUUPDATE
 40
2460073.374953634
  9
$TDINDWG
 40
0.0000000116
  9
$TDUSRTIMER
 40
0.0000000116
  9
$USRTIMER
 70
     1
  9
$ANGBASE
 50
0.0
  9
$ANGDIR
 70
     0
  9
$PDMODE
 70
     0
  9
$PDSIZE
 40
-1.0
  9
$PLINEWID
 40
0.0
  9
$SPLFRAME
 70
     0
  9
$SPLINETYPE
 70
     6
  9
$SPLINESEGS
 70
     8
  9
$HANDSEED
  5
29F
  9
$SURFTAB1
 70
     6
  9
$SURFTAB2
 70
     6
  9
$SURFTYPE
 70
     6
  9
$SURFU
 70
     6
  9
$SURFV
 70
     6
  9
$UCSBASE
  2

  9
$UCSNAME
  2

  9
$UCSORG
 10
0.0
 20
0.0
 30
0.0
  9
$UCSXDIR
 10
1.0
 20
0.0
 30
0.0
  9
$UCSYDIR
 10
0.0
 20
1.0
 30
0.0
  9
$UCSORTHOREF
  2

  9
$UCSORTHOVIEW
 70
     0
  9
$UCSORGTOP
 10
0.0
 20
0.0
 30
0.0
  9
$UCSORGBOTTOM
 10
0.0
 20
0.0
 30
0.0
  9
$UCSORGLEFT
 10
0.0
 20
0.0
 30
0.0
  9
$UCSORGRIGHT
 10
0.0
 20
0.0
 30
0.0
  9
$UCSORGFRONT
 10
0.0
 20
0.0
 30
0.0
  9
$UCSORGBACK
 10
0.0
 20
0.0
 30
0.0
  9
$PUCSBASE
  2

  9
$PUCSNAME
  2

  9
$PUCSORG
 10
0.0
 20
0.0
 30
0.0
  9
$PUCSXDIR
 10
1.0
 20
0.0
 30
0.0
  9
$PUCSYDIR
 10
0.0
 20
1.0
 30
0.0
  9
$PUCSORTHOREF
  2

  9
$PUCSORTHOVIEW
 70
     0
  9
$PUCSORGTOP
 10
0.0
 20
0.0
 30
0.0
  9
$PUCSORGBOTTOM
 10
0.0
 20
0.0
 30
0.0
  9
$PUCSORGLEFT
 10
0.0
 20
0.0
 30
0.0
  9
$PUCSORGRIGHT
 10
0.0
 20
0.0
 30
0.0
  9
$PUCSORGFRONT
 10
0.0
 20
0.0
 30
0.0
  9
$PUCSORGBACK
 10
0.0
 20
0.0
 30
0.0
  9
$USERI1
 70
     0
  9
$USERI2
 70
     0
  9
$USERI3
 70
     0
  9
$USERI4
 70
     0
  9
$USERI5
 70
     0
  9
$USERR1
 40
0.0
  9
$USERR2
 40
0.0
  9
$USERR3
 40
0.0
  9
$USERR4
 40
0.0
  9
$USERR5
 40
0.0
  9
$WORLDVIEW
 70
     1
  9
$SHADEDGE
 70
     3
  9
$SHADEDIF
 70
    70
  9
$TILEMODE
 70
     1
  9
$MAXACTVP
 70
    64
  9
$PINSBASE
 10
0.0
 20
0.0
 30
0.0
  9
$PLIMCHECK
 70
     0
  9
$PEXTMIN
 10
1.0000000000E+20
 20
1.0000000000E+20
 30
1.0000000000E+20
  9
$PEXTMAX
 10
-1.0000000000E+20
 20
-1.0000000000E+20
 30
-1.0000000000E+20
  9
$PLIMMIN
 10
0.0
 20
0.0
  9
$PLIMMAX
 10
420.0
 20
297.0
  9
$UNITMODE
 70
     0
  9
$VISRETAIN
 70
     1
  9
$PLINEGEN
 70
     0
  9
$PSLTSCALE
 70
     1
  9
$TREEDEPTH
 70
  3020
  9
$CMLSTYLE
  2
Standard
  9
$CMLJUST
 70
     0
  9
$CMLSCALE
 40
20.0
  9
$PROXYGRAPHICS
 70
     1
  9
$MEASUREMENT
 70
     1
  9
$CELWEIGHT
370
    -1
  9
$ENDCAPS
280
     0
  9
$JOINSTYLE
280
     0
  9
$LWDISPLAY
290
     1
  9
$INSUNITS
 70
     4
  9
$HYPERLINKBASE
  1

  9
$STYLESHEET
  1

  9
$XEDIT
290
     1
  9
$CEPSNTYPE
380
     0
  9
$PSTYLEMODE
290
     1
  9
$FINGERPRINTGUID
  2
{855e9dce-3d56-47bd-ab57-7498e9b4dd17}
  9
$VERSIONGUID
  2
{FAEB1C32-E019-11D5-929B-00C0DF256EC4}
  9
$EXTNAMES
290
     1
  9
$PSVPSCALE
 40
0.0
  9
$OLESTARTUP
290
     0
  0
ENDSEC
  0
SECTION
  2
CLASSES
  0
CLASS
  1
ACDBDICTIONARYWDFLT
  2
AcDbDictionaryWithDefault
  3
ObjectDBX Classes
 90
        0
280
     0
281
     0
  0
CLASS
  1
VISUALSTYLE
  2
AcDbVisualStyle
  3
ObjectDBX Classes
 90
     4095
280
     0
281
     0
  0
CLASS
  1
MATERIAL
  2
AcDbMaterial
  3
ObjectDBX Classes
 90
     1153
280
     0
281
     0
  0
CLASS
  1
SCALE
  2
AcDbScale
  3
ObjectDBX Classes
 90
     1153
280
     0
281
     0
  0
CLASS
  1
TABLESTYLE
  2
AcDbTableStyle
  3
ObjectDBX Classes
 90
     4095
280
     0
281
     0
  0
CLASS
  1
MLEADERSTYLE
  2
AcDbMLeaderStyle
  3
ACDB_MLEADERSTYLE_CLASS
 90
     4095
280
     0
281
     0
  0
CLASS
  1
SUN
  2
AcDbSun
  3
SCENEOE
 90
     1153
280
     0
281
     0
  0
CLASS
  1
ACDBPLACEHOLDER
  2
AcDbPlaceHolder
  3
ObjectDBX Classes
 90
        0
280
     0
281
     0
  0
CLASS
  1
LAYOUT
  2
AcDbLayout
  3
ObjectDBX Classes
 90
        0
280
     0
281
     0
  0
ENDSEC
  0
SECTION
  2
TABLES
  0
TABLE
  2
VPORT
  5
8
330
0
100
AcDbSymbolTable
 70
     1
  0
VPORT
  5
29
330
8
100
AcDbSymbolTableRecord
100
AcDbViewportTableRecord
  2
*Active
 70
     0
 10
0.0
 20
0.0
 11
1.0
 21
1.0
 12
148.5
 22
105.0
 13
0.0
 23
0.0
 14
10.0
 24
10.0
 15
10.0
 25
10.0
 16
0.0
 26
0.0
 36
1.0
 17
0.0
 27
0.0
 37
0.0
 40
210.0
 41
1.4142857143
 42
50.0
 43
0.0
 44
0.0
 50
0.0
 51
0.0
 71
     0
 72
  2000
 73
     1
 74
     3
 75
     0
 76
     0
 77
     0
 78
     0
281
     0
 65
     1
110
0.0
120
0.0
130
0.0
111
1.0
121
0.0
131
0.0
112
0.0
122
1.0
132
0.0
 79
     0
146
0.0
  0
ENDTAB
  0
TABLE
  2
LTYPE
  5
5
330
0
100
AcDbSymbolTable
 70
     6
  0
LTYPE
  5
14
330
5
100
AcDbSymbolTableRecord
100
AcDbLinetypeTableRecord
  2
ByBlock
 70
     0
  3

 72
    65
 73
     0
 40
0.0
  0
LTYPE
  5
15
330
5
100
AcDbSymbolTableRecord
100
AcDbLinetypeTableRecord
  2
ByLayer
 70
     0
  3

 72
    65
 73
     0
 40
0.0
  0
LTYPE
  5
16
330
5
100
AcDbSymbolTableRecord
100
AcDbLinetypeTableRecord
  2
Continuous
 70
     0
  3
Solid line
 72
    65
 73
     0
 40
0.0
  0
LTYPE
  5
6E
330
5
100
AcDbSymbolTableRecord
100
AcDbLinetypeTableRecord
  2
HIDDEN
 70
     0
  3
Hidden __ __ __ __ __ __ __ __ __ __ __ __ __ __
 72
    65
 73
     2
 40
1.905
 49
1.27
 74
     0
 49
-0.635
 74
     0
  0
LTYPE
  5
6F
330
5
100
AcDbSymbolTableRecord
100
AcDbLinetypeTableRecord
  2
PHANTOM
 70
     0
  3
Phantom ______  __  __  ______  __  __  ______
 72
    65
 73
     6
 40
12.7
 49
6.35
 74
     0
 49
-1.27
 74
     0
 49
1.27
 74
     0
 49
-1.27
 74
     0
 49
1.27
 74
     0
 49
-1.27
 74
     0
  0
LTYPE
  5
70
330
5
100
AcDbSymbolTableRecord
100
AcDbLinetypeTableRecord
  2
CENTER
 70
     0
  3
Center ____ _ ____ _ ____ _ ____ _ ____ _ ____
 72
    65
 73
     4
 40
10.16
 49
6.35
 74
     0
 49
-1.27
 74
     0
 49
1.27
 74
     0
 49
-1.27
 74
     0
  0
LTYPE
  5
71
330
5
100
AcDbSymbolTableRecord
100
AcDbLinetypeTableRecord
  2
CENTERX2
 70
     0
  3
Center (2x) ________  __  ________  __  _____
 72
    65
 73
     4
 40
20.32
 49
12.7
 74
     0
 49
-2.54
 74
     0
 49
2.54
 74
     0
 49
-2.54
 74
     0
  0
LTYPE
  5
72
330
5
100
AcDbSymbolTableRecord
100
AcDbLinetypeTableRecord
  2
DOT2
 70
     0
  3
Dot (.5x) ........................................
 72
    65
 73
     2
 40
0.635
 49
0.0
 74
     0
 49
-0.635
 74
     0
  0
ENDTAB
  0
TABLE
  2
LAYER
  5
2
330
0
100
AcDbSymbolTable
 70
     6
  0
LAYER
  5
10
330
2
100
AcDbSymbolTableRecord
100
AcDbLayerTableRecord
  2
0
 70
     0
 62
     7
  6
Continuous
370
    -3
390
F
  0
LAYER
  5
73
330
2
100
AcDbSymbolTableRecord
100
AcDbLayerTableRecord
  2
NOTES
 70
     0
 62
   116
  6
Continuous
370
    -3
390
F
  0
LAYER
  5
74
330
2
100
AcDbSymbolTableRecord
100
AcDbLayerTableRecord
  2
DIM
 70
     0
 62
     5
  6
Continuous
370
    -3
390
F
  0
LAYER
  5
75
330
2
100
AcDbSymbolTableRecord
100
AcDbLayerTableRecord
  2
CENTER
 70
     0
 62
     1
  6
Continuous
370
    -3
390
F
  0
LAYER
  5
76
330
2
100
AcDbSymbolTableRecord
100
AcDbLayerTableRecord
  2
WORKLAYER
 70
     0
 62
     7
  6
Continuous
370
    50
390
F
  0
LAYER
  5
77
330
2
100
AcDbSymbolTableRecord
100
AcDbLayerTableRecord
  2
CHANGE_1
 70
     0
 62
     7
  6
Continuous
370
    -3
390
F
  0
ENDTAB
  0
TABLE
  2
STYLE
  5
3
330
0
100
AcDbSymbolTable
 70
     2
  0
STYLE
  5
11
330
3
100
AcDbSymbolTableRecord
100
AcDbTextStyleTableRecord
  2
Standard
 70
     0
 40
0.0
 41
1.0
 50
0.0
 71
     0
 42
3.2
  3
txt
  4
bigfont
  0
STYLE
  5
7F
330
3
100
AcDbSymbolTableRecord
100
AcDbTextStyleTableRecord
  2
SLDTEXTSTYLE0
 70
     0
 40
0.0
 41
0.7
 50
0.0
 71
     0
 42
3.2
  3
TXT
  4
bigfont
  0
ENDTAB
  0
TABLE
  2
VIEW
  5
6
330
0
100
AcDbSymbolTable
 70
     0
  0
ENDTAB
  0
TABLE
  2
UCS
  5
7
330
0
100
AcDbSymbolTable
 70
     0
  0
ENDTAB
  0
TABLE
  2
APPID
  5
9
330
0
100
AcDbSymbolTable
 70
     1
  0
APPID
  5
12
330
9
100
AcDbSymbolTableRecord
100
AcDbRegAppTableRecord
  2
ACAD
 70
     0
  0
ENDTAB
  0
TABLE
  2
DIMSTYLE
  5
A
330
0
100
AcDbSymbolTable
 70
     5
100
AcDbDimStyleTable
  0
DIMSTYLE
105
27
330
A
100
AcDbSymbolTableRecord
100
AcDbDimStyleTableRecord
  2
ISO-25
 70
     0
 41
2.5
 42
0.625
 43
3.75
 44
1.25
 73
     0
 74
     0
 77
     1
 78
     8
140
2.5
141
2.5
143
0.0393700787
147
0.625
171
     3
172
     1
178
     0
271
     2
272
     2
274
     3
278
    44
283
     0
284
     8
340
11
  0
DIMSTYLE
105
191
102
{ACAD_REACTORS
330
190
102
}
330
A
100
AcDbSymbolTableRecord
100
AcDbDimStyleTableRecord
  2
SLDDIMSTYLE0
 70
     0
 41
3.0
 44
0.0
 45
0.000000001
 47
100.0
 71
     1
 73
     0
 74
     0
 77
     3
 78
    12
 79
     3
140
3.2
147
0.8
173
     1
178
     0
271
     8
272
     0
276
     2
284
     8
340
7F
341
192
343
192
344
192
  0
DIMSTYLE
105
1A7
102
{ACAD_REACTORS
330
1A6
330
1B3
330
285
330
291
102
}
330
A
100
AcDbSymbolTableRecord
100
AcDbDimStyleTableRecord
  2
SLDDIMSTYLE1
 70
     0
 41
3.0
 44
0.0
 45
0.000000001
 73
     0
 74
     0
 77
     3
 78
    12
 79
     3
140
3.2
147
0.8
173
     1
178
     0
271
     8
272
     2
276
     2
284
    12
340
7F
341
192
343
192
344
192
  0
DIMSTYLE
105
1C0
102
{ACAD_REACTORS
330
1BF
102
}
330
A
100
AcDbSymbolTableRecord
100
AcDbDimStyleTableRecord
  2
SLDDIMSTYLE2
 70
     0
 41
3.0
 44
0.0
 45
0.000000001
 73
     0
 74
     0
 77
     3
 78
    12
 79
     3
140
3.2
147
0.8
172
     1
173
     1
178
     0
271
     8
272
     2
276
     2
284
    12
289
     0
340
7F
341
192
343
192
344
192
  0
DIMSTYLE
105
1D2
330
A
100
AcDbSymbolTableRecord
100
AcDbDimStyleTableRecord
  2
SLDDIMSTYLE3
 70
     0
 41
3.0
 44
0.0
 45
0.000000001
146
3.0
147
0.0
173
     1
178
     0
271
     0
272
     0
276
     2
340
11
341
192
343
192
344
192
  0
ENDTAB
  0
TABLE
  2
BLOCK_RECORD
  5
1
330
0
100
AcDbSymbolTable
 70
    18
  0
BLOCK_RECORD
  5
1F
330
1
100
AcDbSymbolTableRecord
100
AcDbBlockTableRecord
  2
*Model_Space
340
22
  0
BLOCK_RECORD
  5
1B
330
1
100
AcDbSymbolTableRecord
100
AcDbBlockTableRecord
  2
*Paper_Space
340
1E
  0
BLOCK_RECORD
  5
23
330
1
100
AcDbSymbolTableRecord
100
AcDbBlockTableRecord
  2
*Paper_Space0
340
26
  0
BLOCK_RECORD
  5
83
330
1
100
AcDbSymbolTableRecord
100
AcDbBlockTableRecord
  2
SW_NOTE_0
340
0
102
{BLKREFS
331
88
102
}
  0
BLOCK_RECORD
  5
8B
330
1
100
AcDbSymbolTableRecord
100
AcDbBlockTableRecord
  2
SW_BROKEN_VIEW_0
340
0
102
{BLKREFS
331
8F
102
}
  0
BLOCK_RECORD
  5
192
330
1
100
AcDbSymbolTableRecord
100
AcDbBlockTableRecord
  2
_Open30
340
0
102
{BLKREFS
331
19B
331
19C
331
1AD
331
1AE
331
1B9
331
1BA
331
1C6
331
1C7
331
28B
331
28C
331
297
331
298
102
}
  0
BLOCK_RECORD
  5
198
330
1
100
AcDbSymbolTableRecord
100
AcDbBlockTableRecord
  2
_D
340
0
  0
BLOCK_RECORD
  5
1A8
330
1
100
AcDbSymbolTableRecord
100
AcDbBlockTableRecord
  2
_D_1
340
0
  0
BLOCK_RECORD
  5
1B4
330
1
100
AcDbSymbolTableRecord
100
AcDbBlockTableRecord
  2
_D_2
340
0
  0
BLOCK_RECORD
  5
1C1
330
1
100
AcDbSymbolTableRecord
100
AcDbBlockTableRecord
  2
_D_3
340
0
  0
BLOCK_RECORD
  5
1CC
330
1
100
AcDbSymbolTableRecord
100
AcDbBlockTableRecord
  2
SW_NOTE_0_1
340
0
102
{BLKREFS
331
1D1
102
}
  0
BLOCK_RECORD
  5
1D4
330
1
100
AcDbSymbolTableRecord
100
AcDbBlockTableRecord
  2
SW_NOTE_0_2
340
0
102
{BLKREFS
331
1D9
102
}
  0
BLOCK_RECORD
  5
1DB
330
1
100
AcDbSymbolTableRecord
100
AcDbBlockTableRecord
  2
SW_NOTE_0_3
340
0
102
{BLKREFS
331
1E0
102
}
  0
BLOCK_RECORD
  5
1E2
330
1
100
AcDbSymbolTableRecord
100
AcDbBlockTableRecord
  2
SW_NOTE_0_4
340
0
102
{BLKREFS
331
1E7
102
}
  0
BLOCK_RECORD
  5
1E9
330
1
100
AcDbSymbolTableRecord
100
AcDbBlockTableRecord
  2
SW_NOTE_0_5
340
0
102
{BLKREFS
331
1EE
102
}
  0
BLOCK_RECORD
  5
1F0
330
1
100
AcDbSymbolTableRecord
100
AcDbBlockTableRecord
  2
SW_NOTE_0_6
340
0
102
{BLKREFS
331
1F5
102
}
  0
BLOCK_RECORD
  5
1F7
330
1
100
AcDbSymbolTableRecord
100
AcDbBlockTableRecord
  2
SW_CENTERMARKSYMBOL_0
340
0
102
{BLKREFS
331
202
102
}
  0
BLOCK_RECORD
  5
203
330
1
100
AcDbSymbolTableRecord
100
AcDbBlockTableRecord
  2
SW_CENTERMARKSYMBOL_1
340
0
102
{BLKREFS
331
20E
102
}
  0
BLOCK_RECORD
  5
286
330
1
100
AcDbSymbolTableRecord
100
AcDbBlockTableRecord
  2
_D_4
340
0
  0
BLOCK_RECORD
  5
292
330
1
100
AcDbSymbolTableRecord
100
AcDbBlockTableRecord
  2
_D_5
340
0
  0
ENDTAB
  0
ENDSEC
  0
SECTION
  2
BLOCKS
  0
BLOCK
  5
20
330
1F
100
AcDbEntity
  8
0
100
AcDbBlockBegin
  2
*Model_Space
 70
     0
 10
0.0
 20
0.0
 30
0.0
  3
*Model_Space
  1

  0
ENDBLK
  5
21
330
1F
100
AcDbEntity
  8
0
100
AcDbBlockEnd
  0
BLOCK
  5
1C
330
1B
100
AcDbEntity
 67
     1
  8
0
100
AcDbBlockBegin
  2
*Paper_Space
 70
     0
 10
0.0
 20
0.0
 30
0.0
  3
*Paper_Space
  1

  0
ENDBLK
  5
1D
330
1B
100
AcDbEntity
 67
     1
  8
0
100
AcDbBlockEnd
  0
BLOCK
  5
24
330
23
100
AcDbEntity
  8
0
100
AcDbBlockBegin
  2
*Paper_Space0
 70
     0
 10
0.0
 20
0.0
 30
0.0
  3
*Paper_Space0
  1

  0
ENDBLK
  5
25
330
23
100
AcDbEntity
  8
0
100
AcDbBlockEnd
  0
BLOCK
  5
84
330
83
100
AcDbEntity
  8
0
100
AcDbBlockBegin
  2
SW_NOTE_0
 70
     0
 10
0.0
 20
0.0
 30
0.0
  3
SW_NOTE_0
  1

  0
MTEXT
  5
86
330
83
100
AcDbEntity
  8
DIM
 62
     0
100
AcDbMText
 10
0.0
 20
4.1250167673
 30
0.0
 40
3.2
 41
0.0
 71
     1
 72
     1
  1
+50
  7
SLDTEXTSTYLE0
 73
     1
 44
1.0
  0
MTEXT
  5
87
330
83
100
AcDbEntity
  8
DIM
 62
     0
100
AcDbMText
 10
1.8
 20
-0.074983083
 30
0.0
 40
3.2
 41
0.0
 71
     1
 72
     1
  1
0
  7
SLDTEXTSTYLE0
 73
     1
 44
1.0
  0
ENDBLK
  5
85
330
83
100
AcDbEntity
  8
0
100
AcDbBlockEnd
  0
BLOCK
  5
8C
330
8B
100
AcDbEntity
  8
0
100
AcDbBlockBegin
  2
SW_BROKEN_VIEW_0
 70
     0
 10
0.0
 20
0.0
 30
0.0
  3
SW_BROKEN_VIEW_0
  1

  0
LINE
  5
8E
330
8B
100
AcDbEntity
  8
0
  6
Continuous
 62
     0
100
AcDbLine
 10
0.0
 20
0.0
 30
0.0
 11
1.1543408036
 21
0.0
 31
0.0
  0
ENDBLK
  5
8D
330
8B
100
AcDbEntity
  8
0
100
AcDbBlockEnd
  0
BLOCK
  5
193
330
192
100
AcDbEntity
  8
0
100
AcDbBlockBegin
  2
_Open30
 70
     0
 10
0.0
 20
0.0
 30
0.0
  3
_Open30
  1

  0
LINE
  5
195
330
192
100
AcDbEntity
  8
0
  6
ByBlock
 62
     0
370
    -2
100
AcDbLine
 10
-1.0
 20
0.267949
 30
0.0
 11
0.0
 21
0.0
 31
0.0
  0
LINE
  5
196
330
192
100
AcDbEntity
  8
0
  6
ByBlock
 62
     0
370
    -2
100
AcDbLine
 10
0.0
 20
0.0
 30
0.0
 11
-1.0
 21
-0.267949
 31
0.0
  0
LINE
  5
197
330
192
100
AcDbEntity
  8
0
  6
ByBlock
 62
     0
370
    -2
100
AcDbLine
 10
0.0
 20
0.0
 30
0.0
 11
-1.0
 21
0.0
 31
0.0
  0
ENDBLK
  5
194
330
192
100
AcDbEntity
  8
0
100
AcDbBlockEnd
  0
BLOCK
  5
199
330
198
100
AcDbEntity
  8
0
100
AcDbBlockBegin
  2
_D
 70
     0
 10
0.0
 20
0.0
 30
0.0
  3
_D
  1

  0
INSERT
  5
19B
330
198
100
AcDbEntity
  8
DIM
100
AcDbBlockReference
  2
_Open30
 10
87.1188502452
 20
140.6207943869
 30
0.9680423763
 41
3.0
 42
3.0
 50
180.0
  0
INSERT
  5
19C
330
198
100
AcDbEntity
  8
DIM
100
AcDbBlockReference
  2
_Open30
 10
256.1321394081
 20
140.6207943869
 30
0.9680423763
 41
3.0
 42
3.0
 50
0.0
  0
LINE
  5
19D
330
198
100
AcDbEntity
  8
DIM
100
AcDbLine
 10
87.1188502452
 20
117.873069452
 30
0.0
 11
87.1188502452
 21
141.6207943869
 31
0.0
  0
LINE
  5
19E
330
198
100
AcDbEntity
  8
DIM
100
AcDbLine
 10
256.1321394081
 20
122.3012694647
 30
0.0
 11
256.1321394081
 21
141.6207943869
 31
0.0
  0
LINE
  5
19F
330
198
100
AcDbEntity
  8
DIM
100
AcDbLine
 10
87.1188502452
 20
140.6207943869
 30
0.0
 11
256.1321394081
 21
140.6207943869
 31
0.0
  0
MTEXT
  5
1A0
330
198
100
AcDbEntity
  8
DIM
100
AcDbMText
 10
139.0366143176
 20
144.7458112124
 30
0.0
 40
3.2
 41
0.0
 71
     1
 72
     1
  1
Ｌ= 500～5000　　、5000～10000
  7
SLDTEXTSTYLE0
 73
     1
 44
1.0
  0
MTEXT
  5
1A1
330
198
100
AcDbEntity
  8
DIM
100
AcDbMText
 10
196.7032804557
 20
144.7458112124
 30
0.0
 40
3.2
 41
0.0
 71
     1
 72
     1
  1

  7
SLDTEXTSTYLE0
 73
     1
 44
1.0
  0
MTEXT
  5
1A2
330
198
100
AcDbEntity
  8
DIM
100
AcDbMText
 10
196.7655046472
 20
148.4702556371
 30
0.0
 40
3.2
 41
0.0
 71
     1
 72
     1
  1
+
  7
SLDTEXTSTYLE0
 73
     1
 44
1.0
  0
MTEXT
  5
1A3
330
198
100
AcDbEntity
  8
DIM
100
AcDbMText
 10
198.5655046472
 20
144.7458112124
 30
0.0
 40
3.2
 41
0.0
 71
     1
 72
     1
  1

  7
SLDTEXTSTYLE0
 73
     1
 44
1.0
  0
MTEXT
  5
1A4
330
198
100
AcDbEntity
  8
DIM
100
AcDbMText
 10
198.6277251133
 20
148.4702556371
 30
0.0
 40
3.2
 41
0.0
 71
     1
 72
     1
  1
100
  7
SLDTEXTSTYLE0
 73
     1
 44
1.0
  0
MTEXT
  5
1A5
330
198
100
AcDbEntity
  8
DIM
100
AcDbMText
 10
198.6277251133
 20
144.7458112124
 30
0.0
 40
3.2
 41
0.0
 71
     1
 72
     1
  1
0
  7
SLDTEXTSTYLE0
 73
     1
 44
1.0
  0
ENDBLK
  5
19A
330
198
100
AcDbEntity
  8
0
100
AcDbBlockEnd
  0
BLOCK
  5
1A9
330
1A8
100
AcDbEntity
  8
0
100
AcDbBlockBegin
  2
_D_1
 70
     0
 10
0.0
 20
0.0
 30
0.0
  3
_D_1
  1

  0
ARC
  5
1AB
330
1A8
100
AcDbEntity
  8
DIM
100
AcDbCircle
 10
75.8310723412
 20
142.4830163664
 30
0.0
 40
4.164055456062124
100
AcDbArc
 50
153.4349488229
 51
206.5650511771
  0
ARC
  5
1AC
330
1A8
100
AcDbEntity
  8
DIM
100
AcDbCircle
 10
72.1066279165
 20
142.4830163664
 30
0.0
 40
4.164055456062124
100
AcDbArc
 50
333.4349488229
 51
26.5650511771
  0
INSERT
  5
1AD
330
1A8
100
AcDbEntity
  8
DIM
100
AcDbBlockReference
  2
_Open30
 10
60.8188502452
 20
140.6207943869
 30
0.9680423763
 41
3.0
 42
3.0
 50
180.0
  0
INSERT
  5
1AE
330
1A8
100
AcDbEntity
  8
DIM
100
AcDbBlockReference
  2
_Open30
 10
87.1188502452
 20
140.6207943869
 30
0.9680423763
 41
3.0
 42
3.0
 50
0.0
  0
LINE
  5
1AF
330
1A8
100
AcDbEntity
  8
DIM
100
AcDbLine
 10
60.8188502452
 20
120.373069452
 30
0.0
 11
60.8188502452
 21
141.6207943869
 31
0.0
  0
LINE
  5
1B0
330
1A8
100
AcDbEntity
  8
DIM
100
AcDbLine
 10
87.1188502452
 20
117.873069452
 30
0.0
 11
87.1188502452
 21
141.6207943869
 31
0.0
  0
LINE
  5
1B1
330
1A8
100
AcDbEntity
  8
DIM
100
AcDbLine
 10
60.8188502452
 20
140.6207943869
 30
0.0
 11
87.1188502452
 21
140.6207943869
 31
0.0
  0
MTEXT
  5
1B2
330
1A8
100
AcDbEntity
  8
DIM
100
AcDbMText
 10
72.1066279165
 20
144.7458109796
 30
0.0
 40
3.2
 41
0.0
 71
     1
 72
     1
  1
26
  7
SLDTEXTSTYLE0
 73
     1
 44
1.0
  0
ENDBLK
  5
1AA
330
1A8
100
AcDbEntity
  8
0
100
AcDbBlockEnd
  0
BLOCK
  5
1B5
330
1B4
100
AcDbEntity
  8
0
100
AcDbBlockBegin
  2
_D_2
 70
     0
 10
0.0
 20
0.0
 30
0.0
  3
_D_2
  1

  0
ARC
  5
1B7
330
1B4
100
AcDbEntity
  8
DIM
100
AcDbCircle
 10
219.4317988276
 20
131.2052887862
 30
0.0
 40
4.164055456062138
100
AcDbArc
 50
153.4349488229
 51
206.5650511771
  0
ARC
  5
1B8
330
1B4
100
AcDbEntity
  8
DIM
100
AcDbCircle
 10
215.7073544029
 20
131.2052887862
 30
0.0
 40
4.164055456062112
100
AcDbArc
 50
333.4349488229
 51
26.5650511771
  0
INSERT
  5
1B9
330
1B4
100
AcDbEntity
  8
DIM
100
AcDbBlockReference
  2
_Open30
 10
256.1321394081
 20
129.3430668066
 30
0.9680423763
 41
3.0
 42
3.0
 50
0.0
  0
INSERT
  5
1BA
330
1B4
100
AcDbEntity
  8
DIM
100
AcDbBlockReference
  2
_Open30
 10
179.0070140551
 20
129.3430668066
 30
0.9680423763
 41
3.0
 42
3.0
 50
180.0
  0
LINE
  5
1BB
330
1B4
100
AcDbEntity
  8
DIM
100
AcDbLine
 10
256.1321394081
 20
122.3012694647
 30
0.0
 11
256.1321394081
 21
130.3430668066
 31
0.0
  0
LINE
  5
1BC
330
1B4
100
AcDbEntity
  8
DIM
100
AcDbLine
 10
179.0070140551
 20
114.873069452
 30
0.0
 11
179.0070140551
 21
130.3430668066
 31
0.0
  0
LINE
  5
1BD
330
1B4
100
AcDbEntity
  8
DIM
100
AcDbLine
 10
256.1321394081
 20
129.3430668066
 30
0.0
 11
179.0070140551
 21
129.3430668066
 31
0.0
  0
MTEXT
  5
1BE
330
1B4
100
AcDbEntity
  8
DIM
100
AcDbMText
 10
215.7073544029
 20
133.4680833993
 30
0.0
 40
3.2
 41
0.0
 71
     1
 72
     1
  1
80
  7
SLDTEXTSTYLE0
 73
     1
 44
1.0
  0
ENDBLK
  5
1B6
330
1B4
100
AcDbEntity
  8
0
100
AcDbBlockEnd
  0
BLOCK
  5
1C2
330
1C1
100
AcDbEntity
  8
0
100
AcDbBlockBegin
  2
_D_3
 70
     0
 10
0.0
 20
0.0
 30
0.0
  3
_D_3
  1

  0
ARC
  5
1C4
330
1C1
100
AcDbEntity
  8
DIM
100
AcDbCircle
 10
148.803427969
 20
89.9053779977
 30
0.0
 40
4.164055456062124
100
AcDbArc
 50
243.4349488229
 51
296.5650511771
  0
ARC
  5
1C5
330
1C1
100
AcDbEntity
  8
DIM
100
AcDbCircle
 10
148.803427969
 20
97.3542668472
 30
0.0
 40
4.164055456062124
100
AcDbArc
 50
63.4349488229
 51
116.5650511771
  0
INSERT
  5
1C6
330
1C1
100
AcDbEntity
  8
DIM
100
AcDbBlockReference
  2
_Open30
 10
150.6656499485
 20
113.673069452
 30
0.9680423763
 41
3.0
 42
3.0
 50
270.0
  0
INSERT
  5
1C7
330
1C1
100
AcDbEntity
  8
DIM
100
AcDbBlockReference
  2
_Open30
 10
150.6656499485
 20
108.573069452
 30
0.9680423763
 41
3.0
 42
3.0
 50
90.0
  0
LINE
  5
1C8
330
1C1
100
AcDbEntity
  8
DIM
100
AcDbLine
 10
150.6656499485
 20
113.673069452
 30
0.0
 11
150.6656499485
 21
117.173069452
 31
0.0
  0
LINE
  5
1C9
330
1C1
100
AcDbEntity
  8
DIM
100
AcDbLine
 10
150.6656499485
 20
113.673069452
 30
0.0
 11
150.6656499485
 21
108.573069452
 31
0.0
  0
LINE
  5
1CA
330
1C1
100
AcDbEntity
  8
DIM
100
AcDbLine
 10
150.6656499485
 20
108.573069452
 30
0.0
 11
150.6656499485
 21
85.7413225422
 31
0.0
  0
MTEXT
  5
1CB
330
1C1
100
AcDbEntity
  8
DIM
100
AcDbMText
 10
146.5406333559
 20
86.180933573
 30
0.0
 40
3.2
 41
0.0
 71
     1
 72
     1
  1
3.2×5.1
  7
SLDTEXTSTYLE0
 11
-7.044195017643634E-15
 21
1.0
 31
0.0
 73
     1
 44
1.0
  0
ENDBLK
  5
1C3
330
1C1
100
AcDbEntity
  8
0
100
AcDbBlockEnd
  0
BLOCK
  5
1CD
330
1CC
100
AcDbEntity
  8
0
100
AcDbBlockBegin
  2
SW_NOTE_0_1
 70
     0
 10
0.0
 20
0.0
 30
0.0
  3
SW_NOTE_0_1
  1

  0
LINE
  5
1CF
330
1CC
100
AcDbEntity
  8
NOTES
 62
     0
100
AcDbLine
 10
25.9510627211
 20
0.0
 30
0.0
 11
0.0
 21
0.0
 31
0.0
  0
MTEXT
  5
1D0
330
1CC
100
AcDbEntity
  8
NOTES
 62
     0
100
AcDbMText
 10
0.4901384504
 20
4.2184197126
 30
0.0
 40
3.2
 41
0.0
 71
     1
 72
     1
  1
熱収縮チューブ
  7
SLDTEXTSTYLE0
 73
     1
 44
1.0
  0
ENDBLK
  5
1CE
330
1CC
100
AcDbEntity
  8
0
100
AcDbBlockEnd
  0
BLOCK
  5
1D5
330
1D4
100
AcDbEntity
  8
0
100
AcDbBlockBegin
  2
SW_NOTE_0_2
 70
     0
 10
0.0
 20
0.0
 30
0.0
  3
SW_NOTE_0_2
  1

  0
LINE
  5
1D7
330
1D4
100
AcDbEntity
  8
NOTES
 62
     0
100
AcDbLine
 10
-26.1911587595
 20
0.0
 30
0.0
 11
0.0
 21
0.0
 31
0.0
  0
MTEXT
  5
1D8
330
1D4
100
AcDbEntity
  8
NOTES
 62
     0
100
AcDbMText
 10
-26.5955452439
 20
4.2184197126
 30
0.0
 40
3.2
 41
0.0
 71
     1
 72
     1
  1
熱収縮チューブ
  7
SLDTEXTSTYLE0
 73
     1
 44
1.0
  0
ENDBLK
  5
1D6
330
1D4
100
AcDbEntity
  8
0
100
AcDbBlockEnd
  0
BLOCK
  5
1DC
330
1DB
100
AcDbEntity
  8
0
100
AcDbBlockBegin
  2
SW_NOTE_0_3
 70
     0
 10
0.0
 20
0.0
 30
0.0
  3
SW_NOTE_0_3
  1

  0
LINE
  5
1DE
330
1DB
100
AcDbEntity
  8
NOTES
 62
     0
100
AcDbLine
 10
-18.7422694444
 20
0.0
 30
0.0
 11
0.0
 21
0.0
 31
0.0
  0
MTEXT
  5
1DF
330
1DB
100
AcDbEntity
  8
NOTES
 62
     0
100
AcDbMText
 10
-19.1234274399
 20
4.0133119072
 30
0.0
 40
3.2
 41
0.0
 71
     1
 72
     1
  1
Yラグ（M3)
  7
SLDTEXTSTYLE0
 73
     1
 44
1.0
  0
ENDBLK
  5
1DD
330
1DB
100
AcDbEntity
  8
0
100
AcDbBlockEnd
  0
BLOCK
  5
1E3
330
1E2
100
AcDbEntity
  8
0
100
AcDbBlockBegin
  2
SW_NOTE_0_4
 70
     0
 10
0.0
 20
0.0
 30
0.0
  3
SW_NOTE_0_4
  1

  0
LINE
  5
1E5
330
1E2
100
AcDbEntity
  8
NOTES
 62
     0
100
AcDbLine
 10
25.9510627211
 20
0.0
 30
0.0
 11
0.0
 21
0.0
 31
0.0
  0
MTEXT
  5
1E6
330
1E2
100
AcDbEntity
  8
NOTES
 62
     0
100
AcDbMText
 10
0.4573051016
 20
4.1008140101
 30
0.0
 40
3.2
 41
0.0
 71
     1
 72
     1
  1
熱電対コネクタ
  7
SLDTEXTSTYLE0
 73
     1
 44
1.0
  0
ENDBLK
  5
1E4
330
1E2
100
AcDbEntity
  8
0
100
AcDbBlockEnd
  0
BLOCK
  5
1EA
330
1E9
100
AcDbEntity
  8
0
100
AcDbBlockBegin
  2
SW_NOTE_0_5
 70
     0
 10
0.0
 20
0.0
 30
0.0
  3
SW_NOTE_0_5
  1

  0
LINE
  5
1EC
330
1E9
100
AcDbEntity
  8
NOTES
 62
     0
100
AcDbLine
 10
29.6755073787
 20
0.0
 30
0.0
 11
0.0
 21
0.0
 31
0.0
  0
MTEXT
  5
1ED
330
1E9
100
AcDbEntity
  8
NOTES
 62
     0
100
AcDbMText
 10
0.402228399
 20
4.0695732041
 30
0.0
 40
3.2
 41
0.0
 71
     1
 72
     1
  1
ケーブルクランプ
  7
SLDTEXTSTYLE0
 73
     1
 44
1.0
  0
ENDBLK
  5
1EB
330
1E9
100
AcDbEntity
  8
0
100
AcDbBlockEnd
  0
BLOCK
  5
1F1
330
1F0
100
AcDbEntity
  8
0
100
AcDbBlockBegin
  2
SW_NOTE_0_6
 70
     0
 10
0.0
 20
0.0
 30
0.0
  3
SW_NOTE_0_6
  1

  0
LINE
  5
1F3
330
1F0
100
AcDbEntity
  8
NOTES
 62
     0
100
AcDbLine
 10
40.8488394887
 20
0.0
 30
0.0
 11
0.0
 21
0.0
 31
0.0
  0
MTEXT
  5
1F4
330
1F0
100
AcDbEntity
  8
NOTES
 62
     0
100
AcDbMText
 10
0.4962992193
 20
4.0133119072
 30
0.0
 40
3.2
 41
0.0
 71
     1
 72
     1
  1
耐熱ビニール　VXタイプ
  7
SLDTEXTSTYLE0
 73
     1
 44
1.0
  0
ENDBLK
  5
1F2
330
1F0
100
AcDbEntity
  8
0
100
AcDbBlockEnd
  0
BLOCK
  5
1F8
330
1F7
100
AcDbEntity
  8
0
100
AcDbBlockBegin
  2
SW_CENTERMARKSYMBOL_0
 70
     0
 10
0.0
 20
0.0
 30
0.0
  3
SW_CENTERMARKSYMBOL_0
  1

  0
LINE
  5
1FA
330
1F7
100
AcDbEntity
  8
CENTER
 62
     0
100
AcDbLine
 10
0.0
 20
0.0
 30
0.0
 11
0.0
 21
2.5000004098
 31
0.0
  0
LINE
  5
1FB
330
1F7
100
AcDbEntity
  8
CENTER
 62
     0
100
AcDbLine
 10
0.0
 20
0.0
 30
0.0
 11
-2.4999976158
 21
0.0
 31
0.0
  0
LINE
  5
1FC
330
1F7
100
AcDbEntity
  8
CENTER
 62
     0
100
AcDbLine
 10
0.0
 20
0.0
 30
0.0
 11
0.0
 21
-2.4999999441
 31
0.0
  0
LINE
  5
1FD
330
1F7
100
AcDbEntity
  8
CENTER
 62
     0
100
AcDbLine
 10
0.0
 20
0.0
 30
0.0
 11
2.5000050664
 21
0.0
 31
0.0
  0
LINE
  5
1FE
330
1F7
100
AcDbEntity
  8
CENTER
 62
     0
100
AcDbLine
 10
0.0
 20
2.5000004098
 30
0.0
 11
0.0
 21
4.1001131758
 31
0.0
  0
LINE
  5
1FF
330
1F7
100
AcDbEntity
  8
CENTER
 62
     0
100
AcDbLine
 10
-2.4999976158
 20
0.0
 30
0.0
 11
-4.1001141071
 21
0.0
 31
0.0
  0
LINE
  5
200
330
1F7
100
AcDbEntity
  8
CENTER
 62
     0
100
AcDbLine
 10
0.0
 20
-2.4999999441
 30
0.0
 11
0.0
 21
-4.1001131758
 31
0.0
  0
LINE
  5
201
330
1F7
100
AcDbEntity
  8
CENTER
 62
     0
100
AcDbLine
 10
2.5000050664
 20
0.0
 30
0.0
 11
4.1001141071
 21
0.0
 31
0.0
  0
ENDBLK
  5
1F9
330
1F7
100
AcDbEntity
  8
0
100
AcDbBlockEnd
  0
BLOCK
  5
204
330
203
100
AcDbEntity
  8
0
100
AcDbBlockBegin
  2
SW_CENTERMARKSYMBOL_1
 70
     0
 10
0.0
 20
0.0
 30
0.0
  3
SW_CENTERMARKSYMBOL_1
  1

  0
LINE
  5
206
330
203
100
AcDbEntity
  8
CENTER
 62
     0
100
AcDbLine
 10
0.0
 20
0.0
 30
0.0
 11
0.0
 21
2.4999999441
 31
0.0
  0
LINE
  5
207
330
203
100
AcDbEntity
  8
CENTER
 62
     0
100
AcDbLine
 10
0.0
 20
0.0
 30
0.0
 11
-2.4999976158
 21
0.0
 31
0.0
  0
LINE
  5
208
330
203
100
AcDbEntity
  8
CENTER
 62
     0
100
AcDbLine
 10
0.0
 20
0.0
 30
0.0
 11
0.0
 21
-2.5000004098
 31
0.0
  0
LINE
  5
209
330
203
100
AcDbEntity
  8
CENTER
 62
     0
100
AcDbLine
 10
0.0
 20
0.0
 30
0.0
 11
2.5000050664
 21
0.0
 31
0.0
  0
LINE
  5
20A
330
203
100
AcDbEntity
  8
CENTER
 62
     0
100
AcDbLine
 10
0.0
 20
2.4999999441
 30
0.0
 11
0.0
 21
4.1001131758
 31
0.0
  0
LINE
  5
20B
330
203
100
AcDbEntity
  8
CENTER
 62
     0
100
AcDbLine
 10
-2.4999976158
 20
0.0
 30
0.0
 11
-4.1001141071
 21
0.0
 31
0.0
  0
LINE
  5
20C
330
203
100
AcDbEntity
  8
CENTER
 62
     0
100
AcDbLine
 10
0.0
 20
-2.5000004098
 30
0.0
 11
0.0
 21
-4.1001131758
 31
0.0
  0
LINE
  5
20D
330
203
100
AcDbEntity
  8
CENTER
 62
     0
100
AcDbLine
 10
2.5000050664
 20
0.0
 30
0.0
 11
4.1001141071
 21
0.0
 31
0.0
  0
ENDBLK
  5
205
330
203
100
AcDbEntity
  8
0
100
AcDbBlockEnd
  0
BLOCK
  5
287
330
286
100
AcDbEntity
  8
0
100
AcDbBlockBegin
  2
_D_4
 70
     0
 10
0.0
 20
0.0
 30
0.0
  3
_D_4
  1

  0
ARC
  5
289
330
286
100
AcDbEntity
  8
DIM
100
AcDbCircle
 10
25.9799889522
 20
111.123069452
 30
0.0
 40
4.164055456062128
100
AcDbArc
 50
243.4349488229
 51
296.5650511771
  0
ARC
  5
28A
330
286
100
AcDbEntity
  8
DIM
100
AcDbCircle
 10
25.9799889522
 20
111.123069452
 30
0.0
 40
4.164055456062126
100
AcDbArc
 50
63.4349488229
 51
116.5650511771
  0
INSERT
  5
28B
330
286
100
AcDbEntity
  8
DIM
100
AcDbBlockReference
  2
_Open30
 10
27.8422109317
 20
119.373069452
 30
-12.7
 41
3.0
 42
3.0
 50
90.0
  0
INSERT
  5
28C
330
286
100
AcDbEntity
  8
DIM
100
AcDbBlockReference
  2
_Open30
 10
27.8422109317
 20
102.873069452
 30
-12.7
 41
3.0
 42
3.0
 50
270.0
  0
LINE
  5
28D
330
286
100
AcDbEntity
  8
DIM
100
AcDbLine
 10
36.0422109317
 20
119.373069452
 30
0.0
 11
26.8422109317
 21
119.373069452
 31
0.0
  0
LINE
  5
28E
330
286
100
AcDbEntity
  8
DIM
100
AcDbLine
 10
36.0422109317
 20
102.873069452
 30
0.0
 11
26.8422109317
 21
102.873069452
 31
0.0
  0
LINE
  5
28F
330
286
100
AcDbEntity
  8
DIM
100
AcDbLine
 10
27.8422109317
 20
119.373069452
 30
0.0
 11
27.8422109317
 21
102.873069452
 31
0.0
  0
MTEXT
  5
290
330
286
100
AcDbEntity
  8
DIM
100
AcDbMText
 10
23.7171943391
 20
107.3986250273
 30
0.0
 40
3.2
 41
0.0
 71
     1
 72
     1
  1
16.5
  7
SLDTEXTSTYLE0
 11
-7.044195017643634E-15
 21
1.0
 31
0.0
 73
     1
 44
1.0
  0
ENDBLK
  5
288
330
286
100
AcDbEntity
  8
0
100
AcDbBlockEnd
  0
BLOCK
  5
293
330
292
100
AcDbEntity
  8
0
100
AcDbBlockBegin
  2
_D_5
 70
     0
 10
0.0
 20
0.0
 30
0.0
  3
_D_5
  1

  0
ARC
  5
295
330
292
100
AcDbEntity
  8
DIM
100
AcDbCircle
 10
43.6355441921
 20
128.4830163664
 30
0.0
 40
4.164055456062124
100
AcDbArc
 50
153.4349488229
 51
206.5650511771
  0
ARC
  5
296
330
292
100
AcDbEntity
  8
DIM
100
AcDbCircle
 10
38.048877555
 20
128.4830163664
 30
0.0
 40
4.164055456062131
100
AcDbArc
 50
333.4349488229
 51
26.5650511771
  0
INSERT
  5
297
330
292
100
AcDbEntity
  8
DIM
100
AcDbBlockReference
  2
_Open30
 10
36.8422109317
 20
126.6207943869
 30
-12.7
 41
3.0
 42
3.0
 50
180.0
  0
INSERT
  5
298
330
292
100
AcDbEntity
  8
DIM
100
AcDbBlockReference
  2
_Open30
 10
44.8422109317
 20
126.6207943869
 30
-12.7
 41
3.0
 42
3.0
 50
0.0
  0
LINE
  5
299
330
292
100
AcDbEntity
  8
DIM
100
AcDbLine
 10
36.8422109317
 20
120.173069452
 30
0.0
 11
36.8422109317
 21
127.6207943869
 31
0.0
  0
LINE
  5
29A
330
292
100
AcDbEntity
  8
DIM
100
AcDbLine
 10
44.8422109317
 20
120.173069452
 30
0.0
 11
44.8422109317
 21
127.6207943869
 31
0.0
  0
LINE
  5
29B
330
292
100
AcDbEntity
  8
DIM
100
AcDbLine
 10
36.8422109317
 20
126.6207943869
 30
0.0
 11
44.8422109317
 21
126.6207943869
 31
0.0
  0
MTEXT
  5
29C
330
292
100
AcDbEntity
  8
DIM
100
AcDbMText
 10
39.9110997673
 20
130.7458109796
 30
0.0
 40
3.2
 41
0.0
 71
     1
 72
     1
  1
8
  7
SLDTEXTSTYLE0
 73
     1
 44
1.0
  0
ENDBLK
  5
294
330
292
100
AcDbEntity
  8
0
100
AcDbBlockEnd
  0
ENDSEC
  0
SECTION
  2
ENTITIES
  0
LINE
  5
78
330
1F
100
AcDbEntity
  8
WORKLAYER
100
AcDbLine
 10
91.9409084098
 20
113.123069452
 30
0.0
 11
93.111682059
 21
113.123069452
 31
0.0
  0
LINE
  5
79
330
1F
100
AcDbEntity
  8
WORKLAYER
100
AcDbLine
 10
88.4301346141
 20
113.123069452
 30
0.0
 11
89.5919364451
 21
113.123069452
 31
0.0
  0
LINE
  5
7A
330
1F
100
AcDbEntity
  8
WORKLAYER
100
AcDbLine
 10
88.4301346141
 20
109.123069452
 30
0.0
 11
89.5919364451
 21
109.123069452
 31
0.0
  0
LINE
  5
7B
330
1F
100
AcDbEntity
  8
WORKLAYER
370
    25
100
AcDbLine
 10
12.8700158558
 20
190.0085404097
 30
0.0
 11
12.8700749558
 21
18.0082352097
 31
0.0
  0
LINE
  5
7C
330
1F
100
AcDbEntity
  8
WORKLAYER
370
    25
100
AcDbLine
 10
12.8700749558
 20
18.0082352097
 30
0.0
 11
282.5707921135
 21
18.0082352097
 31
0.0
  0
LINE
  5
7D
330
1F
100
AcDbEntity
  8
WORKLAYER
370
    25
100
AcDbLine
 10
12.8700158558
 20
190.0085404097
 30
0.0
 11
282.5707921135
 21
190.0085404097
 31
0.0
  0
LINE
  5
7E
330
1F
100
AcDbEntity
  8
WORKLAYER
370
    25
100
AcDbLine
 10
282.5707921135
 20
18.0082352097
 30
0.0
 11
282.5707921135
 21
190.0085404097
 31
0.0
  0
MTEXT
  5
80
330
1F
100
AcDbEntity
  8
NOTES
100
AcDbMText
 10
164.9670292092
 20
89.5647983521
 30
0.0
 40
3.2
 41
0.0
 71
     1
 72
     1
  1
（0.3/7×2）
  7
SLDTEXTSTYLE0
 73
     1
 44
1.0
  0
MTEXT
  5
81
330
1F
100
AcDbEntity
  8
NOTES
100
AcDbMText
 10
102.7569942196
 20
89.5647983521
 30
0.0
 40
3.2
 41
0.0
 71
     1
 72
     1
  1
（CLP-B）
  7
SLDTEXTSTYLE0
 73
     1
 44
1.0
  0
MTEXT
  5
82
330
1F
100
AcDbEntity
  8
NOTES
100
AcDbMText
 10
68.081877187
 20
89.5647983521
 30
0.0
 40
3.2
 41
0.0
 71
     1
 72
     1
  1
（CMP02-□）
  7
SLDTEXTSTYLE0
 73
     1
 44
1.0
  0
INSERT
  5
88
330
1F
100
AcDbEntity
  8
DIM
100
AcDbBlockReference
  2
SW_NOTE_0
 10
163.6198715748
 20
144.6886558972
 30
0.0
  0
MTEXT
  5
89
330
1F
100
AcDbEntity
  8
WORKLAYER
100
AcDbMText
 10
145.7340372099
 20
36.5296720475
 30
0.0
 40
4.7625
 41
0.0
 71
     1
 72
     1
  1
MODEL：W-BL-□□EXD-TMA-Y3-□□□□□□
  7
SLDTEXTSTYLE0
 73
     1
 44
1.0
  0
MTEXT
  5
8A
330
1F
100
AcDbEntity
  8
WORKLAYER
100
AcDbMText
 10
145.7340372099
 20
29.7317057827
 30
0.0
 40
4.7625
 41
0.0
 71
     1
 72
     1
  1
RKC INSTRUMENT INC.
  7
SLDTEXTSTYLE0
 73
     1
 44
1.0
  0
INSERT
  5
8F
330
1F
100
AcDbEntity
  8
0
  6
Continuous
 62
     7
100
AcDbBlockReference
  2
SW_BROKEN_VIEW_0
 10
91.9645091317
 20
109.123069357
 30
0.0
  0
LINE
  5
90
330
1F
100
AcDbEntity
  8
0
  6
Continuous
 62
     7
370
    50
100
AcDbLine
 10
249.8511712208
 20
119.4511561486
 30
0.0
 11
240.8511753335
 21
119.4511561486
 31
0.0
  0
LINE
  5
91
330
1F
100
AcDbEntity
  8
0
  6
Continuous
 62
     7
370
    50
100
AcDbLine
 10
240.8511753335
 20
114.9511563423
 30
0.0
 11
249.8511712208
 21
114.9511563423
 31
0.0
  0
LINE
  5
92
330
1F
100
AcDbEntity
  8
0
  6
Continuous
 62
     7
370
    50
100
AcDbLine
 10
249.8511712208
 20
107.2949825618
 30
0.0
 11
240.8511753335
 21
107.2949825618
 31
0.0
  0
LINE
  5
93
330
1F
100
AcDbEntity
  8
0
  6
Continuous
 62
     7
370
    50
100
AcDbLine
 10
240.8511753335
 20
102.7949827555
 30
0.0
 11
249.8511712208
 21
102.7949827555
 31
0.0
  0
LINE
  5
94
330
1F
100
AcDbEntity
  8
0
  6
Continuous
 62
     7
370
    50
100
AcDbLine
 10
230.6893135562
 20
115.3708582575
 30
0.0
 11
240.7511736408
 21
116.2511564623
 31
0.0
  0
LINE
  5
95
330
1F
100
AcDbEntity
  8
0
  6
Continuous
 62
     7
370
    50
100
AcDbLine
 10
240.7511736408
 20
118.1511564943
 30
0.0
 11
230.7674552455
 21
117.2776946629
 31
0.0
  0
LINE
  5
96
330
1F
100
AcDbEntity
  8
0
  6
Continuous
 62
     7
370
    50
100
AcDbLine
 10
240.7511736408
 20
116.2511564623
 30
0.0
 11
240.8511753335
 21
116.2511564623
 31
0.0
  0
LINE
  5
97
330
1F
100
AcDbEntity
  8
0
  6
Continuous
 62
     7
370
    50
100
AcDbLine
 10
240.8511753335
 20
118.1511564943
 30
0.0
 11
240.7511736408
 21
118.1511564943
 31
0.0
  0
LINE
  5
98
330
1F
100
AcDbEntity
  8
0
  6
Continuous
 62
     7
370
    50
100
AcDbLine
 10
232.4565540209
 20
104.8206675629
 30
0.0
 11
240.7511736408
 21
104.0949824098
 31
0.0
  0
LINE
  5
99
330
1F
100
AcDbEntity
  8
0
  6
Continuous
 62
     7
370
    50
100
AcDbLine
 10
240.7511736408
 20
105.9949824418
 30
0.0
 11
232.5582767978
 21
106.7117683421
 31
0.0
  0
LINE
  5
9A
330
1F
100
AcDbEntity
  8
0
  6
Continuous
 62
     7
370
    50
100
AcDbLine
 10
240.7511736408
 20
104.0949824098
 30
0.0
 11
240.8511753335
 21
104.0949824098
 31
0.0
  0
LINE
  5
9B
330
1F
100
AcDbEntity
  8
0
  6
Continuous
 62
     7
370
    50
100
AcDbLine
 10
240.8511753335
 20
105.9949824418
 30
0.0
 11
240.7511736408
 21
105.9949824418
 31
0.0
  0
LINE
  5
9C
330
1F
100
AcDbEntity
  8
0
  6
Continuous
 62
     7
370
    50
100
AcDbLine
 10
249.8511712208
 20
117.2011562455
 30
0.0
 11
249.8511712208
 21
119.4511561486
 31
0.0
  0
LINE
  5
9D
330
1F
100
AcDbEntity
  8
0
  6
Continuous
 62
     7
370
    50
100
AcDbLine
 10
249.8511712208
 20
114.9511563423
 30
0.0
 11
249.8511712208
 21
117.2011562455
 31
0.0
  0
LINE
  5
9E
330
1F
100
AcDbEntity
  8
0
  6
Continuous
 62
     7
370
    50
100
AcDbLine
 10
240.8511753335
 20
117.2011562455
 30
0.0
 11
240.8511753335
 21
119.4511561486
 31
0.0
  0
LINE
  5
9F
330
1F
100
AcDbEntity
  8
0
  6
Continuous
 62
     7
370
    50
100
AcDbLine
 10
240.8511753335
 20
114.9511563423
 30
0.0
 11
240.8511753335
 21
117.2011562455
 31
0.0
  0
LINE
  5
A0
330
1F
100
AcDbEntity
  8
0
  6
Continuous
 62
     7
370
    50
100
AcDbLine
 10
240.8511753335
 20
105.0449826586
 30
0.0
 11
240.8511753335
 21
107.2949825618
 31
0.0
  0
LINE
  5
A1
330
1F
100
AcDbEntity
  8
0
  6
Continuous
 62
     7
370
    50
100
AcDbLine
 10
240.8511753335
 20
102.7949827555
 30
0.0
 11
240.8511753335
 21
105.0449826586
 31
0.0
  0
LINE
  5
A2
330
1F
100
AcDbEntity
  8
0
  6
Continuous
 62
     7
370
    50
100
AcDbLine
 10
249.8511712208
 20
105.0449826586
 30
0.0
 11
249.8511712208
 21
107.2949825618
 31
0.0
  0
LINE
  5
A3
330
1F
100
AcDbEntity
  8
0
  6
Continuous
 62
     7
370
    50
100
AcDbLine
 10
249.8511712208
 20
102.7949827555
 30
0.0
 11
249.8511712208
 21
105.0449826586
 31
0.0
  0
ARC
  5
A4
330
1F
100
AcDbEntity
  8
0
  6
Continuous
 62
     7
370
    50
100
AcDbCircle
 10
252.4440529259
 20
104.1449987157
 30
0.0
 40
2.000015787367731
100
AcDbArc
 50
236.9763004041
 51
270.0000658628
  0
LINE
  5
A5
330
1F
100
AcDbEntity
  8
0
  6
Continuous
 62
     7
370
    50
100
AcDbLine
 10
251.3540725365
 20
102.468095051
 30
0.0
 11
249.8511712208
 21
103.4449825826
 31
0.0
  0
LINE
  5
A6
330
1F
100
AcDbEntity
  8
0
  6
Continuous
 62
     7
370
    50
100
AcDbLine
 10
249.8511712208
 20
106.6449827346
 30
0.0
 11
251.3540725365
 21
107.6218698005
 31
0.0
  0
ARC
  5
A7
330
1F
100
AcDbEntity
  8
0
  6
Continuous
 62
     7
370
    50
100
AcDbCircle
 10
252.4440518956
 20
105.944973935
 30
0.0
 40
2.000008686763851
100
AcDbArc
 50
89.9999046216
 51
123.0237966133
  0
LINE
  5
A8
330
1F
100
AcDbEntity
  8
0
  6
Continuous
 62
     7
370
    50
100
AcDbLine
 10
252.4440552249
 20
107.9449826217
 30
0.0
 11
260.5511735335
 21
107.9449826217
 31
0.0
  0
ARC
  5
A9
330
1F
100
AcDbEntity
  8
0
  6
Continuous
 62
     7
370
    50
100
AcDbCircle
 10
260.5511767566
 20
107.644988217
 30
0.0
 40
0.2999944047120149
100
AcDbArc
 50
359.9989397511
 51
90.0006155734
  0
LINE
  5
AA
330
1F
100
AcDbEntity
  8
0
  6
Continuous
 62
     7
370
    50
100
AcDbLine
 10
260.8511711612
 20
107.6449826657
 30
0.0
 11
260.8511711612
 21
106.9449826906
 31
0.0
  0
ARC
  5
AB
330
1F
100
AcDbEntity
  8
0
  6
Continuous
 62
     7
370
    50
100
AcDbCircle
 10
260.5511767566
 20
106.9449771393
 30
0.0
 40
0.2999944047119581
100
AcDbArc
 50
269.9993844266
 51
0.0010602489
  0
LINE
  5
AC
330
1F
100
AcDbEntity
  8
0
  6
Continuous
 62
     7
370
    50
100
AcDbLine
 10
256.1511735573
 20
106.6449827346
 30
0.0
 11
260.5511735335
 21
106.6449827346
 31
0.0
  0
ARC
  5
AD
330
1F
100
AcDbEntity
  8
0
  6
Continuous
 62
     7
370
    50
100
AcDbCircle
 10
256.1321415481
 20
105.0449826586
 30
0.0
 40
1.600113264916854
100
AcDbArc
 50
89.3184985449
 51
270.6815014551
  0
LINE
  5
AE
330
1F
100
AcDbEntity
  8
0
  6
Continuous
 62
     7
370
    50
100
AcDbLine
 10
260.5511735335
 20
103.4449825826
 30
0.0
 11
256.1511735573
 21
103.4449825826
 31
0.0
  0
ARC
  5
AF
330
1F
100
AcDbEntity
  8
0
  6
Continuous
 62
     7
370
    50
100
AcDbCircle
 10
260.5511767566
 20
103.1449881779
 30
0.0
 40
0.2999944046978608
100
AcDbArc
 50
359.9990286848
 51
90.0006155745
  0
LINE
  5
B0
330
1F
100
AcDbEntity
  8
0
  6
Continuous
 62
     7
370
    50
100
AcDbLine
 10
260.8511711612
 20
103.1449830922
 30
0.0
 11
260.8511711612
 21
102.4449824187
 31
0.0
  0
ARC
  5
B1
330
1F
100
AcDbEntity
  8
0
  6
Continuous
 62
     7
370
    50
100
AcDbCircle
 10
260.5511775515
 20
102.4449765381
 30
0.0
 40
0.2999936098111597
100
AcDbArc
 50
269.9992326057
 51
0.001123135
  0
LINE
  5
B2
330
1F
100
AcDbEntity
  8
0
  6
Continuous
 62
     7
370
    50
100
AcDbLine
 10
260.5511735335
 20
102.1449829283
 30
0.0
 11
252.4440552249
 21
102.1449829283
 31
0.0
  0
ARC
  5
B3
330
1F
100
AcDbEntity
  8
0
  6
Continuous
 62
     7
370
    50
100
AcDbCircle
 10
252.4440518956
 20
116.3011649691
 30
0.0
 40
2.000008686763953
100
AcDbArc
 50
236.9762033867
 51
270.0000953784
  0
LINE
  5
B4
330
1F
100
AcDbEntity
  8
0
  6
Continuous
 62
     7
370
    50
100
AcDbLine
 10
251.3540725365
 20
114.6242691035
 30
0.0
 11
249.8511712208
 21
115.6011561695
 31
0.0
  0
LINE
  5
B5
330
1F
100
AcDbEntity
  8
0
  6
Continuous
 62
     7
370
    50
100
AcDbLine
 10
249.8511712208
 20
118.8011563214
 30
0.0
 11
251.3540725365
 21
119.778043853
 31
0.0
  0
ARC
  5
B6
330
1F
100
AcDbEntity
  8
0
  6
Continuous
 62
     7
370
    50
100
AcDbCircle
 10
252.4440529259
 20
118.1011401884
 30
0.0
 40
2.00001578736766
100
AcDbArc
 50
89.9999341372
 51
123.0236995959
  0
LINE
  5
B7
330
1F
100
AcDbEntity
  8
0
  6
Continuous
 62
     7
370
    50
100
AcDbLine
 10
252.4440552249
 20
120.1011559757
 30
0.0
 11
260.5511735335
 21
120.1011559757
 31
0.0
  0
ARC
  5
B8
330
1F
100
AcDbEntity
  8
0
  6
Continuous
 62
     7
370
    50
100
AcDbCircle
 10
260.5511775515
 20
119.801162366
 30
0.0
 40
0.2999936098111652
100
AcDbArc
 50
359.998876865
 51
90.0007673943
  0
LINE
  5
B9
330
1F
100
AcDbEntity
  8
0
  6
Continuous
 62
     7
370
    50
100
AcDbLine
 10
260.8511711612
 20
119.8011564854
 30
0.0
 11
260.8511711612
 21
119.1011558118
 31
0.0
  0
ARC
  5
BA
330
1F
100
AcDbEntity
  8
0
  6
Continuous
 62
     7
370
    50
100
AcDbCircle
 10
260.5511767566
 20
119.1011507261
 30
0.0
 40
0.2999944046978478
100
AcDbArc
 50
269.9993844255
 51
0.0009713152
  0
LINE
  5
BB
330
1F
100
AcDbEntity
  8
0
  6
Continuous
 62
     7
370
    50
100
AcDbLine
 10
256.1511735573
 20
118.8011563214
 30
0.0
 11
260.5511735335
 21
118.8011563214
 31
0.0
  0
ARC
  5
BC
330
1F
100
AcDbEntity
  8
0
  6
Continuous
 62
     7
370
    50
100
AcDbCircle
 10
256.1321415481
 20
117.2011562455
 30
0.0
 40
1.600113264916854
100
AcDbArc
 50
89.3184985449
 51
270.6815014551
  0
LINE
  5
BD
330
1F
100
AcDbEntity
  8
0
  6
Continuous
 62
     7
370
    50
100
AcDbLine
 10
260.5511735335
 20
115.6011561695
 30
0.0
 11
256.1511735573
 21
115.6011561695
 31
0.0
  0
ARC
  5
BE
330
1F
100
AcDbEntity
  8
0
  6
Continuous
 62
     7
370
    50
100
AcDbCircle
 10
260.5511767566
 20
115.3011617648
 30
0.0
 40
0.2999944047119581
100
AcDbArc
 50
359.9989397511
 51
90.0006155734
  0
LINE
  5
BF
330
1F
100
AcDbEntity
  8
0
  6
Continuous
 62
     7
370
    50
100
AcDbLine
 10
260.8511711612
 20
115.3011562134
 30
0.0
 11
260.8511711612
 21
114.6011562384
 31
0.0
  0
ARC
  5
C0
330
1F
100
AcDbEntity
  8
0
  6
Continuous
 62
     7
370
    50
100
AcDbCircle
 10
260.5511767566
 20
114.601150687
 30
0.0
 40
0.2999944047119581
100
AcDbArc
 50
269.9993844266
 51
0.0010602489
  0
LINE
  5
C1
330
1F
100
AcDbEntity
  8
0
  6
Continuous
 62
     7
370
    50
100
AcDbLine
 10
260.5511735335
 20
114.3011562823
 30
0.0
 11
252.4440552249
 21
114.3011562823
 31
0.0
  0
LINE
  5
C2
330
1F
100
AcDbEntity
  8
0
  6
Continuous
 62
     7
370
    50
100
AcDbLine
 10
240.7511736408
 20
118.1511564943
 30
0.0
 11
240.7511736408
 21
116.2511564623
 31
0.0
  0
LINE
  5
C3
330
1F
100
AcDbEntity
  8
0
  6
Continuous
 62
     7
370
    50
100
AcDbLine
 10
240.7511736408
 20
104.0949824098
 30
0.0
 11
240.7511736408
 21
105.9949824418
 31
0.0
  0
LINE
  5
C4
330
1F
100
AcDbEntity
  8
0
  6
Continuous
 62
     7
370
    50
100
AcDbLine
 10
168.6070141252
 20
108.3730694669
 30
0.0
 11
179.0070141535
 21
108.3730694669
 31
0.0
  0
LINE
  5
C5
330
1F
100
AcDbEntity
  8
0
  6
Continuous
 62
     7
370
    50
100
AcDbLine
 10
179.0070141535
 20
108.3730694669
 30
0.0
 11
179.6070140656
 21
108.973069379
 31
0.0
  0
LINE
  5
C6
330
1F
100
AcDbEntity
  8
0
  6
Continuous
 62
     7
370
    50
100
AcDbLine
 10
179.0070141535
 20
113.8730694371
 30
0.0
 11
168.6070141252
 21
113.8730694371
 31
0.0
  0
LINE
  5
C7
330
1F
100
AcDbEntity
  8
0
  6
Continuous
 62
     7
370
    50
100
AcDbLine
 10
179.6070140656
 20
113.273069525
 30
0.0
 11
179.0070141535
 21
113.8730694371
 31
0.0
  0
LINE
  5
C8
330
1F
100
AcDbEntity
  8
0
  6
Continuous
 62
     7
370
    50
100
AcDbLine
 10
179.6070140656
 20
108.973069379
 30
0.0
 11
187.6070144455
 21
108.973069379
 31
0.0
  0
LINE
  5
C9
330
1F
100
AcDbEntity
  8
0
  6
Continuous
 62
     7
370
    50
100
AcDbLine
 10
187.6070144455
 20
113.273069525
 30
0.0
 11
179.6070140656
 21
113.273069525
 31
0.0
  0
LWPOLYLINE
  5
CA
330
1F
100
AcDbEntity
  8
0
  6
Continuous
 62
     7
370
    50
100
AcDbPolyline
 90
        3
 70
   128
 43
0.0
 10
187.6070144455
 20
111.1330694518
 10
216.3999824654
 20
113.6521278246
 10
225.8079497944
 20
114.4752181432
  0
LINE
  5
CB
330
1F
100
AcDbEntity
  8
0
  6
Continuous
 62
     7
370
    50
100
AcDbLine
 10
225.8171698879
 20
116.3760249334
 30
0.0
 11
187.6070144455
 21
113.0330694438
 31
0.0
  0
LWPOLYLINE
  5
CC
330
1F
100
AcDbEntity
  8
0
  6
Continuous
 62
     7
370
    50
100
AcDbPolyline
 90
        3
 70
   128
 43
0.0
 10
187.6070144455
 20
109.2130694603
 10
216.3999824654
 20
106.6940112802
 10
227.4118139278
 20
105.730600452
  0
LWPOLYLINE
  5
CD
330
1F
100
AcDbEntity
  8
0
  6
Continuous
 62
     7
370
    50
100
AcDbPolyline
 90
        3
 70
   128
 43
0.0
 10
227.4453899692
 20
107.6276630926
 10
217.31404577
 20
108.5140409711
 10
187.6070144455
 20
111.1130694523
  0
LINE
  5
CE
330
1F
100
AcDbEntity
  8
0
  6
Continuous
 62
     7
370
    50
100
AcDbLine
 10
145.0723520349
 20
108.57306936
 30
0.0
 11
168.6070141252
 21
108.57306936
 31
0.0
  0
LINE
  5
CF
330
1F
100
AcDbEntity
  8
0
  6
Continuous
 62
     7
370
    50
100
AcDbLine
 10
168.6070141252
 20
113.673069544
 30
0.0
 11
143.9404803197
 21
113.673069544
 31
0.0
  0
LINE
  5
D0
330
1F
100
AcDbEntity
  8
0
  6
Continuous
 62
     7
370
    50
100
AcDbLine
 10
168.6070141252
 20
110.173069436
 30
0.0
 11
168.6070141252
 21
108.3730694669
 31
0.0
  0
LINE
  5
D1
330
1F
100
AcDbEntity
  8
0
  6
Continuous
 62
     7
370
    50
100
AcDbLine
 10
168.6070141252
 20
112.073069468
 30
0.0
 11
168.6070141252
 21
110.173069436
 31
0.0
  0
LINE
  5
D2
330
1F
100
AcDbEntity
  8
0
  6
Continuous
 62
     7
370
    50
100
AcDbLine
 10
168.6070141252
 20
113.8730694371
 30
0.0
 11
168.6070141252
 21
112.073069468
 31
0.0
  0
LINE
  5
D3
330
1F
100
AcDbEntity
  8
0
  6
Continuous
 62
     7
370
    50
100
AcDbLine
 10
187.6070144455
 20
112.073069468
 30
0.0
 11
187.6070144455
 21
110.173069436
 31
0.0
  0
LINE
  5
D4
330
1F
100
AcDbEntity
  8
0
  6
Continuous
 62
     7
370
    50
100
AcDbLine
 10
187.6070144455
 20
110.173069436
 30
0.0
 11
187.6070144455
 21
108.973069379
 31
0.0
  0
LINE
  5
D5
330
1F
100
AcDbEntity
  8
0
  6
Continuous
 62
     7
370
    50
100
AcDbLine
 10
187.6070144455
 20
113.273069525
 30
0.0
 11
187.6070144455
 21
112.073069468
 31
0.0
  0
LINE
  5
D6
330
1F
100
AcDbEntity
  8
0
  6
Continuous
 62
     7
370
    50
100
AcDbLine
 10
112.618848475
 20
113.8730694371
 30
0.0
 11
99.1188509188
 21
113.8730694371
 31
0.0
  0
LINE
  5
D7
330
1F
100
AcDbEntity
  8
0
  6
Continuous
 62
     7
370
    50
100
AcDbLine
 10
93.1188499353
 20
113.8730694371
 30
0.0
 11
87.1188526771
 21
113.8730694371
 31
0.0
  0
LINE
  5
D8
330
1F
100
AcDbEntity
  8
0
  6
Continuous
 62
     7
370
    50
100
AcDbLine
 10
87.1188526771
 20
108.3730694669
 30
0.0
 11
93.1188499353
 21
108.3730694669
 31
0.0
  0
LINE
  5
D9
330
1F
100
AcDbEntity
  8
0
  6
Continuous
 62
     7
370
    50
100
AcDbLine
 10
99.1188509188
 20
108.3730694669
 30
0.0
 11
112.618848475
 21
108.3730694669
 31
0.0
  0
LINE
  5
DA
330
1F
100
AcDbEntity
  8
0
  6
Continuous
 62
     7
370
    50
100
AcDbLine
 10
112.618848475
 20
108.57306936
 30
0.0
 11
140.0723529778
 21
108.57306936
 31
0.0
  0
LINE
  5
DB
330
1F
100
AcDbEntity
  8
0
  6
Continuous
 62
     7
370
    50
100
AcDbLine
 10
138.9404793999
 20
113.673069544
 30
0.0
 11
112.618848475
 21
113.673069544
 31
0.0
  0
ARC
  5
DC
330
1F
100
AcDbEntity
  8
0
  6
Continuous
 62
     7
370
    50
100
AcDbCircle
 10
60.8188468672
 20
119.1730736675
 30
0.0
 40
0.1999957398436636
100
AcDbArc
 50
89.9999440902
 51
180.0011231387
  0
LINE
  5
DD
330
1F
100
AcDbEntity
  8
0
  6
Continuous
 62
     7
370
    50
100
AcDbLine
 10
60.8188470623
 20
119.1730697471
 30
0.0
 11
60.8188470623
 21
119.3730694073
 31
0.0
  0
LINE
  5
DE
330
1F
100
AcDbEntity
  8
0
  6
Continuous
 62
     7
370
    50
100
AcDbLine
 10
60.6188511274
 20
119.1730697471
 30
0.0
 11
60.8188470623
 21
119.1730697471
 31
0.0
  0
LINE
  5
DF
330
1F
100
AcDbEntity
  8
0
  6
Continuous
 62
     7
370
    50
100
AcDbLine
 10
60.6188511274
 20
103.073069157
 30
0.0
 11
60.6188511274
 21
119.1730697471
 31
0.0
  0
LINE
  5
E0
330
1F
100
AcDbEntity
  8
0
  6
Continuous
 62
     7
370
    50
100
AcDbLine
 10
60.8188470623
 20
119.1730697471
 30
0.0
 11
60.8188470623
 21
103.073069157
 31
0.0
  0
LINE
  5
E1
330
1F
100
AcDbEntity
  8
0
  6
Continuous
 62
     7
370
    50
100
AcDbLine
 10
60.6188511274
 20
103.073069157
 30
0.0
 11
60.8188470623
 21
103.073069157
 31
0.0
  0
CIRCLE
  5
E2
330
1F
100
AcDbEntity
  8
0
  6
Continuous
 62
     7
370
    50
100
AcDbCircle
 10
67.218852162
 20
111.1230720362
 30
0.0
 40
1.299997836090387
  0
CIRCLE
  5
E3
330
1F
100
AcDbEntity
  8
0
  6
Continuous
 62
     7
370
    50
100
AcDbCircle
 10
62.9188482907
 20
111.1230675393
 30
0.0
 40
1.300001277808227
  0
LINE
  5
E4
330
1F
100
AcDbEntity
  8
0
  6
Continuous
 62
     7
370
    50
100
AcDbLine
 10
74.920635464
 20
119.1730697471
 30
0.0
 11
74.3170639298
 21
119.1730697471
 31
0.0
  0
ARC
  5
E5
330
1F
100
AcDbEntity
  8
0
  6
Continuous
 62
     7
370
    50
100
AcDbCircle
 10
75.6188479981
 20
119.1230701276
 30
0.0
 40
0.7000005034622013
100
AcDbArc
 50
175.9039904184
 51
4.0960095816
  0
LINE
  5
E6
330
1F
100
AcDbEntity
  8
0
  6
Continuous
 62
     7
370
    50
100
AcDbLine
 10
76.9206395171
 20
119.1730697471
 30
0.0
 11
76.3170605323
 21
119.1730697471
 31
0.0
  0
ARC
  5
E7
330
1F
100
AcDbEntity
  8
0
  6
Continuous
 62
     7
370
    50
100
AcDbCircle
 10
77.6188520513
 20
119.1230701276
 30
0.0
 40
0.7000005034621861
100
AcDbArc
 50
175.9039904184
 51
4.0960095816
  0
LINE
  5
E8
330
1F
100
AcDbEntity
  8
0
  6
Continuous
 62
     7
370
    50
100
AcDbLine
 10
78.9206361196
 20
119.1730697471
 30
0.0
 11
78.3170645854
 21
119.1730697471
 31
0.0
  0
ARC
  5
E9
330
1F
100
AcDbEntity
  8
0
  6
Continuous
 62
     7
370
    50
100
AcDbCircle
 10
79.6188486538
 20
119.1230701276
 30
0.0
 40
0.7000005034621861
100
AcDbArc
 50
175.9039904184
 51
4.0960095816
  0
LINE
  5
EA
330
1F
100
AcDbEntity
  8
0
  6
Continuous
 62
     7
370
    50
100
AcDbLine
 10
80.9206401727
 20
119.1730697471
 30
0.0
 11
80.317061188
 21
119.1730697471
 31
0.0
  0
ARC
  5
EB
330
1F
100
AcDbEntity
  8
0
  6
Continuous
 62
     7
370
    50
100
AcDbCircle
 10
81.6188527069
 20
119.1230701276
 30
0.0
 40
0.7000005034621861
100
AcDbArc
 50
175.9039904184
 51
4.0960095816
  0
LINE
  5
EC
330
1F
100
AcDbEntity
  8
0
  6
Continuous
 62
     7
370
    50
100
AcDbLine
 10
85.0056147001
 20
119.1730697471
 30
0.0
 11
82.3170652411
 21
119.1730697471
 31
0.0
  0
LINE
  5
ED
330
1F
100
AcDbEntity
  8
0
  6
Continuous
 62
     7
370
    50
100
AcDbLine
 10
82.3170652411
 20
103.073069157
 30
0.0
 11
85.0056147001
 21
103.073069157
 31
0.0
  0
ARC
  5
EE
330
1F
100
AcDbEntity
  8
0
  6
Continuous
 62
     7
370
    50
100
AcDbCircle
 10
81.6188527069
 20
103.1230687765
 30
0.0
 40
0.7000005034621861
100
AcDbArc
 50
355.9039904184
 51
184.0960095816
  0
LINE
  5
EF
330
1F
100
AcDbEntity
  8
0
  6
Continuous
 62
     7
370
    50
100
AcDbLine
 10
80.317061188
 20
103.073069157
 30
0.0
 11
80.9206401727
 21
103.073069157
 31
0.0
  0
ARC
  5
F0
330
1F
100
AcDbEntity
  8
0
  6
Continuous
 62
     7
370
    50
100
AcDbCircle
 10
79.6188486538
 20
103.1230687765
 30
0.0
 40
0.7000005034621861
100
AcDbArc
 50
355.9039904184
 51
184.0960095816
  0
LINE
  5
F1
330
1F
100
AcDbEntity
  8
0
  6
Continuous
 62
     7
370
    50
100
AcDbLine
 10
78.3170645854
 20
103.073069157
 30
0.0
 11
78.9206361196
 21
103.073069157
 31
0.0
  0
ARC
  5
F2
330
1F
100
AcDbEntity
  8
0
  6
Continuous
 62
     7
370
    50
100
AcDbCircle
 10
77.6188520513
 20
103.1230687765
 30
0.0
 40
0.7000005034621861
100
AcDbArc
 50
355.9039904184
 51
184.0960095816
  0
LINE
  5
F3
330
1F
100
AcDbEntity
  8
0
  6
Continuous
 62
     7
370
    50
100
AcDbLine
 10
76.3170605323
 20
103.073069157
 30
0.0
 11
76.9206395171
 21
103.073069157
 31
0.0
  0
ARC
  5
F4
330
1F
100
AcDbEntity
  8
0
  6
Continuous
 62
     7
370
    50
100
AcDbCircle
 10
75.6188479981
 20
103.1230687765
 30
0.0
 40
0.7000005034622003
100
AcDbArc
 50
355.9039904184
 51
184.0960095816
  0
LINE
  5
F5
330
1F
100
AcDbEntity
  8
0
  6
Continuous
 62
     7
370
    50
100
AcDbLine
 10
74.3170639298
 20
103.073069157
 30
0.0
 11
74.920635464
 21
103.073069157
 31
0.0
  0
ARC
  5
F6
330
1F
100
AcDbEntity
  8
0
  6
Continuous
 62
     7
370
    50
100
AcDbCircle
 10
73.6188513956
 20
103.1230687765
 30
0.0
 40
0.7000005034622003
100
AcDbArc
 50
355.9039904184
 51
184.0960095816
  0
LINE
  5
F7
330
1F
100
AcDbEntity
  8
0
  6
Continuous
 62
     7
370
    50
100
AcDbLine
 10
72.3170598767
 20
103.073069157
 30
0.0
 11
72.9206388614
 21
103.073069157
 31
0.0
  0
ARC
  5
F8
330
1F
100
AcDbEntity
  8
0
  6
Continuous
 62
     7
370
    50
100
AcDbCircle
 10
71.6188473425
 20
103.1230687765
 30
0.0
 40
0.7000005034621872
100
AcDbArc
 50
355.9039904184
 51
184.0960095816
  0
LINE
  5
F9
330
1F
100
AcDbEntity
  8
0
  6
Continuous
 62
     7
370
    50
100
AcDbLine
 10
60.8188470623
 20
103.073069157
 30
0.0
 11
70.9206348083
 21
103.073069157
 31
0.0
  0
LINE
  5
FA
330
1F
100
AcDbEntity
  8
0
  6
Continuous
 62
     7
370
    50
100
AcDbLine
 10
70.9206348083
 20
119.1730697471
 30
0.0
 11
60.8188470623
 21
119.1730697471
 31
0.0
  0
ARC
  5
FB
330
1F
100
AcDbEntity
  8
0
  6
Continuous
 62
     7
370
    50
100
AcDbCircle
 10
71.6188473425
 20
119.1230701276
 30
0.0
 40
0.7000005034621861
100
AcDbArc
 50
175.9039904184
 51
4.0960095816
  0
LINE
  5
FC
330
1F
100
AcDbEntity
  8
0
  6
Continuous
 62
     7
370
    50
100
AcDbLine
 10
72.9206388614
 20
119.1730697471
 30
0.0
 11
72.3170598767
 21
119.1730697471
 31
0.0
  0
ARC
  5
FD
330
1F
100
AcDbEntity
  8
0
  6
Continuous
 62
     7
370
    50
100
AcDbCircle
 10
73.6188513956
 20
119.1230701276
 30
0.0
 40
0.7000005034622003
100
AcDbArc
 50
175.9039904184
 51
4.0960095816
  0
CIRCLE
  5
FE
330
1F
100
AcDbEntity
  8
0
  6
Continuous
 62
     7
370
    50
100
AcDbCircle
 10
72.1188484837
 20
111.123069545
 30
0.0
 40
2.749999596612509
  0
CIRCLE
  5
FF
330
1F
100
AcDbEntity
  8
0
  6
Continuous
 62
     7
370
    50
100
AcDbCircle
 10
62.9188493966
 20
116.1230692364
 30
0.0
 40
1.500000659274504
  0
CIRCLE
  5
100
330
1F
100
AcDbEntity
  8
0
  6
Continuous
 62
     7
370
    50
100
AcDbCircle
 10
62.9188492926
 20
106.1230689748
 30
0.0
 40
1.500000737497116
  0
LINE
  5
101
330
1F
100
AcDbEntity
  8
0
  6
Continuous
 62
     7
370
    50
100
AcDbLine
 10
60.8188470623
 20
119.3730694073
 30
0.0
 11
70.9650179169
 21
119.3730694073
 31
0.0
  0
SPLINE
  5
102
330
1F
100
AcDbEntity
  8
0
  6
Continuous
 62
     7
370
    50
100
AcDbSpline
210
0.0
220
0.0
230
1.0
 70
     8
 71
     3
 72
    12
 73
     8
 74
     0
 42
0.00000001
 43
0.00000001
 40
0.0
 40
0.0
 40
0.0
 40
0.0
 40
0.053944377220087
 40
0.2060717208894834
 40
0.4459632908496923
 40
0.7559819140144413
 40
1.0
 40
1.0
 40
1.0
 40
1.0
 10
70.96501791691733
 20
119.3730694073271
 30
0.0
 10
70.96371341852476
 20
119.3696109948242
 30
0.0
 10
70.95873013310171
 20
119.3563995898038
 30
0.0
 10
70.94894818506349
 20
119.3274358099645
 30
0.0
 10
70.93616014027319
 20
119.2810367236214
 30
0.0
 10
70.92569871012624
 20
119.2275379207682
 30
0.0
 10
70.92218317770973
 20
119.1897242670052
 30
0.0
 10
70.92063480830144
 20
119.1730697470736
 30
0.0
  0
LINE
  5
103
330
1F
100
AcDbEntity
  8
0
  6
Continuous
 62
     7
370
    50
100
AcDbLine
 10
60.8188470623
 20
102.8730694967
 30
0.0
 11
60.8188470623
 21
103.073069157
 31
0.0
  0
ARC
  5
104
330
1F
100
AcDbEntity
  8
0
  6
Continuous
 62
     7
370
    50
100
AcDbCircle
 10
60.8188468672
 20
103.0730652366
 30
0.0
 40
0.1999957398436394
100
AcDbArc
 50
179.9988768613
 51
270.0000559098
  0
SPLINE
  5
105
330
1F
100
AcDbEntity
  8
0
  6
Continuous
 62
     7
370
    50
100
AcDbSpline
210
0.0
220
0.0
230
1.0
 70
     8
 71
     3
 72
    12
 73
     8
 74
     0
 42
0.00000001
 43
0.00000001
 40
0.0
 40
0.0
 40
0.0
 40
0.0
 40
0.3203457413947242
 40
0.6067507762774338
 40
0.8370740575734484
 40
0.9742231174981293
 40
1.0
 40
1.0
 40
1.0
 40
1.0
 10
70.92063480830146
 20
103.0730691569876
 30
0.0
 10
70.92279591418591
 20
103.0512104122955
 30
0.0
 10
70.92688915627899
 20
103.0098088620436
 30
0.0
 10
70.93901961802578
 20
102.9536405028283
 30
0.0
 10
70.95151366160216
 20
102.9105940676885
 30
0.0
 10
70.96041915282605
 20
102.8851532919915
 30
0.0
 10
70.9643897238753
 20
102.8747201480725
 30
0.0
 10
70.96501791691733
 20
102.8730694967341
 30
0.0
  0
LINE
  5
106
330
1F
100
AcDbEntity
  8
0
  6
Continuous
 62
     7
370
    50
100
AcDbLine
 10
70.9650179169
 20
102.8730694967
 30
0.0
 11
60.8188470623
 21
102.8730694967
 31
0.0
  0
LINE
  5
107
330
1F
100
AcDbEntity
  8
0
  6
Continuous
 62
     7
370
    50
100
AcDbLine
 10
72.2726842186
 20
119.3730694073
 30
0.0
 11
72.9650145195
 21
119.3730694073
 31
0.0
  0
SPLINE
  5
108
330
1F
100
AcDbEntity
  8
0
  6
Continuous
 62
     7
370
    50
100
AcDbSpline
210
0.0
220
0.0
230
1.0
 70
     8
 71
     3
 72
    12
 73
     8
 74
     0
 42
0.00000001
 43
0.00000001
 40
0.0
 40
0.0
 40
0.0
 40
0.0
 40
0.0539321183287985
 40
0.2060722883682691
 40
0.4459560740284725
 40
0.7559839037446487
 40
1.0
 40
1.0
 40
1.0
 40
1.0
 10
72.96501451945258
 20
119.3730694073271
 30
0.0
 10
72.96371297802857
 20
119.369610825526
 30
0.0
 10
72.9587398446163
 20
119.3563957342531
 30
0.0
 10
72.94893563782473
 20
119.3274404008883
 30
0.0
 10
72.93617336180915
 20
119.2810330496101
 30
0.0
 10
72.9256894649957
 20
119.2275397377397
 30
0.0
 10
72.9221831419659
 20
119.1897245776818
 30
0.0
 10
72.92063886141729
 20
119.1730697470736
 30
0.0
  0
SPLINE
  5
109
330
1F
100
AcDbEntity
  8
0
  6
Continuous
 62
     7
370
    50
100
AcDbSpline
210
0.0
220
0.0
230
1.0
 70
     8
 71
     3
 72
    12
 73
     8
 74
     0
 42
0.00000001
 43
0.00000001
 40
0.0
 40
0.0
 40
0.0
 40
0.0
 40
0.320343686487868
 40
0.6067507178596102
 40
0.8370857440111427
 40
0.9742357599825427
 40
1.0
 40
1.0
 40
1.0
 40
1.0
 10
72.3170598766799
 20
119.1730697470736
 30
0.0
 10
72.31490190883088
 20
119.1949285924225
 30
0.0
 10
72.31081458450778
 20
119.2363305949167
 30
0.0
 10
72.29868231641488
 20
119.2924988610804
 30
0.0
 10
72.28618737330865
 20
119.3355466103588
 30
0.0
 10
72.27726510774085
 20
119.3609807271547
 30
0.0
 10
72.2733097436974
 20
119.3714186857873
 30
0.0
 10
72.27268421864463
 20
119.3730694073271
 30
0.0
  0
LINE
  5
10A
330
1F
100
AcDbEntity
  8
0
  6
Continuous
 62
     7
370
    50
100
AcDbLine
 10
74.2726882718
 20
119.3730694073
 30
0.0
 11
74.9650185726
 21
119.3730694073
 31
0.0
  0
SPLINE
  5
10B
330
1F
100
AcDbEntity
  8
0
  6
Continuous
 62
     7
370
    50
100
AcDbSpline
210
0.0
220
0.0
230
1.0
 70
     8
 71
     3
 72
    12
 73
     8
 74
     0
 42
0.00000001
 43
0.00000001
 40
0.0
 40
0.0
 40
0.0
 40
0.0
 40
0.053944377220087
 40
0.2060717208894834
 40
0.4459632908496923
 40
0.7559819140144413
 40
1.0
 40
1.0
 40
1.0
 40
1.0
 10
74.96501857256843
 20
119.3730694073271
 30
0.0
 10
74.96371407417585
 20
119.3696109948242
 30
0.0
 10
74.95873078875282
 20
119.3563995898038
 30
0.0
 10
74.94894884071458
 20
119.3274358099645
 30
0.0
 10
74.9361607959243
 20
119.2810367236214
 30
0.0
 10
74.92569936577732
 20
119.2275379207682
 30
0.0
 10
74.92218383336082
 20
119.1897242670052
 30
0.0
 10
74.92063546395254
 20
119.1730697470736
 30
0.0
  0
SPLINE
  5
10C
330
1F
100
AcDbEntity
  8
0
  6
Continuous
 62
     7
370
    50
100
AcDbSpline
210
0.0
220
0.0
230
1.0
 70
     8
 71
     3
 72
    12
 73
     8
 74
     0
 42
0.00000001
 43
0.00000001
 40
0.0
 40
0.0
 40
0.0
 40
0.0
 40
0.320343686487868
 40
0.6067507178596102
 40
0.8370857440111427
 40
0.9742357599825427
 40
1.0
 40
1.0
 40
1.0
 40
1.0
 10
74.31706392979575
 20
119.1730697470736
 30
0.0
 10
74.3149059619467
 20
119.1949285924225
 30
0.0
 10
74.31081863762361
 20
119.2363305949167
 30
0.0
 10
74.29868636953074
 20
119.2924988610804
 30
0.0
 10
74.28619142642444
 20
119.3355466103588
 30
0.0
 10
74.27726916085675
 20
119.3609807271547
 30
0.0
 10
74.27331379681324
 20
119.3714186857873
 30
0.0
 10
74.27268827176047
 20
119.3730694073271
 30
0.0
  0
SPLINE
  5
10D
330
1F
100
AcDbEntity
  8
0
  6
Continuous
 62
     7
370
    50
100
AcDbSpline
210
0.0
220
0.0
230
1.0
 70
     8
 71
     3
 72
    12
 73
     8
 74
     0
 42
0.00000001
 43
0.00000001
 40
0.0
 40
0.0
 40
0.0
 40
0.0
 40
0.320343686487868
 40
0.6067507178596102
 40
0.8370857440111427
 40
0.9742357599825427
 40
1.0
 40
1.0
 40
1.0
 40
1.0
 10
72.9206388614173
 20
103.0730691569876
 30
0.0
 10
72.92279682926636
 20
103.0512103116388
 30
0.0
 10
72.92688415358943
 20
103.0098083091445
 30
0.0
 10
72.93901642168234
 20
102.9536400429808
 30
0.0
 10
72.95151136478866
 20
102.9105922937024
 30
0.0
 10
72.96043363035629
 20
102.8851581769065
 30
0.0
 10
72.96438899439984
 20
102.8747202182739
 30
0.0
 10
72.96501451945258
 20
102.8730694967341
 30
0.0
  0
LINE
  5
10E
330
1F
100
AcDbEntity
  8
0
  6
Continuous
 62
     7
370
    50
100
AcDbLine
 10
72.9650145195
 20
102.8730694967
 30
0.0
 11
72.2726842186
 21
102.8730694967
 31
0.0
  0
SPLINE
  5
10F
330
1F
100
AcDbEntity
  8
0
  6
Continuous
 62
     7
370
    50
100
AcDbSpline
210
0.0
220
0.0
230
1.0
 70
     8
 71
     3
 72
    12
 73
     8
 74
     0
 42
0.00000001
 43
0.00000001
 40
0.0
 40
0.0
 40
0.0
 40
0.0
 40
0.0539445867660413
 40
0.2060725213713432
 40
0.4459650231860018
 40
0.7559848506124659
 40
1.0
 40
1.0
 40
1.0
 40
1.0
 10
72.27268421864463
 20
102.8730694967341
 30
0.0
 10
72.27398871596698
 20
102.8765279093525
 30
0.0
 10
72.27897199730162
 20
102.8897393148138
 30
0.0
 10
72.2887540378891
 20
102.9187030846715
 30
0.0
 10
72.30154140571936
 20
102.9651022440256
 30
0.0
 10
72.31200597886568
 20
103.0186004406275
 30
0.0
 10
72.31551457571493
 20
103.0564145741197
 30
0.0
 10
72.3170598766799
 20
103.0730691569876
 30
0.0
  0
SPLINE
  5
110
330
1F
100
AcDbEntity
  8
0
  6
Continuous
 62
     7
370
    50
100
AcDbSpline
210
0.0
220
0.0
230
1.0
 70
     8
 71
     3
 72
    12
 73
     8
 74
     0
 42
0.00000001
 43
0.00000001
 40
0.0
 40
0.0
 40
0.0
 40
0.0
 40
0.3203457413947242
 40
0.6067507762774338
 40
0.8370740575734484
 40
0.9742231174981293
 40
1.0
 40
1.0
 40
1.0
 40
1.0
 10
74.92063546395255
 20
103.0730691569876
 30
0.0
 10
74.922796569837
 20
103.0512104122955
 30
0.0
 10
74.92688981193011
 20
103.0098088620436
 30
0.0
 10
74.93902027367683
 20
102.9536405028283
 30
0.0
 10
74.95151431725328
 20
102.9105940676885
 30
0.0
 10
74.96041980847711
 20
102.8851532919915
 30
0.0
 10
74.96439037952638
 20
102.8747201480725
 30
0.0
 10
74.96501857256843
 20
102.8730694967341
 30
0.0
  0
LINE
  5
111
330
1F
100
AcDbEntity
  8
0
  6
Continuous
 62
     7
370
    50
100
AcDbLine
 10
74.9650185726
 20
102.8730694967
 30
0.0
 11
74.2726882718
 21
102.8730694967
 31
0.0
  0
SPLINE
  5
112
330
1F
100
AcDbEntity
  8
0
  6
Continuous
 62
     7
370
    50
100
AcDbSpline
210
0.0
220
0.0
230
1.0
 70
     8
 71
     3
 72
    12
 73
     8
 74
     0
 42
0.00000001
 43
0.00000001
 40
0.0
 40
0.0
 40
0.0
 40
0.0
 40
0.053932226090638
 40
0.2060610549760495
 40
0.4459549669925449
 40
0.7559834161757526
 40
1.0
 40
1.0
 40
1.0
 40
1.0
 10
74.27268827176047
 20
102.8730694967341
 30
0.0
 10
74.27398996844533
 20
102.876528027054
 30
0.0
 10
74.27896341403773
 20
102.8897421748473
 30
0.0
 10
74.28875419941703
 20
102.9187018119529
 30
0.0
 10
74.30153468875284
 20
102.9651036008476
 30
0.0
 10
74.31201219964852
 20
103.0185995016955
 30
0.0
 10
74.31551930478571
 20
103.0564144289239
 30
0.0
 10
74.31706392979575
 20
103.0730691569876
 30
0.0
  0
LINE
  5
113
330
1F
100
AcDbEntity
  8
0
  6
Continuous
 62
     7
370
    50
100
AcDbLine
 10
76.2726848743
 20
119.3730694073
 30
0.0
 11
76.9650151751
 21
119.3730694073
 31
0.0
  0
SPLINE
  5
114
330
1F
100
AcDbEntity
  8
0
  6
Continuous
 62
     7
370
    50
100
AcDbSpline
210
0.0
220
0.0
230
1.0
 70
     8
 71
     3
 72
    12
 73
     8
 74
     0
 42
0.00000001
 43
0.00000001
 40
0.0
 40
0.0
 40
0.0
 40
0.0
 40
0.0539319647453815
 40
0.2060717015326843
 40
0.4459644510691466
 40
0.755984598633465
 40
1.0
 40
1.0
 40
1.0
 40
1.0
 10
76.96501517510367
 20
119.3730694073271
 30
0.0
 10
76.96371361076682
 20
119.369610831535
 30
0.0
 10
76.95874038980558
 20
119.3563957632218
 30
0.0
 10
76.94893795329159
 20
119.3274392836119
 30
0.0
 10
76.93616119201467
 20
119.2810355262533
 30
0.0
 10
76.92569274479746
 20
119.2275387005542
 30
0.0
 10
76.92218461314536
 20
119.1897244024445
 30
0.0
 10
76.9206395170684
 20
119.1730697470736
 30
0.0
  0
SPLINE
  5
115
330
1F
100
AcDbEntity
  8
0
  6
Continuous
 62
     7
370
    50
100
AcDbSpline
210
0.0
220
0.0
230
1.0
 70
     8
 71
     3
 72
    12
 73
     8
 74
     0
 42
0.00000001
 43
0.00000001
 40
0.0
 40
0.0
 40
0.0
 40
0.0
 40
0.320343686487868
 40
0.6067507178596102
 40
0.8370857440111427
 40
0.9742357599825427
 40
1.0
 40
1.0
 40
1.0
 40
1.0
 10
76.317060532331
 20
119.1730697470736
 30
0.0
 10
76.31490256448197
 20
119.1949285924225
 30
0.0
 10
76.31081524015887
 20
119.2363305949167
 30
0.0
 10
76.29868297206598
 20
119.2924988610804
 30
0.0
 10
76.28618802895971
 20
119.3355466103588
 30
0.0
 10
76.27726576339197
 20
119.3609807271547
 30
0.0
 10
76.27331039934849
 20
119.3714186857873
 30
0.0
 10
76.27268487429572
 20
119.3730694073271
 30
0.0
  0
LINE
  5
116
330
1F
100
AcDbEntity
  8
0
  6
Continuous
 62
     7
370
    50
100
AcDbLine
 10
78.2726814768
 20
119.3730694073
 30
0.0
 11
78.9650117776
 21
119.3730694073
 31
0.0
  0
SPLINE
  5
117
330
1F
100
AcDbEntity
  8
0
  6
Continuous
 62
     7
370
    50
100
AcDbSpline
210
0.0
220
0.0
230
1.0
 70
     8
 71
     3
 72
    12
 73
     8
 74
     0
 42
0.00000001
 43
0.00000001
 40
0.0
 40
0.0
 40
0.0
 40
0.0
 40
0.053932226090638
 40
0.2060610549760495
 40
0.4459549669925449
 40
0.7559834161757526
 40
1.0
 40
1.0
 40
1.0
 40
1.0
 10
78.96501177763892
 20
119.3730694073271
 30
0.0
 10
78.96371008095409
 20
119.3696108770072
 30
0.0
 10
78.95873663536165
 20
119.356396729214
 30
0.0
 10
78.94894584998241
 20
119.3274370921083
 30
0.0
 10
78.93616536064658
 20
119.2810353032136
 30
0.0
 10
78.92568784975084
 20
119.2275394023657
 30
0.0
 10
78.92218074461371
 20
119.1897244751374
 30
0.0
 10
78.92063611960364
 20
119.1730697470736
 30
0.0
  0
SPLINE
  5
118
330
1F
100
AcDbEntity
  8
0
  6
Continuous
 62
     7
370
    50
100
AcDbSpline
210
0.0
220
0.0
230
1.0
 70
     8
 71
     3
 72
    12
 73
     8
 74
     0
 42
0.00000001
 43
0.00000001
 40
0.0
 40
0.0
 40
0.0
 40
0.0
 40
0.3203457413947242
 40
0.6067507762774338
 40
0.8370740575734484
 40
0.9742231174981293
 40
1.0
 40
1.0
 40
1.0
 40
1.0
 10
78.31706458544684
 20
119.1730697470736
 30
0.0
 10
78.31490347956237
 20
119.1949284917657
 30
0.0
 10
78.31081023746933
 20
119.2363300420177
 30
0.0
 10
78.29867977572253
 20
119.292498401233
 30
0.0
 10
78.28618573214612
 20
119.3355448363727
 30
0.0
 10
78.27728024092225
 20
119.3609856120697
 30
0.0
 10
78.27330966987303
 20
119.3714187559887
 30
0.0
 10
78.27268147683097
 20
119.3730694073271
 30
0.0
  0
SPLINE
  5
119
330
1F
100
AcDbEntity
  8
0
  6
Continuous
 62
     7
370
    50
100
AcDbSpline
210
0.0
220
0.0
230
1.0
 70
     8
 71
     3
 72
    12
 73
     8
 74
     0
 42
0.00000001
 43
0.00000001
 40
0.0
 40
0.0
 40
0.0
 40
0.0
 40
0.320343686487868
 40
0.6067507178596102
 40
0.8370857440111427
 40
0.9742357599825427
 40
1.0
 40
1.0
 40
1.0
 40
1.0
 10
76.9206395170684
 20
103.0730691569876
 30
0.0
 10
76.92279748491745
 20
103.0512103116388
 30
0.0
 10
76.92688480924053
 20
103.0098083091445
 30
0.0
 10
76.93901707733342
 20
102.9536400429808
 30
0.0
 10
76.95151202043972
 20
102.9105922937024
 30
0.0
 10
76.96043428600741
 20
102.8851581769065
 30
0.0
 10
76.96438965005093
 20
102.8747202182739
 30
0.0
 10
76.96501517510367
 20
102.8730694967341
 30
0.0
  0
LINE
  5
11A
330
1F
100
AcDbEntity
  8
0
  6
Continuous
 62
     7
370
    50
100
AcDbLine
 10
76.9650151751
 20
102.8730694967
 30
0.0
 11
76.2726848743
 21
102.8730694967
 31
0.0
  0
SPLINE
  5
11B
330
1F
100
AcDbEntity
  8
0
  6
Continuous
 62
     7
370
    50
100
AcDbSpline
210
0.0
220
0.0
230
1.0
 70
     8
 71
     3
 72
    12
 73
     8
 74
     0
 42
0.00000001
 43
0.00000001
 40
0.0
 40
0.0
 40
0.0
 40
0.0
 40
0.0539319647453815
 40
0.2060717015326843
 40
0.4459644510691466
 40
0.755984598633465
 40
1.0
 40
1.0
 40
1.0
 40
1.0
 10
76.27268487429572
 20
102.8730694967341
 30
0.0
 10
76.27398643863256
 20
102.8765280725263
 30
0.0
 10
76.27895965959372
 20
102.8897431408394
 30
0.0
 10
76.28876209610792
 20
102.9186996204494
 30
0.0
 10
76.30153885738464
 20
102.9651033778079
 30
0.0
 10
76.31200730460193
 20
103.018600203507
 30
0.0
 10
76.31551543625407
 20
103.0564145016168
 30
0.0
 10
76.317060532331
 20
103.0730691569876
 30
0.0
  0
LINE
  5
11C
330
1F
100
AcDbEntity
  8
0
  6
Continuous
 62
     7
370
    50
100
AcDbLine
 10
80.2726855299
 20
119.3730694073
 30
0.0
 11
80.9650158308
 21
119.3730694073
 31
0.0
  0
SPLINE
  5
11D
330
1F
100
AcDbEntity
  8
0
  6
Continuous
 62
     7
370
    50
100
AcDbSpline
210
0.0
220
0.0
230
1.0
 70
     8
 71
     3
 72
    12
 73
     8
 74
     0
 42
0.00000001
 43
0.00000001
 40
0.0
 40
0.0
 40
0.0
 40
0.0
 40
0.0539319647453815
 40
0.2060717015326843
 40
0.4459644510691466
 40
0.755984598633465
 40
1.0
 40
1.0
 40
1.0
 40
1.0
 10
80.96501583075477
 20
119.3730694073271
 30
0.0
 10
80.96371426641791
 20
119.369610831535
 30
0.0
 10
80.95874104545669
 20
119.3563957632218
 30
0.0
 10
80.94893860894265
 20
119.3274392836119
 30
0.0
 10
80.93616184766576
 20
119.2810355262533
 30
0.0
 10
80.92569340044855
 20
119.2275387005542
 30
0.0
 10
80.92218526879645
 20
119.1897244024445
 30
0.0
 10
80.92064017271949
 20
119.1730697470736
 30
0.0
  0
SPLINE
  5
11E
330
1F
100
AcDbEntity
  8
0
  6
Continuous
 62
     7
370
    50
100
AcDbSpline
210
0.0
220
0.0
230
1.0
 70
     8
 71
     3
 72
    12
 73
     8
 74
     0
 42
0.00000001
 43
0.00000001
 40
0.0
 40
0.0
 40
0.0
 40
0.0
 40
0.320343686487868
 40
0.6067507178596102
 40
0.8370857440111427
 40
0.9742357599825427
 40
1.0
 40
1.0
 40
1.0
 40
1.0
 10
80.31706118798209
 20
119.1730697470736
 30
0.0
 10
80.31490322013305
 20
119.1949285924225
 30
0.0
 10
80.31081589580997
 20
119.2363305949167
 30
0.0
 10
80.29868362771707
 20
119.2924988610804
 30
0.0
 10
80.2861886846108
 20
119.3355466103588
 30
0.0
 10
80.27726641904309
 20
119.3609807271547
 30
0.0
 10
80.27331105499958
 20
119.3714186857873
 30
0.0
 10
80.27268552994681
 20
119.3730694073271
 30
0.0
  0
SPLINE
  5
11F
330
1F
100
AcDbEntity
  8
0
  6
Continuous
 62
     7
370
    50
100
AcDbSpline
210
0.0
220
0.0
230
1.0
 70
     8
 71
     3
 72
    12
 73
     8
 74
     0
 42
0.00000001
 43
0.00000001
 40
0.0
 40
0.0
 40
0.0
 40
0.0
 40
0.320343686487868
 40
0.6067507178596102
 40
0.8370857440111427
 40
0.9742357599825427
 40
1.0
 40
1.0
 40
1.0
 40
1.0
 10
78.92063611960364
 20
103.0730691569876
 30
0.0
 10
78.92279408745271
 20
103.0512103116388
 30
0.0
 10
78.92688141177578
 20
103.0098083091445
 30
0.0
 10
78.93901367986868
 20
102.9536400429808
 30
0.0
 10
78.95150862297494
 20
102.9105922937024
 30
0.0
 10
78.96043088854269
 20
102.8851581769065
 30
0.0
 10
78.96438625258617
 20
102.8747202182739
 30
0.0
 10
78.96501177763892
 20
102.8730694967341
 30
0.0
  0
LINE
  5
120
330
1F
100
AcDbEntity
  8
0
  6
Continuous
 62
     7
370
    50
100
AcDbLine
 10
78.9650117776
 20
102.8730694967
 30
0.0
 11
78.2726814768
 21
102.8730694967
 31
0.0
  0
SPLINE
  5
121
330
1F
100
AcDbEntity
  8
0
  6
Continuous
 62
     7
370
    50
100
AcDbSpline
210
0.0
220
0.0
230
1.0
 70
     8
 71
     3
 72
    12
 73
     8
 74
     0
 42
0.00000001
 43
0.00000001
 40
0.0
 40
0.0
 40
0.0
 40
0.0
 40
0.0539442199845479
 40
0.2060711202374823
 40
0.4459619909685543
 40
0.7559865097268693
 40
0.9999999999999999
 40
0.9999999999999999
 40
0.9999999999999999
 40
0.9999999999999999
 10
78.27268147683095
 20
102.8730694967341
 30
0.0
 10
78.27398597038625
 20
102.8765279100725
 30
0.0
 10
78.27896923733049
 20
102.8897393182843
 30
0.0
 10
78.2887516036763
 20
102.9187030258785
 30
0.0
 10
78.3015367125398
 20
102.9651030900463
 30
0.0
 10
78.31201256917119
 20
103.0185996085232
 30
0.0
 10
78.3155198729497
 20
103.0564144615877
 30
0.0
 10
78.31706458544684
 20
103.0730691569876
 30
0.0
  0
LINE
  5
122
330
1F
100
AcDbEntity
  8
0
  6
Continuous
 62
     7
370
    50
100
AcDbLine
 10
82.2726821325
 20
119.3730694073
 30
0.0
 11
85.0056147001
 21
119.3730694073
 31
0.0
  0
LINE
  5
123
330
1F
100
AcDbEntity
  8
0
  6
Continuous
 62
     7
370
    50
100
AcDbLine
 10
85.0056147001
 20
119.3730694073
 30
0.0
 11
85.0056147001
 21
119.1730697471
 31
0.0
  0
SPLINE
  5
124
330
1F
100
AcDbEntity
  8
0
  6
Continuous
 62
     7
370
    50
100
AcDbSpline
210
0.0
220
0.0
230
1.0
 70
     8
 71
     3
 72
    12
 73
     8
 74
     0
 42
0.00000001
 43
0.00000001
 40
0.0
 40
0.0
 40
0.0
 40
0.0
 40
0.3203457413947242
 40
0.6067507762774338
 40
0.8370740575734484
 40
0.9742231174981293
 40
1.0
 40
1.0
 40
1.0
 40
1.0
 10
82.31706524109794
 20
119.1730697470736
 30
0.0
 10
82.31490413521345
 20
119.1949284917657
 30
0.0
 10
82.31081089312039
 20
119.2363300420177
 30
0.0
 10
82.29868043137365
 20
119.292498401233
 30
0.0
 10
82.2861863877972
 20
119.3355448363727
 30
0.0
 10
82.27728089657337
 20
119.3609856120697
 30
0.0
 10
82.27331032552411
 20
119.3714187559887
 30
0.0
 10
82.27268213248206
 20
119.3730694073271
 30
0.0
  0
SPLINE
  5
125
330
1F
100
AcDbEntity
  8
0
  6
Continuous
 62
     7
370
    50
100
AcDbSpline
210
0.0
220
0.0
230
1.0
 70
     8
 71
     3
 72
    12
 73
     8
 74
     0
 42
0.00000001
 43
0.00000001
 40
0.0
 40
0.0
 40
0.0
 40
0.0
 40
0.320343686487868
 40
0.6067507178596102
 40
0.8370857440111427
 40
0.9742357599825427
 40
1.0
 40
1.0
 40
1.0
 40
1.0
 10
80.92064017271949
 20
103.0730691569876
 30
0.0
 10
80.92279814056855
 20
103.0512103116388
 30
0.0
 10
80.92688546489161
 20
103.0098083091445
 30
0.0
 10
80.93901773298454
 20
102.9536400429808
 30
0.0
 10
80.95151267609077
 20
102.9105922937024
 30
0.0
 10
80.96043494165853
 20
102.8851581769065
 30
0.0
 10
80.964390305702
 20
102.8747202182739
 30
0.0
 10
80.96501583075477
 20
102.8730694967341
 30
0.0
  0
LINE
  5
126
330
1F
100
AcDbEntity
  8
0
  6
Continuous
 62
     7
370
    50
100
AcDbLine
 10
80.9650158308
 20
102.8730694967
 30
0.0
 11
80.2726855299
 21
102.8730694967
 31
0.0
  0
SPLINE
  5
127
330
1F
100
AcDbEntity
  8
0
  6
Continuous
 62
     7
370
    50
100
AcDbSpline
210
0.0
220
0.0
230
1.0
 70
     8
 71
     3
 72
    12
 73
     8
 74
     0
 42
0.00000001
 43
0.00000001
 40
0.0
 40
0.0
 40
0.0
 40
0.0
 40
0.0539319647453815
 40
0.2060717015326843
 40
0.4459644510691466
 40
0.755984598633465
 40
1.0
 40
1.0
 40
1.0
 40
1.0
 10
80.27268552994681
 20
102.8730694967341
 30
0.0
 10
80.27398709428367
 20
102.8765280725263
 30
0.0
 10
80.27896031524483
 20
102.8897431408394
 30
0.0
 10
80.28876275175901
 20
102.9186996204494
 30
0.0
 10
80.30153951303575
 20
102.9651033778079
 30
0.0
 10
80.31200796025303
 20
103.018600203507
 30
0.0
 10
80.31551609190515
 20
103.0564145016168
 30
0.0
 10
80.31706118798209
 20
103.0730691569876
 30
0.0
  0
LINE
  5
128
330
1F
100
AcDbEntity
  8
0
  6
Continuous
 62
     7
370
    50
100
AcDbLine
 10
85.0056147001
 20
102.8730694967
 30
0.0
 11
82.2726821325
 21
102.8730694967
 31
0.0
  0
LINE
  5
129
330
1F
100
AcDbEntity
  8
0
  6
Continuous
 62
     7
370
    50
100
AcDbLine
 10
85.0056147001
 20
103.073069157
 30
0.0
 11
85.0056147001
 21
102.8730694967
 31
0.0
  0
SPLINE
  5
12A
330
1F
100
AcDbEntity
  8
0
  6
Continuous
 62
     7
370
    50
100
AcDbSpline
210
0.0
220
0.0
230
1.0
 70
     8
 71
     3
 72
    12
 73
     8
 74
     0
 42
0.00000001
 43
0.00000001
 40
0.0
 40
0.0
 40
0.0
 40
0.0
 40
0.053944377220087
 40
0.2060717208894834
 40
0.4459632908496923
 40
0.7559819140144413
 40
1.0
 40
1.0
 40
1.0
 40
1.0
 10
82.27268213248206
 20
102.8730694967341
 30
0.0
 10
82.27398663087466
 20
102.876527909237
 30
0.0
 10
82.27896991629767
 20
102.8897393142574
 30
0.0
 10
82.28875186433594
 20
102.9187030940967
 30
0.0
 10
82.30153990912615
 20
102.9651021804398
 30
0.0
 10
82.31200133927317
 20
103.0186009832931
 30
0.0
 10
82.31551687168968
 20
103.0564146370561
 30
0.0
 10
82.31706524109792
 20
103.0730691569876
 30
0.0
  0
LWPOLYLINE
  5
12B
330
1F
100
AcDbEntity
  8
0
  6
Continuous
 62
     7
370
    50
100
AcDbPolyline
 90
        9
 70
   128
 43
0.0
 10
85.0056147001
 20
119.1730697471
 10
85.039067807
 20
119.1931444052
 10
85.071239414
 20
119.2124469969
 10
85.1008927248
 20
119.2302371207
 10
85.1268803499
 20
119.2458302545
 10
85.1482113621
 20
119.2586266267
 10
85.1640587471
 20
119.2681354302
 10
85.1738190076
 20
119.2739915865
 10
85.1771121643
 20
119.2759687844
  0
LINE
  5
12C
330
1F
100
AcDbEntity
  8
0
  6
Continuous
 62
     7
370
    50
100
AcDbLine
 10
85.1771121643
 20
119.2759687844
 30
0.0
 11
85.5342110417
 21
118.6808001081
 31
0.0
  0
ARC
  5
12D
330
1F
100
AcDbEntity
  8
0
  6
Continuous
 62
     7
370
    50
100
AcDbCircle
 10
85.0056057458
 20
119.1730553327
 30
0.0
 40
0.2000140747938615
100
AcDbArc
 50
30.9661147739
 51
89.9974349566
  0
LINE
  5
12E
330
1F
100
AcDbEntity
  8
0
  6
Continuous
 62
     7
370
    50
100
AcDbLine
 10
85.5002438447
 20
103.5087250936
 30
0.0
 11
85.1771121643
 21
102.9701701197
 31
0.0
  0
LWPOLYLINE
  5
12F
330
1F
100
AcDbEntity
  8
0
  6
Continuous
 62
     7
370
    50
100
AcDbPolyline
 90
        9
 70
   128
 43
0.0
 10
85.0056147001
 20
103.073069157
 10
85.039067807
 20
103.0529944989
 10
85.071239414
 20
103.0336919072
 10
85.1008927248
 20
103.0159017834
 10
85.1268803499
 20
103.0003086495
 10
85.1482113621
 20
102.9875122773
 10
85.1640587471
 20
102.9780034739
 10
85.1738190076
 20
102.9721473175
 10
85.1771121643
 20
102.9701701197
  0
ARC
  5
130
330
1F
100
AcDbEntity
  8
0
  6
Continuous
 62
     7
370
    50
100
AcDbCircle
 10
85.0056057458
 20
103.0730835713
 30
0.0
 40
0.2000140747937511
100
AcDbArc
 50
270.0025650434
 51
329.0338852262
  0
LINE
  5
131
330
1F
100
AcDbEntity
  8
0
  6
Continuous
 62
     7
370
    50
100
AcDbLine
 10
64.1188507698
 20
116.9230693783
 30
0.0
 11
61.7188473961
 21
116.9230693783
 31
0.0
  0
LINE
  5
132
330
1F
100
AcDbEntity
  8
0
  6
Continuous
 62
     7
370
    50
100
AcDbLine
 10
61.7188473961
 20
116.9230693783
 30
0.0
 11
61.7188473961
 21
116.6230694222
 31
0.0
  0
LINE
  5
133
330
1F
100
AcDbEntity
  8
0
  6
Continuous
 62
     7
370
    50
100
AcDbLine
 10
61.7188473961
 20
116.6230694222
 30
0.0
 11
62.2611155531
 21
116.6230694222
 31
0.0
  0
LINE
  5
134
330
1F
100
AcDbEntity
  8
0
  6
Continuous
 62
     7
370
    50
100
AcDbLine
 10
62.2611155531
 20
116.6230694222
 30
0.0
 11
62.7069508455
 21
116.1330694164
 31
0.0
  0
LINE
  5
135
330
1F
100
AcDbEntity
  8
0
  6
Continuous
 62
     7
370
    50
100
AcDbLine
 10
62.7069508455
 20
116.1330694164
 30
0.0
 11
61.7837419531
 21
115.2930695395
 31
0.0
  0
LINE
  5
136
330
1F
100
AcDbEntity
  8
0
  6
Continuous
 62
     7
370
    50
100
AcDbLine
 10
61.7837419531
 20
115.2930695395
 30
0.0
 11
61.9856377861
 21
115.0711730885
 31
0.0
  0
LINE
  5
137
330
1F
100
AcDbEntity
  8
0
  6
Continuous
 62
     7
370
    50
100
AcDbLine
 10
61.9856377861
 20
115.0711730885
 30
0.0
 11
62.9088466785
 21
115.9111734311
 31
0.0
  0
LINE
  5
138
330
1F
100
AcDbEntity
  8
0
  6
Continuous
 62
     7
370
    50
100
AcDbLine
 10
62.9088466785
 20
115.9111734311
 30
0.0
 11
63.7641286275
 21
114.9711732584
 31
0.0
  0
LINE
  5
139
330
1F
100
AcDbEntity
  8
0
  6
Continuous
 62
     7
370
    50
100
AcDbLine
 10
63.7641286275
 20
114.9711732584
 30
0.0
 11
63.9860218189
 21
115.1730695571
 31
0.0
  0
LINE
  5
13A
330
1F
100
AcDbEntity
  8
0
  6
Continuous
 62
     7
370
    50
100
AcDbLine
 10
63.9860218189
 20
115.1730695571
 30
0.0
 11
62.6667102597
 21
116.6230694222
 31
0.0
  0
LINE
  5
13B
330
1F
100
AcDbEntity
  8
0
  6
Continuous
 62
     7
370
    50
100
AcDbLine
 10
62.6667102597
 20
116.6230694222
 30
0.0
 11
64.1188507698
 21
116.6230694222
 31
0.0
  0
LINE
  5
13C
330
1F
100
AcDbEntity
  8
0
  6
Continuous
 62
     7
370
    50
100
AcDbLine
 10
64.1188507698
 20
116.6230694222
 30
0.0
 11
64.1188507698
 21
116.9230693783
 31
0.0
  0
LINE
  5
13D
330
1F
100
AcDbEntity
  8
0
  6
Continuous
 62
     7
370
    50
100
AcDbLine
 10
64.3688475511
 20
106.273069309
 30
0.0
 11
63.0688478968
 21
106.273069309
 31
0.0
  0
LINE
  5
13E
330
1F
100
AcDbEntity
  8
0
  6
Continuous
 62
     7
370
    50
100
AcDbLine
 10
63.0688478968
 20
106.273069309
 30
0.0
 11
63.0688478968
 21
107.5730694289
 31
0.0
  0
LINE
  5
13F
330
1F
100
AcDbEntity
  8
0
  6
Continuous
 62
     7
370
    50
100
AcDbLine
 10
63.0688478968
 20
107.5730694289
 30
0.0
 11
62.7688502691
 21
107.5730694289
 31
0.0
  0
LINE
  5
140
330
1F
100
AcDbEntity
  8
0
  6
Continuous
 62
     7
370
    50
100
AcDbLine
 10
62.7688502691
 20
107.5730694289
 30
0.0
 11
62.7688502691
 21
106.273069309
 31
0.0
  0
LINE
  5
141
330
1F
100
AcDbEntity
  8
0
  6
Continuous
 62
     7
370
    50
100
AcDbLine
 10
62.7688502691
 20
106.273069309
 30
0.0
 11
61.4688506148
 21
106.273069309
 31
0.0
  0
LINE
  5
142
330
1F
100
AcDbEntity
  8
0
  6
Continuous
 62
     7
370
    50
100
AcDbLine
 10
61.4688506148
 20
106.273069309
 30
0.0
 11
61.4688506148
 21
105.9730693529
 31
0.0
  0
LINE
  5
143
330
1F
100
AcDbEntity
  8
0
  6
Continuous
 62
     7
370
    50
100
AcDbLine
 10
61.4688506148
 20
105.9730693529
 30
0.0
 11
62.7688502691
 21
105.9730693529
 31
0.0
  0
LINE
  5
144
330
1F
100
AcDbEntity
  8
0
  6
Continuous
 62
     7
370
    50
100
AcDbLine
 10
62.7688502691
 20
105.9730693529
 30
0.0
 11
62.7688502691
 21
104.673069233
 31
0.0
  0
LINE
  5
145
330
1F
100
AcDbEntity
  8
0
  6
Continuous
 62
     7
370
    50
100
AcDbLine
 10
62.7688502691
 20
104.673069233
 30
0.0
 11
63.0688478968
 21
104.673069233
 31
0.0
  0
LINE
  5
146
330
1F
100
AcDbEntity
  8
0
  6
Continuous
 62
     7
370
    50
100
AcDbLine
 10
63.0688478968
 20
104.673069233
 30
0.0
 11
63.0688478968
 21
105.9730693529
 31
0.0
  0
LINE
  5
147
330
1F
100
AcDbEntity
  8
0
  6
Continuous
 62
     7
370
    50
100
AcDbLine
 10
63.0688478968
 20
105.9730693529
 30
0.0
 11
64.3688475511
 21
105.9730693529
 31
0.0
  0
LINE
  5
148
330
1F
100
AcDbEntity
  8
0
  6
Continuous
 62
     7
370
    50
100
AcDbLine
 10
64.3688475511
 20
105.9730693529
 30
0.0
 11
64.3688475511
 21
106.273069309
 31
0.0
  0
ARC
  5
149
330
1F
100
AcDbEntity
  8
0
  6
Continuous
 62
     7
370
    50
100
AcDbCircle
 10
96.1188444704
 20
106.3335459685
 30
0.0
 40
3.150008547624277
100
AcDbArc
 50
277.0657849694
 51
342.2471088878
  0
ARC
  5
14A
330
1F
100
AcDbEntity
  8
0
  6
Continuous
 62
     7
370
    50
100
AcDbCircle
 10
96.1188460653
 20
106.3335328543
 30
0.0
 40
3.149994721987198
100
AcDbArc
 50
197.7527211607
 51
262.9343046993
  0
ARC
  5
14B
330
1F
100
AcDbEntity
  8
0
  6
Continuous
 62
     7
370
    50
100
AcDbCircle
 10
96.1188478904
 20
115.912603848
 30
0.0
 40
3.149997131572005
100
AcDbArc
 50
97.0657233202
 51
162.2472508199
  0
ARC
  5
14C
330
1F
100
AcDbEntity
  8
0
  6
Continuous
 62
     7
370
    50
100
AcDbCircle
 10
96.1188488965
 20
115.912598275
 30
0.0
 40
3.150002704260862
100
AcDbArc
 50
17.7528231641
 51
82.9342829787
  0
LINE
  5
14D
330
1F
100
AcDbEntity
  8
0
  6
Continuous
 62
     7
370
    50
100
AcDbLine
 10
85.0863864443
 20
118.8488917257
 30
0.0
 11
82.8915050051
 21
115.0472474116
 31
0.0
  0
ARC
  5
14E
330
1F
100
AcDbEntity
  8
0
  6
Continuous
 62
     7
370
    50
100
AcDbCircle
 10
84.1188494069
 20
116.8730696062
 30
0.0
 40
2.200000219714197
100
AcDbArc
 50
63.9095476329
 51
236.0904281525
  0
LINE
  5
14F
330
1F
100
AcDbEntity
  8
0
  6
Continuous
 62
     7
370
    50
100
AcDbLine
 10
83.1513142011
 20
114.8972472007
 30
0.0
 11
85.3461956403
 21
118.6988915148
 31
0.0
  0
ARC
  5
150
330
1F
100
AcDbEntity
  8
0
  6
Continuous
 62
     7
370
    50
100
AcDbCircle
 10
84.1188512386
 20
116.8730693202
 30
0.0
 40
2.200000219714197
100
AcDbArc
 50
243.9095476329
 51
56.0904281525
  0
ARC
  5
151
330
1F
100
AcDbEntity
  8
0
  6
Continuous
 62
     7
370
    50
100
AcDbCircle
 10
84.1188949454
 20
116.8731565301
 30
0.0
 40
2.200097764732688
100
AcDbArc
 50
236.0907068093
 51
243.9095242166
  0
ARC
  5
152
330
1F
100
AcDbEntity
  8
0
  6
Continuous
 62
     7
370
    50
100
AcDbCircle
 10
84.1188057001
 20
116.8729823964
 30
0.0
 40
2.200097764733189
100
AcDbArc
 50
56.0907068093
 51
63.9095242166
  0
LINE
  5
153
330
1F
100
AcDbEntity
  8
0
  6
Continuous
 62
     7
370
    50
100
AcDbLine
 10
85.0863864443
 20
107.3488917033
 30
0.0
 11
82.8915050051
 21
103.5472473892
 31
0.0
  0
ARC
  5
154
330
1F
100
AcDbEntity
  8
0
  6
Continuous
 62
     7
370
    50
100
AcDbCircle
 10
84.1188494069
 20
105.3730695838
 30
0.0
 40
2.200000219714197
100
AcDbArc
 50
63.9095476329
 51
236.0904281525
  0
LINE
  5
155
330
1F
100
AcDbEntity
  8
0
  6
Continuous
 62
     7
370
    50
100
AcDbLine
 10
83.1513142011
 20
103.3972471784
 30
0.0
 11
85.3461956403
 21
107.1988914925
 31
0.0
  0
ARC
  5
156
330
1F
100
AcDbEntity
  8
0
  6
Continuous
 62
     7
370
    50
100
AcDbCircle
 10
84.1188512386
 20
105.3730692979
 30
0.0
 40
2.200000219714197
100
AcDbArc
 50
243.9095476329
 51
56.0904281525
  0
ARC
  5
157
330
1F
100
AcDbEntity
  8
0
  6
Continuous
 62
     7
370
    50
100
AcDbCircle
 10
84.1188949454
 20
105.3731565077
 30
0.0
 40
2.200097764732802
100
AcDbArc
 50
236.0907068093
 51
243.9095242166
  0
ARC
  5
158
330
1F
100
AcDbEntity
  8
0
  6
Continuous
 62
     7
370
    50
100
AcDbCircle
 10
84.1188057001
 20
105.372982374
 30
0.0
 40
2.200097764733307
100
AcDbArc
 50
56.0907068093
 51
63.9095242166
  0
LINE
  5
159
330
1F
100
AcDbEntity
  8
0
  6
Continuous
 62
     7
370
    50
100
AcDbLine
 10
97.0863884113
 20
118.8488917257
 30
0.0
 11
94.8915069721
 21
115.0472474116
 31
0.0
  0
ARC
  5
15A
330
1F
100
AcDbEntity
  8
0
  6
Continuous
 62
     7
370
    50
100
AcDbCircle
 10
96.1188513738
 20
116.8730696062
 30
0.0
 40
2.200000219714197
100
AcDbArc
 50
63.9095476329
 51
236.0904281525
  0
LINE
  5
15B
330
1F
100
AcDbEntity
  8
0
  6
Continuous
 62
     7
370
    50
100
AcDbLine
 10
95.1513161681
 20
114.8972472007
 30
0.0
 11
97.3461976073
 21
118.6988915148
 31
0.0
  0
ARC
  5
15C
330
1F
100
AcDbEntity
  8
0
  6
Continuous
 62
     7
370
    50
100
AcDbCircle
 10
96.1188532055
 20
116.8730693202
 30
0.0
 40
2.200000219714191
100
AcDbArc
 50
243.9095476329
 51
56.0904281525
  0
ARC
  5
15D
330
1F
100
AcDbEntity
  8
0
  6
Continuous
 62
     7
370
    50
100
AcDbCircle
 10
96.1188969123
 20
116.8731565301
 30
0.0
 40
2.200097764732681
100
AcDbArc
 50
236.0907068093
 51
243.9095242166
  0
ARC
  5
15E
330
1F
100
AcDbEntity
  8
0
  6
Continuous
 62
     7
370
    50
100
AcDbCircle
 10
96.118807667
 20
116.8729823964
 30
0.0
 40
2.200097764733189
100
AcDbArc
 50
56.0907068093
 51
63.9095242166
  0
LINE
  5
15F
330
1F
100
AcDbEntity
  8
0
  6
Continuous
 62
     7
370
    50
100
AcDbLine
 10
97.0863884113
 20
107.3488917033
 30
0.0
 11
94.8915069721
 21
103.5472473892
 31
0.0
  0
ARC
  5
160
330
1F
100
AcDbEntity
  8
0
  6
Continuous
 62
     7
370
    50
100
AcDbCircle
 10
96.1188513738
 20
105.3730695838
 30
0.0
 40
2.200000219714191
100
AcDbArc
 50
63.9095476329
 51
236.0904281525
  0
LINE
  5
161
330
1F
100
AcDbEntity
  8
0
  6
Continuous
 62
     7
370
    50
100
AcDbLine
 10
95.1513161681
 20
103.3972471784
 30
0.0
 11
97.3461976073
 21
107.1988914925
 31
0.0
  0
ARC
  5
162
330
1F
100
AcDbEntity
  8
0
  6
Continuous
 62
     7
370
    50
100
AcDbCircle
 10
96.1188532055
 20
105.3730692979
 30
0.0
 40
2.200000219714204
100
AcDbArc
 50
243.9095476329
 51
56.0904281525
  0
ARC
  5
163
330
1F
100
AcDbEntity
  8
0
  6
Continuous
 62
     7
370
    50
100
AcDbCircle
 10
96.118807667
 20
105.372982374
 30
0.0
 40
2.200097764733307
100
AcDbArc
 50
56.0907068093
 51
63.9095242166
  0
ARC
  5
164
330
1F
100
AcDbEntity
  8
0
  6
Continuous
 62
     7
370
    50
100
AcDbCircle
 10
96.1188969123
 20
105.3731565077
 30
0.0
 40
2.200097764732858
100
AcDbArc
 50
236.0907068093
 51
243.9095242166
  0
LINE
  5
165
330
1F
100
AcDbEntity
  8
0
  6
Continuous
 62
     7
370
    50
100
AcDbLine
 10
97.5613480232
 20
102.8745866212
 30
0.0
 11
94.6763491056
 21
102.8745866212
 31
0.0
  0
LINE
  5
166
330
1F
100
AcDbEntity
  8
0
  6
Continuous
 62
     7
370
    50
100
AcDbLine
 10
94.6763491056
 20
102.8745866212
 30
0.0
 11
94.0514912627
 21
103.9568765852
 31
0.0
  0
LINE
  5
167
330
1F
100
AcDbEntity
  8
0
  6
Continuous
 62
     7
370
    50
100
AcDbLine
 10
98.1862133167
 20
103.9568765852
 30
0.0
 11
97.5613480232
 21
102.8745866212
 31
0.0
  0
LINE
  5
168
330
1F
100
AcDbEntity
  8
0
  6
Continuous
 62
     7
370
    50
100
AcDbLine
 10
86.1922910235
 20
103.9674103091
 30
0.0
 11
85.5613535068
 21
102.8745866212
 31
0.0
  0
LINE
  5
169
330
1F
100
AcDbEntity
  8
0
  6
Continuous
 62
     7
370
    50
100
AcDbLine
 10
85.5613535068
 20
102.8745866212
 30
0.0
 11
85.0301941655
 21
102.8745866212
 31
0.0
  0
LINE
  5
16A
330
1F
100
AcDbEntity
  8
0
  6
Continuous
 62
     7
370
    50
100
AcDbLine
 10
85.0301941655
 20
119.3715522829
 30
0.0
 11
85.5613535068
 21
119.3715522829
 31
0.0
  0
LINE
  5
16B
330
1F
100
AcDbEntity
  8
0
  6
Continuous
 62
     7
370
    50
100
AcDbLine
 10
85.5613535068
 20
119.3715522829
 30
0.0
 11
86.234260144
 21
118.2060407306
 31
0.0
  0
LINE
  5
16C
330
1F
100
AcDbEntity
  8
0
  6
Continuous
 62
     7
370
    50
100
AcDbLine
 10
94.0514912627
 20
118.2892623189
 30
0.0
 11
94.6763491056
 21
119.3715522829
 31
0.0
  0
LINE
  5
16D
330
1F
100
AcDbEntity
  8
0
  6
Continuous
 62
     7
370
    50
100
AcDbLine
 10
94.6763491056
 20
119.3715522829
 30
0.0
 11
97.5613480232
 21
119.3715522829
 31
0.0
  0
LINE
  5
16E
330
1F
100
AcDbEntity
  8
0
  6
Continuous
 62
     7
370
    50
100
AcDbLine
 10
97.5613480232
 20
119.3715522829
 30
0.0
 11
98.1862133167
 21
118.2892623189
 31
0.0
  0
LINE
  5
16F
330
1F
100
AcDbEntity
  8
0
  6
Continuous
 62
     7
370
    50
100
AcDbLine
 10
87.1188526771
 20
113.123069547
 30
0.0
 11
88.2368868015
 21
113.123069547
 31
0.0
  0
LINE
  5
170
330
1F
100
AcDbEntity
  8
0
  6
Continuous
 62
     7
370
    50
100
AcDbLine
 10
87.1188526771
 20
109.123069357
 30
0.0
 11
88.2368868015
 21
109.123069357
 31
0.0
  0
LINE
  5
171
330
1F
100
AcDbEntity
  8
0
  6
Continuous
 62
     7
370
    50
100
AcDbLine
 10
87.1188526771
 20
105.3730694409
 30
0.0
 11
87.1188526771
 21
109.123069357
 31
0.0
  0
ARC
  5
172
330
1F
100
AcDbEntity
  8
0
  6
Continuous
 62
     7
370
    50
100
AcDbCircle
 10
84.1211938254
 20
106.3408075712
 30
0.0
 40
3.149996139700793
100
AcDbArc
 50
279.0219217664
 51
342.1082960155
  0
ARC
  5
173
330
1F
100
AcDbEntity
  8
0
  6
Continuous
 62
     7
370
    50
100
AcDbCircle
 10
84.1211894163
 20
106.340810013
 30
0.0
 40
3.150000345873079
100
AcDbArc
 50
197.8917259572
 51
260.7010117307
  0
LINE
  5
174
330
1F
100
AcDbEntity
  8
0
  6
Continuous
 62
     7
370
    50
100
AcDbLine
 10
81.123526933
 20
105.3730694409
 30
0.0
 11
81.1188479683
 21
105.3730694409
 31
0.0
  0
LINE
  5
175
330
1F
100
AcDbEntity
  8
0
  6
Continuous
 62
     7
370
    50
100
AcDbLine
 10
81.1188479683
 20
105.3730694409
 30
0.0
 11
81.1188479683
 21
116.8730694632
 31
0.0
  0
LINE
  5
176
330
1F
100
AcDbEntity
  8
0
  6
Continuous
 62
     7
370
    50
100
AcDbLine
 10
81.1188479683
 20
116.8730694632
 30
0.0
 11
81.123526933
 21
116.8730694632
 31
0.0
  0
ARC
  5
177
330
1F
100
AcDbEntity
  8
0
  6
Continuous
 62
     7
370
    50
100
AcDbCircle
 10
84.1211923708
 20
115.8437499417
 30
0.0
 40
3.169463165000884
100
AcDbArc
 50
106.3530156124
 51
161.0488755549
  0
ARC
  5
178
330
1F
100
AcDbEntity
  8
0
  6
Continuous
 62
     7
370
    50
100
AcDbCircle
 10
84.1211918119
 20
115.8437531127
 30
0.0
 40
3.169457810420206
100
AcDbArc
 50
18.951097075
 51
73.9073889405
  0
LINE
  5
179
330
1F
100
AcDbEntity
  8
0
  6
Continuous
 62
     7
370
    50
100
AcDbLine
 10
87.1188526771
 20
113.123069547
 30
0.0
 11
87.1188526771
 21
116.8730694632
 31
0.0
  0
LINE
  5
17A
330
1F
100
AcDbEntity
  8
0
  6
Continuous
 62
     7
370
    50
100
AcDbLine
 10
88.2368868015
 20
109.123069357
 30
0.0
 11
91.9645091317
 21
109.123069357
 31
0.0
  0
LINE
  5
17B
330
1F
100
AcDbEntity
  8
0
  6
Continuous
 62
     7
370
    50
100
AcDbLine
 10
88.2368868015
 20
113.123069547
 30
0.0
 11
91.9645091317
 21
113.123069547
 31
0.0
  0
LINE
  5
17C
330
1F
100
AcDbEntity
  8
0
  6
Continuous
 62
     7
370
    50
100
AcDbLine
 10
99.1188509188
 20
111.3649913465
 30
0.0
 11
99.1188509188
 21
110.8811475575
 31
0.0
  0
LINE
  5
17D
330
1F
100
AcDbEntity
  8
0
  6
Continuous
 62
     7
370
    50
100
AcDbLine
 10
99.1188509188
 20
113.123069547
 30
0.0
 11
99.1188509188
 21
111.3649913465
 31
0.0
  0
LINE
  5
17E
330
1F
100
AcDbEntity
  8
0
  6
Continuous
 62
     7
370
    50
100
AcDbLine
 10
99.1188509188
 20
110.8811475575
 30
0.0
 11
99.1188509188
 21
109.123069357
 31
0.0
  0
LINE
  5
17F
330
1F
100
AcDbEntity
  8
0
  6
Continuous
 62
     7
370
    50
100
AcDbLine
 10
93.1188499353
 20
116.8730694632
 30
0.0
 11
93.1188499353
 21
113.123069547
 31
0.0
  0
LINE
  5
180
330
1F
100
AcDbEntity
  8
0
  6
Continuous
 62
     7
370
    50
100
AcDbLine
 10
93.1188499353
 20
116.8730694632
 30
0.0
 11
93.1718757174
 21
116.8730694632
 31
0.0
  0
ARC
  5
181
330
1F
100
AcDbEntity
  8
0
  6
Continuous
 62
     7
370
    50
100
AcDbCircle
 10
96.1453693294
 20
115.8334212235
 30
0.0
 40
3.150005194122197
100
AcDbArc
 50
111.2736496215
 51
160.7284011536
  0
ARC
  5
182
330
1F
100
AcDbEntity
  8
0
  6
Continuous
 62
     7
370
    50
100
AcDbCircle
 10
96.145356149
 20
115.833415098
 30
0.0
 40
3.150008308671238
100
AcDbArc
 50
19.2716970698
 51
71.6479931223
  0
LINE
  5
183
330
1F
100
AcDbEntity
  8
0
  6
Continuous
 62
     7
370
    50
100
AcDbLine
 10
99.1188509188
 20
116.8730694632
 30
0.0
 11
99.1188509188
 21
113.123069547
 31
0.0
  0
ARC
  5
184
330
1F
100
AcDbEntity
  8
0
  6
Continuous
 62
     7
370
    50
100
AcDbCircle
 10
96.145356149
 20
106.412723806
 30
0.0
 40
3.15000830867126
100
AcDbArc
 50
288.3520068777
 51
340.7283029302
  0
ARC
  5
185
330
1F
100
AcDbEntity
  8
0
  6
Continuous
 62
     7
370
    50
100
AcDbCircle
 10
96.1453693294
 20
106.4127176805
 30
0.0
 40
3.15000519412222
100
AcDbArc
 50
199.2715988464
 51
248.7263503785
  0
LINE
  5
186
330
1F
100
AcDbEntity
  8
0
  6
Continuous
 62
     7
370
    50
100
AcDbLine
 10
93.1718757174
 20
105.3730694409
 30
0.0
 11
93.1188499353
 21
105.3730694409
 31
0.0
  0
LINE
  5
187
330
1F
100
AcDbEntity
  8
0
  6
Continuous
 62
     7
370
    50
100
AcDbLine
 10
93.1188499353
 20
109.123069357
 30
0.0
 11
93.1188499353
 21
105.3730694409
 31
0.0
  0
LINE
  5
188
330
1F
100
AcDbEntity
  8
0
  6
Continuous
 62
     7
370
    50
100
AcDbLine
 10
99.1188509188
 20
109.123069357
 30
0.0
 11
99.1188509188
 21
105.3730694409
 31
0.0
  0
LINE
  5
189
330
1F
100
AcDbEntity
  8
0
  6
Continuous
 62
     7
370
    50
100
AcDbLine
 10
112.618848475
 20
113.8730694371
 30
0.0
 11
112.618848475
 21
112.073069468
 31
0.0
  0
LINE
  5
18A
330
1F
100
AcDbEntity
  8
0
  6
Continuous
 62
     7
370
    50
100
AcDbLine
 10
112.618848475
 20
112.073069468
 30
0.0
 11
112.618848475
 21
110.173069436
 31
0.0
  0
LINE
  5
18B
330
1F
100
AcDbEntity
  8
0
  6
Continuous
 62
     7
370
    50
100
AcDbLine
 10
112.618848475
 20
110.173069436
 30
0.0
 11
112.618848475
 21
108.3730694669
 31
0.0
  0
LINE
  5
18C
330
1F
100
AcDbEntity
  8
0
  6
Continuous
 62
     7
370
    50
100
AcDbLine
 10
70.6159954689
 20
108.8200451638
 30
0.0
 11
73.3618994973
 21
113.5760939511
 31
0.0
  0
LINE
  5
18D
330
1F
100
AcDbEntity
  8
0
  6
Continuous
 62
     7
370
    50
100
AcDbLine
 10
73.6217086933
 20
113.4260937403
 30
0.0
 11
70.8758046648
 21
108.6700449529
 31
0.0
  0
LINE
  5
18E
330
1F
100
AcDbEntity
  8
0
  6
Continuous
 62
     8
370
    50
100
AcDbLine
 10
85.2193122528
 20
118.8168975356
 30
0.0
 11
85.0056147001
 21
119.1730697471
 31
0.0
  0
LINE
  5
18F
330
1F
100
AcDbEntity
  8
0
  6
Continuous
 62
     8
370
    50
100
AcDbLine
 10
85.0056147001
 20
103.073069157
 30
0.0
 11
85.1879304073
 21
103.3769345674
 31
0.0
  0
DIMENSION
  5
190
330
1F
100
AcDbEntity
  8
DIM
100
AcDbDimension
  2
_D
 10
256.1321394081
 20
140.6207943869
 30
0.0
 11
171.6254948267
 21
140.6207943869
 31
0.0
 70
   160
  1
Ｌ= 500～5000　　、5000～10000
 71
     2
 42
-1.0
  3
SLDDIMSTYLE0
100
AcDbAlignedDimension
 13
87.1188502452
 23
116.873069452
 33
0.0
 14
256.1321394081
 24
121.3012694647
 34
0.0
100
AcDbRotatedDimension
  0
DIMENSION
  5
1A6
330
1F
100
AcDbEntity
  8
DIM
100
AcDbDimension
  2
_D_1
 10
87.1188502452
 20
140.6207943869
 30
0.0
 11
73.9688502452
 21
140.6207943869
 31
0.0
 70
   160
  1
(<>)
 71
     2
 42
-1.0
  3
SLDDIMSTYLE1
100
AcDbAlignedDimension
 13
60.8188502452
 23
119.373069452
 33
0.0
 14
87.1188502452
 24
116.873069452
 34
0.0
100
AcDbRotatedDimension
  0
DIMENSION
  5
1B3
330
1F
100
AcDbEntity
  8
DIM
100
AcDbDimension
  2
_D_2
 10
179.0070140551
 20
129.3430668066
 30
0.0
 11
217.5695767316
 21
129.3430668066
 31
0.0
 70
   160
  1
(80)
 71
     2
 42
-1.0
  3
SLDDIMSTYLE1
100
AcDbAlignedDimension
 13
256.1321394081
 23
121.3012694647
 33
0.0
 14
179.0070140551
 24
113.873069452
 34
0.0
100
AcDbRotatedDimension
  0
DIMENSION
  5
1BF
330
1F
100
AcDbEntity
  8
DIM
100
AcDbDimension
  2
_D_3
 10
150.6656499485
 20
108.573069452
 30
0.0
 11
150.6656499485
 21
93.6298221896
 31
0.0
 70
   160
  1
(<>)
 71
     2
 42
-1.0
  3
SLDDIMSTYLE2
100
AcDbAlignedDimension
 13
178.6070140551
 23
113.673069452
 33
0.0
 14
178.6070140551
 24
108.573069452
 34
0.0
 50
90.0
100
AcDbRotatedDimension
  0
INSERT
  5
1D1
330
1F
100
AcDbEntity
  8
NOTES
100
AcDbBlockReference
  2
SW_NOTE_0_1
 10
111.324729892
 20
124.851620798
 30
0.0
  0
LEADER
  5
1D3
330
1F
100
AcDbEntity
  8
NOTES
100
AcDbLeader
  3
SLDDIMSTYLE3
 76
     2
 10
105.4715221016
 20
113.873069452
 30
0.0
 10
111.324729892
 20
124.851620798
 30
0.0
  0
INSERT
  5
1D9
330
1F
100
AcDbEntity
  8
NOTES
100
AcDbBlockReference
  2
SW_NOTE_0_2
 10
169.7283736455
 20
124.851620798
 30
0.0
  0
LEADER
  5
1DA
330
1F
100
AcDbEntity
  8
NOTES
100
AcDbLeader
  3
SLDDIMSTYLE3
 76
     2
 10
174.6218760612
 20
113.873069452
 30
0.0
 10
169.7283736455
 20
124.851620798
 30
0.0
  0
INSERT
  5
1E0
330
1F
100
AcDbEntity
  8
NOTES
100
AcDbBlockReference
  2
SW_NOTE_0_3
 10
246.4331457949
 20
89.557503151
 30
0.0
  0
LEADER
  5
1E1
330
1F
100
AcDbEntity
  8
NOTES
100
AcDbLeader
  3
SLDDIMSTYLE3
 76
     2
 10
253.6486575103
 20
102.1449826358
 30
0.0
 10
246.4331457949
 20
89.557503151
 30
0.0
  0
INSERT
  5
1E7
330
1F
100
AcDbEntity
  8
NOTES
100
AcDbBlockReference
  2
SW_NOTE_0_4
 10
69.7881152461
 20
89.7975991894
 30
0.0
  0
LEADER
  5
1E8
330
1F
100
AcDbEntity
  8
NOTES
100
AcDbLeader
  3
SLDDIMSTYLE3
 76
     2
 10
64.1016908094
 20
103.073069452
 30
0.0
 10
69.7881152461
 20
89.7975991894
 30
0.0
  0
INSERT
  5
1EE
330
1F
100
AcDbEntity
  8
NOTES
100
AcDbBlockReference
  2
SW_NOTE_0_5
 10
104.1218487395
 20
89.4374551317
 30
0.0
  0
LEADER
  5
1EF
330
1F
100
AcDbEntity
  8
NOTES
100
AcDbLeader
  3
SLDDIMSTYLE3
 76
     2
 10
97.4436365567
 20
103.4756645375
 30
0.0
 10
104.1218487395
 20
89.4374551317
 30
0.0
  0
INSERT
  5
1F5
330
1F
100
AcDbEntity
  8
NOTES
100
AcDbBlockReference
  2
SW_NOTE_0_6
 10
165.5864345738
 20
89.557503151
 30
0.0
  0
LEADER
  5
1F6
330
1F
100
AcDbEntity
  8
NOTES
100
AcDbLeader
  3
SLDDIMSTYLE3
 76
     2
 10
156.911676403
 20
108.573069452
 30
0.0
 10
165.5864345738
 20
89.557503151
 30
0.0
  0
INSERT
  5
202
330
1F
100
AcDbEntity
  8
CENTER
100
AcDbBlockReference
  2
SW_CENTERMARKSYMBOL_0
 10
256.1321373239
 20
117.2011562455
 30
0.0
  0
INSERT
  5
20E
330
1F
100
AcDbEntity
  8
CENTER
100
AcDbBlockReference
  2
SW_CENTERMARKSYMBOL_1
 10
256.1321373239
 20
105.0449826586
 30
0.0
  0
ARC
  5
20F
330
1F
100
AcDbEntity
  8
0
  6
HIDDEN
 62
     7
370
    18
100
AcDbCircle
 10
146.3764162437
 20
113.985569452
 30
0.0
 40
7.442500000000009
100
AcDbArc
 50
157.380135052
 51
202.619864948
  0
ARC
  5
210
330
1F
100
AcDbEntity
  8
0
  6
HIDDEN
 62
     7
370
    18
100
AcDbCircle
 10
132.6364162437
 20
108.260569452
 30
0.0
 40
7.442500000000003
100
AcDbArc
 50
337.380135052
 51
22.619864948
  0
ARC
  5
211
330
1F
100
AcDbEntity
  8
0
  6
HIDDEN
 62
     7
370
    18
100
AcDbCircle
 10
151.3764162437
 20
113.985569452
 30
0.0
 40
7.442500000000009
100
AcDbArc
 50
157.380135052
 51
202.619864948
  0
ARC
  5
212
330
1F
100
AcDbEntity
  8
0
  6
HIDDEN
 62
     7
370
    18
100
AcDbCircle
 10
137.6364162437
 20
108.260569452
 30
0.0
 40
7.442500000000003
100
AcDbArc
 50
337.380135052
 51
22.619864948
  0
ARC
  5
213
330
1F
100
AcDbEntity
  8
0
  6
HIDDEN
 62
     7
370
    18
100
AcDbCircle
 10
236.8192729654
 20
115.3722234657
 30
0.0
 40
11.04780043549648
100
AcDbArc
 50
157.380135052
 51
202.619864948
  0
ARC
  5
214
330
1F
100
AcDbEntity
  8
0
  6
HIDDEN
 62
     7
370
    18
100
AcDbCircle
 10
216.4233336999
 20
106.8739154384
 30
0.0
 40
11.04780043549648
100
AcDbArc
 50
337.380135052
 51
22.619864948
  0
ARC
  5
215
330
1F
100
AcDbEntity
  8
0
  6
HIDDEN
 62
     7
370
    18
100
AcDbCircle
 10
242.9064954982
 20
115.8252328543
 30
0.0
 40
12.22562484597898
100
AcDbArc
 50
157.380135052
 51
202.619864948
  0
ARC
  5
216
330
1F
100
AcDbEntity
  8
0
  6
HIDDEN
 62
     7
370
    18
100
AcDbCircle
 10
220.3361111671
 20
106.4209060497
 30
0.0
 40
12.22562484597897
100
AcDbArc
 50
337.380135052
 51
22.619864948
  0
LINE
  5
217
330
1F
100
AcDbEntity
  8
CENTER
  6
CENTERX2
370
    18
100
AcDbLine
 10
34.3891417406
 20
111.123069452
 30
0.0
 11
139.5064161888
 21
111.123069452
 31
0.0
  0
LINE
  5
218
330
1F
100
AcDbEntity
  8
CENTER
  6
CENTERX2
370
    18
100
AcDbLine
 10
144.5064171086
 20
111.123069452
 30
0.0
 11
226.6213036011
 21
111.123069452
 31
0.0
  0
LINE
  5
219
330
1F
100
AcDbEntity
  8
CENTER
  6
CENTERX2
370
    18
100
AcDbLine
 10
231.6213066831
 20
111.123069452
 30
0.0
 11
257.1299041763
 21
111.123069452
 31
0.0
  0
LINE
  5
21A
330
1F
100
AcDbEntity
  8
0
  6
Continuous
 62
     7
370
    50
100
AcDbLine
 10
46.8422109317
 20
119.073069452
 30
0.0
 11
45.3422109317
 21
119.073069452
 31
0.0
  0
LINE
  5
21B
330
1F
100
AcDbEntity
  8
0
  6
Continuous
 62
     7
370
    50
100
AcDbLine
 10
45.3422109317
 20
114.673069452
 30
0.0
 11
46.8422109317
 21
114.673069452
 31
0.0
  0
LINE
  5
21C
330
1F
100
AcDbEntity
  8
0
  6
Continuous
 62
     7
370
    50
100
AcDbLine
 10
35.2422109317
 20
118.023069452
 30
0.0
 11
33.8422109317
 21
118.023069452
 31
0.0
  0
LINE
  5
21D
330
1F
100
AcDbEntity
  8
0
  6
Continuous
 62
     7
370
    50
100
AcDbLine
 10
33.8422109317
 20
115.723069452
 30
0.0
 11
35.2422109317
 21
115.723069452
 31
0.0
  0
LINE
  5
21E
330
1F
100
AcDbEntity
  8
0
  6
Continuous
 62
     7
370
    50
100
AcDbLine
 10
46.8422109317
 20
107.573069452
 30
0.0
 11
45.3422109317
 21
107.573069452
 31
0.0
  0
LINE
  5
21F
330
1F
100
AcDbEntity
  8
0
  6
Continuous
 62
     7
370
    50
100
AcDbLine
 10
45.3422109317
 20
103.173069452
 30
0.0
 11
46.8422109317
 21
103.173069452
 31
0.0
  0
LINE
  5
220
330
1F
100
AcDbEntity
  8
0
  6
Continuous
 62
     7
370
    50
100
AcDbLine
 10
35.2422109317
 20
106.523069452
 30
0.0
 11
33.8422109317
 21
106.523069452
 31
0.0
  0
LINE
  5
221
330
1F
100
AcDbEntity
  8
0
  6
Continuous
 62
     7
370
    50
100
AcDbLine
 10
33.8422109317
 20
104.223069452
 30
0.0
 11
35.2422109317
 21
104.223069452
 31
0.0
  0
LINE
  5
222
330
1F
100
AcDbEntity
  8
0
  6
Continuous
 62
     7
370
    50
100
AcDbLine
 10
45.3422109317
 20
119.0132122227
 30
0.0
 11
44.8422109317
 21
119.0132122227
 31
0.0
  0
LINE
  5
223
330
1F
100
AcDbEntity
  8
0
  6
Continuous
 62
     7
370
    50
100
AcDbLine
 10
44.8422109317
 20
103.190810116
 30
0.0
 11
45.3422109317
 21
103.190810116
 31
0.0
  0
LINE
  5
224
330
1F
100
AcDbEntity
  8
0
  6
Continuous
 62
     7
370
    50
100
AcDbLine
 10
44.6422109317
 20
119.173069452
 30
0.0
 11
37.0422109317
 21
119.173069452
 31
0.0
  0
LINE
  5
225
330
1F
100
AcDbEntity
  8
0
  6
Continuous
 62
     7
370
    50
100
AcDbLine
 10
37.0422109317
 20
119.173069452
 30
0.0
 11
37.0422109317
 21
119.373069452
 31
0.0
  0
LINE
  5
226
330
1F
100
AcDbEntity
  8
0
  6
Continuous
 62
     7
370
    50
100
AcDbLine
 10
37.0422109317
 20
119.373069452
 30
0.0
 11
44.6422109317
 21
119.373069452
 31
0.0
  0
LINE
  5
227
330
1F
100
AcDbEntity
  8
0
  6
Continuous
 62
     7
370
    50
100
AcDbLine
 10
44.6422109317
 20
119.173069452
 30
0.0
 11
44.6422109317
 21
119.373069452
 31
0.0
  0
LINE
  5
228
330
1F
100
AcDbEntity
  8
0
  6
Continuous
 62
     7
370
    50
100
AcDbLine
 10
36.8422109317
 20
103.073069452
 30
0.0
 11
36.8422109317
 21
119.173069452
 31
0.0
  0
LINE
  5
229
330
1F
100
AcDbEntity
  8
0
  6
Continuous
 62
     7
370
    50
100
AcDbLine
 10
36.8422109317
 20
119.173069452
 30
0.0
 11
37.0422109317
 21
119.173069452
 31
0.0
  0
LINE
  5
22A
330
1F
100
AcDbEntity
  8
0
  6
Continuous
 62
     7
370
    50
100
AcDbLine
 10
37.0422109317
 20
119.173069452
 30
0.0
 11
37.0422109317
 21
103.073069452
 31
0.0
  0
LINE
  5
22B
330
1F
100
AcDbEntity
  8
0
  6
Continuous
 62
     7
370
    50
100
AcDbLine
 10
36.8422109317
 20
103.073069452
 30
0.0
 11
37.0422109317
 21
103.073069452
 31
0.0
  0
LINE
  5
22C
330
1F
100
AcDbEntity
  8
0
  6
Continuous
 62
     7
370
    50
100
AcDbLine
 10
37.0422109317
 20
103.073069452
 30
0.0
 11
44.6422109317
 21
103.073069452
 31
0.0
  0
LINE
  5
22D
330
1F
100
AcDbEntity
  8
0
  6
Continuous
 62
     7
370
    50
100
AcDbLine
 10
44.6422109317
 20
103.073069452
 30
0.0
 11
44.6422109317
 21
119.173069452
 31
0.0
  0
LINE
  5
22E
330
1F
100
AcDbEntity
  8
0
  6
Continuous
 62
     7
370
    50
100
AcDbLine
 10
41.2422109317
 20
106.323069452
 30
0.0
 11
41.2422109317
 21
108.623069452
 31
0.0
  0
LINE
  5
22F
330
1F
100
AcDbEntity
  8
0
  6
Continuous
 62
     7
370
    50
100
AcDbLine
 10
41.2422109317
 20
108.623069452
 30
0.0
 11
40.4422109317
 21
108.623069452
 31
0.0
  0
LINE
  5
230
330
1F
100
AcDbEntity
  8
0
  6
Continuous
 62
     7
370
    50
100
AcDbLine
 10
40.4422109317
 20
108.623069452
 30
0.0
 11
40.4422109317
 21
106.323069452
 31
0.0
  0
LINE
  5
231
330
1F
100
AcDbEntity
  8
0
  6
Continuous
 62
     7
370
    50
100
AcDbLine
 10
40.4422109317
 20
106.323069452
 30
0.0
 11
41.2422109317
 21
106.323069452
 31
0.0
  0
LINE
  5
232
330
1F
100
AcDbEntity
  8
0
  6
Continuous
 62
     7
370
    50
100
AcDbLine
 10
41.2422109317
 20
113.623069452
 30
0.0
 11
41.2422109317
 21
116.623069452
 31
0.0
  0
LINE
  5
233
330
1F
100
AcDbEntity
  8
0
  6
Continuous
 62
     7
370
    50
100
AcDbLine
 10
41.2422109317
 20
116.623069452
 30
0.0
 11
40.4422109317
 21
116.623069452
 31
0.0
  0
LINE
  5
234
330
1F
100
AcDbEntity
  8
0
  6
Continuous
 62
     7
370
    50
100
AcDbLine
 10
40.4422109317
 20
116.623069452
 30
0.0
 11
40.4422109317
 21
113.623069452
 31
0.0
  0
LINE
  5
235
330
1F
100
AcDbEntity
  8
0
  6
Continuous
 62
     7
370
    50
100
AcDbLine
 10
40.4422109317
 20
113.623069452
 30
0.0
 11
41.2422109317
 21
113.623069452
 31
0.0
  0
LINE
  5
236
330
1F
100
AcDbEntity
  8
0
  6
Continuous
 62
     7
370
    50
100
AcDbLine
 10
44.6422109317
 20
102.873069452
 30
0.0
 11
37.0422109317
 21
102.873069452
 31
0.0
  0
LINE
  5
237
330
1F
100
AcDbEntity
  8
0
  6
Continuous
 62
     7
370
    50
100
AcDbLine
 10
37.0422109317
 20
102.873069452
 30
0.0
 11
37.0422109317
 21
103.073069452
 31
0.0
  0
LINE
  5
238
330
1F
100
AcDbEntity
  8
0
  6
Continuous
 62
     7
370
    50
100
AcDbLine
 10
44.6422109317
 20
102.873069452
 30
0.0
 11
44.6422109317
 21
103.073069452
 31
0.0
  0
ARC
  5
239
330
1F
100
AcDbEntity
  8
0
  6
Continuous
 62
     7
370
    50
100
AcDbCircle
 10
37.0422109317
 20
119.173069452
 30
0.0
 40
0.1999999999999957
100
AcDbArc
 50
90.0
 51
180.0
  0
ARC
  5
23A
330
1F
100
AcDbEntity
  8
0
  6
Continuous
 62
     7
370
    50
100
AcDbCircle
 10
44.6422109317
 20
119.173069452
 30
0.0
 40
0.2000000000000028
100
AcDbArc
 50
0.0
 51
90.0
  0
LINE
  5
23B
330
1F
100
AcDbEntity
  8
0
  6
Continuous
 62
     7
370
    50
100
AcDbLine
 10
44.6422109317
 20
119.173069452
 30
0.0
 11
44.8422109317
 21
119.173069452
 31
0.0
  0
LINE
  5
23C
330
1F
100
AcDbEntity
  8
0
  6
Continuous
 62
     7
370
    50
100
AcDbLine
 10
44.8422109317
 20
119.173069452
 30
0.0
 11
44.8422109317
 21
103.073069452
 31
0.0
  0
LINE
  5
23D
330
1F
100
AcDbEntity
  8
0
  6
Continuous
 62
     7
370
    50
100
AcDbLine
 10
44.6422109317
 20
103.073069452
 30
0.0
 11
44.8422109317
 21
103.073069452
 31
0.0
  0
ARC
  5
23E
330
1F
100
AcDbEntity
  8
0
  6
Continuous
 62
     7
370
    50
100
AcDbCircle
 10
37.0422109317
 20
103.073069452
 30
0.0
 40
0.1999999999999957
100
AcDbArc
 50
180.0
 51
270.0
  0
ARC
  5
23F
330
1F
100
AcDbEntity
  8
0
  6
Continuous
 62
     7
370
    50
100
AcDbCircle
 10
44.6422109317
 20
103.073069452
 30
0.0
 40
0.2000000000000028
100
AcDbArc
 50
270.0
 51
0.0
  0
LINE
  5
240
330
1F
100
AcDbEntity
  8
0
  6
Continuous
 62
     7
370
    50
100
AcDbLine
 10
45.3422109317
 20
119.073069452
 30
0.0
 11
45.3422109317
 21
118.8849930944
 31
0.0
  0
LINE
  5
241
330
1F
100
AcDbEntity
  8
0
  6
Continuous
 62
     7
370
    50
100
AcDbLine
 10
46.3422109317
 20
115.0472472615
 30
0.0
 11
46.8422109317
 21
115.0472472615
 31
0.0
  0
LINE
  5
242
330
1F
100
AcDbEntity
  8
0
  6
Continuous
 62
     7
370
    50
100
AcDbLine
 10
46.3422109317
 20
115.0472472615
 30
0.0
 11
46.3422109317
 21
114.8972472615
 31
0.0
  0
LINE
  5
243
330
1F
100
AcDbEntity
  8
0
  6
Continuous
 62
     7
370
    50
100
AcDbLine
 10
46.8422109317
 20
114.8972472615
 30
0.0
 11
46.3422109317
 21
114.8972472615
 31
0.0
  0
LINE
  5
244
330
1F
100
AcDbEntity
  8
0
  6
Continuous
 62
     7
370
    50
100
AcDbLine
 10
46.8422109317
 20
114.8972472615
 30
0.0
 11
46.8422109317
 21
114.673069452
 31
0.0
  0
LINE
  5
245
330
1F
100
AcDbEntity
  8
0
  6
Continuous
 62
     7
370
    50
100
AcDbLine
 10
46.8422109317
 20
119.073069452
 30
0.0
 11
46.8422109317
 21
115.0472472615
 31
0.0
  0
LINE
  5
246
330
1F
100
AcDbEntity
  8
0
  6
Continuous
 62
     7
370
    50
100
AcDbLine
 10
33.8422109317
 20
117.448069452
 30
0.0
 11
33.8422109317
 21
115.723069452
 31
0.0
  0
LINE
  5
247
330
1F
100
AcDbEntity
  8
0
  6
Continuous
 62
     7
370
    50
100
AcDbLine
 10
33.8422109317
 20
118.023069452
 30
0.0
 11
33.8422109317
 21
117.448069452
 31
0.0
  0
LINE
  5
248
330
1F
100
AcDbEntity
  8
0
  6
Continuous
 62
     7
370
    50
100
AcDbLine
 10
46.8422109317
 20
114.8972472615
 30
0.0
 11
46.8422109317
 21
115.0472472615
 31
0.0
  0
LINE
  5
249
330
1F
100
AcDbEntity
  8
0
  6
Continuous
 62
     7
370
    50
100
AcDbLine
 10
45.3422109317
 20
103.2322048221
 30
0.0
 11
45.3422109317
 21
103.173069452
 31
0.0
  0
LINE
  5
24A
330
1F
100
AcDbEntity
  8
0
  6
Continuous
 62
     7
370
    50
100
AcDbLine
 10
46.3422109317
 20
103.5472472615
 30
0.0
 11
46.8422109317
 21
103.5472472615
 31
0.0
  0
LINE
  5
24B
330
1F
100
AcDbEntity
  8
0
  6
Continuous
 62
     7
370
    50
100
AcDbLine
 10
46.3422109317
 20
103.5472472615
 30
0.0
 11
46.3422109317
 21
103.3972472615
 31
0.0
  0
LINE
  5
24C
330
1F
100
AcDbEntity
  8
0
  6
Continuous
 62
     7
370
    50
100
AcDbLine
 10
46.8422109317
 20
103.3972472615
 30
0.0
 11
46.3422109317
 21
103.3972472615
 31
0.0
  0
LINE
  5
24D
330
1F
100
AcDbEntity
  8
0
  6
Continuous
 62
     7
370
    50
100
AcDbLine
 10
46.8422109317
 20
103.3972472615
 30
0.0
 11
46.8422109317
 21
103.173069452
 31
0.0
  0
LINE
  5
24E
330
1F
100
AcDbEntity
  8
0
  6
Continuous
 62
     7
370
    50
100
AcDbLine
 10
46.8422109317
 20
107.573069452
 30
0.0
 11
46.8422109317
 21
103.5472472615
 31
0.0
  0
LINE
  5
24F
330
1F
100
AcDbEntity
  8
0
  6
Continuous
 62
     7
370
    50
100
AcDbLine
 10
33.8422109317
 20
105.948069452
 30
0.0
 11
33.8422109317
 21
104.223069452
 31
0.0
  0
LINE
  5
250
330
1F
100
AcDbEntity
  8
0
  6
Continuous
 62
     7
370
    50
100
AcDbLine
 10
33.8422109317
 20
106.523069452
 30
0.0
 11
33.8422109317
 21
105.948069452
 31
0.0
  0
LINE
  5
251
330
1F
100
AcDbEntity
  8
0
  6
Continuous
 62
     7
370
    50
100
AcDbLine
 10
46.8422109317
 20
103.3972472615
 30
0.0
 11
46.8422109317
 21
103.5472472615
 31
0.0
  0
LINE
  5
252
330
1F
100
AcDbEntity
  8
0
  6
Continuous
 62
     7
370
    50
100
AcDbLine
 10
35.4644907853
 20
119.371552742
 30
0.0
 11
36.8422109317
 21
119.371552742
 31
0.0
  0
LINE
  5
253
330
1F
100
AcDbEntity
  8
0
  6
Continuous
 62
     7
370
    50
100
AcDbLine
 10
36.8422109317
 20
119.173069452
 30
0.0
 11
36.8422109317
 21
119.371552742
 31
0.0
  0
LINE
  5
254
330
1F
100
AcDbEntity
  8
0
  6
Continuous
 62
     7
370
    50
100
AcDbLine
 10
35.4644907853
 20
116.873069452
 30
0.0
 11
36.8422109317
 21
116.873069452
 31
0.0
  0
SPLINE
  5
255
330
1F
100
AcDbEntity
  8
0
  6
Continuous
 62
     7
370
    50
100
AcDbSpline
210
0.0
220
0.0
230
1.0
 70
     8
 71
     3
 72
     9
 73
     5
 74
     0
 42
0.00000001
 43
0.00000001
 40
0.0
 40
0.0
 40
0.0
 40
0.0
 40
0.3030268800296565
 40
1.0
 40
1.0
 40
1.0
 40
1.0
 10
35.24221093170714
 20
118.0469059413335
 30
0.0
 10
35.24872688675238
 20
117.9264545208629
 30
0.0
 10
35.27022978129625
 20
117.5289603432543
 30
0.0
 10
35.38470478491463
 20
117.1424539905596
 30
0.0
 10
35.46449078534515
 20
116.8730694520337
 30
0.0
  0
LINE
  5
256
330
1F
100
AcDbEntity
  8
0
  6
Continuous
 62
     7
370
    50
100
AcDbLine
 10
35.2422109317
 20
118.1977162527
 30
0.0
 11
35.2422109317
 21
118.0469059413
 31
0.0
  0
SPLINE
  5
257
330
1F
100
AcDbEntity
  8
0
  6
Continuous
 62
     7
370
    50
100
AcDbSpline
210
0.0
220
0.0
230
1.0
 70
     8
 71
     3
 72
     9
 73
     5
 74
     0
 42
0.00000001
 43
0.00000001
 40
0.0
 40
0.0
 40
0.0
 40
0.0
 40
0.2034566746525091
 40
1.0
 40
1.0
 40
1.0
 40
1.0
 10
35.46449078534514
 20
119.3715527419518
 30
0.0
 10
35.43924275283976
 20
119.2937242966547
 30
0.0
 10
35.31514737701337
 20
118.9111934928364
 30
0.0
 10
35.27454916583908
 20
118.5140545927509
 30
0.0
 10
35.24221093170713
 20
118.1977162526519
 30
0.0
  0
SPLINE
  5
258
330
1F
100
AcDbEntity
  8
0
  6
Continuous
 62
     7
370
    50
100
AcDbSpline
210
0.0
220
0.0
230
1.0
 70
     8
 71
     3
 72
     9
 73
     5
 74
     0
 42
0.00000001
 43
0.00000001
 40
0.0
 40
0.0
 40
0.0
 40
0.0
 40
0.3768194360633371
 40
1.0
 40
1.0
 40
1.0
 40
1.0
 10
35.46449078534515
 20
116.8730694520337
 30
0.0
 10
35.41883226224001
 20
116.7283980989754
 30
0.0
 10
35.29766408794907
 20
116.3444705750406
 30
0.0
 10
35.26350081771655
 20
115.9469561970087
 30
0.0
 10
35.24221093170714
 20
115.6992329627339
 30
0.0
  0
LINE
  5
259
330
1F
100
AcDbEntity
  8
0
  6
Continuous
 62
     7
370
    50
100
AcDbLine
 10
35.2422109317
 20
118.0469059413
 30
0.0
 11
35.2422109317
 21
115.6992329627
 31
0.0
  0
LINE
  5
25A
330
1F
100
AcDbEntity
  8
0
  6
Continuous
 62
     7
370
    50
100
AcDbLine
 10
35.4644907853
 20
114.3745861621
 30
0.0
 11
36.8422109317
 21
114.3745861621
 31
0.0
  0
SPLINE
  5
25B
330
1F
100
AcDbEntity
  8
0
  6
Continuous
 62
     7
370
    50
100
AcDbSpline
210
0.0
220
0.0
230
1.0
 70
     8
 71
     3
 72
     9
 73
     5
 74
     0
 42
0.00000001
 43
0.00000001
 40
0.0
 40
0.0
 40
0.0
 40
0.0
 40
0.4858138229881823
 40
1.0
 40
1.0
 40
1.0
 40
1.0
 10
35.24221093170713
 20
115.5484226514153
 30
0.0
 10
35.25621651402295
 20
115.3552476311221
 30
0.0
 10
35.28504562849659
 20
114.9576158406042
 30
0.0
 10
35.40355493704323
 20
114.5725709317679
 30
0.0
 10
35.46449078534514
 20
114.3745861621155
 30
0.0
  0
LINE
  5
25C
330
1F
100
AcDbEntity
  8
0
  6
Continuous
 62
     7
370
    50
100
AcDbLine
 10
35.2422109317
 20
115.6992329627
 30
0.0
 11
35.2422109317
 21
115.5484226514
 31
0.0
  0
SPLINE
  5
25D
330
1F
100
AcDbEntity
  8
0
  6
Continuous
 62
     7
370
    50
100
AcDbSpline
210
0.0
220
0.0
230
1.0
 70
    24
 71
     3
 72
     9
 73
     5
 74
     0
 42
0.00000001
 43
0.00000001
 40
0.0
 40
0.0
 40
0.0
 40
0.0
 40
0.3030268800296517
 40
0.9999999999999999
 40
0.9999999999999999
 40
0.9999999999999999
 40
0.9999999999999999
 10
35.24221093170713
 20
119.3715527419517
 30
0.0
 10
35.24872688675237
 20
119.3715527419517
 30
0.0
 10
35.27022978129625
 20
119.3715527419517
 30
0.0
 10
35.38470478491463
 20
119.3715527419518
 30
0.0
 10
35.46449078534514
 20
119.3715527419518
 30
0.0
  0
LINE
  5
25E
330
1F
100
AcDbEntity
  8
0
  6
Continuous
 62
     7
370
    50
100
AcDbLine
 10
35.2422109317
 20
119.371552742
 30
0.0
 11
35.2422109317
 21
118.1977162527
 31
0.0
  0
SPLINE
  5
25F
330
1F
100
AcDbEntity
  8
0
  6
Continuous
 62
     7
370
    50
100
AcDbSpline
210
0.0
220
0.0
230
1.0
 70
    24
 71
     3
 72
     9
 73
     5
 74
     0
 42
0.00000001
 43
0.00000001
 40
0.0
 40
0.0
 40
0.0
 40
0.0
 40
0.2034566746524881
 40
1.0
 40
1.0
 40
1.0
 40
1.0
 10
35.46449078534514
 20
114.3745861621155
 30
0.0
 10
35.43924275283976
 20
114.3745861621155
 30
0.0
 10
35.31514737701337
 20
114.3745861621156
 30
0.0
 10
35.27454916583908
 20
114.3745861621155
 30
0.0
 10
35.24221093170713
 20
114.3745861621155
 30
0.0
  0
LINE
  5
260
330
1F
100
AcDbEntity
  8
0
  6
Continuous
 62
     7
370
    50
100
AcDbLine
 10
35.2422109317
 20
115.5484226514
 30
0.0
 11
35.2422109317
 21
114.3745861621
 31
0.0
  0
LINE
  5
261
330
1F
100
AcDbEntity
  8
0
  6
Continuous
 62
     7
370
    50
100
AcDbLine
 10
35.4644907853
 20
105.373069452
 30
0.0
 11
36.8422109317
 21
105.373069452
 31
0.0
  0
LINE
  5
262
330
1F
100
AcDbEntity
  8
0
  6
Continuous
 62
     7
370
    50
100
AcDbLine
 10
36.8422109317
 20
102.8745861621
 30
0.0
 11
36.8422109317
 21
103.073069452
 31
0.0
  0
LINE
  5
263
330
1F
100
AcDbEntity
  8
0
  6
Continuous
 62
     7
370
    50
100
AcDbLine
 10
35.4644907853
 20
102.8745861621
 30
0.0
 11
36.8422109317
 21
102.8745861621
 31
0.0
  0
SPLINE
  5
264
330
1F
100
AcDbEntity
  8
0
  6
Continuous
 62
     7
370
    50
100
AcDbSpline
210
0.0
220
0.0
230
1.0
 70
     8
 71
     3
 72
     9
 73
     5
 74
     0
 42
0.00000001
 43
0.00000001
 40
0.0
 40
0.0
 40
0.0
 40
0.0
 40
0.3030268800295332
 40
1.0
 40
1.0
 40
1.0
 40
1.0
 10
35.24221093170713
 20
104.0484226514092
 30
0.0
 10
35.24872688675237
 20
103.9279712309386
 30
0.0
 10
35.27022978129626
 20
103.5304770533301
 30
0.0
 10
35.38470478491463
 20
103.1439707006355
 30
0.0
 10
35.46449078534513
 20
102.8745861621095
 30
0.0
  0
LINE
  5
265
330
1F
100
AcDbEntity
  8
0
  6
Continuous
 62
     7
370
    50
100
AcDbLine
 10
35.2422109317
 20
104.1992329627
 30
0.0
 11
35.2422109317
 21
104.0484226514
 31
0.0
  0
SPLINE
  5
266
330
1F
100
AcDbEntity
  8
0
  6
Continuous
 62
     7
370
    50
100
AcDbSpline
210
0.0
220
0.0
230
1.0
 70
     8
 71
     3
 72
     9
 73
     5
 74
     0
 42
0.00000001
 43
0.00000001
 40
0.0
 40
0.0
 40
0.0
 40
0.0
 40
0.2034566746524898
 40
1.0
 40
1.0
 40
1.0
 40
1.0
 10
35.46449078534514
 20
105.3730694520276
 30
0.0
 10
35.43924275283976
 20
105.2952410067306
 30
0.0
 10
35.31514737701337
 20
104.9127102029123
 30
0.0
 10
35.27454916583908
 20
104.5155713028268
 30
0.0
 10
35.24221093170713
 20
104.1992329627279
 30
0.0
  0
SPLINE
  5
267
330
1F
100
AcDbEntity
  8
0
  6
Continuous
 62
     7
370
    50
100
AcDbSpline
210
0.0
220
0.0
230
1.0
 70
     8
 71
     3
 72
     9
 73
     5
 74
     0
 42
0.00000001
 43
0.00000001
 40
0.0
 40
0.0
 40
0.0
 40
0.0
 40
0.485813822988181
 40
1.0
 40
1.0
 40
1.0
 40
1.0
 10
35.24221093170713
 20
106.5469059413273
 30
0.0
 10
35.25621651402295
 20
106.3537309210342
 30
0.0
 10
35.28504562849659
 20
105.9560991305163
 30
0.0
 10
35.40355493704323
 20
105.57105422168
 30
0.0
 10
35.46449078534514
 20
105.3730694520276
 30
0.0
  0
LINE
  5
268
330
1F
100
AcDbEntity
  8
0
  6
Continuous
 62
     7
370
    50
100
AcDbLine
 10
35.2422109317
 20
106.5469059413
 30
0.0
 11
35.2422109317
 21
104.1992329627
 31
0.0
  0
LINE
  5
269
330
1F
100
AcDbEntity
  8
0
  6
Continuous
 62
     7
370
    50
100
AcDbLine
 10
35.4644907853
 20
107.8715527419
 30
0.0
 11
36.8422109317
 21
107.8715527419
 31
0.0
  0
SPLINE
  5
26A
330
1F
100
AcDbEntity
  8
0
  6
Continuous
 62
     7
370
    50
100
AcDbSpline
210
0.0
220
0.0
230
1.0
 70
     8
 71
     3
 72
     9
 73
     5
 74
     0
 42
0.00000001
 43
0.00000001
 40
0.0
 40
0.0
 40
0.0
 40
0.0
 40
0.3768194360633384
 40
1.0
 40
1.0
 40
1.0
 40
1.0
 10
35.46449078534513
 20
107.8715527419457
 30
0.0
 10
35.41883226224
 20
107.7268813888874
 30
0.0
 10
35.29766408794906
 20
107.3429538649526
 30
0.0
 10
35.26350081771655
 20
106.9454394869208
 30
0.0
 10
35.24221093170713
 20
106.697716252646
 30
0.0
  0
LINE
  5
26B
330
1F
100
AcDbEntity
  8
0
  6
Continuous
 62
     7
370
    50
100
AcDbLine
 10
35.2422109317
 20
106.6977162526
 30
0.0
 11
35.2422109317
 21
106.5469059413
 31
0.0
  0
SPLINE
  5
26C
330
1F
100
AcDbEntity
  8
0
  6
Continuous
 62
     7
370
    50
100
AcDbSpline
210
0.0
220
0.0
230
1.0
 70
    24
 71
     3
 72
     9
 73
     5
 74
     0
 42
0.00000001
 43
0.00000001
 40
0.0
 40
0.0
 40
0.0
 40
0.0
 40
0.2034566746525013
 40
1.0
 40
1.0
 40
1.0
 40
1.0
 10
35.46449078534513
 20
102.8745861621095
 30
0.0
 10
35.43924275283975
 20
102.8745861621095
 30
0.0
 10
35.31514737701337
 20
102.8745861621095
 30
0.0
 10
35.27454916583907
 20
102.8745861621095
 30
0.0
 10
35.24221093170713
 20
102.8745861621095
 30
0.0
  0
LINE
  5
26D
330
1F
100
AcDbEntity
  8
0
  6
Continuous
 62
     7
370
    50
100
AcDbLine
 10
35.2422109317
 20
104.0484226514
 30
0.0
 11
35.2422109317
 21
102.8745861621
 31
0.0
  0
SPLINE
  5
26E
330
1F
100
AcDbEntity
  8
0
  6
Continuous
 62
     7
370
    50
100
AcDbSpline
210
0.0
220
0.0
230
1.0
 70
    24
 71
     3
 72
     9
 73
     5
 74
     0
 42
0.00000001
 43
0.00000001
 40
0.0
 40
0.0
 40
0.0
 40
0.0
 40
0.3030268800296559
 40
0.9999999999999999
 40
0.9999999999999999
 40
0.9999999999999999
 40
0.9999999999999999
 10
35.24221093170713
 20
107.8715527419457
 30
0.0
 10
35.24872688675237
 20
107.8715527419457
 30
0.0
 10
35.27022978129624
 20
107.8715527419457
 30
0.0
 10
35.38470478491463
 20
107.8715527419457
 30
0.0
 10
35.46449078534513
 20
107.8715527419457
 30
0.0
  0
LINE
  5
26F
330
1F
100
AcDbEntity
  8
0
  6
Continuous
 62
     7
370
    50
100
AcDbLine
 10
35.2422109317
 20
107.8715527419
 30
0.0
 11
35.2422109317
 21
106.6977162526
 31
0.0
  0
LINE
  5
270
330
1F
100
AcDbEntity
  8
0
  6
Continuous
 62
     7
370
    50
100
AcDbLine
 10
45.3422109317
 20
105.373069452
 30
0.0
 11
45.3422109317
 21
116.873069452
 31
0.0
  0
LINE
  5
271
330
1F
100
AcDbEntity
  8
0
  6
Continuous
 62
     7
370
    50
100
AcDbLine
 10
45.3422109317
 20
105.373069452
 30
0.0
 11
44.8422109317
 21
105.373069452
 31
0.0
  0
LINE
  5
272
330
1F
100
AcDbEntity
  8
0
  6
Continuous
 62
     7
370
    50
100
AcDbLine
 10
44.8422109317
 20
116.873069452
 30
0.0
 11
45.3422109317
 21
116.873069452
 31
0.0
  0
LINE
  5
273
330
1F
100
AcDbEntity
  8
0
  6
Continuous
 62
     7
370
    50
100
AcDbLine
 10
45.3422109317
 20
116.873069452
 30
0.0
 11
45.3422109317
 21
118.8849930944
 31
0.0
  0
LINE
  5
274
330
1F
100
AcDbEntity
  8
0
  6
Continuous
 62
     7
370
    50
100
AcDbLine
 10
45.3422109317
 20
103.2322048221
 30
0.0
 11
45.3422109317
 21
105.373069452
 31
0.0
  0
LWPOLYLINE
  5
275
330
1F
100
AcDbEntity
  8
0
  6
Continuous
 62
     7
370
    50
100
AcDbPolyline
 90
        3
 70
   128
 43
0.0
 10
40.7226368325
 20
102.873069452
 10
41.310253308
 20
102.7949826358
 10
41.8978697836
 20
102.873069452
  0
LWPOLYLINE
  5
276
330
1F
100
AcDbEntity
  8
0
  6
Continuous
 62
     7
370
    50
100
AcDbPolyline
 90
        3
 70
   128
 43
0.0
 10
41.8978697836
 20
119.373069452
 10
41.310253308
 20
119.4511562683
 10
40.7226368325
 20
119.373069452
  0
LINE
  5
277
330
1F
100
AcDbEntity
  8
0
  6
Continuous
 62
     7
370
    50
100
AcDbLine
 10
40.910253308
 20
102.4680954032
 30
0.0
 11
41.710253308
 21
102.4680954032
 31
0.0
  0
LINE
  5
278
330
1F
100
AcDbEntity
  8
0
  6
Continuous
 62
     7
370
    50
100
AcDbLine
 10
41.710253308
 20
102.4680954032
 30
0.0
 11
41.710253308
 21
102.8308236532
 31
0.0
  0
LINE
  5
279
330
1F
100
AcDbEntity
  8
0
  6
Continuous
 62
     7
370
    50
100
AcDbLine
 10
40.910253308
 20
102.4680954032
 30
0.0
 11
40.910253308
 21
102.8308236532
 31
0.0
  0
LINE
  5
27A
330
1F
100
AcDbEntity
  8
0
  6
Continuous
 62
     7
370
    50
100
AcDbLine
 10
41.710253308
 20
102.1449826358
 30
0.0
 11
40.910253308
 21
102.1449826358
 31
0.0
  0
LINE
  5
27B
330
1F
100
AcDbEntity
  8
0
  6
Continuous
 62
     7
370
    50
100
AcDbLine
 10
41.710253308
 20
102.4680954032
 30
0.0
 11
41.710253308
 21
102.1449826358
 31
0.0
  0
LINE
  5
27C
330
1F
100
AcDbEntity
  8
0
  6
Continuous
 62
     7
370
    50
100
AcDbLine
 10
40.910253308
 20
102.1449826358
 30
0.0
 11
40.910253308
 21
102.4680954032
 31
0.0
  0
LINE
  5
27D
330
1F
100
AcDbEntity
  8
0
  6
Continuous
 62
     7
370
    50
100
AcDbLine
 10
41.710253308
 20
119.7780435009
 30
0.0
 11
40.910253308
 21
119.7780435009
 31
0.0
  0
LINE
  5
27E
330
1F
100
AcDbEntity
  8
0
  6
Continuous
 62
     7
370
    50
100
AcDbLine
 10
41.710253308
 20
119.4153152508
 30
0.0
 11
41.710253308
 21
119.7780435009
 31
0.0
  0
LINE
  5
27F
330
1F
100
AcDbEntity
  8
0
  6
Continuous
 62
     7
370
    50
100
AcDbLine
 10
40.910253308
 20
119.4153152508
 30
0.0
 11
40.910253308
 21
119.7780435009
 31
0.0
  0
LINE
  5
280
330
1F
100
AcDbEntity
  8
0
  6
Continuous
 62
     7
370
    50
100
AcDbLine
 10
40.910253308
 20
120.1011562683
 30
0.0
 11
41.710253308
 21
120.1011562683
 31
0.0
  0
LINE
  5
281
330
1F
100
AcDbEntity
  8
0
  6
Continuous
 62
     7
370
    50
100
AcDbLine
 10
41.710253308
 20
120.1011562683
 30
0.0
 11
41.710253308
 21
119.7780435009
 31
0.0
  0
LINE
  5
282
330
1F
100
AcDbEntity
  8
0
  6
Continuous
 62
     7
370
    50
100
AcDbLine
 10
40.910253308
 20
119.7780435009
 30
0.0
 11
40.910253308
 21
120.1011562683
 31
0.0
  0
LINE
  5
283
330
1F
100
AcDbEntity
  8
0
  6
Continuous
 62
     7
370
    50
100
AcDbLine
 10
41.2422109317
 20
113.6716219957
 30
0.0
 11
40.9133906114
 21
113.623069452
 31
0.0
  0
LINE
  5
284
330
1F
100
AcDbEntity
  8
0
  6
Continuous
 62
     7
370
    50
100
AcDbLine
 10
40.9133906114
 20
108.623069452
 30
0.0
 11
41.2422109317
 21
108.5745169083
 31
0.0
  0
DIMENSION
  5
285
330
1F
100
AcDbEntity
  8
DIM
100
AcDbDimension
  2
_D_4
 10
27.8422109317
 20
102.873069452
 30
0.0
 11
27.8422109317
 21
111.123069452
 31
0.0
 70
   160
  1
(<>)
 71
     2
 42
-1.0
  3
SLDDIMSTYLE1
100
AcDbAlignedDimension
 13
37.0422109317
 23
119.373069452
 33
0.0
 14
37.0422109317
 24
102.873069452
 34
0.0
 50
90.0
100
AcDbRotatedDimension
  0
DIMENSION
  5
291
330
1F
100
AcDbEntity
  8
DIM
100
AcDbDimension
  2
_D_5
 10
44.8422109317
 20
126.6207943869
 30
0.0
 11
40.8422109317
 21
126.6207943869
 31
0.0
 70
   160
  1
(<>)
 71
     2
 42
-1.0
  3
SLDDIMSTYLE1
100
AcDbAlignedDimension
 13
36.8422109317
 23
119.173069452
 33
0.0
 14
44.8422109317
 24
119.173069452
 34
0.0
100
AcDbRotatedDimension
  0
LINE
  5
29D
330
1F
100
AcDbEntity
  8
CENTER
  6
CENTERX2
370
    18
100
AcDbLine
 10
40.8422109317
 20
101.073069452
 30
0.0
 11
40.8422109317
 21
121.173069452
 31
0.0
  0
ENDSEC
  0
SECTION
  2
OBJECTS
  0
DICTIONARY
  5
C
330
0
100
AcDbDictionary
281
     1
  3
ACAD_GROUP
350
D
  3
ACAD_LAYOUT
350
1A
  3
ACAD_MLINESTYLE
350
17
  3
ACAD_PLOTSETTINGS
350
19
  3
ACAD_PLOTSTYLENAME
350
E
  3
ACAD_SCALELIST
350
47
  3
DWGPROPS
350
29E
  0
DICTIONARY
  5
D
102
{ACAD_REACTORS
330
C
102
}
330
C
100
AcDbDictionary
281
     1
  0
DICTIONARY
  5
1A
102
{ACAD_REACTORS
330
C
102
}
330
C
100
AcDbDictionary
281
     1
  3
Layout1
350
1E
  3
Layout2
350
26
  3
Model
350
22
  0
DICTIONARY
  5
17
102
{ACAD_REACTORS
330
C
102
}
330
C
100
AcDbDictionary
281
     1
  3
Standard
350
18
  0
DICTIONARY
  5
19
102
{ACAD_REACTORS
330
C
102
}
330
C
100
AcDbDictionary
281
     1
  0
ACDBDICTIONARYWDFLT
  5
E
102
{ACAD_REACTORS
330
C
102
}
330
C
100
AcDbDictionary
281
     1
  3
Normal
350
F
100
AcDbDictionaryWithDefault
340
F
  0
DICTIONARY
  5
47
102
{ACAD_REACTORS
330
C
102
}
330
C
100
AcDbDictionary
281
     1
  3
A0
350
48
  3
A1
350
49
  3
A2
350
4A
  3
A3
350
4B
  3
A4
350
4C
  3
A5
350
4D
  3
A6
350
4E
  3
A7
350
4F
  3
A8
350
50
  3
A9
350
51
  3
B0
350
52
  3
B1
350
53
  3
B2
350
54
  3
B3
350
55
  3
B4
350
56
  3
B5
350
57
  3
B6
350
58
  3
B7
350
59
  3
B8
350
5A
  3
B9
350
5B
  3
C0
350
5C
  3
C1
350
5D
  3
C2
350
5E
  3
C3
350
5F
  3
C4
350
60
  3
C5
350
61
  3
C6
350
62
  3
C7
350
63
  3
C8
350
64
  3
C9
350
65
  3
D0
350
66
  3
D1
350
67
  3
D2
350
68
  0
XRECORD
  5
29E
102
{ACAD_REACTORS
330
C
102
}
330
C
100
AcDbXrecord
280
     1
  1
DWGPROPS COOKIE
  2

  3

  4

  6

  7

  8
p920070
  9

300
=
301
=
302
=
303
=
304
=
305
=
306
=
307
=
308
=
309
=
 40
0.0
 41
2460073.374951667
 42
2460073.374953634
  1

 90
        0
  0
LAYOUT
  5
1E
102
{ACAD_REACTORS
330
1A
102
}
330
1A
100
AcDbPlotSettings
  1

  2
none_device
  4

  6

 40
0.0
 41
0.0
 42
0.0
 43
0.0
 44
0.0
 45
0.0
 46
0.0
 47
0.0
 48
0.0
 49
0.0
140
0.0
141
0.0
142
1.0
143
1.0
 70
   688
 72
     1
 73
     0
 74
     5
  7

 75
    16
147
1.0
148
0.0
149
0.0
100
AcDbLayout
  1
Layout1
 70
     1
 71
     1
 10
0.0
 20
0.0
 11
420.0
 21
297.0
 12
0.0
 22
0.0
 32
0.0
 14
1.0000000000E+20
 24
1.0000000000E+20
 34
1.0000000000E+20
 15
-1.0000000000E+20
 25
-1.0000000000E+20
 35
-1.0000000000E+20
146
0.0
 13
0.0
 23
0.0
 33
0.0
 16
1.0
 26
0.0
 36
0.0
 17
0.0
 27
1.0
 37
0.0
 76
     0
330
1B
  0
LAYOUT
  5
26
102
{ACAD_REACTORS
330
1A
102
}
330
1A
100
AcDbPlotSettings
  1

  2
none_device
  4

  6

 40
0.0
 41
0.0
 42
0.0
 43
0.0
 44
0.0
 45
0.0
 46
0.0
 47
0.0
 48
0.0
 49
0.0
140
0.0
141
0.0
142
1.0
143
1.0
 70
   688
 72
     1
 73
     0
 74
     5
  7

 75
    16
147
1.0
148
0.0
149
0.0
100
AcDbLayout
  1
Layout2
 70
     1
 71
     2
 10
0.0
 20
0.0
 11
0.0
 21
0.0
 12
0.0
 22
0.0
 32
0.0
 14
0.0
 24
0.0
 34
0.0
 15
0.0
 25
0.0
 35
0.0
146
0.0
 13
0.0
 23
0.0
 33
0.0
 16
1.0
 26
0.0
 36
0.0
 17
0.0
 27
1.0
 37
0.0
 76
     0
330
23
  0
LAYOUT
  5
22
102
{ACAD_REACTORS
330
1A
102
}
330
1A
100
AcDbPlotSettings
  1

  2
none_device
  4
Letter_(8.50_x_11.00_Inches)
  6

 40
6.35
 41
6.35
 42
6.35000508
 43
6.35000508
 44
215.9
 45
279.4
 46
0.0
 47
0.0
 48
0.0
 49
0.0
140
0.0
141
0.0
142
1.0
143
1.0
 70
  1712
 72
     1
 73
     0
 74
     0
  7

 75
     0
147
1.0
148
0.0
149
0.0
100
AcDbLayout
  1
Model
 70
     1
 71
     0
 10
0.0
 20
0.0
 11
297.0
 21
210.0
 12
0.0
 22
0.0
 32
0.0
 14
0.0
 24
0.0
 34
0.0
 15
297.0
 25
210.0
 35
0.0
146
0.0
 13
0.0
 23
0.0
 33
0.0
 16
1.0
 26
0.0
 36
0.0
 17
0.0
 27
1.0
 37
0.0
 76
     0
330
1F
331
29
  0
MLINESTYLE
  5
18
102
{ACAD_REACTORS
330
17
102
}
330
17
100
AcDbMlineStyle
  2
Standard
 70
     0
  3

 62
   256
 51
90.0
 52
90.0
 71
     2
 49
0.5
 62
   256
  6
BYLAYER
 49
-0.5
 62
   256
  6
BYLAYER
  0
ACDBPLACEHOLDER
  5
F
102
{ACAD_REACTORS
330
E
102
}
330
E
  0
SCALE
  5
48
102
{ACAD_REACTORS
330
47
102
}
330
47
100
AcDbScale
 70
     0
300
1:1
140
1.0
141
1.0
290
     1
  0
SCALE
  5
49
102
{ACAD_REACTORS
330
47
102
}
330
47
100
AcDbScale
 70
     0
300
1:2
140
1.0
141
2.0
290
     0
  0
SCALE
  5
4A
102
{ACAD_REACTORS
330
47
102
}
330
47
100
AcDbScale
 70
     0
300
1:4
140
1.0
141
4.0
290
     0
  0
SCALE
  5
4B
102
{ACAD_REACTORS
330
47
102
}
330
47
100
AcDbScale
 70
     0
300
1:5
140
1.0
141
5.0
290
     0
  0
SCALE
  5
4C
102
{ACAD_REACTORS
330
47
102
}
330
47
100
AcDbScale
 70
     0
300
1:8
140
1.0
141
8.0
290
     0
  0
SCALE
  5
4D
102
{ACAD_REACTORS
330
47
102
}
330
47
100
AcDbScale
 70
     0
300
1:10
140
1.0
141
10.0
290
     0
  0
SCALE
  5
4E
102
{ACAD_REACTORS
330
47
102
}
330
47
100
AcDbScale
 70
     0
300
1:16
140
1.0
141
16.0
290
     0
  0
SCALE
  5
4F
102
{ACAD_REACTORS
330
47
102
}
330
47
100
AcDbScale
 70
     0
300
1:20
140
1.0
141
20.0
290
     0
  0
SCALE
  5
50
102
{ACAD_REACTORS
330
47
102
}
330
47
100
AcDbScale
 70
     0
300
1:30
140
1.0
141
30.0
290
     0
  0
SCALE
  5
51
102
{ACAD_REACTORS
330
47
102
}
330
47
100
AcDbScale
 70
     0
300
1:40
140
1.0
141
40.0
290
     0
  0
SCALE
  5
52
102
{ACAD_REACTORS
330
47
102
}
330
47
100
AcDbScale
 70
     0
300
1:50
140
1.0
141
50.0
290
     0
  0
SCALE
  5
53
102
{ACAD_REACTORS
330
47
102
}
330
47
100
AcDbScale
 70
     0
300
1:100
140
1.0
141
100.0
290
     0
  0
SCALE
  5
54
102
{ACAD_REACTORS
330
47
102
}
330
47
100
AcDbScale
 70
     0
300
2:1
140
2.0
141
1.0
290
     0
  0
SCALE
  5
55
102
{ACAD_REACTORS
330
47
102
}
330
47
100
AcDbScale
 70
     0
300
4:1
140
4.0
141
1.0
290
     0
  0
SCALE
  5
56
102
{ACAD_REACTORS
330
47
102
}
330
47
100
AcDbScale
 70
     0
300
8:1
140
8.0
141
1.0
290
     0
  0
SCALE
  5
57
102
{ACAD_REACTORS
330
47
102
}
330
47
100
AcDbScale
 70
     0
300
10:1
140
10.0
141
1.0
290
     0
  0
SCALE
  5
58
102
{ACAD_REACTORS
330
47
102
}
330
47
100
AcDbScale
 70
     0
300
100:1
140
100.0
141
1.0
290
     0
  0
SCALE
  5
59
102
{ACAD_REACTORS
330
47
102
}
330
47
100
AcDbScale
 70
     0
300
1/128" = 1'-0"
140
0.0078125
141
12.0
290
     0
  0
SCALE
  5
5A
102
{ACAD_REACTORS
330
47
102
}
330
47
100
AcDbScale
 70
     0
300
1/64" = 1'-0"
140
0.015625
141
12.0
290
     0
  0
SCALE
  5
5B
102
{ACAD_REACTORS
330
47
102
}
330
47
100
AcDbScale
 70
     0
300
1/32" = 1'-0"
140
0.03125
141
12.0
290
     0
  0
SCALE
  5
5C
102
{ACAD_REACTORS
330
47
102
}
330
47
100
AcDbScale
 70
     0
300
1/16" = 1'-0"
140
0.0625
141
12.0
290
     0
  0
SCALE
  5
5D
102
{ACAD_REACTORS
330
47
102
}
330
47
100
AcDbScale
 70
     0
300
3/32" = 1'-0"
140
0.09375
141
12.0
290
     0
  0
SCALE
  5
5E
102
{ACAD_REACTORS
330
47
102
}
330
47
100
AcDbScale
 70
     0
300
1/8" = 1'-0"
140
0.125
141
12.0
290
     0
  0
SCALE
  5
5F
102
{ACAD_REACTORS
330
47
102
}
330
47
100
AcDbScale
 70
     0
300
3/16" = 1'-0"
140
0.1875
141
12.0
290
     0
  0
SCALE
  5
60
102
{ACAD_REACTORS
330
47
102
}
330
47
100
AcDbScale
 70
     0
300
1/4" = 1'-0"
140
0.25
141
12.0
290
     0
  0
SCALE
  5
61
102
{ACAD_REACTORS
330
47
102
}
330
47
100
AcDbScale
 70
     0
300
3/8" = 1'-0"
140
0.375
141
12.0
290
     0
  0
SCALE
  5
62
102
{ACAD_REACTORS
330
47
102
}
330
47
100
AcDbScale
 70
     0
300
1/2" = 1'-0"
140
0.5
141
12.0
290
     0
  0
SCALE
  5
63
102
{ACAD_REACTORS
330
47
102
}
330
47
100
AcDbScale
 70
     0
300
3/4" = 1'-0"
140
0.75
141
12.0
290
     0
  0
SCALE
  5
64
102
{ACAD_REACTORS
330
47
102
}
330
47
100
AcDbScale
 70
     0
300
1" = 1'-0"
140
1.0
141
12.0
290
     0
  0
SCALE
  5
65
102
{ACAD_REACTORS
330
47
102
}
330
47
100
AcDbScale
 70
     0
300
1-1/2" = 1'-0"
140
1.5
141
12.0
290
     0
  0
SCALE
  5
66
102
{ACAD_REACTORS
330
47
102
}
330
47
100
AcDbScale
 70
     0
300
3" = 1'-0"
140
3.0
141
12.0
290
     0
  0
SCALE
  5
67
102
{ACAD_REACTORS
330
47
102
}
330
47
100
AcDbScale
 70
     0
300
6" = 1'-0"
140
6.0
141
12.0
290
     0
  0
SCALE
  5
68
102
{ACAD_REACTORS
330
47
102
}
330
47
100
AcDbScale
 70
     0
300
1'-0" = 1'-0"
140
12.0
141
12.0
290
     0
  0
ENDSEC
  0
EOF
