  0
SECTION
  2
HEADER
  9
$ACADVER
  1
AC1015
  9
$ACADMAINTVER
 70
     6
  9
$DWGCODEPAGE
  3
DOS932
  9
$INSBASE
 10
0.0
 20
0.0
 30
0.0
  9
$EXTMIN
 10
0.0
 20
0.0
 30
0.0
  9
$EXTMAX
 10
297.0
 20
210.0
 30
0.0
  9
$LIMMIN
 10
0.0
 20
0.0
  9
$LIMMAX
 10
297.0
 20
210.0
  9
$ORTHOMODE
 70
     0
  9
$REGENMODE
 70
     1
  9
$FILLMODE
 70
     1
  9
$QTEXTMODE
 70
     0
  9
$MIRRTEXT
 70
     1
  9
$LTSCALE
 40
1.0
  9
$ATTMODE
 70
     1
  9
$TEXTSIZE
 40
3.5277777778
  9
$TRACEWID
 40
1.0
  9
$TEXTSTYLE
  7
STANDARD
  9
$CLAYER
  8
0
  9
$CELTYPE
  6
ByLayer
  9
$CECOLOR
 62
   256
  9
$CELTSCALE
 40
1.0
  9
$DISPSILH
 70
     0
  9
$DIMSCALE
 40
1.0
  9
$DIMASZ
 40
3.0
  9
$DIMEXO
 40
1.0
  9
$DIMDLI
 40
3.75
  9
$DIMRND
 40
0.0
  9
$DIMDLE
 40
0.0
  9
$DIMEXE
 40
1.0
  9
$DIMTP
 40
0.0
  9
$DIMTM
 40
0.0
  9
$DIMTXT
 40
3.5277777778
  9
$DIMCEN
 40
2.5
  9
$DIMTSZ
 40
0.0
  9
$DIMTOL
 70
     0
  9
$DIMLIM
 70
     0
  9
$DIMTIH
 70
     1
  9
$DIMTOH
 70
     1
  9
$DIMSE1
 70
     0
  9
$DIMSE2
 70
     0
  9
$DIMTAD
 70
     1
  9
$DIMZIN
 70
     0
  9
$DIMBLK
  1

  9
$DIMASO
 70
     1
  9
$DIMSHO
 70
     1
  9
$DIMPOST
  1

  9
$DIMAPOST
  1

  9
$DIMALT
 70
     0
  9
$DIMALTD
 70
     3
  9
$DIMALTF
 40
0.0393700787
  9
$DIMLFAC
 40
2.0
  9
$DIMTOFL
 70
     1
  9
$DIMTVP
 40
0.0
  9
$DIMTIX
 70
     0
  9
$DIMSOXD
 70
     0
  9
$DIMSAH
 70
     0
  9
$DIMBLK1
  1

  9
$DIMBLK2
  1

  9
$DIMSTYLE
  2
ISO-25
  9
$DIMCLRD
 70
     0
  9
$DIMCLRE
 70
     0
  9
$DIMCLRT
 70
     0
  9
$DIMTFAC
 40
1.0
  9
$DIMGAP
 40
1.524
  9
$DIMJUST
 70
     0
  9
$DIMSD1
 70
     0
  9
$DIMSD2
 70
     0
  9
$DIMTOLJ
 70
     0
  9
$DIMTZIN
 70
     0
  9
$DIMALTZ
 70
     0
  9
$DIMALTTZ
 70
     0
  9
$DIMUPT
 70
     0
  9
$DIMDEC
 70
     8
  9
$DIMTDEC
 70
     8
  9
$DIMALTU
 70
     2
  9
$DIMALTTD
 70
     3
  9
$DIMTXSTY
  7
STANDARD
  9
$DIMAUNIT
 70
     0
  9
$DIMADEC
 70
     2
  9
$DIMALTRND
 40
0.0
  9
$DIMAZIN
 70
     0
  9
$DIMDSEP
 70
    44
  9
$DIMATFIT
 70
     3
  9
$DIMFRAC
 70
     0
  9
$DIMLDRBLK
  1

  9
$DIMLUNIT
 70
     2
  9
$DIMLWD
 70
    -2
  9
$DIMLWE
 70
    -2
  9
$DIMTMOVE
 70
     0
  9
$LUNITS
 70
     2
  9
$LUPREC
 70
     2
  9
$SKETCHINC
 40
1.0
  9
$FILLETRAD
 40
10.0
  9
$AUNITS
 70
     0
  9
$AUPREC
 70
     2
  9
$MENU
  1
.
  9
$ELEVATION
 40
0.0
  9
$PELEVATION
 40
0.0
  9
$THICKNESS
 40
0.0
  9
$LIMCHECK
 70
     0
  9
$CHAMFERA
 40
0.0
  9
$CHAMFERB
 40
0.0
  9
$CHAMFERC
 40
0.0
  9
$CHAMFERD
 40
0.0
  9
$SKPOLY
 70
     0
  9
$TDCREATE
 40
2460257.682726181
  9
$TDUCREATE
 40
2460257.307726181
  9
$TDUPDATE
 40
2460257.682728704
  9
$TDUUPDATE
 40
2460257.307728704
  9
$TDINDWG
 40
0.0000000116
  9
$TDUSRTIMER
 40
0.0000000116
  9
$USRTIMER
 70
     1
  9
$ANGBASE
 50
0.0
  9
$ANGDIR
 70
     0
  9
$PDMODE
 70
     0
  9
$PDSIZE
 40
-1.0
  9
$PLINEWID
 40
0.0
  9
$SPLFRAME
 70
     0
  9
$SPLINETYPE
 70
     6
  9
$SPLINESEGS
 70
     8
  9
$HANDSEED
  5
2B9
  9
$SURFTAB1
 70
     6
  9
$SURFTAB2
 70
     6
  9
$SURFTYPE
 70
     6
  9
$SURFU
 70
     6
  9
$SURFV
 70
     6
  9
$UCSBASE
  2

  9
$UCSNAME
  2

  9
$UCSORG
 10
0.0
 20
0.0
 30
0.0
  9
$UCSXDIR
 10
1.0
 20
0.0
 30
0.0
  9
$UCSYDIR
 10
0.0
 20
1.0
 30
0.0
  9
$UCSORTHOREF
  2

  9
$UCSORTHOVIEW
 70
     0
  9
$UCSORGTOP
 10
0.0
 20
0.0
 30
0.0
  9
$UCSORGBOTTOM
 10
0.0
 20
0.0
 30
0.0
  9
$UCSORGLEFT
 10
0.0
 20
0.0
 30
0.0
  9
$UCSORGRIGHT
 10
0.0
 20
0.0
 30
0.0
  9
$UCSORGFRONT
 10
0.0
 20
0.0
 30
0.0
  9
$UCSORGBACK
 10
0.0
 20
0.0
 30
0.0
  9
$PUCSBASE
  2

  9
$PUCSNAME
  2

  9
$PUCSORG
 10
0.0
 20
0.0
 30
0.0
  9
$PUCSXDIR
 10
1.0
 20
0.0
 30
0.0
  9
$PUCSYDIR
 10
0.0
 20
1.0
 30
0.0
  9
$PUCSORTHOREF
  2

  9
$PUCSORTHOVIEW
 70
     0
  9
$PUCSORGTOP
 10
0.0
 20
0.0
 30
0.0
  9
$PUCSORGBOTTOM
 10
0.0
 20
0.0
 30
0.0
  9
$PUCSORGLEFT
 10
0.0
 20
0.0
 30
0.0
  9
$PUCSORGRIGHT
 10
0.0
 20
0.0
 30
0.0
  9
$PUCSORGFRONT
 10
0.0
 20
0.0
 30
0.0
  9
$PUCSORGBACK
 10
0.0
 20
0.0
 30
0.0
  9
$USERI1
 70
     0
  9
$USERI2
 70
     0
  9
$USERI3
 70
     0
  9
$USERI4
 70
     0
  9
$USERI5
 70
     0
  9
$USERR1
 40
0.0
  9
$USERR2
 40
0.0
  9
$USERR3
 40
0.0
  9
$USERR4
 40
0.0
  9
$USERR5
 40
0.0
  9
$WORLDVIEW
 70
     1
  9
$SHADEDGE
 70
     3
  9
$SHADEDIF
 70
    70
  9
$TILEMODE
 70
     1
  9
$MAXACTVP
 70
    64
  9
$PINSBASE
 10
0.0
 20
0.0
 30
0.0
  9
$PLIMCHECK
 70
     0
  9
$PEXTMIN
 10
1.0000000000E+20
 20
1.0000000000E+20
 30
1.0000000000E+20
  9
$PEXTMAX
 10
-1.0000000000E+20
 20
-1.0000000000E+20
 30
-1.0000000000E+20
  9
$PLIMMIN
 10
0.0
 20
0.0
  9
$PLIMMAX
 10
420.0
 20
297.0
  9
$UNITMODE
 70
     0
  9
$VISRETAIN
 70
     1
  9
$PLINEGEN
 70
     0
  9
$PSLTSCALE
 70
     1
  9
$TREEDEPTH
 70
  3020
  9
$CMLSTYLE
  2
Standard
  9
$CMLJUST
 70
     0
  9
$CMLSCALE
 40
20.0
  9
$PROXYGRAPHICS
 70
     1
  9
$MEASUREMENT
 70
     1
  9
$CELWEIGHT
370
    -1
  9
$ENDCAPS
280
     0
  9
$JOINSTYLE
280
     0
  9
$LWDISPLAY
290
     1
  9
$INSUNITS
 70
     4
  9
$HYPERLINKBASE
  1

  9
$STYLESHEET
  1

  9
$XEDIT
290
     1
  9
$CEPSNTYPE
380
     0
  9
$PSTYLEMODE
290
     1
  9
$FINGERPRINTGUID
  2
{113b0436-260e-42fc-9e9d-8377f3c15fb2}
  9
$VERSIONGUID
  2
{FAEB1C32-E019-11D5-929B-00C0DF256EC4}
  9
$EXTNAMES
290
     1
  9
$PSVPSCALE
 40
0.0
  9
$OLESTARTUP
290
     0
  0
ENDSEC
  0
SECTION
  2
CLASSES
  0
CLASS
  1
ACDBDICTIONARYWDFLT
  2
AcDbDictionaryWithDefault
  3
ObjectDBX Classes
 90
        0
280
     0
281
     0
  0
CLASS
  1
VISUALSTYLE
  2
AcDbVisualStyle
  3
ObjectDBX Classes
 90
     4095
280
     0
281
     0
  0
CLASS
  1
MATERIAL
  2
AcDbMaterial
  3
ObjectDBX Classes
 90
     1153
280
     0
281
     0
  0
CLASS
  1
SCALE
  2
AcDbScale
  3
ObjectDBX Classes
 90
     1153
280
     0
281
     0
  0
CLASS
  1
TABLESTYLE
  2
AcDbTableStyle
  3
ObjectDBX Classes
 90
     4095
280
     0
281
     0
  0
CLASS
  1
MLEADERSTYLE
  2
AcDbMLeaderStyle
  3
ACDB_MLEADERSTYLE_CLASS
 90
     4095
280
     0
281
     0
  0
CLASS
  1
SUN
  2
AcDbSun
  3
SCENEOE
 90
     1153
280
     0
281
     0
  0
CLASS
  1
ACDBPLACEHOLDER
  2
AcDbPlaceHolder
  3
ObjectDBX Classes
 90
        0
280
     0
281
     0
  0
CLASS
  1
LAYOUT
  2
AcDbLayout
  3
ObjectDBX Classes
 90
        0
280
     0
281
     0
  0
ENDSEC
  0
SECTION
  2
TABLES
  0
TABLE
  2
VPORT
  5
8
330
0
100
AcDbSymbolTable
 70
     1
  0
VPORT
  5
29
330
8
100
AcDbSymbolTableRecord
100
AcDbViewportTableRecord
  2
*Active
 70
     0
 10
0.0
 20
0.0
 11
1.0
 21
1.0
 12
148.5
 22
105.0
 13
0.0
 23
0.0
 14
10.0
 24
10.0
 15
10.0
 25
10.0
 16
0.0
 26
0.0
 36
1.0
 17
0.0
 27
0.0
 37
0.0
 40
210.0
 41
1.4142857143
 42
50.0
 43
0.0
 44
0.0
 50
0.0
 51
0.0
 71
     0
 72
  2000
 73
     1
 74
     3
 75
     0
 76
     0
 77
     0
 78
     0
281
     0
 65
     1
110
0.0
120
0.0
130
0.0
111
1.0
121
0.0
131
0.0
112
0.0
122
1.0
132
0.0
 79
     0
146
0.0
  0
ENDTAB
  0
TABLE
  2
LTYPE
  5
5
330
0
100
AcDbSymbolTable
 70
     6
  0
LTYPE
  5
14
330
5
100
AcDbSymbolTableRecord
100
AcDbLinetypeTableRecord
  2
ByBlock
 70
     0
  3

 72
    65
 73
     0
 40
0.0
  0
LTYPE
  5
15
330
5
100
AcDbSymbolTableRecord
100
AcDbLinetypeTableRecord
  2
ByLayer
 70
     0
  3

 72
    65
 73
     0
 40
0.0
  0
LTYPE
  5
16
330
5
100
AcDbSymbolTableRecord
100
AcDbLinetypeTableRecord
  2
Continuous
 70
     0
  3
Solid line
 72
    65
 73
     0
 40
0.0
  0
LTYPE
  5
6E
330
5
100
AcDbSymbolTableRecord
100
AcDbLinetypeTableRecord
  2
HIDDEN
 70
     0
  3
Hidden __ __ __ __ __ __ __ __ __ __ __ __ __ __
 72
    65
 73
     2
 40
1.905
 49
1.27
 74
     0
 49
-0.635
 74
     0
  0
LTYPE
  5
6F
330
5
100
AcDbSymbolTableRecord
100
AcDbLinetypeTableRecord
  2
PHANTOM
 70
     0
  3
Phantom ______  __  __  ______  __  __  ______
 72
    65
 73
     6
 40
12.7
 49
6.35
 74
     0
 49
-1.27
 74
     0
 49
1.27
 74
     0
 49
-1.27
 74
     0
 49
1.27
 74
     0
 49
-1.27
 74
     0
  0
LTYPE
  5
70
330
5
100
AcDbSymbolTableRecord
100
AcDbLinetypeTableRecord
  2
CENTER
 70
     0
  3
Center ____ _ ____ _ ____ _ ____ _ ____ _ ____
 72
    65
 73
     4
 40
10.16
 49
6.35
 74
     0
 49
-1.27
 74
     0
 49
1.27
 74
     0
 49
-1.27
 74
     0
  0
LTYPE
  5
71
330
5
100
AcDbSymbolTableRecord
100
AcDbLinetypeTableRecord
  2
CENTERX2
 70
     0
  3
Center (2x) ________  __  ________  __  _____
 72
    65
 73
     4
 40
20.32
 49
12.7
 74
     0
 49
-2.54
 74
     0
 49
2.54
 74
     0
 49
-2.54
 74
     0
  0
LTYPE
  5
72
330
5
100
AcDbSymbolTableRecord
100
AcDbLinetypeTableRecord
  2
DOT2
 70
     0
  3
Dot (.5x) ........................................
 72
    65
 73
     2
 40
0.635
 49
0.0
 74
     0
 49
-0.635
 74
     0
  0
ENDTAB
  0
TABLE
  2
LAYER
  5
2
330
0
100
AcDbSymbolTable
 70
     1
  0
LAYER
  5
10
330
2
100
AcDbSymbolTableRecord
100
AcDbLayerTableRecord
  2
0
 70
     0
 62
     7
  6
Continuous
370
    -3
390
F
  0
ENDTAB
  0
TABLE
  2
STYLE
  5
3
330
0
100
AcDbSymbolTable
 70
     3
  0
STYLE
  5
11
330
3
100
AcDbSymbolTableRecord
100
AcDbTextStyleTableRecord
  2
STANDARD
 70
     0
 40
0.0
 41
1.0
 50
0.0
 71
     0
 42
3.5277777778
  3
MSGOTHIC.TTC
  4

1001
ACAD
1000
MS UI GOTHIC
1071
    32818
  0
STYLE
  5
77
330
3
100
AcDbSymbolTableRecord
100
AcDbTextStyleTableRecord
  2
SLDTEXTSTYLE0
 70
     0
 40
0.0
 41
1.0
 50
0.0
 71
     0
 42
3.5277777778
  3
MSGOTHIC.TTC
  4

1001
ACAD
1000
MS UI Gothic
1071
      306
  0
STYLE
  5
79
330
3
100
AcDbSymbolTableRecord
100
AcDbTextStyleTableRecord
  2
SLDTEXTSTYLE1
 70
     0
 40
0.0
 41
1.0
 50
0.0
 71
     0
 42
3.5277777778
  3
MSGOTHIC.TTC
  4
bigfont
1001
ACAD
1000
MS UI Gothic
1071
      306
  0
ENDTAB
  0
TABLE
  2
VIEW
  5
6
330
0
100
AcDbSymbolTable
 70
     0
  0
ENDTAB
  0
TABLE
  2
UCS
  5
7
330
0
100
AcDbSymbolTable
 70
     0
  0
ENDTAB
  0
TABLE
  2
APPID
  5
9
330
0
100
AcDbSymbolTable
 70
     1
  0
APPID
  5
12
330
9
100
AcDbSymbolTableRecord
100
AcDbRegAppTableRecord
  2
ACAD
 70
     0
  0
ENDTAB
  0
TABLE
  2
DIMSTYLE
  5
A
330
0
100
AcDbSymbolTable
 70
     5
100
AcDbDimStyleTable
  0
DIMSTYLE
105
27
330
A
100
AcDbSymbolTableRecord
100
AcDbDimStyleTableRecord
  2
ISO-25
 70
     0
 41
2.5
 42
0.625
 43
3.75
 44
1.25
 73
     0
 74
     0
 77
     1
 78
     8
140
2.5
141
2.5
143
0.0393700787
147
0.625
171
     3
172
     1
178
     0
271
     2
272
     2
274
     3
278
    44
283
     0
284
     8
340
11
  0
DIMSTYLE
105
1E0
102
{ACAD_REACTORS
330
1DF
330
1FD
330
209
330
215
330
21F
330
237
102
}
330
A
100
AcDbSymbolTableRecord
100
AcDbDimStyleTableRecord
  2
SLDDIMSTYLE0
 70
     0
 41
3.0
 44
0.0
 45
0.000000001
 73
     0
 74
     0
 77
     3
 78
    12
 79
     3
140
3.0316840278
147
0.7579210069
173
     1
178
     0
271
     8
272
     8
276
     2
284
    12
340
77
341
1E1
343
1E1
344
1E1
  0
DIMSTYLE
105
1F3
102
{ACAD_REACTORS
330
1F2
102
}
330
A
100
AcDbSymbolTableRecord
100
AcDbDimStyleTableRecord
  2
SLDDIMSTYLE1
 70
     0
 41
3.0
 44
0.0
 45
0.000000001
 73
     0
 74
     0
 77
     3
 78
    12
 79
     3
140
3.0316840278
147
0.7579210069
173
     1
178
     0
271
     0
272
     0
276
     2
284
    12
340
77
341
1E1
343
1E1
344
1E1
  0
DIMSTYLE
105
22C
102
{ACAD_REACTORS
330
22B
102
}
330
A
100
AcDbSymbolTableRecord
100
AcDbDimStyleTableRecord
  2
SLDDIMSTYLE2
 70
     0
 41
3.0
 44
0.0
 45
0.000000001
 73
     0
 74
     0
 77
     3
 78
    12
 79
     3
140
3.0316840278
147
0.7579210069
172
     1
173
     1
178
     0
271
     8
272
     8
276
     2
284
    12
289
     0
340
77
341
1E1
343
1E1
344
1E1
  0
DIMSTYLE
105
249
330
A
100
AcDbSymbolTableRecord
100
AcDbDimStyleTableRecord
  2
SLDDIMSTYLE3
 70
     0
 41
3.0
 44
0.0
 45
0.000000001
146
3.0
147
0.0
173
     1
178
     0
271
     0
272
     0
276
     2
340
11
341
1E1
343
1E1
344
1E1
  0
ENDTAB
  0
TABLE
  2
BLOCK_RECORD
  5
1
330
0
100
AcDbSymbolTable
 70
    23
  0
BLOCK_RECORD
  5
1F
330
1
100
AcDbSymbolTableRecord
100
AcDbBlockTableRecord
  2
*Model_Space
340
22
  0
BLOCK_RECORD
  5
1B
330
1
100
AcDbSymbolTableRecord
100
AcDbBlockTableRecord
  2
*Paper_Space
340
1E
  0
BLOCK_RECORD
  5
23
330
1
100
AcDbSymbolTableRecord
100
AcDbBlockTableRecord
  2
*Paper_Space0
340
26
  0
BLOCK_RECORD
  5
7B
330
1
100
AcDbSymbolTableRecord
100
AcDbBlockTableRecord
  2
SW_BROKEN_VIEW_0
340
0
102
{BLKREFS
331
81
102
}
  0
BLOCK_RECORD
  5
1E1
330
1
100
AcDbSymbolTableRecord
100
AcDbBlockTableRecord
  2
_Open30
340
0
102
{BLKREFS
331
1EA
331
1EB
331
1F7
331
1F8
331
201
331
202
331
20F
331
210
331
219
331
21A
331
225
331
226
331
230
331
231
331
23D
331
23E
102
}
  0
BLOCK_RECORD
  5
1E7
330
1
100
AcDbSymbolTableRecord
100
AcDbBlockTableRecord
  2
_D
340
0
  0
BLOCK_RECORD
  5
1F4
330
1
100
AcDbSymbolTableRecord
100
AcDbBlockTableRecord
  2
_D_1
340
0
  0
BLOCK_RECORD
  5
1FE
330
1
100
AcDbSymbolTableRecord
100
AcDbBlockTableRecord
  2
_D_2
340
0
  0
BLOCK_RECORD
  5
20A
330
1
100
AcDbSymbolTableRecord
100
AcDbBlockTableRecord
  2
_D_3
340
0
  0
BLOCK_RECORD
  5
216
330
1
100
AcDbSymbolTableRecord
100
AcDbBlockTableRecord
  2
_D_4
340
0
  0
BLOCK_RECORD
  5
220
330
1
100
AcDbSymbolTableRecord
100
AcDbBlockTableRecord
  2
_D_5
340
0
  0
BLOCK_RECORD
  5
22D
330
1
100
AcDbSymbolTableRecord
100
AcDbBlockTableRecord
  2
_D_6
340
0
  0
BLOCK_RECORD
  5
238
330
1
100
AcDbSymbolTableRecord
100
AcDbBlockTableRecord
  2
_D_7
340
0
  0
BLOCK_RECORD
  5
243
330
1
100
AcDbSymbolTableRecord
100
AcDbBlockTableRecord
  2
SW_NOTE_0
340
0
102
{BLKREFS
331
248
102
}
  0
BLOCK_RECORD
  5
24B
330
1
100
AcDbSymbolTableRecord
100
AcDbBlockTableRecord
  2
SW_NOTE_0_1
340
0
102
{BLKREFS
331
250
102
}
  0
BLOCK_RECORD
  5
251
330
1
100
AcDbSymbolTableRecord
100
AcDbBlockTableRecord
  2
SW_NOTE_0_2
340
0
102
{BLKREFS
331
256
102
}
  0
BLOCK_RECORD
  5
25A
330
1
100
AcDbSymbolTableRecord
100
AcDbBlockTableRecord
  2
SW_NOTE_0_3
340
0
102
{BLKREFS
331
25F
102
}
  0
BLOCK_RECORD
  5
261
330
1
100
AcDbSymbolTableRecord
100
AcDbBlockTableRecord
  2
SW_NOTE_0_4
340
0
102
{BLKREFS
331
266
102
}
  0
BLOCK_RECORD
  5
268
330
1
100
AcDbSymbolTableRecord
100
AcDbBlockTableRecord
  2
SW_NOTE_0_5
340
0
102
{BLKREFS
331
26D
102
}
  0
BLOCK_RECORD
  5
270
330
1
100
AcDbSymbolTableRecord
100
AcDbBlockTableRecord
  2
SW_NOTE_0_6
340
0
102
{BLKREFS
331
275
102
}
  0
BLOCK_RECORD
  5
277
330
1
100
AcDbSymbolTableRecord
100
AcDbBlockTableRecord
  2
SW_NOTE_0_7
340
0
102
{BLKREFS
331
27C
102
}
  0
BLOCK_RECORD
  5
27E
330
1
100
AcDbSymbolTableRecord
100
AcDbBlockTableRecord
  2
SW_NOTE_0_8
340
0
102
{BLKREFS
331
283
102
}
  0
BLOCK_RECORD
  5
287
330
1
100
AcDbSymbolTableRecord
100
AcDbBlockTableRecord
  2
SW_NOTE_0_9
340
0
102
{BLKREFS
331
28C
102
}
  0
BLOCK_RECORD
  5
28F
330
1
100
AcDbSymbolTableRecord
100
AcDbBlockTableRecord
  2
SW_CENTERMARKSYMBOL_0
340
0
102
{BLKREFS
331
29A
102
}
  0
BLOCK_RECORD
  5
29B
330
1
100
AcDbSymbolTableRecord
100
AcDbBlockTableRecord
  2
SW_CENTERMARKSYMBOL_1
340
0
102
{BLKREFS
331
2A6
102
}
  0
ENDTAB
  0
ENDSEC
  0
SECTION
  2
BLOCKS
  0
BLOCK
  5
20
330
1F
100
AcDbEntity
  8
0
100
AcDbBlockBegin
  2
*Model_Space
 70
     0
 10
0.0
 20
0.0
 30
0.0
  3
*Model_Space
  1

  0
ENDBLK
  5
21
330
1F
100
AcDbEntity
  8
0
100
AcDbBlockEnd
  0
BLOCK
  5
1C
330
1B
100
AcDbEntity
 67
     1
  8
0
100
AcDbBlockBegin
  2
*Paper_Space
 70
     0
 10
0.0
 20
0.0
 30
0.0
  3
*Paper_Space
  1

  0
ENDBLK
  5
1D
330
1B
100
AcDbEntity
 67
     1
  8
0
100
AcDbBlockEnd
  0
BLOCK
  5
24
330
23
100
AcDbEntity
  8
0
100
AcDbBlockBegin
  2
*Paper_Space0
 70
     0
 10
0.0
 20
0.0
 30
0.0
  3
*Paper_Space0
  1

  0
ENDBLK
  5
25
330
23
100
AcDbEntity
  8
0
100
AcDbBlockEnd
  0
BLOCK
  5
7C
330
7B
100
AcDbEntity
  8
0
100
AcDbBlockBegin
  2
SW_BROKEN_VIEW_0
 70
     0
 10
0.0
 20
0.0
 30
0.0
  3
SW_BROKEN_VIEW_0
  1

  0
LINE
  5
7E
330
7B
100
AcDbEntity
  8
0
  6
HIDDEN
 62
     0
100
AcDbLine
 10
0.0
 20
0.0
 30
0.0
 11
11.9999945164
 21
0.0
 31
0.0
  0
LINE
  5
7F
330
7B
100
AcDbEntity
  8
0
  6
HIDDEN
 62
     0
100
AcDbLine
 10
11.9999945164
 20
0.0
 30
0.0
 11
11.9999945164
 21
-12.7999996766
 31
0.0
  0
LINE
  5
80
330
7B
100
AcDbEntity
  8
0
  6
HIDDEN
 62
     0
100
AcDbLine
 10
0.0
 20
-12.7999996766
 30
0.0
 11
11.9999945164
 21
-12.7999996766
 31
0.0
  0
ENDBLK
  5
7D
330
7B
100
AcDbEntity
  8
0
100
AcDbBlockEnd
  0
BLOCK
  5
1E2
330
1E1
100
AcDbEntity
  8
0
100
AcDbBlockBegin
  2
_Open30
 70
     0
 10
0.0
 20
0.0
 30
0.0
  3
_Open30
  1

  0
LINE
  5
1E4
330
1E1
100
AcDbEntity
  8
0
  6
ByBlock
 62
     0
370
    -2
100
AcDbLine
 10
-1.0
 20
0.267949
 30
0.0
 11
0.0
 21
0.0
 31
0.0
  0
LINE
  5
1E5
330
1E1
100
AcDbEntity
  8
0
  6
ByBlock
 62
     0
370
    -2
100
AcDbLine
 10
0.0
 20
0.0
 30
0.0
 11
-1.0
 21
-0.267949
 31
0.0
  0
LINE
  5
1E6
330
1E1
100
AcDbEntity
  8
0
  6
ByBlock
 62
     0
370
    -2
100
AcDbLine
 10
0.0
 20
0.0
 30
0.0
 11
-1.0
 21
0.0
 31
0.0
  0
ENDBLK
  5
1E3
330
1E1
100
AcDbEntity
  8
0
100
AcDbBlockEnd
  0
BLOCK
  5
1E8
330
1E7
100
AcDbEntity
  8
0
100
AcDbBlockBegin
  2
_D
 70
     0
 10
0.0
 20
0.0
 30
0.0
  3
_D
  1

  0
INSERT
  5
1EA
330
1E7
100
AcDbEntity
  8
0
  6
Continuous
 62
     7
370
    18
100
AcDbBlockReference
  2
_Open30
 10
68.8058918529
 20
101.2565626914
 30
0.0
 41
3.0
 42
3.0
 50
270.0
  0
INSERT
  5
1EB
330
1E7
100
AcDbEntity
  8
0
  6
Continuous
 62
     7
370
    18
100
AcDbBlockReference
  2
_Open30
 10
68.8058918529
 20
114.0565626914
 30
0.0
 41
3.0
 42
3.0
 50
90.0
  0
LINE
  5
1EC
330
1E7
100
AcDbEntity
  8
0
  6
Continuous
 62
     7
370
    18
100
AcDbLine
 10
70.9720555767
 20
101.2565626914
 30
0.0
 11
67.8058918529
 21
101.2565626914
 31
0.0
  0
LINE
  5
1ED
330
1E7
100
AcDbEntity
  8
0
  6
Continuous
 62
     7
370
    18
100
AcDbLine
 10
70.9720555767
 20
114.0565626914
 30
0.0
 11
67.8058918529
 21
114.0565626914
 31
0.0
  0
LINE
  5
1EE
330
1E7
100
AcDbEntity
  8
0
  6
Continuous
 62
     7
370
    18
100
AcDbLine
 10
68.8058918529
 20
101.2565626914
 30
0.0
 11
68.8058918529
 21
114.0565626914
 31
0.0
  0
LINE
  5
1EF
330
1E7
100
AcDbEntity
  8
0
  6
Continuous
 62
     7
370
    18
100
AcDbLine
 10
68.8058918529
 20
114.0565626914
 30
0.0
 11
68.8058918529
 21
125.0154858885
 31
0.0
  0
MTEXT
  5
1F0
330
1E7
100
AcDbEntity
  8
0
  6
Continuous
 62
     7
370
    18
100
AcDbMText
 10
65.7271038577
 20
115.657075165
 30
0.0
 40
2.6458333333
 41
0.0
 71
     1
 72
     1
  1
%%c
  7
SLDTEXTSTYLE0
 11
6.123233995736766E-17
 21
1.0
 31
0.0
 73
     1
 44
1.0
  0
MTEXT
  5
1F1
330
1E7
100
AcDbEntity
  8
0
  6
Continuous
 62
     7
370
    18
100
AcDbMText
 10
65.7271038577
 20
119.0084641298
 30
0.0
 40
2.6458333333
 41
0.0
 71
     1
 72
     1
  1
12.8
  7
SLDTEXTSTYLE0
 11
6.123233995736766E-17
 21
1.0
 31
0.0
 73
     1
 44
1.0
  0
ENDBLK
  5
1E9
330
1E7
100
AcDbEntity
  8
0
100
AcDbBlockEnd
  0
BLOCK
  5
1F5
330
1F4
100
AcDbEntity
  8
0
100
AcDbBlockBegin
  2
_D_1
 70
     0
 10
0.0
 20
0.0
 30
0.0
  3
_D_1
  1

  0
INSERT
  5
1F7
330
1F4
100
AcDbEntity
  8
0
  6
Continuous
 62
     7
370
    18
100
AcDbBlockReference
  2
_Open30
 10
32.4016434123
 20
135.4177590678
 30
0.0
 41
3.0
 42
3.0
 50
180.0
  0
INSERT
  5
1F8
330
1F4
100
AcDbEntity
  8
0
  6
Continuous
 62
     7
370
    18
100
AcDbBlockReference
  2
_Open30
 10
57.3972840584
 20
135.4177590678
 30
0.0
 41
3.0
 42
3.0
 50
0.0
  0
LINE
  5
1F9
330
1F4
100
AcDbEntity
  8
0
  6
Continuous
 62
     7
370
    18
100
AcDbLine
 10
32.4016434123
 20
108.6565626914
 30
0.0
 11
32.4016434123
 21
136.4177590678
 31
0.0
  0
LINE
  5
1FA
330
1F4
100
AcDbEntity
  8
0
  6
Continuous
 62
     7
370
    18
100
AcDbLine
 10
57.3972840584
 20
111.0565626914
 30
0.0
 11
57.3972840584
 21
136.4177590678
 31
0.0
  0
LINE
  5
1FB
330
1F4
100
AcDbEntity
  8
0
  6
Continuous
 62
     7
370
    18
100
AcDbLine
 10
32.4016434123
 20
135.4177590678
 30
0.0
 11
57.3972840584
 21
135.4177590678
 31
0.0
  0
MTEXT
  5
1FC
330
1F4
100
AcDbEntity
  8
0
  6
Continuous
 62
     7
370
    18
100
AcDbMText
 10
43.1355748678
 20
138.4965468302
 30
0.0
 40
2.6458333333
 41
0.0
 71
     1
 72
     1
  1
25
  7
SLDTEXTSTYLE0
 73
     1
 44
1.0
  0
ENDBLK
  5
1F6
330
1F4
100
AcDbEntity
  8
0
100
AcDbBlockEnd
  0
BLOCK
  5
1FF
330
1FE
100
AcDbEntity
  8
0
100
AcDbBlockBegin
  2
_D_2
 70
     0
 10
0.0
 20
0.0
 30
0.0
  3
_D_2
  1

  0
INSERT
  5
201
330
1FE
100
AcDbEntity
  8
0
  6
Continuous
 62
     7
370
    18
100
AcDbBlockReference
  2
_Open30
 10
64.0974352302
 20
114.6565626914
 30
0.0
 41
3.0
 42
3.0
 50
90.0
  0
INSERT
  5
202
330
1FE
100
AcDbEntity
  8
0
  6
Continuous
 62
     7
370
    18
100
AcDbBlockReference
  2
_Open30
 10
64.0974352302
 20
100.6565626914
 30
0.0
 41
3.0
 42
3.0
 50
270.0
  0
LINE
  5
203
330
1FE
100
AcDbEntity
  8
0
  6
Continuous
 62
     7
370
    18
100
AcDbLine
 10
70.9720555767
 20
114.6565626914
 30
0.0
 11
63.0974352302
 21
114.6565626914
 31
0.0
  0
LINE
  5
204
330
1FE
100
AcDbEntity
  8
0
  6
Continuous
 62
     7
370
    18
100
AcDbLine
 10
70.9720555767
 20
100.6565626914
 30
0.0
 11
63.0974352302
 21
100.6565626914
 31
0.0
  0
LINE
  5
205
330
1FE
100
AcDbEntity
  8
0
  6
Continuous
 62
     7
370
    18
100
AcDbLine
 10
64.0974352302
 20
114.6565626914
 30
0.0
 11
64.0974352302
 21
123.7758638767
 31
0.0
  0
LINE
  5
206
330
1FE
100
AcDbEntity
  8
0
  6
Continuous
 62
     7
370
    18
100
AcDbLine
 10
64.0974352302
 20
114.6565626914
 30
0.0
 11
64.0974352302
 21
100.6565626914
 31
0.0
  0
MTEXT
  5
207
330
1FE
100
AcDbEntity
  8
0
  6
Continuous
 62
     7
370
    18
100
AcDbMText
 10
61.018647235
 20
116.8966971767
 30
0.0
 40
2.6458333333
 41
0.0
 71
     1
 72
     1
  1
%%c
  7
SLDTEXTSTYLE0
 11
-7.044195017643634E-15
 21
1.0
 31
0.0
 73
     1
 44
1.0
  0
MTEXT
  5
208
330
1FE
100
AcDbEntity
  8
0
  6
Continuous
 62
     7
370
    18
100
AcDbMText
 10
61.018647235
 20
120.2480861415
 30
0.0
 40
2.6458333333
 41
0.0
 71
     1
 72
     1
  1
14
  7
SLDTEXTSTYLE0
 11
-7.044195017643634E-15
 21
1.0
 31
0.0
 73
     1
 44
1.0
  0
ENDBLK
  5
200
330
1FE
100
AcDbEntity
  8
0
100
AcDbBlockEnd
  0
BLOCK
  5
20B
330
20A
100
AcDbEntity
  8
0
100
AcDbBlockBegin
  2
_D_3
 70
     0
 10
0.0
 20
0.0
 30
0.0
  3
_D_3
  1

  0
ARC
  5
20D
330
20A
100
AcDbEntity
  8
0
  6
Continuous
 62
     7
370
    18
100
AcDbCircle
 10
103.9275846841
 20
137.1816477025
 30
0.0
 40
3.944175412646004
100
AcDbArc
 50
153.4349488229
 51
206.5650511771
  0
ARC
  5
20E
330
20A
100
AcDbEntity
  8
0
  6
Continuous
 62
     7
370
    18
100
AcDbCircle
 10
100.399806949
 20
137.1816477025
 30
0.0
 40
3.944175412646004
100
AcDbArc
 50
333.4349488229
 51
26.5650511771
  0
INSERT
  5
20F
330
20A
100
AcDbEntity
  8
0
  6
Continuous
 62
     7
370
    18
100
AcDbBlockReference
  2
_Open30
 10
71.9720555767
 20
135.4177590678
 30
0.0
 41
3.0
 42
3.0
 50
180.0
  0
INSERT
  5
210
330
20A
100
AcDbEntity
  8
0
  6
Continuous
 62
     7
370
    18
100
AcDbBlockReference
  2
_Open30
 10
132.3553358817
 20
135.4177590678
 30
0.0
 41
3.0
 42
3.0
 50
0.0
  0
LINE
  5
211
330
20A
100
AcDbEntity
  8
0
  6
Continuous
 62
     7
370
    18
100
AcDbLine
 10
71.9720555767
 20
115.6565626914
 30
0.0
 11
71.9720555767
 21
136.4177590678
 31
0.0
  0
LINE
  5
212
330
20A
100
AcDbEntity
  8
0
  6
Continuous
 62
     7
370
    18
100
AcDbLine
 10
132.3553358817
 20
114.2078080156
 30
0.0
 11
132.3553358817
 21
136.4177590678
 31
0.0
  0
LINE
  5
213
330
20A
100
AcDbEntity
  8
0
  6
Continuous
 62
     7
370
    18
100
AcDbLine
 10
71.9720555767
 20
135.4177590678
 30
0.0
 11
132.3553358817
 21
135.4177590678
 31
0.0
  0
MTEXT
  5
214
330
20A
100
AcDbEntity
  8
0
  6
Continuous
 62
     7
370
    18
100
AcDbMText
 10
100.399806949
 20
138.4965465973
 30
0.0
 40
2.6458333333
 41
0.0
 71
     1
 72
     1
  1
80
  7
SLDTEXTSTYLE0
 73
     1
 44
1.0
  0
ENDBLK
  5
20C
330
20A
100
AcDbEntity
  8
0
100
AcDbBlockEnd
  0
BLOCK
  5
217
330
216
100
AcDbEntity
  8
0
100
AcDbBlockBegin
  2
_D_4
 70
     0
 10
0.0
 20
0.0
 30
0.0
  3
_D_4
  1

  0
INSERT
  5
219
330
216
100
AcDbEntity
  8
0
  6
Continuous
 62
     7
370
    18
100
AcDbBlockReference
  2
_Open30
 10
32.4016434123
 20
149.0097286957
 30
0.0
 41
3.0
 42
3.0
 50
180.0
  0
INSERT
  5
21A
330
216
100
AcDbEntity
  8
0
  6
Continuous
 62
     7
370
    18
100
AcDbBlockReference
  2
_Open30
 10
259.1668972889
 20
149.0097286957
 30
0.0
 41
3.0
 42
3.0
 50
0.0
  0
LINE
  5
21B
330
216
100
AcDbEntity
  8
0
  6
Continuous
 62
     7
370
    18
100
AcDbLine
 10
32.4016434123
 20
108.6565626914
 30
0.0
 11
32.4016434123
 21
150.0097286957
 31
0.0
  0
LINE
  5
21C
330
216
100
AcDbEntity
  8
0
  6
Continuous
 62
     7
370
    18
100
AcDbLine
 10
259.1668972889
 20
120.2837176229
 30
0.0
 11
259.1668972889
 21
150.0097286957
 31
0.0
  0
LINE
  5
21D
330
216
100
AcDbEntity
  8
0
  6
Continuous
 62
     7
370
    18
100
AcDbLine
 10
32.4016434123
 20
149.0097286957
 30
0.0
 11
259.1668972889
 21
149.0097286957
 31
0.0
  0
MTEXT
  5
21E
330
216
100
AcDbEntity
  8
0
  6
Continuous
 62
     7
370
    18
100
AcDbMText
 10
135.1323410466
 20
152.0885164581
 30
0.0
 40
2.6458333333
 41
0.0
 71
     1
 72
     1
  1
L=500～10000
  7
SLDTEXTSTYLE1
 73
     1
 44
1.0
  0
ENDBLK
  5
218
330
216
100
AcDbEntity
  8
0
100
AcDbBlockEnd
  0
BLOCK
  5
221
330
220
100
AcDbEntity
  8
0
100
AcDbBlockBegin
  2
_D_5
 70
     0
 10
0.0
 20
0.0
 30
0.0
  3
_D_5
  1

  0
ARC
  5
223
330
220
100
AcDbEntity
  8
0
  6
Continuous
 62
     7
370
    18
100
AcDbCircle
 10
227.5669409563
 20
137.1816477025
 30
0.0
 40
3.944175412646004
100
AcDbArc
 50
153.4349488229
 51
206.5650511771
  0
ARC
  5
224
330
220
100
AcDbEntity
  8
0
  6
Continuous
 62
     7
370
    18
100
AcDbCircle
 10
224.0391632212
 20
137.1816477025
 30
0.0
 40
3.944175412646004
100
AcDbArc
 50
333.4349488229
 51
26.5650511771
  0
INSERT
  5
225
330
220
100
AcDbEntity
  8
0
  6
Continuous
 62
     7
370
    18
100
AcDbBlockReference
  2
_Open30
 10
192.4392067139
 20
135.4177590678
 30
0.0
 41
3.0
 42
3.0
 50
180.0
  0
INSERT
  5
226
330
220
100
AcDbEntity
  8
0
  6
Continuous
 62
     7
370
    18
100
AcDbBlockReference
  2
_Open30
 10
259.1668972889
 20
135.4177590678
 30
0.0
 41
3.0
 42
3.0
 50
0.0
  0
LINE
  5
227
330
220
100
AcDbEntity
  8
0
  6
Continuous
 62
     7
370
    18
100
AcDbLine
 10
192.4392067139
 20
111.1565626914
 30
0.0
 11
192.4392067139
 21
136.4177590678
 31
0.0
  0
LINE
  5
228
330
220
100
AcDbEntity
  8
0
  6
Continuous
 62
     7
370
    18
100
AcDbLine
 10
259.1668972889
 20
120.2837176229
 30
0.0
 11
259.1668972889
 21
136.4177590678
 31
0.0
  0
LINE
  5
229
330
220
100
AcDbEntity
  8
0
  6
Continuous
 62
     7
370
    18
100
AcDbLine
 10
192.4392067139
 20
135.4177590678
 30
0.0
 11
259.1668972889
 21
135.4177590678
 31
0.0
  0
MTEXT
  5
22A
330
220
100
AcDbEntity
  8
0
  6
Continuous
 62
     7
370
    18
100
AcDbMText
 10
224.0391632212
 20
138.4965465973
 30
0.0
 40
2.6458333333
 41
0.0
 71
     1
 72
     1
  1
80
  7
SLDTEXTSTYLE0
 73
     1
 44
1.0
  0
ENDBLK
  5
222
330
220
100
AcDbEntity
  8
0
100
AcDbBlockEnd
  0
BLOCK
  5
22E
330
22D
100
AcDbEntity
  8
0
100
AcDbBlockBegin
  2
_D_6
 70
     0
 10
0.0
 20
0.0
 30
0.0
  3
_D_6
  1

  0
INSERT
  5
230
330
22D
100
AcDbEntity
  8
0
  6
Continuous
 62
     7
370
    18
100
AcDbBlockReference
  2
_Open30
 10
41.8213821262
 20
105.2565626914
 30
0.0
 41
3.0
 42
3.0
 50
90.0
  0
INSERT
  5
231
330
22D
100
AcDbEntity
  8
0
  6
Continuous
 62
     7
370
    18
100
AcDbBlockReference
  2
_Open30
 10
41.8213821262
 20
110.0565626914
 30
0.0
 41
3.0
 42
3.0
 50
270.0
  0
LINE
  5
232
330
22D
100
AcDbEntity
  8
0
  6
Continuous
 62
     7
370
    18
100
AcDbLine
 10
41.8213821262
 20
105.2565626914
 30
0.0
 11
41.8213821262
 21
101.7565626914
 31
0.0
  0
LINE
  5
233
330
22D
100
AcDbEntity
  8
0
  6
Continuous
 62
     7
370
    18
100
AcDbLine
 10
41.8213821262
 20
105.2565626914
 30
0.0
 11
41.8213821262
 21
110.0565626914
 31
0.0
  0
LINE
  5
234
330
22D
100
AcDbEntity
  8
0
  6
Continuous
 62
     7
370
    18
100
AcDbLine
 10
41.8213821262
 20
110.0565626914
 30
0.0
 11
41.8213821262
 21
124.1335415711
 31
0.0
  0
MTEXT
  5
235
330
22D
100
AcDbEntity
  8
0
  6
Continuous
 62
     7
370
    18
100
AcDbMText
 10
38.742594131
 20
116.5390194823
 30
0.0
 40
2.6458333333
 41
0.0
 71
     1
 72
     1
  1
%%c
  7
SLDTEXTSTYLE0
 11
6.123233995736766E-17
 21
1.0
 31
0.0
 73
     1
 44
1.0
  0
MTEXT
  5
236
330
22D
100
AcDbEntity
  8
0
  6
Continuous
 62
     7
370
    18
100
AcDbMText
 10
38.742594131
 20
119.8904084471
 30
0.0
 40
2.6458333333
 41
0.0
 71
     1
 72
     1
  1
4.8
  7
SLDTEXTSTYLE0
 11
6.123233995736766E-17
 21
1.0
 31
0.0
 73
     1
 44
1.0
  0
ENDBLK
  5
22F
330
22D
100
AcDbEntity
  8
0
100
AcDbBlockEnd
  0
BLOCK
  5
239
330
238
100
AcDbEntity
  8
0
100
AcDbBlockBegin
  2
_D_7
 70
     0
 10
0.0
 20
0.0
 30
0.0
  3
_D_7
  1

  0
ARC
  5
23B
330
238
100
AcDbEntity
  8
0
  6
Continuous
 62
     7
370
    18
100
AcDbCircle
 10
81.7359445316
 20
124.6730728592
 30
0.0
 40
3.944175412646004
100
AcDbArc
 50
153.4349488229
 51
206.5650511771
  0
ARC
  5
23C
330
238
100
AcDbEntity
  8
0
  6
Continuous
 62
     7
370
    18
100
AcDbCircle
 10
78.2081667965
 20
124.6730728592
 30
0.0
 40
3.944175412646004
100
AcDbArc
 50
333.4349488229
 51
26.5650511771
  0
INSERT
  5
23D
330
238
100
AcDbEntity
  8
0
  6
Continuous
 62
     7
370
    18
100
AcDbBlockReference
  2
_Open30
 10
71.9720555767
 20
122.9091842245
 30
0.0
 41
3.0
 42
3.0
 50
180.0
  0
INSERT
  5
23E
330
238
100
AcDbEntity
  8
0
  6
Continuous
 62
     7
370
    18
100
AcDbBlockReference
  2
_Open30
 10
87.9720555767
 20
122.9091842245
 30
0.0
 41
3.0
 42
3.0
 50
0.0
  0
LINE
  5
23F
330
238
100
AcDbEntity
  8
0
  6
Continuous
 62
     7
370
    18
100
AcDbLine
 10
71.9720555767
 20
115.6565626914
 30
0.0
 11
71.9720555767
 21
123.9091842245
 31
0.0
  0
LINE
  5
240
330
238
100
AcDbEntity
  8
0
  6
Continuous
 62
     7
370
    18
100
AcDbLine
 10
87.9720555767
 20
113.6565626914
 30
0.0
 11
87.9720555767
 21
123.9091842245
 31
0.0
  0
LINE
  5
241
330
238
100
AcDbEntity
  8
0
  6
Continuous
 62
     7
370
    18
100
AcDbLine
 10
71.9720555767
 20
122.9091842245
 30
0.0
 11
87.9720555767
 21
122.9091842245
 31
0.0
  0
MTEXT
  5
242
330
238
100
AcDbEntity
  8
0
  6
Continuous
 62
     7
370
    18
100
AcDbMText
 10
78.2081667965
 20
125.987971754
 30
0.0
 40
2.6458333333
 41
0.0
 71
     1
 72
     1
  1
16
  7
SLDTEXTSTYLE0
 73
     1
 44
1.0
  0
ENDBLK
  5
23A
330
238
100
AcDbEntity
  8
0
100
AcDbBlockEnd
  0
BLOCK
  5
244
330
243
100
AcDbEntity
  8
0
100
AcDbBlockBegin
  2
SW_NOTE_0
 70
     0
 10
0.0
 20
0.0
 30
0.0
  3
SW_NOTE_0
  1

  0
LINE
  5
246
330
243
100
AcDbEntity
  8
0
  6
Continuous
 62
     0
370
    18
100
AcDbLine
 10
20.3624298462
 20
0.0
 30
0.0
 11
0.0
 21
0.0
 31
0.0
  0
MTEXT
  5
247
330
243
100
AcDbEntity
  8
0
  6
Continuous
 62
     0
370
    18
100
AcDbMText
 10
0.4561411665
 20
2.9777381943
 30
0.0
 40
2.6458333333
 41
0.0
 71
     1
 72
     1
  1
 先端120°形
  7
SLDTEXTSTYLE1
 73
     1
 44
1.0
  0
ENDBLK
  5
245
330
243
100
AcDbEntity
  8
0
100
AcDbBlockEnd
  0
BLOCK
  5
24C
330
24B
100
AcDbEntity
  8
0
100
AcDbBlockBegin
  2
SW_NOTE_0_1
 70
     0
 10
0.0
 20
0.0
 30
0.0
  3
SW_NOTE_0_1
  1

  0
MTEXT
  5
24E
330
24B
100
AcDbEntity
  8
0
  6
Continuous
 62
     0
370
    18
100
AcDbMText
 10
0.0
 20
3.0787878788
 30
0.0
 40
2.6458333333
 41
0.0
 71
     1
 72
     1
  1
(ｱﾙｺﾞﾝ溶接
  7
SLDTEXTSTYLE1
 73
     1
 44
1.0
  0
MTEXT
  5
24F
330
24B
100
AcDbEntity
  8
0
  6
Continuous
 62
     0
370
    18
100
AcDbMText
 10
0.0
 20
-0.4489898564
 30
0.0
 40
2.6458333333
 41
0.0
 71
     1
 72
     1
  1
 または銀ろう付け)
  7
SLDTEXTSTYLE1
 73
     1
 44
1.0
  0
ENDBLK
  5
24D
330
24B
100
AcDbEntity
  8
0
100
AcDbBlockEnd
  0
BLOCK
  5
252
330
251
100
AcDbEntity
  8
0
100
AcDbBlockBegin
  2
SW_NOTE_0_2
 70
     0
 10
0.0
 20
0.0
 30
0.0
  3
SW_NOTE_0_2
  1

  0
LINE
  5
254
330
251
100
AcDbEntity
  8
0
  6
Continuous
 62
     0
370
    18
100
AcDbLine
 10
12.6160183588
 20
0.0
 30
0.0
 11
0.0
 21
0.0
 31
0.0
  0
MTEXT
  5
255
330
251
100
AcDbEntity
  8
0
  6
Continuous
 62
     0
370
    18
100
AcDbMText
 10
0.446058693
 20
2.9777381943
 30
0.0
 40
2.6458333333
 41
0.0
 71
     1
 72
     1
  1
 保護管 
  7
SLDTEXTSTYLE1
 73
     1
 44
1.0
  0
ENDBLK
  5
253
330
251
100
AcDbEntity
  8
0
100
AcDbBlockEnd
  0
BLOCK
  5
25B
330
25A
100
AcDbEntity
  8
0
100
AcDbBlockBegin
  2
SW_NOTE_0_3
 70
     0
 10
0.0
 20
0.0
 30
0.0
  3
SW_NOTE_0_3
  1

  0
LINE
  5
25D
330
25A
100
AcDbEntity
  8
0
  6
Continuous
 62
     0
370
    18
100
AcDbLine
 10
19.416790981
 20
0.0
 30
0.0
 11
0.0
 21
0.0
 31
0.0
  0
MTEXT
  5
25E
330
25A
100
AcDbEntity
  8
0
  6
Continuous
 62
     0
370
    18
100
AcDbMText
 10
0.4428085638
 20
2.9777381943
 30
0.0
 40
2.6458333333
 41
0.0
 71
     1
 72
     1
  1
ﾊﾞｲﾖﾈｯﾄｷｬﾌﾟ
  7
SLDTEXTSTYLE1
 73
     1
 44
1.0
  0
ENDBLK
  5
25C
330
25A
100
AcDbEntity
  8
0
100
AcDbBlockEnd
  0
BLOCK
  5
262
330
261
100
AcDbEntity
  8
0
100
AcDbBlockBegin
  2
SW_NOTE_0_4
 70
     0
 10
0.0
 20
0.0
 30
0.0
  3
SW_NOTE_0_4
  1

  0
LINE
  5
264
330
261
100
AcDbEntity
  8
0
  6
Continuous
 62
     0
370
    18
100
AcDbLine
 10
13.3509734312
 20
0.0
 30
0.0
 11
0.0
 21
0.0
 31
0.0
  0
MTEXT
  5
265
330
261
100
AcDbEntity
  8
0
  6
Continuous
 62
     0
370
    18
100
AcDbMText
 10
0.4573824495
 20
2.9777381943
 30
0.0
 40
2.6458333333
 41
0.0
 71
     1
 72
     1
  1
止め金具
  7
SLDTEXTSTYLE1
 73
     1
 44
1.0
  0
ENDBLK
  5
263
330
261
100
AcDbEntity
  8
0
100
AcDbBlockEnd
  0
BLOCK
  5
269
330
268
100
AcDbEntity
  8
0
100
AcDbBlockBegin
  2
SW_NOTE_0_5
 70
     0
 10
0.0
 20
0.0
 30
0.0
  3
SW_NOTE_0_5
  1

  0
LINE
  5
26B
330
268
100
AcDbEntity
  8
0
  6
Continuous
 62
     0
370
    18
100
AcDbLine
 10
-12.4214034861
 20
0.0
 30
0.0
 11
0.0
 21
0.0
 31
0.0
  0
MTEXT
  5
26C
330
268
100
AcDbEntity
  8
0
  6
Continuous
 62
     0
370
    18
100
AcDbMText
 10
-12.8289377137
 20
2.9777381943
 30
0.0
 40
2.6458333333
 41
0.0
 71
     1
 72
     1
  1
固定ﾈｼﾞ
  7
SLDTEXTSTYLE1
 73
     1
 44
1.0
  0
ENDBLK
  5
26A
330
268
100
AcDbEntity
  8
0
100
AcDbBlockEnd
  0
BLOCK
  5
271
330
270
100
AcDbEntity
  8
0
100
AcDbBlockBegin
  2
SW_NOTE_0_6
 70
     0
 10
0.0
 20
0.0
 30
0.0
  3
SW_NOTE_0_6
  1

  0
LINE
  5
273
330
270
100
AcDbEntity
  8
0
  6
Continuous
 62
     0
370
    18
100
AcDbLine
 10
9.9848849365
 20
0.0
 30
0.0
 11
0.0
 21
0.0
 31
0.0
  0
MTEXT
  5
274
330
270
100
AcDbEntity
  8
0
  6
Continuous
 62
     0
370
    18
100
AcDbMText
 10
0.4080252081
 20
2.9777381943
 30
0.0
 40
2.6458333333
 41
0.0
 71
     1
 72
     1
  1
ﾘｰﾄﾞ線
  7
SLDTEXTSTYLE1
 73
     1
 44
1.0
  0
ENDBLK
  5
272
330
270
100
AcDbEntity
  8
0
100
AcDbBlockEnd
  0
BLOCK
  5
278
330
277
100
AcDbEntity
  8
0
100
AcDbBlockBegin
  2
SW_NOTE_0_7
 70
     0
 10
0.0
 20
0.0
 30
0.0
  3
SW_NOTE_0_7
  1

  0
LINE
  5
27A
330
277
100
AcDbEntity
  8
0
  6
Continuous
 62
     0
370
    18
100
AcDbLine
 10
19.44128849
 20
0.0
 30
0.0
 11
0.0
 21
0.0
 31
0.0
  0
MTEXT
  5
27B
330
277
100
AcDbEntity
  8
0
  6
Continuous
 62
     0
370
    18
100
AcDbMText
 10
0.4821542868
 20
2.9777381943
 30
0.0
 40
2.6458333333
 41
0.0
 71
     1
 72
     1
  1
熱収縮ﾁｭｰﾌﾞ
  7
SLDTEXTSTYLE1
 73
     1
 44
1.0
  0
ENDBLK
  5
279
330
277
100
AcDbEntity
  8
0
100
AcDbBlockEnd
  0
BLOCK
  5
27F
330
27E
100
AcDbEntity
  8
0
100
AcDbBlockBegin
  2
SW_NOTE_0_8
 70
     0
 10
0.0
 20
0.0
 30
0.0
  3
SW_NOTE_0_8
  1

  0
LINE
  5
281
330
27E
100
AcDbEntity
  8
0
  6
Continuous
 62
     0
370
    18
100
AcDbLine
 10
-14.1656933686
 20
0.0
 30
0.0
 11
0.0
 21
0.0
 31
0.0
  0
MTEXT
  5
282
330
27E
100
AcDbEntity
  8
0
  6
Continuous
 62
     0
370
    18
100
AcDbMText
 10
-14.5946202753
 20
2.9777381943
 30
0.0
 40
2.6458333333
 41
0.0
 71
     1
 72
     1
  1
Yﾗｸﾞ(M3）
  7
SLDTEXTSTYLE1
 73
     1
 44
1.0
  0
ENDBLK
  5
280
330
27E
100
AcDbEntity
  8
0
100
AcDbBlockEnd
  0
BLOCK
  5
288
330
287
100
AcDbEntity
  8
0
100
AcDbBlockBegin
  2
SW_NOTE_0_9
 70
     0
 10
0.0
 20
0.0
 30
0.0
  3
SW_NOTE_0_9
  1

  0
LINE
  5
28A
330
287
100
AcDbEntity
  8
0
  6
Continuous
 62
     0
370
    18
100
AcDbLine
 10
13.591057215
 20
0.0
 30
0.0
 11
0.0
 21
0.0
 31
0.0
  0
MTEXT
  5
28B
330
287
100
AcDbEntity
  8
0
  6
Continuous
 62
     0
370
    18
100
AcDbMText
 10
0.4024405392
 20
3.1705408585
 30
0.0
 40
2.6458333333
 41
0.0
 71
     1
 72
     1
  1
 ｽﾌﾟﾘﾝｸﾞ 
  7
SLDTEXTSTYLE1
 73
     1
 44
1.0
  0
ENDBLK
  5
289
330
287
100
AcDbEntity
  8
0
100
AcDbBlockEnd
  0
BLOCK
  5
290
330
28F
100
AcDbEntity
  8
0
100
AcDbBlockBegin
  2
SW_CENTERMARKSYMBOL_0
 70
     0
 10
0.0
 20
0.0
 30
0.0
  3
SW_CENTERMARKSYMBOL_0
  1

  0
LINE
  5
292
330
28F
100
AcDbEntity
  8
0
  6
Continuous
 62
     0
370
    18
100
AcDbLine
 10
0.0
 20
0.0
 30
0.0
 11
0.0
 21
2.4999999441
 31
0.0
  0
LINE
  5
293
330
28F
100
AcDbEntity
  8
0
  6
Continuous
 62
     0
370
    18
100
AcDbLine
 10
0.0
 20
0.0
 30
0.0
 11
-2.4999976158
 21
0.0
 31
0.0
  0
LINE
  5
294
330
28F
100
AcDbEntity
  8
0
  6
Continuous
 62
     0
370
    18
100
AcDbLine
 10
0.0
 20
0.0
 30
0.0
 11
0.0
 21
-2.4999999441
 31
0.0
  0
LINE
  5
295
330
28F
100
AcDbEntity
  8
0
  6
Continuous
 62
     0
370
    18
100
AcDbLine
 10
0.0
 20
0.0
 30
0.0
 11
2.4999976158
 21
0.0
 31
0.0
  0
LINE
  5
296
330
28F
100
AcDbEntity
  8
0
  6
Continuous
 62
     0
370
    18
100
AcDbLine
 10
0.0
 20
2.4999999441
 30
0.0
 11
0.0
 21
4.1001136415
 31
0.0
  0
LINE
  5
297
330
28F
100
AcDbEntity
  8
0
  6
Continuous
 62
     0
370
    18
100
AcDbLine
 10
-2.4999976158
 20
0.0
 30
0.0
 11
-15.2357965708
 21
0.0
 31
0.0
  0
LINE
  5
298
330
28F
100
AcDbEntity
  8
0
  6
Continuous
 62
     0
370
    18
100
AcDbLine
 10
0.0
 20
-2.4999999441
 30
0.0
 11
0.0
 21
-4.1001131758
 31
0.0
  0
LINE
  5
299
330
28F
100
AcDbEntity
  8
0
  6
Continuous
 62
     0
370
    18
100
AcDbLine
 10
2.4999976158
 20
0.0
 30
0.0
 11
5.3580403328
 21
0.0
 31
0.0
  0
ENDBLK
  5
291
330
28F
100
AcDbEntity
  8
0
100
AcDbBlockEnd
  0
BLOCK
  5
29C
330
29B
100
AcDbEntity
  8
0
100
AcDbBlockBegin
  2
SW_CENTERMARKSYMBOL_1
 70
     0
 10
0.0
 20
0.0
 30
0.0
  3
SW_CENTERMARKSYMBOL_1
  1

  0
LINE
  5
29E
330
29B
100
AcDbEntity
  8
0
  6
Continuous
 62
     0
370
    18
100
AcDbLine
 10
0.0
 20
0.0
 30
0.0
 11
0.0
 21
2.4999999441
 31
0.0
  0
LINE
  5
29F
330
29B
100
AcDbEntity
  8
0
  6
Continuous
 62
     0
370
    18
100
AcDbLine
 10
0.0
 20
0.0
 30
0.0
 11
-2.4999976158
 21
0.0
 31
0.0
  0
LINE
  5
2A0
330
29B
100
AcDbEntity
  8
0
  6
Continuous
 62
     0
370
    18
100
AcDbLine
 10
0.0
 20
0.0
 30
0.0
 11
0.0
 21
-2.4999999441
 31
0.0
  0
LINE
  5
2A1
330
29B
100
AcDbEntity
  8
0
  6
Continuous
 62
     0
370
    18
100
AcDbLine
 10
0.0
 20
0.0
 30
0.0
 11
2.4999976158
 21
0.0
 31
0.0
  0
LINE
  5
2A2
330
29B
100
AcDbEntity
  8
0
  6
Continuous
 62
     0
370
    18
100
AcDbLine
 10
0.0
 20
2.4999999441
 30
0.0
 11
0.0
 21
4.1001131758
 31
0.0
  0
LINE
  5
2A3
330
29B
100
AcDbEntity
  8
0
  6
Continuous
 62
     0
370
    18
100
AcDbLine
 10
-2.4999976158
 20
0.0
 30
0.0
 11
-15.2357965708
 21
0.0
 31
0.0
  0
LINE
  5
2A4
330
29B
100
AcDbEntity
  8
0
  6
Continuous
 62
     0
370
    18
100
AcDbLine
 10
0.0
 20
-2.4999999441
 30
0.0
 11
0.0
 21
-4.1001136415
 31
0.0
  0
LINE
  5
2A5
330
29B
100
AcDbEntity
  8
0
  6
Continuous
 62
     0
370
    18
100
AcDbLine
 10
2.4999976158
 20
0.0
 30
0.0
 11
5.6693404913
 21
0.0
 31
0.0
  0
ENDBLK
  5
29D
330
29B
100
AcDbEntity
  8
0
100
AcDbBlockEnd
  0
ENDSEC
  0
SECTION
  2
ENTITIES
  0
LINE
  5
73
330
1F
100
AcDbEntity
  8
0
  6
Continuous
 62
     7
370
    25
100
AcDbLine
 10
12.8700158558
 20
190.0085404097
 30
0.0
 11
12.8700749558
 21
18.0082352097
 31
0.0
  0
LINE
  5
74
330
1F
100
AcDbEntity
  8
0
  6
Continuous
 62
     7
370
    25
100
AcDbLine
 10
12.8700749558
 20
18.0082352097
 30
0.0
 11
282.5707921135
 21
18.0082352097
 31
0.0
  0
LINE
  5
75
330
1F
100
AcDbEntity
  8
0
  6
Continuous
 62
     7
370
    25
100
AcDbLine
 10
12.8700158558
 20
190.0085404097
 30
0.0
 11
282.5707921135
 21
190.0085404097
 31
0.0
  0
LINE
  5
76
330
1F
100
AcDbEntity
  8
0
  6
Continuous
 62
     7
370
    25
100
AcDbLine
 10
282.5707921135
 20
18.0082352097
 30
0.0
 11
282.5707921135
 21
190.0085404097
 31
0.0
  0
MTEXT
  5
78
330
1F
100
AcDbEntity
  8
0
  6
Continuous
 62
     7
370
    18
100
AcDbMText
 10
157.8017695906
 20
41.1871481108
 30
0.0
 40
4.7625
 41
0.0
 71
     1
 72
     1
  1
RKC INSTRUMENT INC.
  7
SLDTEXTSTYLE0
 73
     1
 44
1.0
  0
MTEXT
  5
7A
330
1F
100
AcDbEntity
  8
0
  6
Continuous
 62
     7
370
    18
100
AcDbMText
 10
157.8017695906
 20
49.9879037899
 30
0.0
 40
4.7625
 41
0.0
 71
     1
 72
     1
  1
MODEL：T-220-ﾛ-EXA-Y-ﾛ
  7
SLDTEXTSTYLE1
 73
     1
 44
1.0
  0
INSERT
  5
81
330
1F
100
AcDbEntity
  8
0
  6
Continuous
 62
     7
100
AcDbBlockReference
  2
SW_BROKEN_VIEW_0
 10
71.9720592124
 20
114.0565625297
 30
0.0
  0
LINE
  5
82
330
1F
100
AcDbEntity
  8
0
  6
Continuous
 62
     7
370
    25
100
AcDbLine
 10
252.8859277135
 20
117.4336047748
 30
0.0
 11
243.8859243756
 21
117.4336047748
 31
0.0
  0
LINE
  5
83
330
1F
100
AcDbEntity
  8
0
  6
Continuous
 62
     7
370
    25
100
AcDbLine
 10
243.8859243756
 20
112.9336045029
 30
0.0
 11
252.8859277135
 21
112.9336045029
 31
0.0
  0
LINE
  5
84
330
1F
100
AcDbEntity
  8
0
  6
Continuous
 62
     7
370
    25
100
AcDbLine
 10
252.8859277135
 20
102.3795208799
 30
0.0
 11
243.8859243756
 21
102.3795208799
 31
0.0
  0
LINE
  5
85
330
1F
100
AcDbEntity
  8
0
  6
Continuous
 62
     7
370
    25
100
AcDbLine
 10
243.8859243756
 20
97.8795206079
 30
0.0
 11
252.8859277135
 21
97.8795206079
 31
0.0
  0
LINE
  5
86
330
1F
100
AcDbEntity
  8
0
  6
Continuous
 62
     7
370
    25
100
AcDbLine
 10
226.5422393447
 20
112.3711080196
 30
0.0
 11
243.8859243756
 21
114.8086045774
 31
0.0
  0
LINE
  5
87
330
1F
100
AcDbEntity
  8
0
  6
Continuous
 62
     7
370
    25
100
AcDbLine
 10
243.8856263524
 20
115.5585627908
 30
0.0
 11
226.5896399385
 21
113.1277712899
 31
0.0
  0
LINE
  5
88
330
1F
100
AcDbEntity
  8
0
  6
Continuous
 62
     7
370
    25
100
AcDbLine
 10
243.8859243756
 20
100.5045208054
 30
0.0
 11
228.2751251823
 21
102.6984755786
 31
0.0
  0
LINE
  5
89
330
1F
100
AcDbEntity
  8
0
  6
Continuous
 62
     7
370
    25
100
AcDbLine
 10
228.2131959563
 20
101.9571786652
 30
0.0
 11
243.8856263524
 21
99.754562592
 31
0.0
  0
LINE
  5
8A
330
1F
100
AcDbEntity
  8
0
  6
Continuous
 62
     7
370
    25
100
AcDbLine
 10
252.8859277135
 20
115.183604406
 30
0.0
 11
252.8859277135
 21
117.4336047748
 31
0.0
  0
LINE
  5
8B
330
1F
100
AcDbEntity
  8
0
  6
Continuous
 62
     7
370
    25
100
AcDbLine
 10
252.8859277135
 20
112.9336045029
 30
0.0
 11
252.8859277135
 21
115.183604406
 31
0.0
  0
LINE
  5
8C
330
1F
100
AcDbEntity
  8
0
  6
Continuous
 62
     7
370
    25
100
AcDbLine
 10
243.8859243756
 20
115.183604406
 30
0.0
 11
243.8859243756
 21
117.4336047748
 31
0.0
  0
LINE
  5
8D
330
1F
100
AcDbEntity
  8
0
  6
Continuous
 62
     7
370
    25
100
AcDbLine
 10
243.8859243756
 20
112.9336045029
 30
0.0
 11
243.8859243756
 21
115.183604406
 31
0.0
  0
LINE
  5
8E
330
1F
100
AcDbEntity
  8
0
  6
Continuous
 62
     7
370
    25
100
AcDbLine
 10
252.8859277135
 20
100.1295209767
 30
0.0
 11
252.8859277135
 21
102.3795208799
 31
0.0
  0
LINE
  5
8F
330
1F
100
AcDbEntity
  8
0
  6
Continuous
 62
     7
370
    25
100
AcDbLine
 10
252.8859277135
 20
97.8795206079
 30
0.0
 11
252.8859277135
 21
100.1295209767
 31
0.0
  0
LINE
  5
90
330
1F
100
AcDbEntity
  8
0
  6
Continuous
 62
     7
370
    25
100
AcDbLine
 10
243.8859243756
 20
100.1295209767
 30
0.0
 11
243.8859243756
 21
102.3795208799
 31
0.0
  0
LINE
  5
91
330
1F
100
AcDbEntity
  8
0
  6
Continuous
 62
     7
370
    25
100
AcDbLine
 10
243.8859243756
 20
97.8795206079
 30
0.0
 11
243.8859243756
 21
100.1295209767
 31
0.0
  0
ARC
  5
92
330
1F
100
AcDbEntity
  8
0
  6
Continuous
 62
     7
370
    25
100
AcDbCircle
 10
255.4788257163
 20
114.283670142
 30
0.0
 40
2.000065932052669
100
AcDbArc
 50
236.9766772769
 51
269.9993855448
  0
LINE
  5
93
330
1F
100
AcDbEntity
  8
0
  6
Continuous
 62
     7
370
    25
100
AcDbLine
 10
254.3888290292
 20
112.6067172641
 30
0.0
 11
252.8859277135
 21
113.58360433
 31
0.0
  0
LINE
  5
94
330
1F
100
AcDbEntity
  8
0
  6
Continuous
 62
     7
370
    25
100
AcDbLine
 10
255.478804267
 20
118.083604602
 30
0.0
 11
263.5859300262
 21
118.083604602
 31
0.0
  0
ARC
  5
95
330
1F
100
AcDbEntity
  8
0
  6
Continuous
 62
     7
370
    25
100
AcDbCircle
 10
263.5859271859
 20
117.7835966833
 30
0.0
 40
0.3000079186412147
100
AcDbArc
 50
0.0014317694
 51
89.99945757
  0
LINE
  5
96
330
1F
100
AcDbEntity
  8
0
  6
Continuous
 62
     7
370
    25
100
AcDbLine
 10
263.8859351045
 20
117.7836041803
 30
0.0
 11
263.8859351045
 21
117.0836044381
 31
0.0
  0
ARC
  5
97
330
1F
100
AcDbEntity
  8
0
  6
Continuous
 62
     7
370
    25
100
AcDbCircle
 10
263.5859271859
 20
117.083611935
 30
0.0
 40
0.300007918641249
100
AcDbArc
 50
270.00054243
 51
359.9985682306
  0
LINE
  5
98
330
1F
100
AcDbEntity
  8
0
  6
Continuous
 62
     7
370
    25
100
AcDbLine
 10
259.18593005
 20
116.7836040164
 30
0.0
 11
263.5859300262
 21
116.7836040164
 31
0.0
  0
ARC
  5
99
330
1F
100
AcDbEntity
  8
0
  6
Continuous
 62
     7
370
    25
100
AcDbCircle
 10
259.1668978107
 20
115.1836041732
 30
0.0
 40
1.600113034839278
100
AcDbArc
 50
89.3184902079
 51
270.6815097921
  0
LINE
  5
9A
330
1F
100
AcDbEntity
  8
0
  6
Continuous
 62
     7
370
    25
100
AcDbLine
 10
263.5859300262
 20
113.58360433
 30
0.0
 11
259.18593005
 21
113.58360433
 31
0.0
  0
ARC
  5
9B
330
1F
100
AcDbEntity
  8
0
  6
Continuous
 62
     7
370
    25
100
AcDbCircle
 10
263.5859279809
 20
113.2835972064
 30
0.0
 40
0.3000071236754873
100
AcDbArc
 50
0.0013688834
 51
89.9996093907
  0
LINE
  5
9C
330
1F
100
AcDbEntity
  8
0
  6
Continuous
 62
     7
370
    25
100
AcDbLine
 10
263.8859351045
 20
113.283604374
 30
0.0
 11
263.8859351045
 21
112.5836046318
 31
0.0
  0
ARC
  5
9D
330
1F
100
AcDbEntity
  8
0
  6
Continuous
 62
     7
370
    25
100
AcDbCircle
 10
263.5859279809
 20
112.5836113337
 30
0.0
 40
0.3000071236571328
100
AcDbArc
 50
270.0003906079
 51
359.9987200527
  0
LINE
  5
9E
330
1F
100
AcDbEntity
  8
0
  6
Continuous
 62
     7
370
    25
100
AcDbLine
 10
263.5859300262
 20
112.2836042101
 30
0.0
 11
255.478804267
 21
112.2836042101
 31
0.0
  0
ARC
  5
9F
330
1F
100
AcDbEntity
  8
0
  6
Continuous
 62
     7
370
    25
100
AcDbCircle
 10
255.4788226392
 20
116.0835490502
 30
0.0
 40
2.000055551812967
100
AcDbArc
 50
90.0005263079
 51
123.0234108703
  0
LINE
  5
A0
330
1F
100
AcDbEntity
  8
0
  6
Continuous
 62
     7
370
    25
100
AcDbLine
 10
252.8859277135
 20
116.7836040164
 30
0.0
 11
254.3888290292
 21
117.7604915479
 31
0.0
  0
LINE
  5
A1
330
1F
100
AcDbEntity
  8
0
  6
Continuous
 62
     7
370
    25
100
AcDbLine
 10
254.3888290292
 20
97.5526338348
 30
0.0
 11
252.8859277135
 21
98.5295213664
 31
0.0
  0
ARC
  5
A2
330
1F
100
AcDbEntity
  8
0
  6
Continuous
 62
     7
370
    25
100
AcDbCircle
 10
263.5859279809
 20
102.729514049
 30
0.0
 40
0.3000071236571059
100
AcDbArc
 50
0.0012799472
 51
89.9996093921
  0
LINE
  5
A3
330
1F
100
AcDbEntity
  8
0
  6
Continuous
 62
     7
370
    25
100
AcDbLine
 10
259.18593005
 20
101.7295210527
 30
0.0
 11
263.5859300262
 21
101.7295210527
 31
0.0
  0
ARC
  5
A4
330
1F
100
AcDbEntity
  8
0
  6
Continuous
 62
     7
370
    25
100
AcDbCircle
 10
259.1668978107
 20
100.1295212096
 30
0.0
 40
1.600113034839278
100
AcDbArc
 50
89.3184902079
 51
270.6815097921
  0
LINE
  5
A5
330
1F
100
AcDbEntity
  8
0
  6
Continuous
 62
     7
370
    25
100
AcDbLine
 10
263.5859300262
 20
98.5295213664
 30
0.0
 11
259.18593005
 21
98.5295213664
 31
0.0
  0
LINE
  5
A6
330
1F
100
AcDbEntity
  8
0
  6
Continuous
 62
     7
370
    25
100
AcDbLine
 10
255.478804267
 20
103.0295211727
 30
0.0
 11
263.5859300262
 21
103.0295211727
 31
0.0
  0
LINE
  5
A7
330
1F
100
AcDbEntity
  8
0
  6
Continuous
 62
     7
370
    25
100
AcDbLine
 10
263.8859351045
 20
102.729520751
 30
0.0
 11
263.8859351045
 21
102.0295210088
 31
0.0
  0
ARC
  5
A8
330
1F
100
AcDbEntity
  8
0
  6
Continuous
 62
     7
370
    25
100
AcDbCircle
 10
255.4788226392
 20
99.2295763325
 30
0.0
 40
2.000055551813086
100
AcDbArc
 50
236.9765891297
 51
269.9994736921
  0
LINE
  5
A9
330
1F
100
AcDbEntity
  8
0
  6
Continuous
 62
     7
370
    25
100
AcDbLine
 10
263.5859300262
 20
97.2295207808
 30
0.0
 11
255.478804267
 21
97.2295207808
 31
0.0
  0
LINE
  5
AA
330
1F
100
AcDbEntity
  8
0
  6
Continuous
 62
     7
370
    25
100
AcDbLine
 10
263.8859351045
 20
98.2295209447
 30
0.0
 11
263.8859351045
 21
97.5295212025
 31
0.0
  0
ARC
  5
AB
330
1F
100
AcDbEntity
  8
0
  6
Continuous
 62
     7
370
    25
100
AcDbCircle
 10
263.5859279809
 20
102.0295281764
 30
0.0
 40
0.3000071236755441
100
AcDbArc
 50
270.0003906093
 51
359.9986311166
  0
ARC
  5
AC
330
1F
100
AcDbEntity
  8
0
  6
Continuous
 62
     7
370
    25
100
AcDbCircle
 10
263.5859271859
 20
98.2295134478
 30
0.0
 40
0.3000079186412147
100
AcDbArc
 50
0.0014317694
 51
89.99945757
  0
ARC
  5
AD
330
1F
100
AcDbEntity
  8
0
  6
Continuous
 62
     7
370
    25
100
AcDbCircle
 10
255.4788257163
 20
101.0294552408
 30
0.0
 40
2.000065932052683
100
AcDbArc
 50
90.0006144552
 51
123.0233227231
  0
ARC
  5
AE
330
1F
100
AcDbEntity
  8
0
  6
Continuous
 62
     7
370
    25
100
AcDbCircle
 10
263.5859271859
 20
97.5295286994
 30
0.0
 40
0.300007918641249
100
AcDbArc
 50
270.00054243
 51
359.9985682306
  0
LINE
  5
AF
330
1F
100
AcDbEntity
  8
0
  6
Continuous
 62
     7
370
    25
100
AcDbLine
 10
252.8859277135
 20
101.7295210527
 30
0.0
 11
254.3888290292
 21
102.7064081187
 31
0.0
  0
LINE
  5
B0
330
1F
100
AcDbEntity
  8
0
  6
Continuous
 62
     7
370
    25
100
AcDbLine
 10
192.4392082583
 20
105.1565627473
 30
0.0
 11
193.4392102849
 21
106.0765626513
 31
0.0
  0
LINE
  5
B1
330
1F
100
AcDbEntity
  8
0
  6
Continuous
 62
     7
370
    25
100
AcDbLine
 10
193.4392102849
 20
109.2365627315
 30
0.0
 11
192.4392082583
 21
110.1565626355
 31
0.0
  0
LINE
  5
B2
330
1F
100
AcDbEntity
  8
0
  6
Continuous
 62
     7
370
    25
100
AcDbLine
 10
182.4392103445
 20
105.1565627473
 30
0.0
 11
192.4392082583
 21
105.1565627473
 31
0.0
  0
LINE
  5
B3
330
1F
100
AcDbEntity
  8
0
  6
Continuous
 62
     7
370
    25
100
AcDbLine
 10
192.4392082583
 20
110.1565626355
 30
0.0
 11
182.4392103445
 21
110.1565626355
 31
0.0
  0
LINE
  5
B4
330
1F
100
AcDbEntity
  8
0
  6
Continuous
 62
     7
370
    25
100
AcDbLine
 10
193.4392102849
 20
106.0765626513
 30
0.0
 11
201.4392041456
 21
106.0765626513
 31
0.0
  0
LINE
  5
B5
330
1F
100
AcDbEntity
  8
0
  6
Continuous
 62
     7
370
    25
100
AcDbLine
 10
201.4392041456
 20
109.2365627315
 30
0.0
 11
193.4392102849
 21
109.2365627315
 31
0.0
  0
LINE
  5
B6
330
1F
100
AcDbEntity
  8
0
  6
Continuous
 62
     7
370
    25
100
AcDbLine
 10
201.4399566543
 20
107.7816676457
 30
0.0
 11
223.6935817492
 21
110.9092109742
 31
0.0
  0
LINE
  5
B7
330
1F
100
AcDbEntity
  8
0
  6
Continuous
 62
     7
370
    25
100
AcDbLine
 10
223.692642976
 20
111.659079315
 30
0.0
 11
201.4392041456
 21
108.5315627184
 31
0.0
  0
LINE
  5
B8
330
1F
100
AcDbEntity
  8
0
  6
Continuous
 62
     7
370
    25
100
AcDbLine
 10
225.1396649372
 20
104.2006811964
 30
0.0
 11
201.4399566543
 21
107.531457737
 31
0.0
  0
LINE
  5
B9
330
1F
100
AcDbEntity
  8
0
  6
Continuous
 62
     7
370
    25
100
AcDbLine
 10
201.4392041456
 20
106.7815626644
 30
0.0
 11
225.1245998632
 21
103.4527979696
 31
0.0
  0
LINE
  5
BA
330
1F
100
AcDbEntity
  8
0
  6
Continuous
 62
     7
370
    25
100
AcDbLine
 10
182.4392103445
 20
109.9565627424
 30
0.0
 11
158.2140051615
 21
109.9565627424
 31
0.0
  0
LINE
  5
BB
330
1F
100
AcDbEntity
  8
0
  6
Continuous
 62
     7
370
    25
100
AcDbLine
 10
159.2820831429
 20
105.3565626403
 30
0.0
 11
182.4392103445
 21
105.3565626403
 31
0.0
  0
LINE
  5
BC
330
1F
100
AcDbEntity
  8
0
  6
Continuous
 62
     7
370
    25
100
AcDbLine
 10
182.4392103445
 20
107.6565626914
 30
0.0
 11
182.4392103445
 21
110.1565626355
 31
0.0
  0
LINE
  5
BD
330
1F
100
AcDbEntity
  8
0
  6
Continuous
 62
     7
370
    25
100
AcDbLine
 10
182.4392103445
 20
105.1565627473
 30
0.0
 11
182.4392103445
 21
107.6565626914
 31
0.0
  0
LINE
  5
BE
330
1F
100
AcDbEntity
  8
0
  6
Continuous
 62
     7
370
    25
100
AcDbLine
 10
201.4392041456
 20
107.6565626914
 30
0.0
 11
201.4392041456
 21
109.2365627315
 31
0.0
  0
LINE
  5
BF
330
1F
100
AcDbEntity
  8
0
  6
Continuous
 62
     7
370
    25
100
AcDbLine
 10
201.4392041456
 20
106.0765626513
 30
0.0
 11
201.4392041456
 21
107.6565626914
 31
0.0
  0
ARC
  5
C0
330
1F
100
AcDbEntity
  8
0
  6
Continuous
 62
     7
370
    25
100
AcDbCircle
 10
123.8700786884
 20
98.3891580533
 30
0.0
 40
0.8855024726833743
100
AcDbArc
 50
269.9996094931
 51
1.3489940291
  0
ARC
  5
C1
330
1F
100
AcDbEntity
  8
0
  6
Continuous
 62
     7
370
    25
100
AcDbCircle
 10
120.8405934919
 20
98.3891580533
 30
0.0
 40
0.8855024726511059
100
AcDbArc
 50
178.65100597
 51
269.9999084247
  0
LINE
  5
C2
330
1F
100
AcDbEntity
  8
0
  6
Continuous
 62
     7
370
    25
100
AcDbLine
 10
124.7553357385
 20
98.4100047404
 30
0.0
 11
124.7553357385
 21
99.2036554868
 31
0.0
  0
LINE
  5
C3
330
1F
100
AcDbEntity
  8
0
  6
Continuous
 62
     7
370
    25
100
AcDbLine
 10
119.9553364419
 20
99.2036554868
 30
0.0
 11
119.9553364419
 21
98.4100047404
 31
0.0
  0
LINE
  5
C4
330
1F
100
AcDbEntity
  8
0
  6
Continuous
 62
     7
370
    25
100
AcDbLine
 10
123.8553354047
 20
99.2036554868
 30
0.0
 11
123.8553354047
 21
101.6278127114
 31
0.0
  0
LINE
  5
C5
330
1F
100
AcDbEntity
  8
0
  6
Continuous
 62
     7
370
    25
100
AcDbLine
 10
120.8553367757
 20
101.635312652
 30
0.0
 11
120.8553367757
 21
99.2036554868
 31
0.0
  0
LINE
  5
C6
330
1F
100
AcDbEntity
  8
0
  6
Continuous
 62
     7
370
    25
100
AcDbLine
 10
117.3584365748
 20
113.6690704057
 30
0.0
 11
112.8565871619
 21
113.6578158381
 31
0.0
  0
LINE
  5
C7
330
1F
100
AcDbEntity
  8
0
  6
Continuous
 62
     7
370
    25
100
AcDbLine
 10
131.8553367161
 20
113.7053128237
 30
0.0
 11
127.3543031417
 21
113.6940601187
 31
0.0
  0
LINE
  5
C8
330
1F
100
AcDbEntity
  8
0
  6
Continuous
 62
     7
370
    25
100
AcDbLine
 10
123.9348480009
 20
101.627613874
 30
0.0
 11
131.8553367161
 21
101.6078125591
 31
0.0
  0
LINE
  5
C9
330
1F
100
AcDbEntity
  8
0
  6
Continuous
 62
     7
370
    25
100
AcDbLine
 10
112.8565871619
 20
101.6553095447
 30
0.0
 11
120.7607069515
 21
101.635549208
 31
0.0
  0
LINE
  5
CA
330
1F
100
AcDbEntity
  8
0
  6
Continuous
 62
     7
370
    25
100
AcDbLine
 10
131.8553367161
 20
101.6078125591
 30
0.0
 11
132.3553377293
 21
102.1053171622
 31
0.0
  0
LINE
  5
CB
330
1F
100
AcDbEntity
  8
0
  6
Continuous
 62
     7
370
    25
100
AcDbLine
 10
132.3553377293
 20
113.2078082206
 30
0.0
 11
131.8553367161
 21
113.7053128237
 31
0.0
  0
LINE
  5
CC
330
1F
100
AcDbEntity
  8
0
  6
Continuous
 62
     7
370
    25
100
AcDbLine
 10
112.8565871619
 20
113.6578158381
 30
0.0
 11
112.3553344511
 21
113.1565626616
 31
0.0
  0
LINE
  5
CD
330
1F
100
AcDbEntity
  8
0
  6
Continuous
 62
     7
370
    25
100
AcDbLine
 10
112.3553344511
 20
102.1565627212
 30
0.0
 11
112.8565871619
 21
101.6553095447
 31
0.0
  0
SPLINE
  5
CE
330
1F
100
AcDbEntity
  8
0
  6
Continuous
 62
     7
370
    25
100
AcDbSpline
210
0.0
220
0.0
230
1.0
 70
     8
 71
     3
 72
    17
 73
    13
 74
     0
 42
0.00000001
 43
0.00000001
 40
0.0
 40
0.0
 40
0.0
 40
0.0
 40
0.0968061793929155
 40
0.1874710915047988
 40
0.2689937507973427
 40
0.3402134285401891
 40
0.4533367218947792
 40
0.541216989103397
 40
0.6392488462310001
 40
0.7525934606763154
 40
0.87611285993671
 40
1.0
 40
1.0
 40
1.0
 40
1.0
 10
101.2112179301925
 20
104.5006660184066
 30
0.0
 10
101.2169214670305
 20
104.4562858312342
 30
0.0
 10
101.2279667152076
 20
104.3703408824452
 30
0.0
 10
101.285448948905
 20
104.2585055001691
 30
0.0
 10
101.3588001852193
 20
104.1730768868987
 30
0.0
 10
101.4580000849737
 20
104.1004892305613
 30
0.0
 10
101.5781452759684
 20
104.0564060398936
 30
0.0
 10
101.7173866234422
 20
104.0542166205251
 30
0.0
 10
101.8510216002987
 20
104.0960416788428
 30
0.0
 10
101.9763572365569
 20
104.1893100675849
 30
0.0
 10
102.0727570081316
 20
104.3305267166918
 30
0.0
 10
102.0905460537446
 20
104.4438967474171
 30
0.0
 10
102.0994537972159
 20
104.5006660184066
 30
0.0
  0
SPLINE
  5
CF
330
1F
100
AcDbEntity
  8
0
  6
Continuous
 62
     7
370
    25
100
AcDbSpline
210
0.0
220
0.0
230
1.0
 70
     8
 71
     3
 72
    17
 73
    13
 74
     0
 42
0.00000001
 43
0.00000001
 40
0.0
 40
0.0
 40
0.0
 40
0.0
 40
0.0968059993724922
 40
0.1874731478426015
 40
0.2689921179711774
 40
0.3402160311738265
 40
0.4533391141647469
 40
0.5412192179515356
 40
0.6392508927794496
 40
0.7525909363083338
 40
0.8761130903167904
 40
1.0
 40
1.0
 40
1.0
 40
1.0
 10
102.8112152122207
 20
104.5006660184066
 30
0.0
 10
102.8169178414405
 20
104.4562852907261
 30
0.0
 10
102.8279614736302
 20
104.3703381926565
 30
0.0
 10
102.8854561294743
 20
104.2585106523277
 30
0.0
 10
102.9587973772171
 20
104.1730716836822
 30
0.0
 10
103.0580053136783
 20
104.1004928656271
 30
0.0
 10
103.1781495223387
 20
104.0564052264773
 30
0.0
 10
103.3173912244837
 20
104.0542171476092
 30
0.0
 10
103.4510256437392
 20
104.0960394688191
 30
0.0
 10
103.5763540777528
 20
104.1893151231649
 30
0.0
 10
103.6727633951431
 20
104.3305238958937
 30
0.0
 10
103.6905514099623
 20
104.4438962625337
 30
0.0
 10
103.6994585298248
 20
104.5006660184066
 30
0.0
  0
SPLINE
  5
D0
330
1F
100
AcDbEntity
  8
0
  6
Continuous
 62
     7
370
    25
100
AcDbSpline
210
0.0
220
0.0
230
1.0
 70
     8
 71
     3
 72
    17
 73
    13
 74
     0
 42
0.00000001
 43
0.00000001
 40
0.0
 40
0.0
 40
0.0
 40
0.0
 40
0.0968058661969621
 40
0.1874728899367278
 40
0.2689917479200635
 40
0.3402155631403308
 40
0.4533384905083906
 40
0.5412184733989592
 40
0.6392500133651875
 40
0.7525942611079348
 40
0.8761132607473936
 40
1.0
 40
1.0
 40
1.0
 40
1.0
 10
104.4112124942489
 20
104.5006660184066
 30
0.0
 10
104.4169151233366
 20
104.4562852908815
 30
0.0
 10
104.4279587552703
 20
104.3703381931126
 30
0.0
 10
104.4854534128807
 20
104.2585106507079
 30
0.0
 10
104.558794654889
 20
104.1730716888023
 30
0.0
 10
104.6580026131898
 20
104.1004928450786
 30
0.0
 10
104.7781467053039
 20
104.0564053429086
 30
0.0
 10
104.9173887954874
 20
104.0542168079689
 30
0.0
 10
105.0510235632822
 20
104.096041617333
 30
0.0
 10
105.176359267263
 20
104.1893100867202
 30
0.0
 10
105.2727590185942
 20
104.3305267117208
 30
0.0
 10
105.2905480669887
 20
104.4438967457584
 30
0.0
 10
105.299455811853
 20
104.5006660184066
 30
0.0
  0
SPLINE
  5
D1
330
1F
100
AcDbEntity
  8
0
  6
Continuous
 62
     7
370
    25
100
AcDbSpline
210
0.0
220
0.0
230
1.0
 70
     8
 71
     3
 72
    17
 73
    13
 74
     0
 42
0.00000001
 43
0.00000001
 40
0.0
 40
0.0
 40
0.0
 40
0.0
 40
0.0968062491768841
 40
0.1874712266457252
 40
0.2689939447049175
 40
0.3402180416983073
 40
0.4533363278255855
 40
0.5412166583838143
 40
0.6392485861789315
 40
0.7525932823301572
 40
0.8761127706310856
 40
1.0
 40
1.0
 40
1.0
 40
1.0
 10
106.0112172268577
 20
104.5006660184066
 30
0.0
 10
106.016920734744
 20
104.4562857892678
 30
0.0
 10
106.0279659268543
 20
104.3703407592081
 30
0.0
 10
106.0854485474795
 20
104.2585059377966
 30
0.0
 10
106.1587998437867
 20
104.173073970496
 30
0.0
 10
106.258004804538
 20
104.1004940386154
 30
0.0
 10
106.3781462462291
 20
104.0564045574888
 30
0.0
 10
106.5173861072671
 20
104.0542170091843
 30
0.0
 10
106.6510208355474
 20
104.0960415513042
 30
0.0
 10
106.7763565523284
 20
104.1893101072613
 30
0.0
 10
106.8727562998334
 20
104.3305267063845
 30
0.0
 10
106.8905453487536
 20
104.4438967439779
 30
0.0
 10
106.8994530938811
 20
104.5006660184066
 30
0.0
  0
SPLINE
  5
D2
330
1F
100
AcDbEntity
  8
0
  6
Continuous
 62
     7
370
    25
100
AcDbSpline
210
0.0
220
0.0
230
1.0
 70
     8
 71
     3
 72
    17
 73
    13
 74
     0
 42
0.00000001
 43
0.00000001
 40
0.0
 40
0.0
 40
0.0
 40
0.0
 40
0.0968058661969621
 40
0.1874728899367278
 40
0.2689917479200635
 40
0.3402155631403308
 40
0.4533384905083906
 40
0.5412184733989592
 40
0.6392500133651875
 40
0.7525942611079348
 40
0.8761132607473936
 40
1.0
 40
1.0
 40
1.0
 40
1.0
 10
107.6112145088859
 20
104.5006660184066
 30
0.0
 10
107.6169171379736
 20
104.4562852908815
 30
0.0
 10
107.6279607699073
 20
104.3703381931126
 30
0.0
 10
107.6854554275177
 20
104.2585106507079
 30
0.0
 10
107.758796669526
 20
104.1730716888023
 30
0.0
 10
107.8580046278268
 20
104.1004928450786
 30
0.0
 10
107.9781487199409
 20
104.0564053429086
 30
0.0
 10
108.1173908101244
 20
104.0542168079689
 30
0.0
 10
108.2510255779192
 20
104.096041617333
 30
0.0
 10
108.3763612819
 20
104.1893100867202
 30
0.0
 10
108.4727610332312
 20
104.3305267117208
 30
0.0
 10
108.4905500816257
 20
104.4438967457584
 30
0.0
 10
108.4994578264899
 20
104.5006660184066
 30
0.0
  0
SPLINE
  5
D3
330
1F
100
AcDbEntity
  8
0
  6
Continuous
 62
     7
370
    25
100
AcDbSpline
210
0.0
220
0.0
230
1.0
 70
     8
 71
     3
 72
    17
 73
    13
 74
     0
 42
0.00000001
 43
0.00000001
 40
0.0
 40
0.0
 40
0.0
 40
0.0
 40
0.0968070095264631
 40
0.1874717549562597
 40
0.2689907268094102
 40
0.3402146415188369
 40
0.4533377269029327
 40
0.541217832548869
 40
0.639249509450692
 40
0.7525939155186272
 40
0.8761130876959008
 40
1.0
 40
1.0
 40
1.0
 40
1.0
 10
109.2112117909141
 20
104.5006660184066
 30
0.0
 10
109.2169182494317
 20
104.456285769373
 30
0.0
 10
109.2279690999654
 20
104.3703411336237
 30
0.0
 10
109.2854510300893
 20
104.2585087364762
 30
0.0
 10
109.358794471998
 20
104.1730719204543
 30
0.0
 10
109.4580016883905
 20
104.1004927465036
 30
0.0
 10
109.5781460550642
 20
104.0564053665415
 30
0.0
 10
109.7173880778734
 20
104.0542168016131
 30
0.0
 10
109.8510228646331
 20
104.0960416194187
 30
0.0
 10
109.9763585624705
 20
104.1893100860714
 30
0.0
 10
110.0727583156381
 20
104.3305267118893
 30
0.0
 10
110.0905473637802
 20
104.4438967458147
 30
0.0
 10
110.0994551085181
 20
104.5006660184066
 30
0.0
  0
SPLINE
  5
D4
330
1F
100
AcDbEntity
  8
0
  6
Continuous
 62
     7
370
    25
100
AcDbSpline
210
0.0
220
0.0
230
1.0
 70
     8
 71
     3
 72
    17
 73
    13
 74
     0
 42
0.00000001
 43
0.00000001
 40
0.0
 40
0.0
 40
0.0
 40
0.0
 40
0.0968062396260755
 40
0.1874736131143391
 40
0.2689927855570775
 40
0.3402168755235684
 40
0.4533351504907087
 40
0.5412154723787512
 40
0.6392473905021355
 40
0.7525920754708858
 40
0.8761115515855039
 40
1.0
 40
1.0
 40
1.0
 40
1.0
 10
110.8112165235229
 20
104.5006660184066
 30
0.0
 10
110.8169191516407
 20
104.4562852878035
 30
0.0
 10
110.8279627816961
 20
104.3703381840739
 30
0.0
 10
110.8854574522688
 20
104.2585106828054
 30
0.0
 10
110.9587986521929
 20
104.1730715873443
 30
0.0
 10
111.0580048718956
 20
104.1004946414372
 30
0.0
 10
111.1781453504822
 20
104.0564044147723
 30
0.0
 10
111.3173854767951
 20
104.0542170425553
 30
0.0
 10
111.4510200105295
 20
104.096041563558
 30
0.0
 10
111.5763563325869
 20
104.1893099976617
 30
0.0
 10
111.6727539669085
 20
104.3305276518608
 30
0.0
 10
111.6905490368165
 20
104.4438968717542
 30
0.0
 10
111.6994598411269
 20
104.5006660184066
 30
0.0
  0
SPLINE
  5
D5
330
1F
100
AcDbEntity
  8
0
  6
Continuous
 62
     7
370
    25
100
AcDbSpline
210
0.0
220
0.0
230
1.0
 70
     8
 71
     3
 72
    10
 73
     6
 74
     0
 42
0.00000001
 43
0.00000001
 40
0.0
 40
0.0
 40
0.0
 40
0.0
 40
0.0398721537554198
 40
0.5192213254281257
 40
1.0
 40
1.0
 40
1.0
 40
1.0
 10
132.3553377293296
 20
104.1842263562779
 30
0.0
 10
132.3591755045807
 20
104.1869760317136
 30
0.0
 10
132.4091516048126
 20
104.222782728612
 30
0.0
 10
132.4706252585512
 20
104.3333173010853
 30
0.0
 10
132.4898375747251
 20
104.4448277712041
 30
0.0
 10
132.4994580351062
 20
104.5006660184066
 30
0.0
  0
SPLINE
  5
D6
330
1F
100
AcDbEntity
  8
0
  6
Continuous
 62
     7
370
    25
100
AcDbSpline
210
0.0
220
0.0
230
1.0
 70
     8
 71
     3
 72
    17
 73
    13
 74
     0
 42
0.00000001
 43
0.00000001
 40
0.0
 40
0.0
 40
0.0
 40
0.0
 40
0.0968060576925226
 40
0.1874720582720848
 40
0.2689928462688909
 40
0.3402168023798391
 40
0.4533374091353681
 40
0.54121756586485
 40
0.6392492997511932
 40
0.7525937717047356
 40
0.8761130156820738
 40
1.0
 40
1.0
 40
1.0
 40
1.0
 10
133.2112157248206
 20
104.5006660184066
 30
0.0
 10
133.2169187933026
 20
104.4562855400779
 30
0.0
 10
133.2279632053184
 20
104.3703394761879
 30
0.0
 10
133.2854518444514
 20
104.2585082942394
 30
0.0
 10
133.3587981136275
 20
104.1730728296468
 30
0.0
 10
133.4580045731086
 20
104.1004934418319
 30
0.0
 10
133.5781473400425
 20
104.0564049502073
 30
0.0
 10
133.7173883156426
 20
104.0542169085732
 30
0.0
 10
133.8510230636828
 20
104.0960415843197
 30
0.0
 10
133.9763587740628
 20
104.1893100969904
 30
0.0
 10
134.0727585234812
 20
104.3305267090527
 30
0.0
 10
134.0905475721385
 20
104.4438967448682
 30
0.0
 10
134.0994553171344
 20
104.5006660184066
 30
0.0
  0
SPLINE
  5
D7
330
1F
100
AcDbEntity
  8
0
  6
Continuous
 62
     7
370
    25
100
AcDbSpline
210
0.0
220
0.0
230
1.0
 70
     8
 71
     3
 72
    17
 73
    13
 74
     0
 42
0.00000001
 43
0.00000001
 40
0.0
 40
0.0
 40
0.0
 40
0.0
 40
0.0968060228020336
 40
0.1874719907040839
 40
0.2689927493194625
 40
0.3402144957919055
 40
0.453337606161521
 40
0.5412177312175548
 40
0.6392494297716551
 40
0.7525938608739932
 40
0.8761130603329723
 40
1.0
 40
1.0
 40
1.0
 40
1.0
 10
134.8112167321391
 20
104.5006660184066
 30
0.0
 10
134.8169198150957
 20
104.4562855610601
 30
0.0
 10
134.8279642551425
 20
104.3703395378037
 30
0.0
 10
134.8854527008279
 20
104.2585080754354
 30
0.0
 10
134.9587989399839
 20
104.1730742878437
 30
0.0
 10
135.0580028690261
 20
104.1004910378283
 30
0.0
 10
135.1781475105473
 20
104.0564056913949
 30
0.0
 10
135.3173892293852
 20
104.0542167142486
 30
0.0
 10
135.4510241017082
 20
104.0960416480874
 30
0.0
 10
135.5763597718286
 20
104.1893100771527
 30
0.0
 10
135.6727595332814
 20
104.3305267142062
 30
0.0
 10
135.6905485802851
 20
104.4438967465877
 30
0.0
 10
135.6994563244529
 20
104.5006660184066
 30
0.0
  0
SPLINE
  5
D8
330
1F
100
AcDbEntity
  8
0
  6
Continuous
 62
     7
370
    25
100
AcDbSpline
210
0.0
220
0.0
230
1.0
 70
     8
 71
     3
 72
    17
 73
    13
 74
     0
 42
0.00000001
 43
0.00000001
 40
0.0
 40
0.0
 40
0.0
 40
0.0
 40
0.0968066284185376
 40
0.1874726914758457
 40
0.2689917668894795
 40
0.3402157720807027
 40
0.4533390011746751
 40
0.5412192184621839
 40
0.6392484355532994
 40
0.7525929856122737
 40
0.8761123147064571
 40
1.0
 40
1.0
 40
1.0
 40
1.0
 10
136.4112140141673
 20
104.5006660184066
 30
0.0
 10
136.4169185578951
 20
104.456285530326
 30
0.0
 10
136.4279657990164
 20
104.3703396639593
 30
0.0
 10
136.4854540937448
 20
104.2585096914567
 30
0.0
 10
136.5587964329678
 20
104.1730718113259
 30
0.0
 10
136.6580040306338
 20
104.1004927689131
 30
0.0
 10
136.7781482049902
 20
104.0564055070192
 30
0.0
 10
136.917389241354
 20
104.0542163794549
 30
0.0
 10
137.0510221891183
 20
104.0960426774364
 30
0.0
 10
137.1763573270695
 20
104.1893099279428
 30
0.0
 10
137.27275599234
 20
104.3305272114509
 30
0.0
 10
137.2905480552877
 20
104.4438968186565
 30
0.0
 10
137.2994573317714
 20
104.5006660184066
 30
0.0
  0
SPLINE
  5
D9
330
1F
100
AcDbEntity
  8
0
  6
Continuous
 62
     7
370
    25
100
AcDbSpline
210
0.0
220
0.0
230
1.0
 70
     8
 71
     3
 72
    17
 73
    13
 74
     0
 42
0.00000001
 43
0.00000001
 40
0.0
 40
0.0
 40
0.0
 40
0.0
 40
0.0968060529142282
 40
0.1874732515307804
 40
0.2689922667460988
 40
0.3402162193414714
 40
0.4533368205134288
 40
0.5412169729051939
 40
0.6392487019527439
 40
0.7525931683116649
 40
0.8761124061921604
 40
1.0
 40
1.0
 40
1.0
 40
1.0
 10
138.0112150214858
 20
104.5006660184066
 30
0.0
 10
138.0169176500886
 20
104.4562852893425
 30
0.0
 10
138.0279612810832
 20
104.3703381885935
 30
0.0
 10
138.0854559451744
 20
104.2585106667561
 30
0.0
 10
138.1587971661419
 20
104.1730716380752
 30
0.0
 10
138.2580042551381
 20
104.1004937432538
 30
0.0
 10
138.3781465404988
 20
104.0564048788476
 30
0.0
 10
138.5173876487397
 20
104.054216925259
 30
0.0
 10
138.6510222995059
 20
104.0960415904461
 30
0.0
 10
138.7763583125268
 20
104.1893100421928
 30
0.0
 10
138.8727570053377
 20
104.3305271817706
 30
0.0
 10
138.8905490645011
 20
104.4438968087533
 30
0.0
 10
138.8994583390899
 20
104.5006660184066
 30
0.0
  0
SPLINE
  5
DA
330
1F
100
AcDbEntity
  8
0
  6
Continuous
 62
     7
370
    25
100
AcDbSpline
210
0.0
220
0.0
230
1.0
 70
     8
 71
     3
 72
    17
 73
    13
 74
     0
 42
0.00000001
 43
0.00000001
 40
0.0
 40
0.0
 40
0.0
 40
0.0
 40
0.0968060228020336
 40
0.1874719907040839
 40
0.2689927493194625
 40
0.3402144957919055
 40
0.453337606161521
 40
0.5412177312175548
 40
0.6392494297716551
 40
0.7525938608739932
 40
0.8761130603329723
 40
1.0
 40
1.0
 40
1.0
 40
1.0
 10
139.6112160288043
 20
104.5006660184066
 30
0.0
 10
139.6169191117609
 20
104.4562855610601
 30
0.0
 10
139.6279635518077
 20
104.3703395378037
 30
0.0
 10
139.6854519974931
 20
104.2585080754354
 30
0.0
 10
139.7587982366491
 20
104.1730742878437
 30
0.0
 10
139.8580021656913
 20
104.1004910378283
 30
0.0
 10
139.9781468072125
 20
104.0564056913949
 30
0.0
 10
140.1173885260504
 20
104.0542167142486
 30
0.0
 10
140.2510233983734
 20
104.0960416480874
 30
0.0
 10
140.3763590684938
 20
104.1893100771527
 30
0.0
 10
140.4727588299465
 20
104.3305267142062
 30
0.0
 10
140.4905478769502
 20
104.4438967465877
 30
0.0
 10
140.4994556211181
 20
104.5006660184066
 30
0.0
  0
SPLINE
  5
DB
330
1F
100
AcDbEntity
  8
0
  6
Continuous
 62
     7
370
    25
100
AcDbSpline
210
0.0
220
0.0
230
1.0
 70
     8
 71
     3
 72
    17
 73
    13
 74
     0
 42
0.00000001
 43
0.00000001
 40
0.0
 40
0.0
 40
0.0
 40
0.0
 40
0.0968065446178998
 40
0.1874725291901493
 40
0.2689933027942532
 40
0.3402150623618047
 40
0.4533381935306773
 40
0.5412183347446943
 40
0.6392500513232857
 40
0.752592323182747
 40
0.8761130375546357
 40
1.0
 40
1.0
 40
1.0
 40
1.0
 10
141.2112133108325
 20
104.5006660184066
 30
0.0
 10
141.2169179483261
 20
104.4562856186238
 30
0.0
 10
141.2279653710316
 20
104.3703399232518
 30
0.0
 10
141.2854527906333
 20
104.258508035347
 30
0.0
 10
141.3587992923599
 20
104.1730742941369
 30
0.0
 10
141.4580031446029
 20
104.1004910443346
 30
0.0
 10
141.5781478687766
 20
104.0564056340834
 30
0.0
 10
141.7173893876154
 20
104.0542168838233
 30
0.0
 10
141.8510240873404
 20
104.0960405739126
 30
0.0
 10
141.976356121926
 20
104.1893125953404
 30
0.0
 10
142.0727606665982
 20
104.3305253063152
 30
0.0
 10
142.0905491967853
 20
104.4438965049788
 30
0.0
 10
142.0994566284366
 20
104.5006660184066
 30
0.0
  0
SPLINE
  5
DC
330
1F
100
AcDbEntity
  8
0
  6
Continuous
 62
     7
370
    25
100
AcDbSpline
210
0.0
220
0.0
230
1.0
 70
     8
 71
     3
 72
    17
 73
    13
 74
     0
 42
0.00000001
 43
0.00000001
 40
0.0
 40
0.0
 40
0.0
 40
0.0
 40
0.0968060683914994
 40
0.1874732815038478
 40
0.2689923097523586
 40
0.3402162737349574
 40
0.4533394373783469
 40
0.5412168995553454
 40
0.6392486442761265
 40
0.7525931287564666
 40
0.8761123863851149
 40
1.0
 40
1.0
 40
1.0
 40
1.0
 10
142.811214318151
 20
104.5006660184066
 30
0.0
 10
142.8169169472144
 20
104.456285290707
 30
0.0
 10
142.8279605791011
 20
104.3703381926003
 30
0.0
 10
142.885455237036
 20
104.2585106525272
 30
0.0
 10
142.958796477991
 20
104.1730716830517
 30
0.0
 10
143.0580044403033
 20
104.1004928681578
 30
0.0
 10
143.1781473175165
 20
104.0564056500982
 30
0.0
 10
143.317388122002
 20
104.0542170250696
 30
0.0
 10
143.4510216063464
 20
104.0960416817198
 30
0.0
 10
143.5763576060265
 20
104.1893100137981
 30
0.0
 10
143.6727563028253
 20
104.3305271891471
 30
0.0
 10
143.6905483614407
 20
104.4438968112145
 30
0.0
 10
143.6994576357551
 20
104.5006660184066
 30
0.0
  0
SPLINE
  5
DD
330
1F
100
AcDbEntity
  8
0
  6
Continuous
 62
     7
370
    25
100
AcDbSpline
210
0.0
220
0.0
230
1.0
 70
     8
 71
     3
 72
    17
 73
    13
 74
     0
 42
0.00000001
 43
0.00000001
 40
0.0
 40
0.0
 40
0.0
 40
0.0
 40
0.0968061125085461
 40
0.1874733669403051
 40
0.2689924323391603
 40
0.3402164287803746
 40
0.4533370995899721
 40
0.5412173060812236
 40
0.6392490954776243
 40
0.752593631611998
 40
0.8761129455315892
 40
1.0
 40
1.0
 40
1.0
 40
1.0
 10
144.4112153254695
 20
104.5006660184066
 30
0.0
 10
144.4169179540776
 20
104.4562852893413
 30
0.0
 10
144.4279615850825
 20
104.3703381885897
 30
0.0
 10
144.4854562491026
 20
104.2585106667692
 30
0.0
 10
144.5587974703009
 20
104.1730716380335
 30
0.0
 10
144.6580045584182
 20
104.1004937434208
 30
0.0
 10
144.7781468484692
 20
104.0564048779015
 30
0.0
 10
144.9173879410935
 20
104.054216928019
 30
0.0
 10
145.0510226561929
 20
104.0960415779386
 30
0.0
 10
145.1763583772436
 20
104.1893100989756
 30
0.0
 10
145.2727581234723
 20
104.330526708537
 30
0.0
 10
145.290547172568
 20
104.4438967446961
 30
0.0
 10
145.2994549177833
 20
104.5006660184066
 30
0.0
  0
SPLINE
  5
DE
330
1F
100
AcDbEntity
  8
0
  6
Continuous
 62
     7
370
    25
100
AcDbSpline
210
0.0
220
0.0
230
1.0
 70
     8
 71
     3
 72
    17
 73
    13
 74
     0
 42
0.00000001
 43
0.00000001
 40
0.0
 40
0.0
 40
0.0
 40
0.0
 40
0.0968060228020336
 40
0.1874719907040839
 40
0.2689927493194625
 40
0.3402144957919055
 40
0.453337606161521
 40
0.5412177312175548
 40
0.6392494297716551
 40
0.7525938608739932
 40
0.8761130603329723
 40
1.0
 40
1.0
 40
1.0
 40
1.0
 10
146.011216332788
 20
104.5006660184066
 30
0.0
 10
146.0169194157446
 20
104.4562855610601
 30
0.0
 10
146.0279638557914
 20
104.3703395378037
 30
0.0
 10
146.0854523014768
 20
104.2585080754354
 30
0.0
 10
146.1587985406328
 20
104.1730742878437
 30
0.0
 10
146.258002469675
 20
104.1004910378283
 30
0.0
 10
146.3781471111962
 20
104.0564056913949
 30
0.0
 10
146.5173888300341
 20
104.0542167142486
 30
0.0
 10
146.6510237023571
 20
104.0960416480874
 30
0.0
 10
146.7763593724775
 20
104.1893100771527
 30
0.0
 10
146.8727591339302
 20
104.3305267142062
 30
0.0
 10
146.8905481809339
 20
104.4438967465877
 30
0.0
 10
146.8994559251018
 20
104.5006660184066
 30
0.0
  0
SPLINE
  5
DF
330
1F
100
AcDbEntity
  8
0
  6
Continuous
 62
     7
370
    25
100
AcDbSpline
210
0.0
220
0.0
230
1.0
 70
     8
 71
     3
 72
    13
 73
     9
 74
     0
 42
0.00000001
 43
0.00000001
 40
0.0
 40
0.0
 40
0.0
 40
0.0
 40
0.0324556593412156
 40
0.4395060275873076
 40
0.6552773799437895
 40
0.8458385423861591
 40
0.9883883614390614
 40
1.0
 40
1.0
 40
1.0
 40
1.0
 10
100.0330427192397
 20
107.9538349200214
 30
0.0
 10
100.030681612588
 20
107.9854081700232
 30
0.0
 10
99.99870812549008
 20
108.4129648417402
 30
0.0
 10
99.94025573649736
 20
109.0486215264903
 30
0.0
 10
99.86789942879015
 20
109.8412105254926
 30
0.0
 10
99.78288693471637
 20
110.3647557443613
 30
0.0
 10
99.77368025834294
 20
110.7134629320262
 30
0.0
 10
99.70543282346173
 20
110.8477317428237
 30
0.0
 10
99.70029233920052
 20
110.857845041732
 30
0.0
  0
SPLINE
  5
E0
330
1F
100
AcDbEntity
  8
0
  6
Continuous
 62
     7
370
    25
100
AcDbSpline
210
0.0
220
0.0
230
1.0
 70
     8
 71
     3
 72
    19
 73
    15
 74
     0
 42
0.00000001
 43
0.00000001
 40
0.0
 40
0.0
 40
0.0
 40
0.0
 40
0.0132672697817206
 40
0.0500370307735531
 40
0.1021666435974855
 40
0.165005907343227
 40
0.2937960987328412
 40
0.3997111541548076
 40
0.5350907000030981
 40
0.7192794821366834
 40
0.8169152189156506
 40
0.9031432963791429
 40
0.9676465608715689
 40
1.0
 40
1.0
 40
1.0
 40
1.0
 10
102.0171695851035
 20
104.6250155100773
 30
0.0
 10
101.9978337001435
 20
104.6467135022555
 30
0.0
 10
101.924909105506
 20
104.7285466993039
 30
0.0
 10
101.9206973795967
 20
104.9643208214633
 30
0.0
 10
101.8659220822034
 20
105.2803378771972
 30
0.0
 10
101.8145185404882
 20
105.8064585723754
 30
0.0
 10
101.7509887550429
 20
106.4432128498628
 30
0.0
 10
101.6851085132837
 20
107.2387563662626
 30
0.0
 10
101.6207196832943
 20
108.1537791006703
 30
0.0
 10
101.54166132178
 20
109.0490734178411
 30
0.0
 10
101.4657891714035
 20
109.8405025855098
 30
0.0
 10
101.3890223322473
 20
110.3668270718699
 30
0.0
 10
101.3588630239824
 20
110.7695742834566
 30
0.0
 10
101.2567491750369
 20
110.9535187128826
 30
0.0
 10
101.2226396702476
 20
111.0149624196987
 30
0.0
  0
SPLINE
  5
E1
330
1F
100
AcDbEntity
  8
0
  6
Continuous
 62
     7
370
    25
100
AcDbSpline
210
0.0
220
0.0
230
1.0
 70
     8
 71
     3
 72
    19
 73
    15
 74
     0
 42
0.00000001
 43
0.00000001
 40
0.0
 40
0.0
 40
0.0
 40
0.0
 40
0.0132672694767312
 40
0.0500370296232967
 40
0.1021666412488682
 40
0.1650059035500542
 40
0.2937960919790262
 40
0.3997110490775624
 40
0.535090591813734
 40
0.7192793697131686
 40
0.8169152231244224
 40
0.9031432986056949
 40
0.9676465616153131
 40
1.0
 40
1.0
 40
1.0
 40
1.0
 10
103.6171668671317
 20
104.6250155100773
 30
0.0
 10
103.5978309820146
 20
104.6467135022423
 30
0.0
 10
103.5249063867846
 20
104.728546699241
 30
0.0
 10
103.5206946733538
 20
104.9643208224485
 30
0.0
 10
103.4659192961884
 20
105.2803378714816
 30
0.0
 10
103.4145162699692
 20
105.8064586099609
 30
0.0
 10
103.350982687144
 20
106.443212361549
 30
0.0
 10
103.2851168953115
 20
107.2387568831651
 30
0.0
 10
103.2207216499578
 20
108.1537788429835
 30
0.0
 10
103.1416717164449
 20
109.0490742581867
 30
0.0
 10
103.0657842532953
 20
109.8405021017429
 30
0.0
 10
102.9890200332957
 20
110.366827115301
 30
0.0
 10
102.9588602653641
 20
110.7695742792436
 30
0.0
 10
102.8567464468874
 20
110.9535187118277
 30
0.0
 10
102.8226369522758
 20
111.0149624196987
 30
0.0
  0
SPLINE
  5
E2
330
1F
100
AcDbEntity
  8
0
  6
Continuous
 62
     7
370
    25
100
AcDbSpline
210
0.0
220
0.0
230
1.0
 70
     8
 71
     3
 72
    19
 73
    15
 74
     0
 42
0.00000001
 43
0.00000001
 40
0.0
 40
0.0
 40
0.0
 40
0.0
 40
0.0132672705445564
 40
0.0500368027047408
 40
0.1021664185259996
 40
0.1650058133534125
 40
0.2937960121481503
 40
0.3997109777713237
 40
0.5350905314036097
 40
0.719279324127603
 40
0.8169150665203884
 40
0.9031432908101173
 40
0.9676465590113246
 40
0.9999999999999999
 40
0.9999999999999999
 40
0.9999999999999999
 40
0.9999999999999999
 10
105.2171641491599
 20
104.6250155100773
 30
0.0
 10
105.1978281098373
 20
104.6467134683966
 30
0.0
 10
105.1249032696127
 20
104.7285461600474
 30
0.0
 10
105.1207031459772
 20
104.9643221215306
 30
0.0
 10
105.0659244821134
 20
105.280338049588
 30
0.0
 10
105.0145085607375
 20
105.8064578709694
 30
0.0
 10
104.9509814324369
 20
106.4432124989135
 30
0.0
 10
104.8851134303457
 20
107.2387568089137
 30
0.0
 10
104.8207208698658
 20
108.1537790507946
 30
0.0
 10
104.7416617348272
 20
109.0490732111177
 30
0.0
 10
104.6657942602749
 20
109.8405032770185
 30
0.0
 10
104.5890149670419
 20
110.3668265190092
 30
0.0
 10
104.5588577774513
 20
110.7695743068133
 30
0.0
 10
104.456743786521
 20
110.953518718731
 30
0.0
 10
104.422634234304
 20
111.0149624196987
 30
0.0
  0
SPLINE
  5
E3
330
1F
100
AcDbEntity
  8
0
  6
Continuous
 62
     7
370
    25
100
AcDbSpline
210
0.0
220
0.0
230
1.0
 70
     8
 71
     3
 72
    19
 73
    15
 74
     0
 42
0.00000001
 43
0.00000001
 40
0.0
 40
0.0
 40
0.0
 40
0.0
 40
0.0132672697366363
 40
0.0500370306035195
 40
0.1021666432503075
 40
0.1650059067825115
 40
0.2937960977344767
 40
0.3997110569078815
 40
0.5350906022961315
 40
0.719279483090615
 40
0.816915219537801
 40
0.903143296708277
 40
0.9676465609815109
 40
1.0
 40
1.0
 40
1.0
 40
1.0
 10
106.8171688817687
 20
104.6250155100773
 30
0.0
 10
106.7978329966602
 20
104.6467135022431
 30
0.0
 10
106.7249084014626
 20
104.7285466992448
 30
0.0
 10
106.720696687349
 20
104.9643208223888
 30
0.0
 10
106.6659213145485
 20
105.2803378718282
 30
0.0
 10
106.6145182601228
 20
105.8064586076817
 30
0.0
 10
106.5509848861999
 20
106.4432123787166
 30
0.0
 10
106.4851183043482
 20
107.2387568267897
 30
0.0
 10
106.4207271024939
 20
108.1537793779376
 30
0.0
 10
106.3416594156504
 20
109.0490730979603
 30
0.0
 10
106.2657886773311
 20
109.8405026037086
 30
0.0
 10
106.1890215897127
 20
110.3668270684609
 30
0.0
 10
106.1588623244502
 20
110.7695742837873
 30
0.0
 10
106.0567484726542
 20
110.9535187129654
 30
0.0
 10
106.0226389669128
 20
111.0149624196987
 30
0.0
  0
SPLINE
  5
E4
330
1F
100
AcDbEntity
  8
0
  6
Continuous
 62
     7
370
    25
100
AcDbSpline
210
0.0
220
0.0
230
1.0
 70
     8
 71
     3
 72
    19
 73
    15
 74
     0
 42
0.00000001
 43
0.00000001
 40
0.0
 40
0.0
 40
0.0
 40
0.0
 40
0.0132672691716958
 40
0.0500370284728667
 40
0.1021666388998965
 40
0.165005899756309
 40
0.293796085224192
 40
0.3997110398875768
 40
0.5350905795111598
 40
0.7192793531758047
 40
0.8169150854655126
 40
0.9031433008325827
 40
0.9676465623591696
 40
1.0
 40
1.0
 40
1.0
 40
1.0
 10
108.4171661637969
 20
104.6250155100773
 30
0.0
 10
108.3978302786842
 20
104.6467135022427
 30
0.0
 10
108.3249056834706
 20
104.7285466992432
 30
0.0
 10
108.3206939696933
 20
104.9643208224131
 30
0.0
 10
108.2659185947434
 20
105.2803378716872
 30
0.0
 10
108.2145155542068
 20
105.8064586086093
 30
0.0
 10
108.1509820774188
 20
106.4432123717296
 30
0.0
 10
108.0851158845784
 20
107.2387568497338
 30
0.0
 10
108.0207226993025
 20
108.1537790335973
 30
0.0
 10
107.9416637774826
 20
109.0490732137195
 30
0.0
 10
107.8657962701188
 20
109.8405032765735
 30
0.0
 10
107.7890169825767
 20
110.3668265190925
 30
0.0
 10
107.7588597920012
 20
110.7695743068052
 30
0.0
 10
107.6567458011362
 20
110.953518718729
 30
0.0
 10
107.622636248941
 20
111.0149624196987
 30
0.0
  0
SPLINE
  5
E5
330
1F
100
AcDbEntity
  8
0
  6
Continuous
 62
     7
370
    25
100
AcDbSpline
210
0.0
220
0.0
230
1.0
 70
     8
 71
     3
 72
    19
 73
    15
 74
     0
 42
0.00000001
 43
0.00000001
 40
0.0
 40
0.0
 40
0.0
 40
0.0
 40
0.0132665609682743
 40
0.0500363305098518
 40
0.1021659554550188
 40
0.1650053612808031
 40
0.2937955826168533
 40
0.3997105667776357
 40
0.5350901441045262
 40
0.7192789690658884
 40
0.8169147285472239
 40
0.9031429679289193
 40
0.9676460428730692
 40
1.0
 40
1.0
 40
1.0
 40
1.0
 10
110.0171634458251
 20
104.6250155100773
 30
0.0
 10
109.9978304230315
 20
104.6467137493411
 30
0.0
 10
109.9249137477478
 20
104.7285511052228
 30
0.0
 10
109.9206965794397
 20
104.9643193177347
 30
0.0
 10
109.8659259683013
 20
105.2803389048179
 30
0.0
 10
109.8145064592283
 20
105.8064573250305
 30
0.0
 10
109.7509811244309
 20
106.4432126517539
 30
0.0
 10
109.6851125608103
 20
107.2387567491855
 30
0.0
 10
109.6207204666561
 20
108.1537791384232
 30
0.0
 10
109.5416599947423
 20
109.0490729287464
 30
0.0
 10
109.465795358631
 20
109.8405037662717
 30
0.0
 10
109.3890089917688
 20
110.3668246372119
 30
0.0
 10
109.3588685738384
 20
110.7695776543075
 30
0.0
 10
109.2567462853373
 20
110.9535189756979
 30
0.0
 10
109.2226335309692
 20
111.0149624196987
 30
0.0
  0
SPLINE
  5
E6
330
1F
100
AcDbEntity
  8
0
  6
Continuous
 62
     7
370
    25
100
AcDbSpline
210
0.0
220
0.0
230
1.0
 70
     8
 71
     3
 72
    19
 73
    15
 74
     0
 42
0.00000001
 43
0.00000001
 40
0.0
 40
0.0
 40
0.0
 40
0.0
 40
0.0132672694767312
 40
0.0500370296232967
 40
0.1021666412488682
 40
0.1650059035500542
 40
0.2937960919790262
 40
0.3997110490775624
 40
0.535090591813734
 40
0.7192793697131686
 40
0.8169152231244224
 40
0.9031432986056949
 40
0.9676465616153131
 40
1.0
 40
1.0
 40
1.0
 40
1.0
 10
111.6171681784339
 20
104.6250155100773
 30
0.0
 10
111.5978322933168
 20
104.6467135022423
 30
0.0
 10
111.5249076980868
 20
104.728546699241
 30
0.0
 10
111.520695984656
 20
104.9643208224485
 30
0.0
 10
111.4659206074906
 20
105.2803378714816
 30
0.0
 10
111.4145175812714
 20
105.8064586099609
 30
0.0
 10
111.3509839984461
 20
106.443212361549
 30
0.0
 10
111.2851182066137
 20
107.2387568831651
 30
0.0
 10
111.22072296126
 20
108.1537788429835
 30
0.0
 10
111.1416730277471
 20
109.0490742581867
 30
0.0
 10
111.0657855645974
 20
109.8405021017429
 30
0.0
 10
110.9890213445979
 20
110.366827115301
 30
0.0
 10
110.9588615766663
 20
110.7695742792436
 30
0.0
 10
110.8567477581896
 20
110.9535187118277
 30
0.0
 10
110.822638263578
 20
111.0149624196987
 30
0.0
  0
SPLINE
  5
E7
330
1F
100
AcDbEntity
  8
0
  6
Continuous
 62
     7
370
    25
100
AcDbSpline
210
0.0
220
0.0
230
1.0
 70
     8
 71
     3
 72
    13
 73
     9
 74
     0
 42
0.00000001
 43
0.00000001
 40
0.0
 40
0.0
 40
0.0
 40
0.0
 40
0.1308485214067369
 40
0.4751908529814437
 40
0.6577216067984732
 40
0.8189256546076873
 40
0.9395149990412315
 40
1.0
 40
1.0
 40
1.0
 40
1.0
 10
119.2598768972106
 20
107.5971648875332
 30
0.0
 10
119.2487541088726
 20
107.747654505166
 30
0.0
 10
119.208360474913
 20
108.294174167742
 30
0.0
 10
119.1416553651503
 20
109.0490595644679
 30
0.0
 10
119.0657900787175
 20
109.8405049553953
 30
0.0
 10
118.9890220490539
 20
110.3668266279343
 30
0.0
 10
118.9588629468348
 20
110.76957432652
 30
0.0
 10
118.8567490842316
 20
110.9535187236654
 30
0.0
 10
118.8226395748801
 20
111.0149624196987
 30
0.0
  0
SPLINE
  5
E8
330
1F
100
AcDbEntity
  8
0
  6
Continuous
 62
     7
370
    25
100
AcDbSpline
210
0.0
220
0.0
230
1.0
 70
     8
 71
     3
 72
    13
 73
     9
 74
     0
 42
0.00000001
 43
0.00000001
 40
0.0
 40
0.0
 40
0.0
 40
0.0
 40
0.1308483519066937
 40
0.4751906625863827
 40
0.6577216275682495
 40
0.8189256655954497
 40
0.9395150027115184
 40
1.0
 40
1.0
 40
1.0
 40
1.0
 10
120.8598741792388
 20
107.5971648875332
 30
0.0
 10
120.8487541399584
 20
107.7476545216219
 30
0.0
 10
120.8083704533727
 20
108.2941747329422
 30
0.0
 10
120.7416645223242
 20
109.0490603115094
 30
0.0
 10
120.6657853723051
 20
109.8405044875883
 30
0.0
 10
120.5890197104468
 20
110.366826668376
 30
0.0
 10
120.5588601920632
 20
110.769574322597
 30
0.0
 10
120.4567463570453
 20
110.9535187226832
 30
0.0
 10
120.4226368569083
 20
111.0149624196987
 30
0.0
  0
SPLINE
  5
E9
330
1F
100
AcDbEntity
  8
0
  6
Continuous
 62
     7
370
    25
100
AcDbSpline
210
0.0
220
0.0
230
1.0
 70
     8
 71
     3
 72
    13
 73
     9
 74
     0
 42
0.00000001
 43
0.00000001
 40
0.0
 40
0.0
 40
0.0
 40
0.0
 40
0.1308483462824497
 40
0.4751906421613016
 40
0.6577213770564886
 40
0.8189256733785527
 40
0.93951500531134
 40
1.0
 40
1.0
 40
1.0
 40
1.0
 10
122.459871461267
 20
107.5971648875332
 30
0.0
 10
122.4487515845899
 20
107.7476545393061
 30
0.0
 10
122.4083684885168
 20
108.2941748148488
 30
0.0
 10
122.3416544925503
 20
109.0490592587766
 30
0.0
 10
122.265795387526
 20
109.840505663839
 30
0.0
 10
122.1890146426493
 20
110.3668260719017
 30
0.0
 10
122.1588577043002
 20
110.7695743501843
 30
0.0
 10
122.0567436967164
 20
110.9535187295908
 30
0.0
 10
122.0226341389365
 20
111.0149624196987
 30
0.0
  0
SPLINE
  5
EA
330
1F
100
AcDbEntity
  8
0
  6
Continuous
 62
     7
370
    25
100
AcDbSpline
210
0.0
220
0.0
230
1.0
 70
     8
 71
     3
 72
    13
 73
     9
 74
     0
 42
0.00000001
 43
0.00000001
 40
0.0
 40
0.0
 40
0.0
 40
0.0
 40
0.1308483566988259
 40
0.4751908656069811
 40
0.6577216150327975
 40
0.818925658963863
 40
0.9395150004963425
 40
1.0
 40
1.0
 40
1.0
 40
1.0
 10
124.0598761938758
 20
107.5971648875332
 30
0.0
 10
124.0487564749365
 20
107.747654551441
 30
0.0
 10
124.008373935932
 20
108.2941750845331
 30
0.0
 10
123.9416520714479
 20
109.0490591373279
 30
0.0
 10
123.8657898220157
 20
109.8405049919421
 30
0.0
 10
123.7890212620542
 20
110.3668266210883
 30
0.0
 10
123.7588622516158
 20
110.7695743271841
 30
0.0
 10
123.6567483829289
 20
110.9535187238317
 30
0.0
 10
123.6226388715453
 20
111.0149624196987
 30
0.0
  0
SPLINE
  5
EB
330
1F
100
AcDbEntity
  8
0
  6
Continuous
 62
     7
370
    25
100
AcDbSpline
210
0.0
220
0.0
230
1.0
 70
     8
 71
     3
 72
    13
 73
     9
 74
     0
 42
0.00000001
 43
0.00000001
 40
0.0
 40
0.0
 40
0.0
 40
0.0
 40
0.1308483462824497
 40
0.4751906421613016
 40
0.6577213770564886
 40
0.8189256733785527
 40
0.93951500531134
 40
1.0
 40
1.0
 40
1.0
 40
1.0
 10
125.659873475904
 20
107.5971648875332
 30
0.0
 10
125.6487535992269
 20
107.7476545393061
 30
0.0
 10
125.6083705031538
 20
108.2941748148488
 30
0.0
 10
125.5416565071872
 20
109.0490592587766
 30
0.0
 10
125.465797402163
 20
109.840505663839
 30
0.0
 10
125.3890166572863
 20
110.3668260719017
 30
0.0
 10
125.3588597189372
 20
110.7695743501843
 30
0.0
 10
125.2567457113534
 20
110.9535187295908
 30
0.0
 10
125.2226361535735
 20
111.0149624196987
 30
0.0
  0
SPLINE
  5
EC
330
1F
100
AcDbEntity
  8
0
  6
Continuous
 62
     7
370
    25
100
AcDbSpline
210
0.0
220
0.0
230
1.0
 70
     8
 71
     3
 72
    10
 73
     6
 74
     0
 42
0.00000001
 43
0.00000001
 40
0.0
 40
0.0
 40
0.0
 40
0.0
 40
0.4225269024401584
 40
0.807101875404403
 40
1.0
 40
1.0
 40
1.0
 40
1.0
 10
127.0458677314468
 20
109.9619970096449
 30
0.0
 10
127.0255739023153
 20
110.1127040271681
 30
0.0
 10
126.9868090628303
 20
110.4005813570544
 30
0.0
 10
126.9588333554331
 20
110.7695810322185
 30
0.0
 10
126.8567373952902
 20
110.9535198215144
 30
0.0
 10
126.8226334356017
 20
111.0149624196987
 30
0.0
  0
LWPOLYLINE
  5
ED
330
1F
100
AcDbEntity
  8
0
  6
Continuous
 62
     7
370
    25
100
AcDbPolyline
 90
       14
 70
   128
 43
0.0
 10
134.0171673797
 20
104.6250155101
 10
133.9641415976
 20
104.6924744638
 10
133.9164653324
 20
104.9254508594
 10
133.8733376466
 20
105.2598233706
 10
133.8283696674
 20
105.6637347115
 10
133.7486112021
 20
106.4928444008
 10
133.6915956341
 20
107.1754617056
 10
133.6259187661
 20
108.0485480684
 10
133.5232572161
 20
109.2353378095
 10
133.4581018888
 20
109.8634162823
 10
133.3894261621
 20
110.4168430807
 10
133.3153524898
 20
110.8273821788
 10
133.2226374649
 20
111.0149624197
 10
133.2226374649
 20
111.0149624197
  0
LWPOLYLINE
  5
EE
330
1F
100
AcDbEntity
  8
0
  6
Continuous
 62
     7
370
    25
100
AcDbPolyline
 90
       14
 70
   128
 43
0.0
 10
135.6171683871
 20
104.6250155101
 10
135.5641426049
 20
104.6924744638
 10
135.5164663397
 20
104.9254508594
 10
135.4733349286
 20
105.2598233706
 10
135.4283706747
 20
105.6637347115
 10
135.3486084841
 20
106.4928444008
 10
135.2915966414
 20
107.1754617056
 10
135.2259197735
 20
108.0485480684
 10
135.1232582234
 20
109.2353378095
 10
135.0580991708
 20
109.8634162823
 10
134.9894234441
 20
110.4168430807
 10
134.9153534971
 20
110.8273821788
 10
134.8226347469
 20
111.0149624197
 10
134.8226347469
 20
111.0149624197
  0
LWPOLYLINE
  5
EF
330
1F
100
AcDbEntity
  8
0
  6
Continuous
 62
     7
370
    25
100
AcDbPolyline
 90
       14
 70
   128
 43
0.0
 10
137.2171656691
 20
104.6250155101
 10
137.1641436123
 20
104.6924744638
 10
137.116467347
 20
104.9254508594
 10
137.0733359359
 20
105.2598233706
 10
137.0283679568
 20
105.6637347115
 10
136.9486094915
 20
106.4928444008
 10
136.8915976487
 20
107.1754617056
 10
136.8259207808
 20
108.0485480684
 10
136.7232592307
 20
109.2353378095
 10
136.6581001781
 20
109.8634162823
 10
136.5894244515
 20
110.4168430807
 10
136.5153507792
 20
110.8273821788
 10
136.4226357542
 20
111.0149624197
 10
136.4226357542
 20
111.0149624197
  0
LWPOLYLINE
  5
F0
330
1F
100
AcDbEntity
  8
0
  6
Continuous
 62
     7
370
    25
100
AcDbPolyline
 90
       14
 70
   128
 43
0.0
 10
138.8171666764
 20
104.6250155101
 10
138.7641408943
 20
104.6924744638
 10
138.7164683543
 20
104.9254508594
 10
138.6733369433
 20
105.2598233706
 10
138.6283689641
 20
105.6637347115
 10
138.5486104988
 20
106.4928444008
 10
138.4915986561
 20
107.1754617056
 10
138.4259217881
 20
108.0485480684
 10
138.323260238
 20
109.2353378095
 10
138.2581011854
 20
109.8634162823
 10
138.1894254588
 20
110.4168430807
 10
138.1153517865
 20
110.8273821788
 10
138.0226367615
 20
111.0149624197
 10
138.0226367615
 20
111.0149624197
  0
LWPOLYLINE
  5
F1
330
1F
100
AcDbEntity
  8
0
  6
Continuous
 62
     7
370
    25
100
AcDbPolyline
 90
       14
 70
   128
 43
0.0
 10
140.4171676837
 20
104.6250155101
 10
140.3641419016
 20
104.6924744638
 10
140.3164656364
 20
104.9254508594
 10
140.2733342253
 20
105.2598233706
 10
140.2283699714
 20
105.6637347115
 10
140.1486115061
 20
106.4928444008
 10
140.0915959381
 20
107.1754617056
 10
140.0259190701
 20
108.0485480684
 10
139.9232575201
 20
109.2353378095
 10
139.8581021928
 20
109.8634162823
 10
139.7894264661
 20
110.4168430807
 10
139.7153527938
 20
110.8273821788
 10
139.6226377689
 20
111.0149624197
 10
139.6226377689
 20
111.0149624197
  0
LWPOLYLINE
  5
F2
330
1F
100
AcDbEntity
  8
0
  6
Continuous
 62
     7
370
    25
100
AcDbPolyline
 90
       14
 70
   128
 43
0.0
 10
142.017168691
 20
104.6250155101
 10
141.9641429089
 20
104.6924744638
 10
141.9164666437
 20
104.9254508594
 10
141.8733352326
 20
105.2598233706
 10
141.8283709787
 20
105.6637347115
 10
141.7486087881
 20
106.4928444008
 10
141.6915969454
 20
107.1754617056
 10
141.6259200774
 20
108.0485480684
 10
141.5232585274
 20
109.2353378095
 10
141.4580994748
 20
109.8634162823
 10
141.3894237481
 20
110.4168430807
 10
141.3153538011
 20
110.8273821788
 10
141.2226350509
 20
111.0149624197
 10
141.2226350509
 20
111.0149624197
  0
LWPOLYLINE
  5
F3
330
1F
100
AcDbEntity
  8
0
  6
Continuous
 62
     7
370
    25
100
AcDbPolyline
 90
       14
 70
   128
 43
0.0
 10
143.6171659731
 20
104.6250155101
 10
143.564140191
 20
104.6924744638
 10
143.516467651
 20
104.9254508594
 10
143.4733362399
 20
105.2598233706
 10
143.4283682607
 20
105.6637347115
 10
143.3486097954
 20
106.4928444008
 10
143.2915979527
 20
107.1754617056
 10
143.2259210848
 20
108.0485480684
 10
143.1232595347
 20
109.2353378095
 10
143.0581004821
 20
109.8634162823
 10
142.9894247554
 20
110.4168430807
 10
142.9153510832
 20
110.8273821788
 10
142.8226360582
 20
111.0149624197
 10
142.8226360582
 20
111.0149624197
  0
LWPOLYLINE
  5
F4
330
1F
100
AcDbEntity
  8
0
  6
Continuous
 62
     7
370
    25
100
AcDbPolyline
 90
       14
 70
   128
 43
0.0
 10
145.2171669804
 20
104.6250155101
 10
145.1641411983
 20
104.6924744638
 10
145.1164686583
 20
104.9254508594
 10
145.0733372472
 20
105.2598233706
 10
145.0283692681
 20
105.6637347115
 10
144.9486108028
 20
106.4928444008
 10
144.89159896
 20
107.1754617056
 10
144.8259220921
 20
108.0485480684
 10
144.7232568167
 20
109.2353378095
 10
144.6581014894
 20
109.8634162823
 10
144.5894257628
 20
110.4168430807
 10
144.5153520905
 20
110.8273821788
 10
144.4226370655
 20
111.0149624197
 10
144.4226370655
 20
111.0149624197
  0
LWPOLYLINE
  5
F5
330
1F
100
AcDbEntity
  8
0
  6
Continuous
 62
     7
370
    25
100
AcDbPolyline
 90
       14
 70
   128
 43
0.0
 10
146.8171679877
 20
104.6250155101
 10
146.7641422056
 20
104.6924744638
 10
146.7164659404
 20
104.9254508594
 10
146.6733345293
 20
105.2598233706
 10
146.6283702754
 20
105.6637347115
 10
146.5486080848
 20
106.4928444008
 10
146.4915962421
 20
107.1754617056
 10
146.4259193741
 20
108.0485480684
 10
146.3232578241
 20
109.2353378095
 10
146.2581024967
 20
109.8634162823
 10
146.1894267701
 20
110.4168430807
 10
146.1153530978
 20
110.8273821788
 10
146.0226343476
 20
111.0149624197
 10
146.0226343476
 20
111.0149624197
  0
SPLINE
  5
F6
330
1F
100
AcDbEntity
  8
0
  6
Continuous
 62
     7
370
    25
100
AcDbSpline
210
0.0
220
0.0
230
1.0
 70
     8
 71
     3
 72
    10
 73
     6
 74
     0
 42
0.00000001
 43
0.00000001
 40
0.0
 40
0.0
 40
0.0
 40
0.0
 40
0.2918515130045606
 40
0.9712900707153835
 40
1.0
 40
1.0
 40
1.0
 40
1.0
 10
102.0226383112617
 20
104.2981629630725
 30
0.0
 10
102.0656355919399
 20
104.3954726847147
 30
0.0
 10
102.2087317553298
 20
104.7193221842159
 30
0.0
 10
102.2191875473266
 20
105.0907606357673
 30
0.0
 10
102.2454773132363
 20
105.3462062997189
 30
0.0
 10
102.2465431593604
 20
105.3565626403491
 30
0.0
  0
SPLINE
  5
F7
330
1F
100
AcDbEntity
  8
0
  6
Continuous
 62
     7
370
    25
100
AcDbSpline
210
0.0
220
0.0
230
1.0
 70
     8
 71
     3
 72
    10
 73
     6
 74
     0
 42
0.00000001
 43
0.00000001
 40
0.0
 40
0.0
 40
0.0
 40
0.0
 40
0.2918513102455119
 40
0.971289395927548
 40
1.0
 40
1.0
 40
1.0
 40
1.0
 10
103.6226355932899
 20
104.2981629630725
 30
0.0
 10
103.6656350374625
 20
104.3954724641768
 30
0.0
 10
103.8087384010228
 20
104.7193212297213
 30
0.0
 10
103.8191276012446
 20
105.0907667281634
 30
0.0
 10
103.8454795019562
 20
105.3462063060221
 30
0.0
 10
103.8465478919692
 20
105.3565626403491
 30
0.0
  0
SPLINE
  5
F8
330
1F
100
AcDbEntity
  8
0
  6
Continuous
 62
     7
370
    25
100
AcDbSpline
210
0.0
220
0.0
230
1.0
 70
     8
 71
     3
 72
    10
 73
     6
 74
     0
 42
0.00000001
 43
0.00000001
 40
0.0
 40
0.0
 40
0.0
 40
0.0
 40
0.2918532990175914
 40
0.971290143124361
 40
1.0
 40
1.0
 40
1.0
 40
1.0
 10
105.2226328753181
 20
104.2981629630725
 30
0.0
 10
105.2656330837059
 20
104.3954725154288
 30
0.0
 10
105.4087381255196
 20
104.7193194938721
 30
0.0
 10
105.4191895172799
 20
105.0907606536486
 30
0.0
 10
105.4454793261323
 20
105.3462063004156
 30
0.0
 10
105.4465451739974
 20
105.3565626403491
 30
0.0
  0
SPLINE
  5
F9
330
1F
100
AcDbEntity
  8
0
  6
Continuous
 62
     7
370
    25
100
AcDbSpline
210
0.0
220
0.0
230
1.0
 70
     8
 71
     3
 72
    10
 73
     6
 74
     0
 42
0.00000001
 43
0.00000001
 40
0.0
 40
0.0
 40
0.0
 40
0.0
 40
0.2918515130045606
 40
0.9712900707153835
 40
1.0
 40
1.0
 40
1.0
 40
1.0
 10
106.8226376079269
 20
104.2981629630725
 30
0.0
 10
106.8656348886051
 20
104.3954726847147
 30
0.0
 10
107.008731051995
 20
104.7193221842159
 30
0.0
 10
107.0191868439918
 20
105.0907606357673
 30
0.0
 10
107.0454766099015
 20
105.3462062997189
 30
0.0
 10
107.0465424560256
 20
105.3565626403491
 30
0.0
  0
SPLINE
  5
FA
330
1F
100
AcDbEntity
  8
0
  6
Continuous
 62
     7
370
    25
100
AcDbSpline
210
0.0
220
0.0
230
1.0
 70
     8
 71
     3
 72
    10
 73
     6
 74
     0
 42
0.00000001
 43
0.00000001
 40
0.0
 40
0.0
 40
0.0
 40
0.0
 40
0.2918513102455119
 40
0.971289395927548
 40
1.0
 40
1.0
 40
1.0
 40
1.0
 10
108.4226348899551
 20
104.2981629630725
 30
0.0
 10
108.4656343341277
 20
104.3954724641768
 30
0.0
 10
108.608737697688
 20
104.7193212297213
 30
0.0
 10
108.6191268979098
 20
105.0907667281634
 30
0.0
 10
108.6454787986214
 20
105.3462063060221
 30
0.0
 10
108.6465471886344
 20
105.3565626403491
 30
0.0
  0
SPLINE
  5
FB
330
1F
100
AcDbEntity
  8
0
  6
Continuous
 62
     7
370
    25
100
AcDbSpline
210
0.0
220
0.0
230
1.0
 70
     8
 71
     3
 72
    10
 73
     6
 74
     0
 42
0.00000001
 43
0.00000001
 40
0.0
 40
0.0
 40
0.0
 40
0.0
 40
0.2918515130045606
 40
0.9712900707153835
 40
1.0
 40
1.0
 40
1.0
 40
1.0
 10
110.0226396225639
 20
104.2981629630725
 30
0.0
 10
110.0656369032421
 20
104.3954726847147
 30
0.0
 10
110.208733066632
 20
104.7193221842159
 30
0.0
 10
110.2191888586288
 20
105.0907606357673
 30
0.0
 10
110.2454786245384
 20
105.3462062997189
 30
0.0
 10
110.2465444706626
 20
105.3565626403491
 30
0.0
  0
SPLINE
  5
FC
330
1F
100
AcDbEntity
  8
0
  6
Continuous
 62
     7
370
    25
100
AcDbSpline
210
0.0
220
0.0
230
1.0
 70
     8
 71
     3
 72
    10
 73
     6
 74
     0
 42
0.00000001
 43
0.00000001
 40
0.0
 40
0.0
 40
0.0
 40
0.0
 40
0.2918515130045606
 40
0.9712900707153835
 40
1.0
 40
1.0
 40
1.0
 40
1.0
 10
111.6226369045921
 20
104.2981629630725
 30
0.0
 10
111.6656341852703
 20
104.3954726847147
 30
0.0
 10
111.8087303486602
 20
104.7193221842159
 30
0.0
 10
111.819186140657
 20
105.0907606357673
 30
0.0
 10
111.8454759065666
 20
105.3462062997189
 30
0.0
 10
111.8465417526908
 20
105.3565626403491
 30
0.0
  0
SPLINE
  5
FD
330
1F
100
AcDbEntity
  8
0
  6
Continuous
 62
     7
370
    25
100
AcDbSpline
210
0.0
220
0.0
230
1.0
 70
     8
 71
     3
 72
    10
 73
     6
 74
     0
 42
0.00000001
 43
0.00000001
 40
0.0
 40
0.0
 40
0.0
 40
0.0
 40
0.2918524059999137
 40
0.9712901069194196
 40
1.0
 40
1.0
 40
1.0
 40
1.0
 10
132.4226350985713
 20
104.2981629630725
 30
0.0
 10
132.4656338431038
 20
104.3954726000732
 30
0.0
 10
132.6087344457227
 20
104.7193208390584
 30
0.0
 10
132.6191880375844
 20
105.0907606447079
 30
0.0
 10
132.6454778249657
 20
105.3462063000672
 30
0.0
 10
132.6465436719604
 20
105.3565626403491
 30
0.0
  0
SPLINE
  5
FE
330
1F
100
AcDbEntity
  8
0
  6
Continuous
 62
     7
370
    25
100
AcDbSpline
210
0.0
220
0.0
230
1.0
 70
     8
 71
     3
 72
    10
 73
     6
 74
     0
 42
0.00000001
 43
0.00000001
 40
0.0
 40
0.0
 40
0.0
 40
0.0
 40
0.2918514116839527
 40
0.9712897335175413
 40
1.0
 40
1.0
 40
1.0
 40
1.0
 10
134.0226361058898
 20
104.2981629630725
 30
0.0
 10
134.0656344683356
 20
104.3954725745085
 30
0.0
 10
134.2087342318787
 20
104.7193217072401
 30
0.0
 10
134.2191567273694
 20
105.0907636802299
 30
0.0
 10
134.2454775612106
 20
105.3462063028686
 30
0.0
 10
134.2465446792789
 20
105.3565626403491
 30
0.0
  0
SPLINE
  5
FF
330
1F
100
AcDbEntity
  8
0
  6
Continuous
 62
     7
370
    25
100
AcDbSpline
210
0.0
220
0.0
230
1.0
 70
     8
 71
     3
 72
    10
 73
     6
 74
     0
 42
0.00000001
 43
0.00000001
 40
0.0
 40
0.0
 40
0.0
 40
0.0
 40
0.2918514116839527
 40
0.9712897335175413
 40
1.0
 40
1.0
 40
1.0
 40
1.0
 10
135.6226371132083
 20
104.2981629630725
 30
0.0
 10
135.6656354756541
 20
104.3954725745085
 30
0.0
 10
135.8087352391972
 20
104.7193217072401
 30
0.0
 10
135.8191577346879
 20
105.0907636802299
 30
0.0
 10
135.8454785685291
 20
105.3462063028686
 30
0.0
 10
135.8465456865974
 20
105.3565626403491
 30
0.0
  0
SPLINE
  5
100
330
1F
100
AcDbEntity
  8
0
  6
Continuous
 62
     7
370
    25
100
AcDbSpline
210
0.0
220
0.0
230
1.0
 70
     8
 71
     3
 72
    10
 73
     6
 74
     0
 42
0.00000001
 43
0.00000001
 40
0.0
 40
0.0
 40
0.0
 40
0.0
 40
0.2918524059999137
 40
0.9712901069194196
 40
1.0
 40
1.0
 40
1.0
 40
1.0
 10
137.2226343952365
 20
104.2981629630725
 30
0.0
 10
137.265633139769
 20
104.3954726000732
 30
0.0
 10
137.4087337423879
 20
104.7193208390584
 30
0.0
 10
137.4191873342496
 20
105.0907606447079
 30
0.0
 10
137.4454771216309
 20
105.3462063000672
 30
0.0
 10
137.4465429686256
 20
105.3565626403491
 30
0.0
  0
SPLINE
  5
101
330
1F
100
AcDbEntity
  8
0
  6
Continuous
 62
     7
370
    25
100
AcDbSpline
210
0.0
220
0.0
230
1.0
 70
     8
 71
     3
 72
    10
 73
     6
 74
     0
 42
0.00000001
 43
0.00000001
 40
0.0
 40
0.0
 40
0.0
 40
0.0
 40
0.2918524059999137
 40
0.9712901069194196
 40
1.0
 40
1.0
 40
1.0
 40
1.0
 10
138.822635402555
 20
104.2981629630725
 30
0.0
 10
138.8656341470875
 20
104.3954726000732
 30
0.0
 10
139.0087347497064
 20
104.7193208390584
 30
0.0
 10
139.0191883415681
 20
105.0907606447079
 30
0.0
 10
139.0454781289494
 20
105.3462063000672
 30
0.0
 10
139.0465439759441
 20
105.3565626403491
 30
0.0
  0
SPLINE
  5
102
330
1F
100
AcDbEntity
  8
0
  6
Continuous
 62
     7
370
    25
100
AcDbSpline
210
0.0
220
0.0
230
1.0
 70
     8
 71
     3
 72
    10
 73
     6
 74
     0
 42
0.00000001
 43
0.00000001
 40
0.0
 40
0.0
 40
0.0
 40
0.0
 40
0.2918514116839527
 40
0.9712897335175413
 40
1.0
 40
1.0
 40
1.0
 40
1.0
 10
140.4226364098735
 20
104.2981629630725
 30
0.0
 10
140.4656347723193
 20
104.3954725745085
 30
0.0
 10
140.6087345358624
 20
104.7193217072401
 30
0.0
 10
140.6191570313531
 20
105.0907636802299
 30
0.0
 10
140.6454778651943
 20
105.3462063028686
 30
0.0
 10
140.6465449832625
 20
105.3565626403491
 30
0.0
  0
SPLINE
  5
103
330
1F
100
AcDbEntity
  8
0
  6
Continuous
 62
     7
370
    25
100
AcDbSpline
210
0.0
220
0.0
230
1.0
 70
     8
 71
     3
 72
    10
 73
     6
 74
     0
 42
0.00000001
 43
0.00000001
 40
0.0
 40
0.0
 40
0.0
 40
0.0
 40
0.2918514116839527
 40
0.9712897335175413
 40
1.0
 40
1.0
 40
1.0
 40
1.0
 10
142.022637417192
 20
104.2981629630725
 30
0.0
 10
142.0656357796378
 20
104.3954725745085
 30
0.0
 10
142.2087355431809
 20
104.7193217072401
 30
0.0
 10
142.2191580386716
 20
105.0907636802299
 30
0.0
 10
142.2454788725128
 20
105.3462063028686
 30
0.0
 10
142.246545990581
 20
105.3565626403491
 30
0.0
  0
SPLINE
  5
104
330
1F
100
AcDbEntity
  8
0
  6
Continuous
 62
     7
370
    25
100
AcDbSpline
210
0.0
220
0.0
230
1.0
 70
     8
 71
     3
 72
    10
 73
     6
 74
     0
 42
0.00000001
 43
0.00000001
 40
0.0
 40
0.0
 40
0.0
 40
0.0
 40
0.2918524059999137
 40
0.9712901069194196
 40
1.0
 40
1.0
 40
1.0
 40
1.0
 10
143.6226346992202
 20
104.2981629630725
 30
0.0
 10
143.6656334437527
 20
104.3954726000732
 30
0.0
 10
143.8087340463716
 20
104.7193208390584
 30
0.0
 10
143.8191876382333
 20
105.0907606447079
 30
0.0
 10
143.8454774256146
 20
105.3462063000672
 30
0.0
 10
143.8465432726093
 20
105.3565626403491
 30
0.0
  0
SPLINE
  5
105
330
1F
100
AcDbEntity
  8
0
  6
Continuous
 62
     7
370
    25
100
AcDbSpline
210
0.0
220
0.0
230
1.0
 70
     8
 71
     3
 72
    10
 73
     6
 74
     0
 42
0.00000001
 43
0.00000001
 40
0.0
 40
0.0
 40
0.0
 40
0.0
 40
0.2918514116839527
 40
0.9712897335175413
 40
1.0
 40
1.0
 40
1.0
 40
1.0
 10
145.2226357065387
 20
104.2981629630725
 30
0.0
 10
145.2656340689845
 20
104.3954725745085
 30
0.0
 10
145.4087338325276
 20
104.7193217072401
 30
0.0
 10
145.4191563280183
 20
105.0907636802299
 30
0.0
 10
145.4454771618595
 20
105.3462063028686
 30
0.0
 10
145.4465442799277
 20
105.3565626403491
 30
0.0
  0
SPLINE
  5
106
330
1F
100
AcDbEntity
  8
0
  6
Continuous
 62
     7
370
    25
100
AcDbSpline
210
0.0
220
0.0
230
1.0
 70
     8
 71
     3
 72
    10
 73
     6
 74
     0
 42
0.00000001
 43
0.00000001
 40
0.0
 40
0.0
 40
0.0
 40
0.0
 40
0.2918514116839527
 40
0.9712897335175413
 40
1.0
 40
1.0
 40
1.0
 40
1.0
 10
146.8226367138572
 20
104.2981629630725
 30
0.0
 10
146.865635076303
 20
104.3954725745085
 30
0.0
 10
147.0087348398461
 20
104.7193217072401
 30
0.0
 10
147.0191573353368
 20
105.0907636802299
 30
0.0
 10
147.045478169178
 20
105.3462063028686
 30
0.0
 10
147.0465452872462
 20
105.3565626403491
 30
0.0
  0
LINE
  5
107
330
1F
100
AcDbEntity
  8
0
  6
Continuous
 62
     7
370
    25
100
AcDbLine
 10
99.6994578742
 20
110.8124593644
 30
0.0
 11
99.6978783511
 21
110.820800755
 31
0.0
  0
SPLINE
  5
108
330
1F
100
AcDbEntity
  8
0
  6
Continuous
 62
     7
370
    25
100
AcDbSpline
210
0.0
220
0.0
230
1.0
 70
     8
 71
     3
 72
    17
 73
    13
 74
     0
 42
0.00000001
 43
0.00000001
 40
0.0
 40
0.0
 40
0.0
 40
0.0
 40
0.0968062396260755
 40
0.1874736131143391
 40
0.2689927855570775
 40
0.3402168755235684
 40
0.4533351504907087
 40
0.5412154723787512
 40
0.6392473905021355
 40
0.7525920754708858
 40
0.8761115515855039
 40
1.0
 40
1.0
 40
1.0
 40
1.0
 10
101.2994551562019
 20
110.8124593643646
 30
0.0
 10
101.2937525280841
 20
110.8568400949676
 30
0.0
 10
101.2827088980286
 20
110.9427871986972
 30
0.0
 10
101.2252142274559
 20
111.0546146999657
 30
0.0
 10
101.1518730275318
 20
111.1400537954269
 30
0.0
 10
101.0526668078292
 20
111.212630741334
 30
0.0
 10
100.9325263292426
 20
111.2567209679989
 30
0.0
 10
100.7932862029296
 20
111.2589083402158
 30
0.0
 10
100.6596516691952
 20
111.2170838192131
 30
0.0
 10
100.5343153471378
 20
111.1238153851094
 30
0.0
 10
100.4379177128163
 20
110.9825977309103
 30
0.0
 10
100.4201226429082
 20
110.8692285110169
 30
0.0
 10
100.4112118385978
 20
110.8124593643646
 30
0.0
  0
SPLINE
  5
109
330
1F
100
AcDbEntity
  8
0
  6
Continuous
 62
     7
370
    25
100
AcDbSpline
210
0.0
220
0.0
230
1.0
 70
     8
 71
     3
 72
    17
 73
    13
 74
     0
 42
0.00000001
 43
0.00000001
 40
0.0
 40
0.0
 40
0.0
 40
0.0
 40
0.0968070095264631
 40
0.1874717549562597
 40
0.2689907268094102
 40
0.3402146415188369
 40
0.4533377269029327
 40
0.541217832548869
 40
0.639249509450692
 40
0.7525939155186272
 40
0.8761130876959008
 40
1.0
 40
1.0
 40
1.0
 40
1.0
 10
102.8994598888107
 20
110.8124593643646
 30
0.0
 10
102.893753430293
 20
110.8568396133982
 30
0.0
 10
102.8827025797593
 20
110.9427842491474
 30
0.0
 10
102.8252206496354
 20
111.0546166462949
 30
0.0
 10
102.7518772077267
 20
111.1400534623168
 30
0.0
 10
102.6526699913342
 20
111.2126326362675
 30
0.0
 10
102.5325256246606
 20
111.2567200162297
 30
0.0
 10
102.3932836018513
 20
111.258908581158
 30
0.0
 10
102.2596488150917
 20
111.2170837633525
 30
0.0
 10
102.1343131172542
 20
111.1238152966998
 30
0.0
 10
102.0379133640866
 20
110.9825986708818
 30
0.0
 10
102.0201243159445
 20
110.8692286369565
 30
0.0
 10
102.0112165712066
 20
110.8124593643646
 30
0.0
  0
SPLINE
  5
10A
330
1F
100
AcDbEntity
  8
0
  6
Continuous
 62
     7
370
    25
100
AcDbSpline
210
0.0
220
0.0
230
1.0
 70
     8
 71
     3
 72
    17
 73
    13
 74
     0
 42
0.00000001
 43
0.00000001
 40
0.0
 40
0.0
 40
0.0
 40
0.0
 40
0.0968058661969621
 40
0.1874728899367278
 40
0.2689917479200635
 40
0.3402155631403308
 40
0.4533384905083906
 40
0.5412184733989592
 40
0.6392500133651875
 40
0.7525942611079348
 40
0.8761132607473936
 40
1.0
 40
1.0
 40
1.0
 40
1.0
 10
104.4994571708388
 20
110.8124593643646
 30
0.0
 10
104.4937545417512
 20
110.8568400918897
 30
0.0
 10
104.4827109098175
 20
110.9427871896585
 30
0.0
 10
104.425216252207
 20
111.0546147320632
 30
0.0
 10
104.3518750101987
 20
111.1400536939689
 30
0.0
 10
104.2526670518979
 20
111.2126325376926
 30
0.0
 10
104.1325229597839
 20
111.2567200398625
 30
0.0
 10
103.9932808696004
 20
111.2589085748023
 30
0.0
 10
103.8596461018056
 20
111.2170837654381
 30
0.0
 10
103.7343103978247
 20
111.1238152960509
 30
0.0
 10
103.6379106464935
 20
110.9825986710504
 30
0.0
 10
103.620121598099
 20
110.8692286370127
 30
0.0
 10
103.6112138532348
 20
110.8124593643646
 30
0.0
  0
SPLINE
  5
10B
330
1F
100
AcDbEntity
  8
0
  6
Continuous
 62
     7
370
    25
100
AcDbSpline
210
0.0
220
0.0
230
1.0
 70
     8
 71
     3
 72
    17
 73
    13
 74
     0
 42
0.00000001
 43
0.00000001
 40
0.0
 40
0.0
 40
0.0
 40
0.0
 40
0.0968062491768841
 40
0.1874712266457252
 40
0.2689939447049175
 40
0.3402180416983073
 40
0.4533363278255855
 40
0.5412166583838143
 40
0.6392485861789315
 40
0.7525932823301572
 40
0.8761127706310856
 40
1.0
 40
1.0
 40
1.0
 40
1.0
 10
106.0994544528671
 20
110.8124593643646
 30
0.0
 10
106.0937509449807
 20
110.8568395935034
 30
0.0
 10
106.0827057528704
 20
110.9427846235631
 30
0.0
 10
106.0252231322452
 20
111.0546194449745
 30
0.0
 10
105.951871835938
 20
111.1400514122751
 30
0.0
 10
105.8526668751867
 20
111.2126313441557
 30
0.0
 10
105.7325254334957
 20
111.2567208252823
 30
0.0
 10
105.5932855724576
 20
111.2589083735868
 30
0.0
 10
105.4596508441773
 20
111.217083831467
 30
0.0
 10
105.3343151273963
 20
111.1238152755098
 30
0.0
 10
105.2379153798913
 20
110.9825986763866
 30
0.0
 10
105.2201263309711
 20
110.8692286387932
 30
0.0
 10
105.2112185858436
 20
110.8124593643646
 30
0.0
  0
SPLINE
  5
10C
330
1F
100
AcDbEntity
  8
0
  6
Continuous
 62
     7
370
    25
100
AcDbSpline
210
0.0
220
0.0
230
1.0
 70
     8
 71
     3
 72
    17
 73
    13
 74
     0
 42
0.00000001
 43
0.00000001
 40
0.0
 40
0.0
 40
0.0
 40
0.0
 40
0.0968058661969621
 40
0.1874728899367278
 40
0.2689917479200635
 40
0.3402155631403308
 40
0.4533384905083906
 40
0.5412184733989592
 40
0.6392500133651875
 40
0.7525942611079348
 40
0.8761132607473936
 40
1.0
 40
1.0
 40
1.0
 40
1.0
 10
107.6994591854758
 20
110.8124593643646
 30
0.0
 10
107.6937565563882
 20
110.8568400918897
 30
0.0
 10
107.6827129244544
 20
110.9427871896585
 30
0.0
 10
107.625218266844
 20
111.0546147320632
 30
0.0
 10
107.5518770248357
 20
111.1400536939689
 30
0.0
 10
107.4526690665349
 20
111.2126325376926
 30
0.0
 10
107.3325249744209
 20
111.2567200398625
 30
0.0
 10
107.1932828842373
 20
111.2589085748023
 30
0.0
 10
107.0596481164425
 20
111.2170837654381
 30
0.0
 10
106.9343124124617
 20
111.1238152960509
 30
0.0
 10
106.8379126611305
 20
110.9825986710504
 30
0.0
 10
106.820123612736
 20
110.8692286370127
 30
0.0
 10
106.8112158678718
 20
110.8124593643646
 30
0.0
  0
SPLINE
  5
10D
330
1F
100
AcDbEntity
  8
0
  6
Continuous
 62
     7
370
    25
100
AcDbSpline
210
0.0
220
0.0
230
1.0
 70
     8
 71
     3
 72
    17
 73
    13
 74
     0
 42
0.00000001
 43
0.00000001
 40
0.0
 40
0.0
 40
0.0
 40
0.0
 40
0.0968059993724922
 40
0.1874731478426015
 40
0.2689921179711774
 40
0.3402160311738265
 40
0.4533391141647469
 40
0.5412192179515356
 40
0.6392508927794496
 40
0.7525909363083338
 40
0.8761130903167904
 40
1.0
 40
1.0
 40
1.0
 40
1.0
 10
109.299456467504
 20
110.8124593643646
 30
0.0
 10
109.2937538382842
 20
110.856840092045
 30
0.0
 10
109.2827102060945
 20
110.9427871901146
 30
0.0
 10
109.2252155502504
 20
111.0546147304434
 30
0.0
 10
109.1518743025076
 20
111.1400536990889
 30
0.0
 10
109.0526663660464
 20
111.212632517144
 30
0.0
 10
108.9325221573861
 20
111.2567201562938
 30
0.0
 10
108.793280455241
 20
111.258908235162
 30
0.0
 10
108.6596460359855
 20
111.217085913952
 30
0.0
 10
108.5343176019719
 20
111.1238102596062
 30
0.0
 10
108.4379082845817
 20
110.9826014868774
 30
0.0
 10
108.4201202697624
 20
110.8692291202374
 30
0.0
 10
108.4112131499
 20
110.8124593643646
 30
0.0
  0
SPLINE
  5
10E
330
1F
100
AcDbEntity
  8
0
  6
Continuous
 62
     7
370
    25
100
AcDbSpline
210
0.0
220
0.0
230
1.0
 70
     8
 71
     3
 72
    17
 73
    13
 74
     0
 42
0.00000001
 43
0.00000001
 40
0.0
 40
0.0
 40
0.0
 40
0.0
 40
0.0968061793929155
 40
0.1874710915047988
 40
0.2689937507973427
 40
0.3402134285401891
 40
0.4533367218947792
 40
0.541216989103397
 40
0.6392488462310001
 40
0.7525934606763154
 40
0.87611285993671
 40
1.0
 40
1.0
 40
1.0
 40
1.0
 10
110.8994537495322
 20
110.8124593643646
 30
0.0
 10
110.8937502126942
 20
110.8568395515369
 30
0.0
 10
110.8827049645171
 20
110.9427845003259
 30
0.0
 10
110.8252227308197
 20
111.0546198826021
 30
0.0
 10
110.7518714945054
 20
111.1400484958725
 30
0.0
 10
110.652671594751
 20
111.2126361522098
 30
0.0
 10
110.5325264037563
 20
111.2567193428776
 30
0.0
 10
110.3932850562825
 20
111.2589087622461
 30
0.0
 10
110.259650079426
 20
111.2170837039284
 30
0.0
 10
110.1343144431678
 20
111.1238153151862
 30
0.0
 10
110.037914671593
 20
110.9825986660794
 30
0.0
 10
110.0201256259801
 20
110.8692286353541
 30
0.0
 10
110.0112178825088
 20
110.8124593643646
 30
0.0
  0
SPLINE
  5
10F
330
1F
100
AcDbEntity
  8
0
  6
Continuous
 62
     7
370
    25
100
AcDbSpline
210
0.0
220
0.0
230
1.0
 70
     8
 71
     3
 72
    17
 73
    13
 74
     0
 42
0.00000001
 43
0.00000001
 40
0.0
 40
0.0
 40
0.0
 40
0.0
 40
0.0968058661969621
 40
0.1874728899367278
 40
0.2689917479200635
 40
0.3402155631403308
 40
0.4533384905083906
 40
0.5412184733989592
 40
0.6392500133651875
 40
0.7525942611079348
 40
0.8761132607473936
 40
1.0
 40
1.0
 40
1.0
 40
1.0
 10
112.499458482141
 20
110.8124593643646
 30
0.0
 10
112.4937558530534
 20
110.8568400918897
 30
0.0
 10
112.4827122211196
 20
110.9427871896585
 30
0.0
 10
112.4252175635092
 20
111.0546147320632
 30
0.0
 10
112.3518763215009
 20
111.1400536939689
 30
0.0
 10
112.2526683632001
 20
111.2126325376926
 30
0.0
 10
112.1325242710861
 20
111.2567200398625
 30
0.0
 10
111.9932821809025
 20
111.2589085748023
 30
0.0
 10
111.8596474131078
 20
111.2170837654381
 30
0.0
 10
111.7343117091269
 20
111.1238152960509
 30
0.0
 10
111.6379119577957
 20
110.9825986710504
 30
0.0
 10
111.6201229094012
 20
110.8692286370127
 30
0.0
 10
111.611215164537
 20
110.8124593643646
 30
0.0
  0
SPLINE
  5
110
330
1F
100
AcDbEntity
  8
0
  6
Continuous
 62
     7
370
    25
100
AcDbSpline
210
0.0
220
0.0
230
1.0
 70
     8
 71
     3
 72
    17
 73
    13
 74
     0
 42
0.00000001
 43
0.00000001
 40
0.0
 40
0.0
 40
0.0
 40
0.0
 40
0.0968062396260755
 40
0.1874736131143391
 40
0.2689927855570775
 40
0.3402168755235684
 40
0.4533351504907087
 40
0.5412154723787512
 40
0.6392473905021355
 40
0.7525920754708858
 40
0.8761115515855039
 40
1.0
 40
1.0
 40
1.0
 40
1.0
 10
118.8994550608344
 20
110.8124593643646
 30
0.0
 10
118.8937524327166
 20
110.8568400949676
 30
0.0
 10
118.8827088026612
 20
110.9427871986972
 30
0.0
 10
118.8252141320885
 20
111.0546146999657
 30
0.0
 10
118.7518729321644
 20
111.1400537954269
 30
0.0
 10
118.6526667124617
 20
111.212630741334
 30
0.0
 10
118.5325262338752
 20
111.2567209679989
 30
0.0
 10
118.3932861075622
 20
111.2589083402158
 30
0.0
 10
118.2596515738278
 20
111.2170838192131
 30
0.0
 10
118.1343152517703
 20
111.1238153851094
 30
0.0
 10
118.0379176174488
 20
110.9825977309103
 30
0.0
 10
118.0201225475408
 20
110.8692285110169
 30
0.0
 10
118.0112117432304
 20
110.8124593643646
 30
0.0
  0
SPLINE
  5
111
330
1F
100
AcDbEntity
  8
0
  6
Continuous
 62
     7
370
    25
100
AcDbSpline
210
0.0
220
0.0
230
1.0
 70
     8
 71
     3
 72
    17
 73
    13
 74
     0
 42
0.00000001
 43
0.00000001
 40
0.0
 40
0.0
 40
0.0
 40
0.0
 40
0.0968070095264631
 40
0.1874717549562597
 40
0.2689907268094102
 40
0.3402146415188369
 40
0.4533377269029327
 40
0.541217832548869
 40
0.639249509450692
 40
0.7525939155186272
 40
0.8761130876959008
 40
1.0
 40
1.0
 40
1.0
 40
1.0
 10
120.4994597934432
 20
110.8124593643646
 30
0.0
 10
120.4937533349255
 20
110.8568396133982
 30
0.0
 10
120.4827024843918
 20
110.9427842491474
 30
0.0
 10
120.425220554268
 20
111.0546166462949
 30
0.0
 10
120.3518771123593
 20
111.1400534623168
 30
0.0
 10
120.2526698959668
 20
111.2126326362675
 30
0.0
 10
120.1325255292931
 20
111.2567200162297
 30
0.0
 10
119.9932835064839
 20
111.258908581158
 30
0.0
 10
119.8596487197242
 20
111.2170837633525
 30
0.0
 10
119.7343130218868
 20
111.1238152966998
 30
0.0
 10
119.6379132687192
 20
110.9825986708818
 30
0.0
 10
119.6201242205771
 20
110.8692286369565
 30
0.0
 10
119.6112164758392
 20
110.8124593643646
 30
0.0
  0
SPLINE
  5
112
330
1F
100
AcDbEntity
  8
0
  6
Continuous
 62
     7
370
    25
100
AcDbSpline
210
0.0
220
0.0
230
1.0
 70
     8
 71
     3
 72
    17
 73
    13
 74
     0
 42
0.00000001
 43
0.00000001
 40
0.0
 40
0.0
 40
0.0
 40
0.0
 40
0.0968058661969621
 40
0.1874728899367278
 40
0.2689917479200635
 40
0.3402155631403308
 40
0.4533384905083906
 40
0.5412184733989592
 40
0.6392500133651875
 40
0.7525942611079348
 40
0.8761132607473936
 40
1.0
 40
1.0
 40
1.0
 40
1.0
 10
122.0994570754714
 20
110.8124593643646
 30
0.0
 10
122.0937544463837
 20
110.8568400918897
 30
0.0
 10
122.08271081445
 20
110.9427871896585
 30
0.0
 10
122.0252161568396
 20
111.0546147320632
 30
0.0
 10
121.9518749148313
 20
111.1400536939689
 30
0.0
 10
121.8526669565305
 20
111.2126325376926
 30
0.0
 10
121.7325228644164
 20
111.2567200398625
 30
0.0
 10
121.5932807742329
 20
111.2589085748023
 30
0.0
 10
121.4596460064381
 20
111.2170837654381
 30
0.0
 10
121.3343103024573
 20
111.1238152960509
 30
0.0
 10
121.2379105511261
 20
110.9825986710504
 30
0.0
 10
121.2201215027316
 20
110.8692286370127
 30
0.0
 10
121.2112137578674
 20
110.8124593643646
 30
0.0
  0
SPLINE
  5
113
330
1F
100
AcDbEntity
  8
0
  6
Continuous
 62
     7
370
    25
100
AcDbSpline
210
0.0
220
0.0
230
1.0
 70
     8
 71
     3
 72
    17
 73
    13
 74
     0
 42
0.00000001
 43
0.00000001
 40
0.0
 40
0.0
 40
0.0
 40
0.0
 40
0.0968062491768841
 40
0.1874712266457252
 40
0.2689939447049175
 40
0.3402180416983073
 40
0.4533363278255855
 40
0.5412166583838143
 40
0.6392485861789315
 40
0.7525932823301572
 40
0.8761127706310856
 40
1.0
 40
1.0
 40
1.0
 40
1.0
 10
123.6994543574996
 20
110.8124593643646
 30
0.0
 10
123.6937508496133
 20
110.8568395935034
 30
0.0
 10
123.682705657503
 20
110.9427846235631
 30
0.0
 10
123.6252230368778
 20
111.0546194449745
 30
0.0
 10
123.5518717405706
 20
111.1400514122751
 30
0.0
 10
123.4526667798193
 20
111.2126313441557
 30
0.0
 10
123.3325253381282
 20
111.2567208252823
 30
0.0
 10
123.1932854770901
 20
111.2589083735868
 30
0.0
 10
123.0596507488099
 20
111.217083831467
 30
0.0
 10
122.9343150320289
 20
111.1238152755098
 30
0.0
 10
122.8379152845239
 20
110.9825986763866
 30
0.0
 10
122.8201262356037
 20
110.8692286387932
 30
0.0
 10
122.8112184904762
 20
110.8124593643646
 30
0.0
  0
SPLINE
  5
114
330
1F
100
AcDbEntity
  8
0
  6
Continuous
 62
     7
370
    25
100
AcDbSpline
210
0.0
220
0.0
230
1.0
 70
     8
 71
     3
 72
    17
 73
    13
 74
     0
 42
0.00000001
 43
0.00000001
 40
0.0
 40
0.0
 40
0.0
 40
0.0
 40
0.0968058661969621
 40
0.1874728899367278
 40
0.2689917479200635
 40
0.3402155631403308
 40
0.4533384905083906
 40
0.5412184733989592
 40
0.6392500133651875
 40
0.7525942611079348
 40
0.8761132607473936
 40
1.0
 40
1.0
 40
1.0
 40
1.0
 10
125.2994590901084
 20
110.8124593643646
 30
0.0
 10
125.2937564610207
 20
110.8568400918897
 30
0.0
 10
125.282712829087
 20
110.9427871896585
 30
0.0
 10
125.2252181714766
 20
111.0546147320632
 30
0.0
 10
125.1518769294682
 20
111.1400536939689
 30
0.0
 10
125.0526689711675
 20
111.2126325376926
 30
0.0
 10
124.9325248790534
 20
111.2567200398625
 30
0.0
 10
124.7932827888699
 20
111.2589085748023
 30
0.0
 10
124.6596480210751
 20
111.2170837654381
 30
0.0
 10
124.5343123170943
 20
111.1238152960509
 30
0.0
 10
124.4379125657631
 20
110.9825986710504
 30
0.0
 10
124.4201235173686
 20
110.8692286370127
 30
0.0
 10
124.4112157725043
 20
110.8124593643646
 30
0.0
  0
SPLINE
  5
115
330
1F
100
AcDbEntity
  8
0
  6
Continuous
 62
     7
370
    25
100
AcDbSpline
210
0.0
220
0.0
230
1.0
 70
     8
 71
     3
 72
    17
 73
    13
 74
     0
 42
0.00000001
 43
0.00000001
 40
0.0
 40
0.0
 40
0.0
 40
0.0
 40
0.0968059993724922
 40
0.1874731478426015
 40
0.2689921179711774
 40
0.3402160311738265
 40
0.4533391141647469
 40
0.5412192179515356
 40
0.6392508927794496
 40
0.7525909363083338
 40
0.8761130903167904
 40
1.0
 40
1.0
 40
1.0
 40
1.0
 10
126.8994563721366
 20
110.8124593643646
 30
0.0
 10
126.8937537429168
 20
110.856840092045
 30
0.0
 10
126.8827101107271
 20
110.9427871901146
 30
0.0
 10
126.825215454883
 20
111.0546147304434
 30
0.0
 10
126.7518742071401
 20
111.1400536990889
 30
0.0
 10
126.652666270679
 20
111.212632517144
 30
0.0
 10
126.5325220620186
 20
111.2567201562938
 30
0.0
 10
126.3932803598735
 20
111.258908235162
 30
0.0
 10
126.2596459406181
 20
111.217085913952
 30
0.0
 10
126.1343175066045
 20
111.1238102596062
 30
0.0
 10
126.0379081892142
 20
110.9826014868774
 30
0.0
 10
126.020120174395
 20
110.8692291202374
 30
0.0
 10
126.0112130545326
 20
110.8124593643646
 30
0.0
  0
SPLINE
  5
116
330
1F
100
AcDbEntity
  8
0
  6
Continuous
 62
     7
370
    25
100
AcDbSpline
210
0.0
220
0.0
230
1.0
 70
     8
 71
     3
 72
    17
 73
    13
 74
     0
 42
0.00000001
 43
0.00000001
 40
0.0
 40
0.0
 40
0.0
 40
0.0
 40
0.0968060529142282
 40
0.1874732515307804
 40
0.2689922667460988
 40
0.3402162193414714
 40
0.4533368205134288
 40
0.5412169729051939
 40
0.6392487019527439
 40
0.7525931683116649
 40
0.8761124061921604
 40
1.0
 40
1.0
 40
1.0
 40
1.0
 10
133.2994566761203
 20
110.8124593643646
 30
0.0
 10
133.2937540475175
 20
110.8568400934286
 30
0.0
 10
133.2827104165229
 20
110.9427871941777
 30
0.0
 10
133.2252157524317
 20
111.0546147160151
 30
0.0
 10
133.1518745314643
 20
111.140053744696
 30
0.0
 10
133.052667442468
 20
111.2126316395174
 30
0.0
 10
132.9325251571073
 20
111.2567205039235
 30
0.0
 10
132.7932840488664
 20
111.2589084575122
 30
0.0
 10
132.6596493981003
 20
111.217083792325
 30
0.0
 10
132.5343133850793
 20
111.1238153405784
 30
0.0
 10
132.4379146922684
 20
110.9825982010005
 30
0.0
 10
132.420122633105
 20
110.8692285740179
 30
0.0
 10
132.4112133585162
 20
110.8124593643646
 30
0.0
  0
SPLINE
  5
117
330
1F
100
AcDbEntity
  8
0
  6
Continuous
 62
     7
370
    25
100
AcDbSpline
210
0.0
220
0.0
230
1.0
 70
     8
 71
     3
 72
    17
 73
    13
 74
     0
 42
0.00000001
 43
0.00000001
 40
0.0
 40
0.0
 40
0.0
 40
0.0
 40
0.0968066284185376
 40
0.1874726914758457
 40
0.2689917668894795
 40
0.3402157720807027
 40
0.4533390011746751
 40
0.5412192184621839
 40
0.6392484355532994
 40
0.7525929856122737
 40
0.8761123147064571
 40
1.0
 40
1.0
 40
1.0
 40
1.0
 10
134.8994576834388
 20
110.8124593643646
 30
0.0
 10
134.8937531397111
 20
110.8568398524451
 30
0.0
 10
134.8827058985897
 20
110.9427857188119
 30
0.0
 10
134.8252176038613
 20
111.0546156913144
 30
0.0
 10
134.7518752646383
 20
111.1400535714453
 30
0.0
 10
134.6526676669723
 20
111.2126326138581
 30
0.0
 10
134.5325234926159
 20
111.2567198757519
 30
0.0
 10
134.3932824562521
 20
111.2589090033162
 30
0.0
 10
134.2596495084879
 20
111.2170827053348
 30
0.0
 10
134.1343143705366
 20
111.1238154548283
 30
0.0
 10
134.0379157052661
 20
110.9825981713202
 30
0.0
 10
134.0201236423184
 20
110.8692285641146
 30
0.0
 10
134.0112143658347
 20
110.8124593643646
 30
0.0
  0
SPLINE
  5
118
330
1F
100
AcDbEntity
  8
0
  6
Continuous
 62
     7
370
    25
100
AcDbSpline
210
0.0
220
0.0
230
1.0
 70
     8
 71
     3
 72
    17
 73
    13
 74
     0
 42
0.00000001
 43
0.00000001
 40
0.0
 40
0.0
 40
0.0
 40
0.0
 40
0.0968060228020336
 40
0.1874719907040839
 40
0.2689927493194625
 40
0.3402144957919055
 40
0.453337606161521
 40
0.5412177312175548
 40
0.6392494297716551
 40
0.7525938608739932
 40
0.8761130603329723
 40
1.0
 40
1.0
 40
1.0
 40
1.0
 10
136.499454965467
 20
110.8124593643646
 30
0.0
 10
136.4937518825105
 20
110.8568398217111
 30
0.0
 10
136.4827074424636
 20
110.9427858449675
 30
0.0
 10
136.4252189967782
 20
111.0546173073358
 30
0.0
 10
136.3518727576222
 20
111.1400510949275
 30
0.0
 10
136.25266882858
 20
111.2126343449429
 30
0.0
 10
136.1325241870587
 20
111.2567196913762
 30
0.0
 10
135.993282468221
 20
111.2589086685225
 30
0.0
 10
135.8596475958979
 20
111.2170837346838
 30
0.0
 10
135.7343119257775
 20
111.1238153056184
 30
0.0
 10
135.6379121643248
 20
110.9825986685649
 30
0.0
 10
135.620123117321
 20
110.8692286361834
 30
0.0
 10
135.6112153731532
 20
110.8124593643646
 30
0.0
  0
SPLINE
  5
119
330
1F
100
AcDbEntity
  8
0
  6
Continuous
 62
     7
370
    25
100
AcDbSpline
210
0.0
220
0.0
230
1.0
 70
     8
 71
     3
 72
    17
 73
    13
 74
     0
 42
0.00000001
 43
0.00000001
 40
0.0
 40
0.0
 40
0.0
 40
0.0
 40
0.0968060228020336
 40
0.1874719907040839
 40
0.2689927493194625
 40
0.3402144957919055
 40
0.453337606161521
 40
0.5412177312175548
 40
0.6392494297716551
 40
0.7525938608739932
 40
0.8761130603329723
 40
1.0
 40
1.0
 40
1.0
 40
1.0
 10
138.0994559727855
 20
110.8124593643646
 30
0.0
 10
138.0937528898289
 20
110.8568398217111
 30
0.0
 10
138.0827084497821
 20
110.9427858449675
 30
0.0
 10
138.0252200040967
 20
111.0546173073358
 30
0.0
 10
137.9518737649407
 20
111.1400510949275
 30
0.0
 10
137.8526698358985
 20
111.2126343449429
 30
0.0
 10
137.7325251943772
 20
111.2567196913762
 30
0.0
 10
137.5932834755394
 20
111.2589086685225
 30
0.0
 10
137.4596486032164
 20
111.2170837346838
 30
0.0
 10
137.334312933096
 20
111.1238153056184
 30
0.0
 10
137.2379131716433
 20
110.9825986685649
 30
0.0
 10
137.2201241246395
 20
110.8692286361834
 30
0.0
 10
137.2112163804717
 20
110.8124593643646
 30
0.0
  0
SPLINE
  5
11A
330
1F
100
AcDbEntity
  8
0
  6
Continuous
 62
     7
370
    25
100
AcDbSpline
210
0.0
220
0.0
230
1.0
 70
     8
 71
     3
 72
    17
 73
    13
 74
     0
 42
0.00000001
 43
0.00000001
 40
0.0
 40
0.0
 40
0.0
 40
0.0
 40
0.0968060529142282
 40
0.1874732515307804
 40
0.2689922667460988
 40
0.3402162193414714
 40
0.4533368205134288
 40
0.5412169729051939
 40
0.6392487019527439
 40
0.7525931683116649
 40
0.8761124061921604
 40
1.0
 40
1.0
 40
1.0
 40
1.0
 10
139.699456980104
 20
110.8124593643646
 30
0.0
 10
139.6937543515012
 20
110.8568400934286
 30
0.0
 10
139.6827107205066
 20
110.9427871941777
 30
0.0
 10
139.6252160564154
 20
111.0546147160151
 30
0.0
 10
139.551874835448
 20
111.140053744696
 30
0.0
 10
139.4526677464517
 20
111.2126316395174
 30
0.0
 10
139.332525461091
 20
111.2567205039235
 30
0.0
 10
139.1932843528501
 20
111.2589084575122
 30
0.0
 10
139.059649702084
 20
111.217083792325
 30
0.0
 10
138.9343136890631
 20
111.1238153405784
 30
0.0
 10
138.8379149962521
 20
110.9825982010005
 30
0.0
 10
138.8201229370887
 20
110.8692285740179
 30
0.0
 10
138.8112136624999
 20
110.8124593643646
 30
0.0
  0
SPLINE
  5
11B
330
1F
100
AcDbEntity
  8
0
  6
Continuous
 62
     7
370
    25
100
AcDbSpline
210
0.0
220
0.0
230
1.0
 70
     8
 71
     3
 72
    17
 73
    13
 74
     0
 42
0.00000001
 43
0.00000001
 40
0.0
 40
0.0
 40
0.0
 40
0.0
 40
0.0968066284185376
 40
0.1874726914758457
 40
0.2689917668894795
 40
0.3402157720807027
 40
0.4533390011746751
 40
0.5412192184621839
 40
0.6392484355532994
 40
0.7525929856122737
 40
0.8761123147064571
 40
1.0
 40
1.0
 40
1.0
 40
1.0
 10
141.2994579874225
 20
110.8124593643646
 30
0.0
 10
141.2937534436948
 20
110.8568398524451
 30
0.0
 10
141.2827062025734
 20
110.9427857188119
 30
0.0
 10
141.225217907845
 20
111.0546156913144
 30
0.0
 10
141.151875568622
 20
111.1400535714453
 30
0.0
 10
141.052667970956
 20
111.2126326138581
 30
0.0
 10
140.9325237965996
 20
111.2567198757519
 30
0.0
 10
140.7932827602358
 20
111.2589090033162
 30
0.0
 10
140.6596498124715
 20
111.2170827053348
 30
0.0
 10
140.5343146745203
 20
111.1238154548283
 30
0.0
 10
140.4379160092498
 20
110.9825981713202
 30
0.0
 10
140.4201239463021
 20
110.8692285641146
 30
0.0
 10
140.4112146698184
 20
110.8124593643646
 30
0.0
  0
SPLINE
  5
11C
330
1F
100
AcDbEntity
  8
0
  6
Continuous
 62
     7
370
    25
100
AcDbSpline
210
0.0
220
0.0
230
1.0
 70
     8
 71
     3
 72
    17
 73
    13
 74
     0
 42
0.00000001
 43
0.00000001
 40
0.0
 40
0.0
 40
0.0
 40
0.0
 40
0.0968060228020336
 40
0.1874719907040839
 40
0.2689927493194625
 40
0.3402144957919055
 40
0.453337606161521
 40
0.5412177312175548
 40
0.6392494297716551
 40
0.7525938608739932
 40
0.8761130603329723
 40
1.0
 40
1.0
 40
1.0
 40
1.0
 10
142.8994552694507
 20
110.8124593643646
 30
0.0
 10
142.8937521864941
 20
110.8568398217111
 30
0.0
 10
142.8827077464473
 20
110.9427858449675
 30
0.0
 10
142.8252193007619
 20
111.0546173073358
 30
0.0
 10
142.7518730616059
 20
111.1400510949275
 30
0.0
 10
142.6526691325637
 20
111.2126343449429
 30
0.0
 10
142.5325244910424
 20
111.2567196913762
 30
0.0
 10
142.3932827722047
 20
111.2589086685225
 30
0.0
 10
142.2596478998816
 20
111.2170837346838
 30
0.0
 10
142.1343122297612
 20
111.1238153056184
 30
0.0
 10
142.0379124683085
 20
110.9825986685649
 30
0.0
 10
142.0201234213047
 20
110.8692286361834
 30
0.0
 10
142.0112156771369
 20
110.8124593643646
 30
0.0
  0
SPLINE
  5
11D
330
1F
100
AcDbEntity
  8
0
  6
Continuous
 62
     7
370
    25
100
AcDbSpline
210
0.0
220
0.0
230
1.0
 70
     8
 71
     3
 72
    17
 73
    13
 74
     0
 42
0.00000001
 43
0.00000001
 40
0.0
 40
0.0
 40
0.0
 40
0.0
 40
0.0968060576925226
 40
0.1874720582720848
 40
0.2689928462688909
 40
0.3402168023798391
 40
0.4533374091353681
 40
0.54121756586485
 40
0.6392492997511932
 40
0.7525937717047356
 40
0.8761130156820738
 40
1.0
 40
1.0
 40
1.0
 40
1.0
 10
144.4994562767692
 20
110.8124593643646
 30
0.0
 10
144.4937532082872
 20
110.8568398426932
 30
0.0
 10
144.4827087962714
 20
110.9427859065832
 30
0.0
 10
144.4252201571384
 20
111.0546170885317
 30
0.0
 10
144.3518738879623
 20
111.1400525531243
 30
0.0
 10
144.2526674284813
 20
111.2126319409392
 30
0.0
 10
144.1325246615473
 20
111.2567204325639
 30
0.0
 10
143.9932836859472
 20
111.258908474198
 30
0.0
 10
143.859648937907
 20
111.2170837984514
 30
0.0
 10
143.734313227527
 20
111.1238152857807
 30
0.0
 10
143.6379134781086
 20
110.9825986737184
 30
0.0
 10
143.6201244294513
 20
110.8692286379029
 30
0.0
 10
143.6112166844554
 20
110.8124593643646
 30
0.0
  0
SPLINE
  5
11E
330
1F
100
AcDbEntity
  8
0
  6
Continuous
 62
     7
370
    25
100
AcDbSpline
210
0.0
220
0.0
230
1.0
 70
     8
 71
     3
 72
    17
 73
    13
 74
     0
 42
0.00000001
 43
0.00000001
 40
0.0
 40
0.0
 40
0.0
 40
0.0
 40
0.0968060683914994
 40
0.1874732815038478
 40
0.2689923097523586
 40
0.3402162737349574
 40
0.4533394373783469
 40
0.5412168995553454
 40
0.6392486442761265
 40
0.7525931287564666
 40
0.8761123863851149
 40
1.0
 40
1.0
 40
1.0
 40
1.0
 10
146.0994572840877
 20
110.8124593643646
 30
0.0
 10
146.0937546550243
 20
110.8568400920641
 30
0.0
 10
146.0827110231376
 20
110.9427871901708
 30
0.0
 10
146.0252163652027
 20
111.0546147302439
 30
0.0
 10
145.9518751242477
 20
111.1400536997195
 30
0.0
 10
145.8526671619354
 20
111.2126325146133
 30
0.0
 10
145.7325242847222
 20
111.256719732673
 30
0.0
 10
145.5932834802367
 20
111.2589083577016
 30
0.0
 10
145.4596499958923
 20
111.2170837010513
 30
0.0
 10
145.3343139962122
 20
111.123815368973
 30
0.0
 10
145.2379152994134
 20
110.9825981936241
 30
0.0
 10
145.220123240798
 20
110.8692285715566
 30
0.0
 10
145.2112139664836
 20
110.8124593643646
 30
0.0
  0
SPLINE
  5
11F
330
1F
100
AcDbEntity
  8
0
  6
Continuous
 62
     7
370
    25
100
AcDbSpline
210
0.0
220
0.0
230
1.0
 70
     8
 71
     3
 72
    10
 73
     6
 74
     0
 42
0.00000001
 43
0.00000001
 40
0.0
 40
0.0
 40
0.0
 40
0.0
 40
0.2918515130045606
 40
0.9712900707153835
 40
1.0
 40
1.0
 40
1.0
 40
1.0
 10
100.4880347751327
 20
111.0149624196987
 30
0.0
 10
100.4450374944545
 20
110.9176526980564
 30
0.0
 10
100.3019413310645
 20
110.5938031985553
 30
0.0
 10
100.2914855390678
 20
110.2223647470039
 30
0.0
 10
100.265195773158
 20
109.9669190830523
 30
0.0
 10
100.2641299270339
 20
109.9565627424221
 30
0.0
  0
SPLINE
  5
120
330
1F
100
AcDbEntity
  8
0
  6
Continuous
 62
     7
370
    25
100
AcDbSpline
210
0.0
220
0.0
230
1.0
 70
     8
 71
     3
 72
    10
 73
     6
 74
     0
 42
0.00000001
 43
0.00000001
 40
0.0
 40
0.0
 40
0.0
 40
0.0
 40
0.2918515130045606
 40
0.9712900707153835
 40
1.0
 40
1.0
 40
1.0
 40
1.0
 10
102.0880320571609
 20
111.0149624196987
 30
0.0
 10
102.0450347764827
 20
110.9176526980564
 30
0.0
 10
101.9019386130927
 20
110.5938031985553
 30
0.0
 10
101.891482821096
 20
110.2223647470039
 30
0.0
 10
101.8651930551862
 20
109.9669190830523
 30
0.0
 10
101.8641272090621
 20
109.9565627424221
 30
0.0
  0
SPLINE
  5
121
330
1F
100
AcDbEntity
  8
0
  6
Continuous
 62
     7
370
    25
100
AcDbSpline
210
0.0
220
0.0
230
1.0
 70
     8
 71
     3
 72
    10
 73
     6
 74
     0
 42
0.00000001
 43
0.00000001
 40
0.0
 40
0.0
 40
0.0
 40
0.0
 40
0.2918513102455119
 40
0.971289395927548
 40
1.0
 40
1.0
 40
1.0
 40
1.0
 10
103.6880367897697
 20
111.0149624196987
 30
0.0
 10
103.6450373455971
 20
110.9176529185944
 30
0.0
 10
103.5019339820367
 20
110.5938041530498
 30
0.0
 10
103.4915447818148
 20
110.2223586546077
 30
0.0
 10
103.4651928811033
 20
109.9669190767491
 30
0.0
 10
103.4641244910903
 20
109.9565627424221
 30
0.0
  0
SPLINE
  5
122
330
1F
100
AcDbEntity
  8
0
  6
Continuous
 62
     7
370
    25
100
AcDbSpline
210
0.0
220
0.0
230
1.0
 70
     8
 71
     3
 72
    10
 73
     6
 74
     0
 42
0.00000001
 43
0.00000001
 40
0.0
 40
0.0
 40
0.0
 40
0.0
 40
0.2918515130045606
 40
0.9712900707153835
 40
1.0
 40
1.0
 40
1.0
 40
1.0
 10
105.2880340717979
 20
111.0149624196987
 30
0.0
 10
105.2450367911197
 20
110.9176526980564
 30
0.0
 10
105.1019406277297
 20
110.5938031985553
 30
0.0
 10
105.091484835733
 20
110.2223647470039
 30
0.0
 10
105.0651950698232
 20
109.9669190830523
 30
0.0
 10
105.0641292236991
 20
109.9565627424221
 30
0.0
  0
SPLINE
  5
123
330
1F
100
AcDbEntity
  8
0
  6
Continuous
 62
     7
370
    25
100
AcDbSpline
210
0.0
220
0.0
230
1.0
 70
     8
 71
     3
 72
    10
 73
     6
 74
     0
 42
0.00000001
 43
0.00000001
 40
0.0
 40
0.0
 40
0.0
 40
0.0
 40
0.2918532990175914
 40
0.971290143124361
 40
1.0
 40
1.0
 40
1.0
 40
1.0
 10
106.8880388044067
 20
111.0149624196987
 30
0.0
 10
106.8450385960188
 20
110.9176528673423
 30
0.0
 10
106.7019335542051
 20
110.593805888899
 30
0.0
 10
106.6914821624449
 20
110.2223647291225
 30
0.0
 10
106.6651923535924
 20
109.9669190823556
 30
0.0
 10
106.6641265057273
 20
109.9565627424221
 30
0.0
  0
SPLINE
  5
124
330
1F
100
AcDbEntity
  8
0
  6
Continuous
 62
     7
370
    25
100
AcDbSpline
210
0.0
220
0.0
230
1.0
 70
     8
 71
     3
 72
    10
 73
     6
 74
     0
 42
0.00000001
 43
0.00000001
 40
0.0
 40
0.0
 40
0.0
 40
0.0
 40
0.2918513102455119
 40
0.971289395927548
 40
1.0
 40
1.0
 40
1.0
 40
1.0
 10
108.4880360864349
 20
111.0149624196987
 30
0.0
 10
108.4450366422623
 20
110.9176529185944
 30
0.0
 10
108.3019332787019
 20
110.5938041530498
 30
0.0
 10
108.2915440784799
 20
110.2223586546077
 30
0.0
 10
108.2651921777686
 20
109.9669190767491
 30
0.0
 10
108.2641237877555
 20
109.9565627424221
 30
0.0
  0
SPLINE
  5
125
330
1F
100
AcDbEntity
  8
0
  6
Continuous
 62
     7
370
    25
100
AcDbSpline
210
0.0
220
0.0
230
1.0
 70
     8
 71
     3
 72
    10
 73
     6
 74
     0
 42
0.00000001
 43
0.00000001
 40
0.0
 40
0.0
 40
0.0
 40
0.0
 40
0.2918515130045606
 40
0.9712900707153835
 40
1.0
 40
1.0
 40
1.0
 40
1.0
 10
110.0880333684631
 20
111.0149624196987
 30
0.0
 10
110.0450360877849
 20
110.9176526980564
 30
0.0
 10
109.9019399243948
 20
110.5938031985553
 30
0.0
 10
109.8914841323982
 20
110.2223647470039
 30
0.0
 10
109.8651943664884
 20
109.9669190830523
 30
0.0
 10
109.8641285203643
 20
109.9565627424221
 30
0.0
  0
SPLINE
  5
126
330
1F
100
AcDbEntity
  8
0
  6
Continuous
 62
     7
370
    25
100
AcDbSpline
210
0.0
220
0.0
230
1.0
 70
     8
 71
     3
 72
    10
 73
     6
 74
     0
 42
0.00000001
 43
0.00000001
 40
0.0
 40
0.0
 40
0.0
 40
0.0
 40
0.2918532990175914
 40
0.971290143124361
 40
1.0
 40
1.0
 40
1.0
 40
1.0
 10
111.6880381010719
 20
111.0149624196987
 30
0.0
 10
111.645037892684
 20
110.9176528673423
 30
0.0
 10
111.5019328508703
 20
110.593805888899
 30
0.0
 10
111.49148145911
 20
110.2223647291225
 30
0.0
 10
111.4651916502576
 20
109.9669190823556
 30
0.0
 10
111.4641258023925
 20
109.9565627424221
 30
0.0
  0
SPLINE
  5
127
330
1F
100
AcDbEntity
  8
0
  6
Continuous
 62
     7
370
    25
100
AcDbSpline
210
0.0
220
0.0
230
1.0
 70
     8
 71
     3
 72
    10
 73
     6
 74
     0
 42
0.00000001
 43
0.00000001
 40
0.0
 40
0.0
 40
0.0
 40
0.0
 40
0.2918515130045606
 40
0.9712900707153835
 40
1.0
 40
1.0
 40
1.0
 40
1.0
 10
118.0880346797652
 20
111.0149624196987
 30
0.0
 10
118.045037399087
 20
110.9176526980564
 30
0.0
 10
117.901941235697
 20
110.5938031985553
 30
0.0
 10
117.8914854437004
 20
110.2223647470039
 30
0.0
 10
117.8651956777906
 20
109.9669190830523
 30
0.0
 10
117.8641298316665
 20
109.9565627424221
 30
0.0
  0
SPLINE
  5
128
330
1F
100
AcDbEntity
  8
0
  6
Continuous
 62
     7
370
    25
100
AcDbSpline
210
0.0
220
0.0
230
1.0
 70
     8
 71
     3
 72
    10
 73
     6
 74
     0
 42
0.00000001
 43
0.00000001
 40
0.0
 40
0.0
 40
0.0
 40
0.0
 40
0.2918515130045606
 40
0.9712900707153835
 40
1.0
 40
1.0
 40
1.0
 40
1.0
 10
119.6880319617934
 20
111.0149624196987
 30
0.0
 10
119.6450346811152
 20
110.9176526980564
 30
0.0
 10
119.5019385177252
 20
110.5938031985553
 30
0.0
 10
119.4914827257286
 20
110.2223647470039
 30
0.0
 10
119.4651929598188
 20
109.9669190830523
 30
0.0
 10
119.4641271136947
 20
109.9565627424221
 30
0.0
  0
SPLINE
  5
129
330
1F
100
AcDbEntity
  8
0
  6
Continuous
 62
     7
370
    25
100
AcDbSpline
210
0.0
220
0.0
230
1.0
 70
     8
 71
     3
 72
    10
 73
     6
 74
     0
 42
0.00000001
 43
0.00000001
 40
0.0
 40
0.0
 40
0.0
 40
0.0
 40
0.2918513102455119
 40
0.971289395927548
 40
1.0
 40
1.0
 40
1.0
 40
1.0
 10
121.2880366944022
 20
111.0149624196987
 30
0.0
 10
121.2450372502296
 20
110.9176529185944
 30
0.0
 10
121.1019338866693
 20
110.5938041530498
 30
0.0
 10
121.0915446864474
 20
110.2223586546077
 30
0.0
 10
121.0651927857359
 20
109.9669190767491
 30
0.0
 10
121.0641243957229
 20
109.9565627424221
 30
0.0
  0
SPLINE
  5
12A
330
1F
100
AcDbEntity
  8
0
  6
Continuous
 62
     7
370
    25
100
AcDbSpline
210
0.0
220
0.0
230
1.0
 70
     8
 71
     3
 72
    10
 73
     6
 74
     0
 42
0.00000001
 43
0.00000001
 40
0.0
 40
0.0
 40
0.0
 40
0.0
 40
0.2918515130045606
 40
0.9712900707153835
 40
1.0
 40
1.0
 40
1.0
 40
1.0
 10
122.8880339764304
 20
111.0149624196987
 30
0.0
 10
122.8450366957522
 20
110.9176526980564
 30
0.0
 10
122.7019405323622
 20
110.5938031985553
 30
0.0
 10
122.6914847403655
 20
110.2223647470039
 30
0.0
 10
122.6651949744558
 20
109.9669190830523
 30
0.0
 10
122.6641291283317
 20
109.9565627424221
 30
0.0
  0
SPLINE
  5
12B
330
1F
100
AcDbEntity
  8
0
  6
Continuous
 62
     7
370
    25
100
AcDbSpline
210
0.0
220
0.0
230
1.0
 70
     8
 71
     3
 72
    10
 73
     6
 74
     0
 42
0.00000001
 43
0.00000001
 40
0.0
 40
0.0
 40
0.0
 40
0.0
 40
0.2918532990175914
 40
0.971290143124361
 40
1.0
 40
1.0
 40
1.0
 40
1.0
 10
124.4880387090392
 20
111.0149624196987
 30
0.0
 10
124.4450385006514
 20
110.9176528673423
 30
0.0
 10
124.3019334588377
 20
110.593805888899
 30
0.0
 10
124.2914820670775
 20
110.2223647291225
 30
0.0
 10
124.265192258225
 20
109.9669190823556
 30
0.0
 10
124.2641264103599
 20
109.9565627424221
 30
0.0
  0
SPLINE
  5
12C
330
1F
100
AcDbEntity
  8
0
  6
Continuous
 62
     7
370
    25
100
AcDbSpline
210
0.0
220
0.0
230
1.0
 70
     8
 71
     3
 72
    10
 73
     6
 74
     0
 42
0.00000001
 43
0.00000001
 40
0.0
 40
0.0
 40
0.0
 40
0.0
 40
0.2918515130045606
 40
0.9712900707153835
 40
1.0
 40
1.0
 40
1.0
 40
1.0
 10
126.0880359910674
 20
111.0149624196987
 30
0.0
 10
126.0450387103892
 20
110.9176526980564
 30
0.0
 10
125.9019425469992
 20
110.5938031985553
 30
0.0
 10
125.8914867550026
 20
110.2223647470039
 30
0.0
 10
125.8651969890928
 20
109.9669190830523
 30
0.0
 10
125.8641311429687
 20
109.9565627424221
 30
0.0
  0
SPLINE
  5
12D
330
1F
100
AcDbEntity
  8
0
  6
Continuous
 62
     7
370
    25
100
AcDbSpline
210
0.0
220
0.0
230
1.0
 70
     8
 71
     3
 72
    10
 73
     6
 74
     0
 42
0.00000001
 43
0.00000001
 40
0.0
 40
0.0
 40
0.0
 40
0.0
 40
0.2918524059999137
 40
0.9712901069194196
 40
1.0
 40
1.0
 40
1.0
 40
1.0
 10
132.4880362950511
 20
111.0149624196987
 30
0.0
 10
132.4450375505186
 20
110.917652782698
 30
0.0
 10
132.3019369478998
 20
110.5938045437127
 30
0.0
 10
132.2914833560379
 20
110.2223647380632
 30
0.0
 10
132.2651935686567
 20
109.9669190827039
 30
0.0
 10
132.2641277216621
 20
109.9565627424221
 30
0.0
  0
SPLINE
  5
12E
330
1F
100
AcDbEntity
  8
0
  6
Continuous
 62
     7
370
    25
100
AcDbSpline
210
0.0
220
0.0
230
1.0
 70
     8
 71
     3
 72
    10
 73
     6
 74
     0
 42
0.00000001
 43
0.00000001
 40
0.0
 40
0.0
 40
0.0
 40
0.0
 40
0.2918524059999137
 40
0.9712901069194196
 40
1.0
 40
1.0
 40
1.0
 40
1.0
 10
134.0880373023696
 20
111.0149624196987
 30
0.0
 10
134.0450385578371
 20
110.917652782698
 30
0.0
 10
133.9019379552183
 20
110.5938045437127
 30
0.0
 10
133.8914843633564
 20
110.2223647380632
 30
0.0
 10
133.8651945759752
 20
109.9669190827039
 30
0.0
 10
133.8641287289806
 20
109.9565627424221
 30
0.0
  0
SPLINE
  5
12F
330
1F
100
AcDbEntity
  8
0
  6
Continuous
 62
     7
370
    25
100
AcDbSpline
210
0.0
220
0.0
230
1.0
 70
     8
 71
     3
 72
    10
 73
     6
 74
     0
 42
0.00000001
 43
0.00000001
 40
0.0
 40
0.0
 40
0.0
 40
0.0
 40
0.2918514116839527
 40
0.9712897335175413
 40
1.0
 40
1.0
 40
1.0
 40
1.0
 10
135.6880345843978
 20
111.0149624196987
 30
0.0
 10
135.645036221952
 20
110.9176528082627
 30
0.0
 10
135.5019364584089
 20
110.5938036755311
 30
0.0
 10
135.4915139629182
 20
110.2223617025413
 30
0.0
 10
135.4651931290771
 20
109.9669190799025
 30
0.0
 10
135.4641260110087
 20
109.9565627424221
 30
0.0
  0
SPLINE
  5
130
330
1F
100
AcDbEntity
  8
0
  6
Continuous
 62
     7
370
    25
100
AcDbSpline
210
0.0
220
0.0
230
1.0
 70
     8
 71
     3
 72
    10
 73
     6
 74
     0
 42
0.00000001
 43
0.00000001
 40
0.0
 40
0.0
 40
0.0
 40
0.0
 40
0.2918514116839527
 40
0.9712897335175413
 40
1.0
 40
1.0
 40
1.0
 40
1.0
 10
137.2880355917163
 20
111.0149624196987
 30
0.0
 10
137.2450372292705
 20
110.9176528082627
 30
0.0
 10
137.1019374657274
 20
110.5938036755311
 30
0.0
 10
137.0915149702368
 20
110.2223617025413
 30
0.0
 10
137.0651941363955
 20
109.9669190799025
 30
0.0
 10
137.0641270183272
 20
109.9565627424221
 30
0.0
  0
SPLINE
  5
131
330
1F
100
AcDbEntity
  8
0
  6
Continuous
 62
     7
370
    25
100
AcDbSpline
210
0.0
220
0.0
230
1.0
 70
     8
 71
     3
 72
    10
 73
     6
 74
     0
 42
0.00000001
 43
0.00000001
 40
0.0
 40
0.0
 40
0.0
 40
0.0
 40
0.2918524059999137
 40
0.9712901069194196
 40
1.0
 40
1.0
 40
1.0
 40
1.0
 10
138.8880365990348
 20
111.0149624196987
 30
0.0
 10
138.8450378545023
 20
110.917652782698
 30
0.0
 10
138.7019372518835
 20
110.5938045437127
 30
0.0
 10
138.6914836600216
 20
110.2223647380632
 30
0.0
 10
138.6651938726404
 20
109.9669190827039
 30
0.0
 10
138.6641280256458
 20
109.9565627424221
 30
0.0
  0
SPLINE
  5
132
330
1F
100
AcDbEntity
  8
0
  6
Continuous
 62
     7
370
    25
100
AcDbSpline
210
0.0
220
0.0
230
1.0
 70
     8
 71
     3
 72
    10
 73
     6
 74
     0
 42
0.00000001
 43
0.00000001
 40
0.0
 40
0.0
 40
0.0
 40
0.0
 40
0.2918515130045606
 40
0.9712900707153835
 40
1.0
 40
1.0
 40
1.0
 40
1.0
 10
140.488033881063
 20
111.0149624196987
 30
0.0
 10
140.4450366003848
 20
110.9176526980564
 30
0.0
 10
140.3019404369948
 20
110.5938031985553
 30
0.0
 10
140.2914846449981
 20
110.2223647470039
 30
0.0
 10
140.2651948790884
 20
109.9669190830523
 30
0.0
 10
140.2641290329642
 20
109.9565627424221
 30
0.0
  0
SPLINE
  5
133
330
1F
100
AcDbEntity
  8
0
  6
Continuous
 62
     7
370
    25
100
AcDbSpline
210
0.0
220
0.0
230
1.0
 70
     8
 71
     3
 72
    10
 73
     6
 74
     0
 42
0.00000001
 43
0.00000001
 40
0.0
 40
0.0
 40
0.0
 40
0.0
 40
0.2918514116839527
 40
0.9712897335175413
 40
1.0
 40
1.0
 40
1.0
 40
1.0
 10
142.0880348883815
 20
111.0149624196987
 30
0.0
 10
142.0450365259357
 20
110.9176528082627
 30
0.0
 10
141.9019367623926
 20
110.5938036755311
 30
0.0
 10
141.8915142669019
 20
110.2223617025413
 30
0.0
 10
141.8651934330607
 20
109.9669190799025
 30
0.0
 10
141.8641263149924
 20
109.9565627424221
 30
0.0
  0
SPLINE
  5
134
330
1F
100
AcDbEntity
  8
0
  6
Continuous
 62
     7
370
    25
100
AcDbSpline
210
0.0
220
0.0
230
1.0
 70
     8
 71
     3
 72
    10
 73
     6
 74
     0
 42
0.00000001
 43
0.00000001
 40
0.0
 40
0.0
 40
0.0
 40
0.0
 40
0.2918514116839527
 40
0.9712897335175413
 40
1.0
 40
1.0
 40
1.0
 40
1.0
 10
143.6880358957
 20
111.0149624196987
 30
0.0
 10
143.6450375332542
 20
110.9176528082627
 30
0.0
 10
143.5019377697111
 20
110.5938036755311
 30
0.0
 10
143.4915152742204
 20
110.2223617025413
 30
0.0
 10
143.4651944403792
 20
109.9669190799025
 30
0.0
 10
143.4641273223109
 20
109.9565627424221
 30
0.0
  0
SPLINE
  5
135
330
1F
100
AcDbEntity
  8
0
  6
Continuous
 62
     7
370
    25
100
AcDbSpline
210
0.0
220
0.0
230
1.0
 70
     8
 71
     3
 72
    10
 73
     6
 74
     0
 42
0.00000001
 43
0.00000001
 40
0.0
 40
0.0
 40
0.0
 40
0.0
 40
0.2918524059999137
 40
0.9712901069194196
 40
1.0
 40
1.0
 40
1.0
 40
1.0
 10
145.2880369030185
 20
111.0149624196987
 30
0.0
 10
145.245038158486
 20
110.917652782698
 30
0.0
 10
145.1019375558671
 20
110.5938045437127
 30
0.0
 10
145.0914839640053
 20
110.2223647380632
 30
0.0
 10
145.0651941766241
 20
109.9669190827039
 30
0.0
 10
145.0641283296295
 20
109.9565627424221
 30
0.0
  0
SPLINE
  5
136
330
1F
100
AcDbEntity
  8
0
  6
Continuous
 62
     7
370
    25
100
AcDbSpline
210
0.0
220
0.0
230
1.0
 70
     8
 71
     3
 72
    19
 73
    15
 74
     0
 42
0.00000001
 43
0.00000001
 40
0.0
 40
0.0
 40
0.0
 40
0.0
 40
0.0132672694767312
 40
0.0500370296232967
 40
0.1021666412488682
 40
0.1650059035500542
 40
0.2937960919790262
 40
0.3997110490775624
 40
0.535090591813734
 40
0.7192793697131686
 40
0.8169152231244224
 40
0.9031432986056949
 40
0.9676465616153131
 40
1.0
 40
1.0
 40
1.0
 40
1.0
 10
100.4935035012908
 20
110.6881098726938
 30
0.0
 10
100.5128393864079
 20
110.6664118805289
 30
0.0
 10
100.585763981638
 20
110.5845786835302
 30
0.0
 10
100.5899756950687
 20
110.3488045603226
 30
0.0
 10
100.6447510722342
 20
110.0327875112895
 30
0.0
 10
100.6961540984533
 20
109.5066667728103
 30
0.0
 10
100.7596876812785
 20
108.8699130212221
 30
0.0
 10
100.825553473111
 20
108.074368499606
 30
0.0
 10
100.8899487184647
 20
107.1593465397876
 30
0.0
 10
100.9689986519776
 20
106.2640511245844
 30
0.0
 10
101.0448861151273
 20
105.4726232810282
 30
0.0
 10
101.1216503351268
 20
104.9462982674701
 30
0.0
 10
101.1518101030585
 20
104.5435511035275
 30
0.0
 10
101.2539239215351
 20
104.3596066709434
 30
0.0
 10
101.2880334161468
 20
104.2981629630725
 30
0.0
  0
SPLINE
  5
137
330
1F
100
AcDbEntity
  8
0
  6
Continuous
 62
     7
370
    25
100
AcDbSpline
210
0.0
220
0.0
230
1.0
 70
     8
 71
     3
 72
    19
 73
    15
 74
     0
 42
0.00000001
 43
0.00000001
 40
0.0
 40
0.0
 40
0.0
 40
0.0
 40
0.0132665609682743
 40
0.0500363305098518
 40
0.1021659554550188
 40
0.1650053612808031
 40
0.2937955826168533
 40
0.3997105667776357
 40
0.5350901441045262
 40
0.7192789690658884
 40
0.8169147285472239
 40
0.9031429679289193
 40
0.9676460428730692
 40
1.0
 40
1.0
 40
1.0
 40
1.0
 10
102.0935082338996
 20
110.6881098726938
 30
0.0
 10
102.1128412566932
 20
110.66641163343
 30
0.0
 10
102.1857579319769
 20
110.5845742775484
 30
0.0
 10
102.189975100285
 20
110.3488060650364
 30
0.0
 10
102.2447457114235
 20
110.0327864779532
 30
0.0
 10
102.2961652204964
 20
109.5066680577407
 30
0.0
 10
102.3596905552938
 20
108.8699127310172
 30
0.0
 10
102.4255591189144
 20
108.0743686335856
 30
0.0
 10
102.4899512130687
 20
107.1593462443479
 30
0.0
 10
102.5690116849824
 20
106.2640524540248
 30
0.0
 10
102.6448763210937
 20
105.4726216164994
 30
0.0
 10
102.7216626879559
 20
104.9463007455592
 30
0.0
 10
102.7518031058863
 20
104.5435477284636
 30
0.0
 10
102.8539253943874
 20
104.3596064070732
 30
0.0
 10
102.8880381487556
 20
104.2981629630725
 30
0.0
  0
SPLINE
  5
138
330
1F
100
AcDbEntity
  8
0
  6
Continuous
 62
     7
370
    25
100
AcDbSpline
210
0.0
220
0.0
230
1.0
 70
     8
 71
     3
 72
    19
 73
    15
 74
     0
 42
0.00000001
 43
0.00000001
 40
0.0
 40
0.0
 40
0.0
 40
0.0
 40
0.0132672694767312
 40
0.0500370296232967
 40
0.1021666412488682
 40
0.1650059035500542
 40
0.2937960919790262
 40
0.3997110490775624
 40
0.535090591813734
 40
0.7192793697131686
 40
0.8169152231244224
 40
0.9031432986056949
 40
0.9676465616153131
 40
1.0
 40
1.0
 40
1.0
 40
1.0
 10
103.6935055159278
 20
110.6881098726938
 30
0.0
 10
103.7128414010449
 20
110.6664118805289
 30
0.0
 10
103.7857659962749
 20
110.5845786835302
 30
0.0
 10
103.7899777097057
 20
110.3488045603226
 30
0.0
 10
103.8447530868711
 20
110.0327875112895
 30
0.0
 10
103.8961561130903
 20
109.5066667728103
 30
0.0
 10
103.9596896959155
 20
108.8699130212221
 30
0.0
 10
104.025555487748
 20
108.074368499606
 30
0.0
 10
104.0899507331017
 20
107.1593465397876
 30
0.0
 10
104.1690006666146
 20
106.2640511245844
 30
0.0
 10
104.2448881297643
 20
105.4726232810282
 30
0.0
 10
104.3216523497638
 20
104.9462982674701
 30
0.0
 10
104.3518121176955
 20
104.5435511035275
 30
0.0
 10
104.4539259361721
 20
104.3596066709434
 30
0.0
 10
104.4880354307838
 20
104.2981629630725
 30
0.0
  0
SPLINE
  5
139
330
1F
100
AcDbEntity
  8
0
  6
Continuous
 62
     7
370
    25
100
AcDbSpline
210
0.0
220
0.0
230
1.0
 70
     8
 71
     3
 72
    19
 73
    15
 74
     0
 42
0.00000001
 43
0.00000001
 40
0.0
 40
0.0
 40
0.0
 40
0.0
 40
0.0132672697817206
 40
0.0500370307735531
 40
0.1021666435974855
 40
0.165005907343227
 40
0.2937960987328412
 40
0.3997111541548076
 40
0.5350907000030981
 40
0.7192794821366834
 40
0.8169152189156506
 40
0.9031432963791429
 40
0.9676465608715689
 40
1.0
 40
1.0
 40
1.0
 40
1.0
 10
105.293502797956
 20
110.6881098726938
 30
0.0
 10
105.312838682916
 20
110.6664118805157
 30
0.0
 10
105.3857632775535
 20
110.5845786834672
 30
0.0
 10
105.3899750034628
 20
110.3488045613078
 30
0.0
 10
105.4447503008561
 20
110.032787505574
 30
0.0
 10
105.4961538425713
 20
109.5066668103957
 30
0.0
 10
105.5596836280167
 20
108.8699125329083
 30
0.0
 10
105.6255638697758
 20
108.0743690165085
 30
0.0
 10
105.6899526997653
 20
107.1593462821009
 30
0.0
 10
105.7690110612795
 20
106.26405196493
 30
0.0
 10
105.8448832116561
 20
105.4726227972613
 30
0.0
 10
105.9216500508122
 20
104.9462983109012
 30
0.0
 10
105.9518093590771
 20
104.5435510993145
 30
0.0
 10
106.0539232080227
 20
104.3596066698885
 30
0.0
 10
106.088032712812
 20
104.2981629630725
 30
0.0
  0
SPLINE
  5
13A
330
1F
100
AcDbEntity
  8
0
  6
Continuous
 62
     7
370
    25
100
AcDbSpline
210
0.0
220
0.0
230
1.0
 70
     8
 71
     3
 72
    19
 73
    15
 74
     0
 42
0.00000001
 43
0.00000001
 40
0.0
 40
0.0
 40
0.0
 40
0.0
 40
0.0132672705445564
 40
0.0500368027047408
 40
0.1021664185259996
 40
0.1650058133534125
 40
0.2937960121481503
 40
0.3997109777713237
 40
0.5350905314036097
 40
0.719279324127603
 40
0.8169150665203884
 40
0.9031432908101173
 40
0.9676465590113246
 40
0.9999999999999999
 40
0.9999999999999999
 40
0.9999999999999999
 40
0.9999999999999999
 10
106.8935075305648
 20
110.6881098726938
 30
0.0
 10
106.9128435698874
 20
110.6664119143745
 30
0.0
 10
106.985768410112
 20
110.5845792227237
 30
0.0
 10
106.9899685337475
 20
110.3488032612405
 30
0.0
 10
107.0447471976114
 20
110.0327873331832
 30
0.0
 10
107.0961631189872
 20
109.5066675118018
 30
0.0
 10
107.1596902472878
 20
108.8699128838577
 30
0.0
 10
107.225558249379
 20
108.0743685738574
 30
0.0
 10
107.289950809859
 20
107.1593463319765
 30
0.0
 10
107.3690099448975
 20
106.2640521716534
 30
0.0
 10
107.4448774194498
 20
105.4726221057526
 30
0.0
 10
107.5216567126829
 20
104.946298863762
 30
0.0
 10
107.5518139022734
 20
104.5435510759579
 30
0.0
 10
107.6539278932037
 20
104.3596066640402
 30
0.0
 10
107.6880374454208
 20
104.2981629630725
 30
0.0
  0
SPLINE
  5
13B
330
1F
100
AcDbEntity
  8
0
  6
Continuous
 62
     7
370
    25
100
AcDbSpline
210
0.0
220
0.0
230
1.0
 70
     8
 71
     3
 72
    19
 73
    15
 74
     0
 42
0.00000001
 43
0.00000001
 40
0.0
 40
0.0
 40
0.0
 40
0.0
 40
0.0132672694767312
 40
0.0500370296232967
 40
0.1021666412488682
 40
0.1650059035500542
 40
0.2937960919790262
 40
0.3997110490775624
 40
0.535090591813734
 40
0.7192793697131686
 40
0.8169152231244224
 40
0.9031432986056949
 40
0.9676465616153131
 40
1.0
 40
1.0
 40
1.0
 40
1.0
 10
108.493504812593
 20
110.6881098726938
 30
0.0
 10
108.5128406977101
 20
110.6664118805289
 30
0.0
 10
108.5857652929402
 20
110.5845786835302
 30
0.0
 10
108.5899770063709
 20
110.3488045603226
 30
0.0
 10
108.6447523835363
 20
110.0327875112895
 30
0.0
 10
108.6961554097555
 20
109.5066667728103
 30
0.0
 10
108.7596889925808
 20
108.8699130212221
 30
0.0
 10
108.8255547844132
 20
108.074368499606
 30
0.0
 10
108.8899500297669
 20
107.1593465397876
 30
0.0
 10
108.9689999632798
 20
106.2640511245844
 30
0.0
 10
109.0448874264295
 20
105.4726232810282
 30
0.0
 10
109.121651646429
 20
104.9462982674701
 30
0.0
 10
109.1518114143607
 20
104.5435511035275
 30
0.0
 10
109.2539252328373
 20
104.3596066709434
 30
0.0
 10
109.288034727449
 20
104.2981629630725
 30
0.0
  0
SPLINE
  5
13C
330
1F
100
AcDbEntity
  8
0
  6
Continuous
 62
     7
370
    25
100
AcDbSpline
210
0.0
220
0.0
230
1.0
 70
     8
 71
     3
 72
    19
 73
    15
 74
     0
 42
0.00000001
 43
0.00000001
 40
0.0
 40
0.0
 40
0.0
 40
0.0
 40
0.013267269590286
 40
0.0500370300515644
 40
0.1021666421233141
 40
0.1650059049623424
 40
0.2937962048113637
 40
0.3997111628164278
 40
0.535090706711315
 40
0.7192794861872241
 40
0.8169152215573969
 40
0.9031432977766968
 40
0.9676465613383995
 40
1.0
 40
1.0
 40
1.0
 40
1.0
 10
110.0935020946212
 20
110.6881098726938
 30
0.0
 10
110.1128379801898
 20
110.6664118805722
 30
0.0
 10
110.1857625771228
 20
110.5845786837368
 30
0.0
 10
110.1899742546902
 20
110.3488045570892
 30
0.0
 10
110.2447498611202
 20
110.0327875300475
 30
0.0
 10
110.29615142907
 20
109.5066664113516
 30
0.0
 10
110.3596960084022
 20
108.8699134793196
 30
0.0
 10
110.425558986779
 20
108.0743684503551
 30
0.0
 10
110.4899537634219
 20
107.1593464337425
 30
0.0
 10
110.5690100906215
 20
106.2640519419886
 30
0.0
 10
110.644882554052
 20
105.4726228011859
 30
0.0
 10
110.721649338911
 20
104.946298310166
 30
0.0
 10
110.7518086565733
 20
104.5435510993859
 30
0.0
 10
110.8539225048959
 20
104.3596066699064
 30
0.0
 10
110.8880320094772
 20
104.2981629630725
 30
0.0
  0
SPLINE
  5
13D
330
1F
100
AcDbEntity
  8
0
  6
Continuous
 62
     7
370
    25
100
AcDbSpline
210
0.0
220
0.0
230
1.0
 70
     8
 71
     3
 72
    19
 73
    15
 74
     0
 42
0.00000001
 43
0.00000001
 40
0.0
 40
0.0
 40
0.0
 40
0.0
 40
0.0132672705445564
 40
0.0500368027047408
 40
0.1021664185259996
 40
0.1650058133534125
 40
0.2937960121481503
 40
0.3997109777713237
 40
0.5350905314036097
 40
0.719279324127603
 40
0.8169150665203884
 40
0.9031432908101173
 40
0.9676465590113246
 40
0.9999999999999999
 40
0.9999999999999999
 40
0.9999999999999999
 40
0.9999999999999999
 10
111.69350682723
 20
110.6881098726938
 30
0.0
 10
111.7128428665526
 20
110.6664119143745
 30
0.0
 10
111.7857677067772
 20
110.5845792227237
 30
0.0
 10
111.7899678304127
 20
110.3488032612405
 30
0.0
 10
111.8447464942766
 20
110.0327873331832
 30
0.0
 10
111.8961624156524
 20
109.5066675118018
 30
0.0
 10
111.959689543953
 20
108.8699128838577
 30
0.0
 10
112.0255575460442
 20
108.0743685738574
 30
0.0
 10
112.0899501065241
 20
107.1593463319765
 30
0.0
 10
112.1690092415627
 20
106.2640521716534
 30
0.0
 10
112.244876716115
 20
105.4726221057526
 30
0.0
 10
112.3216560093481
 20
104.946298863762
 30
0.0
 10
112.3518131989386
 20
104.5435510759579
 30
0.0
 10
112.4539271898689
 20
104.3596066640402
 30
0.0
 10
112.488036742086
 20
104.2981629630725
 30
0.0
  0
SPLINE
  5
13E
330
1F
100
AcDbEntity
  8
0
  6
Continuous
 62
     7
370
    25
100
AcDbSpline
210
0.0
220
0.0
230
1.0
 70
     8
 71
     3
 72
    14
 73
    10
 74
     0
 42
0.00000001
 43
0.00000001
 40
0.0
 40
0.0
 40
0.0
 40
0.0
 40
0.027967576462987
 40
0.1054787086690791
 40
0.2153686073917211
 40
0.34783458890875
 40
0.6193259797248528
 40
0.842596085636437
 40
1.0
 40
1.0
 40
1.0
 40
1.0
 10
118.0935034059234
 20
110.6881098726938
 30
0.0
 10
118.1128392925041
 20
110.6664118813196
 30
0.0
 10
118.1857638932542
 20
110.5845786873029
 30
0.0
 10
118.1899754904326
 20
110.3488045012935
 30
0.0
 10
118.2447516107675
 20
110.0327878537357
 30
0.0
 10
118.2961498345476
 20
109.5066645208807
 30
0.0
 10
118.3597189850765
 20
108.8699299836929
 30
0.0
 10
118.414667438168
 20
108.2048291133288
 30
0.0
 10
118.4434110341132
 20
107.8166254572158
 30
0.0
 10
118.4552961491294
 20
107.656108133238
 30
0.0
  0
SPLINE
  5
13F
330
1F
100
AcDbEntity
  8
0
  6
Continuous
 62
     7
370
    25
100
AcDbSpline
210
0.0
220
0.0
230
1.0
 70
     8
 71
     3
 72
    14
 73
    10
 74
     0
 42
0.00000001
 43
0.00000001
 40
0.0
 40
0.0
 40
0.0
 40
0.0
 40
0.0279661102261985
 40
0.1054773379249799
 40
0.2153673720305233
 40
0.3478337854495923
 40
0.6193255107394965
 40
0.8425958917168971
 40
1.0
 40
1.0
 40
1.0
 40
1.0
 10
119.6935081385322
 20
110.6881098726938
 30
0.0
 10
119.7128411627927
 20
110.666411634221
 30
0.0
 10
119.7857578436088
 20
110.5845742813227
 30
0.0
 10
119.7899748953965
 20
110.348806005978
 30
0.0
 10
119.8447462514213
 20
110.0327868205686
 30
0.0
 10
119.8961609469563
 20
109.5066658046964
 30
0.0
 10
119.9597219315885
 20
108.8699297018447
 30
0.0
 10
120.0146724421512
 20
108.204829156152
 30
0.0
 10
120.0434158461071
 20
107.8166254697429
 30
0.0
 10
120.0553008817382
 20
107.656108133238
 30
0.0
  0
SPLINE
  5
140
330
1F
100
AcDbEntity
  8
0
  6
Continuous
 62
     7
370
    25
100
AcDbSpline
210
0.0
220
0.0
230
1.0
 70
     8
 71
     3
 72
    14
 73
    10
 74
     0
 42
0.00000001
 43
0.00000001
 40
0.0
 40
0.0
 40
0.0
 40
0.0
 40
0.027967576462987
 40
0.1054787086690791
 40
0.2153686073917211
 40
0.34783458890875
 40
0.6193259797248528
 40
0.842596085636437
 40
1.0
 40
1.0
 40
1.0
 40
1.0
 10
121.2935054205604
 20
110.6881098726938
 30
0.0
 10
121.3128413071411
 20
110.6664118813196
 30
0.0
 10
121.3857659078912
 20
110.5845786873029
 30
0.0
 10
121.3899775050696
 20
110.3488045012935
 30
0.0
 10
121.4447536254045
 20
110.0327878537357
 30
0.0
 10
121.4961518491846
 20
109.5066645208807
 30
0.0
 10
121.5597209997135
 20
108.8699299836929
 30
0.0
 10
121.614669452805
 20
108.2048291133288
 30
0.0
 10
121.6434130487502
 20
107.8166254572158
 30
0.0
 10
121.6552981637664
 20
107.656108133238
 30
0.0
  0
SPLINE
  5
141
330
1F
100
AcDbEntity
  8
0
  6
Continuous
 62
     7
370
    25
100
AcDbSpline
210
0.0
220
0.0
230
1.0
 70
     8
 71
     3
 72
    14
 73
    10
 74
     0
 42
0.00000001
 43
0.00000001
 40
0.0
 40
0.0
 40
0.0
 40
0.0
 40
0.0279675759039953
 40
0.105478706560862
 40
0.2153686030871197
 40
0.3478345819565332
 40
0.619325967346301
 40
0.842596270929859
 40
1.0
 40
1.0
 40
1.0
 40
1.0
 10
122.8935027025886
 20
110.6881098726938
 30
0.0
 10
122.912838588953
 20
110.6664118813019
 30
0.0
 10
122.9857631888873
 20
110.5845786872187
 30
0.0
 10
122.9899748032451
 20
110.3488045026101
 30
0.0
 10
123.0447508137572
 20
110.0327878460979
 30
0.0
 10
123.0961497472235
 20
109.5066645711069
 30
0.0
 10
123.1597136621768
 20
108.8699294001699
 30
0.0
 10
123.214678728857
 20
108.2048298629922
 30
0.0
 10
123.2434138495583
 20
107.8166255391394
 30
0.0
 10
123.2552954457946
 20
107.656108133238
 30
0.0
  0
SPLINE
  5
142
330
1F
100
AcDbEntity
  8
0
  6
Continuous
 62
     7
370
    25
100
AcDbSpline
210
0.0
220
0.0
230
1.0
 70
     8
 71
     3
 72
    14
 73
    10
 74
     0
 42
0.00000001
 43
0.00000001
 40
0.0
 40
0.0
 40
0.0
 40
0.0
 40
0.0279675825635944
 40
0.1054782448404434
 40
0.2153681675335257
 40
0.3478344466509791
 40
0.6193258966878861
 40
0.8425960513016968
 40
1.0
 40
1.0
 40
1.0
 40
1.0
 10
124.4935074351974
 20
110.6881098726938
 30
0.0
 10
124.5128434759867
 20
110.6664119151655
 30
0.0
 10
124.585768321743
 20
110.5845792264981
 30
0.0
 10
124.5899683288799
 20
110.348803202185
 30
0.0
 10
124.6447477374927
 20
110.032787675785
 30
0.0
 10
124.6961588462133
 20
109.5066652588469
 30
0.0
 10
124.759721617811
 20
108.8699298540119
 30
0.0
 10
124.8146716796282
 20
108.2048291330322
 30
0.0
 10
124.843415125458
 20
107.8166254629796
 30
0.0
 10
124.8553001784034
 20
107.656108133238
 30
0.0
  0
SPLINE
  5
143
330
1F
100
AcDbEntity
  8
0
  6
Continuous
 62
     7
370
    25
100
AcDbSpline
210
0.0
220
0.0
230
1.0
 70
     8
 71
     3
 72
    14
 73
    10
 74
     0
 42
0.00000001
 43
0.00000001
 40
0.0
 40
0.0
 40
0.0
 40
0.0
 40
0.027967576462987
 40
0.1054787086690791
 40
0.2153686073917211
 40
0.34783458890875
 40
0.6193259797248528
 40
0.842596085636437
 40
1.0
 40
1.0
 40
1.0
 40
1.0
 10
126.0935047172256
 20
110.6881098726938
 30
0.0
 10
126.1128406038063
 20
110.6664118813196
 30
0.0
 10
126.1857652045563
 20
110.5845786873029
 30
0.0
 10
126.1899768017348
 20
110.3488045012935
 30
0.0
 10
126.2447529220697
 20
110.0327878537357
 30
0.0
 10
126.2961511458497
 20
109.5066645208807
 30
0.0
 10
126.3597202963787
 20
108.8699299836929
 30
0.0
 10
126.4146687494702
 20
108.2048291133288
 30
0.0
 10
126.4434123454154
 20
107.8166254572158
 30
0.0
 10
126.4552974604316
 20
107.656108133238
 30
0.0
  0
LWPOLYLINE
  5
144
330
1F
100
AcDbEntity
  8
0
  6
Continuous
 62
     7
370
    25
100
AcDbPolyline
 90
       14
 70
   128
 43
0.0
 10
132.4935050212
 20
110.6881098727
 10
132.5465308033
 20
110.620650919
 10
132.5942033433
 20
110.3876745233
 10
132.6373347543
 20
110.0533020122
 10
132.6823027335
 20
109.6493906712
 10
132.7620611988
 20
108.820280982
 10
132.8190730416
 20
108.1376636772
 10
132.8847499095
 20
107.2645773143
 10
132.9874114596
 20
106.0777875733
 10
133.0525705122
 20
105.4497091005
 10
133.1212462388
 20
104.896282302
 10
133.1953199111
 20
104.485743204
 10
133.2880349361
 20
104.2981629631
 10
133.2880349361
 20
104.2981629631
  0
LWPOLYLINE
  5
145
330
1F
100
AcDbEntity
  8
0
  6
Continuous
 62
     7
370
    25
100
AcDbPolyline
 90
       14
 70
   128
 43
0.0
 10
134.0935060285
 20
110.6881098727
 10
134.1465280853
 20
110.620650919
 10
134.1942043506
 20
110.3876745233
 10
134.2373357617
 20
110.0533020122
 10
134.2823037409
 20
109.6493906712
 10
134.3620622061
 20
108.820280982
 10
134.4190740489
 20
108.1376636772
 10
134.4847509168
 20
107.2645773143
 10
134.5874124669
 20
106.0777875733
 10
134.6525715195
 20
105.4497091005
 10
134.7212472461
 20
104.896282302
 10
134.7953209184
 20
104.485743204
 10
134.8880359434
 20
104.2981629631
 10
134.8880359434
 20
104.2981629631
  0
LWPOLYLINE
  5
146
330
1F
100
AcDbEntity
  8
0
  6
Continuous
 62
     7
370
    25
100
AcDbPolyline
 90
       14
 70
   128
 43
0.0
 10
135.6935033106
 20
110.6881098727
 10
135.7465290927
 20
110.620650919
 10
135.7942053579
 20
110.3876745233
 10
135.837336769
 20
110.0533020122
 10
135.8823010229
 20
109.6493906712
 10
135.9620632135
 20
108.820280982
 10
136.0190750562
 20
108.1376636772
 10
136.0847519242
 20
107.2645773143
 10
136.1874134742
 20
106.0777875733
 10
136.2525725268
 20
105.4497091005
 10
136.3212482535
 20
104.896282302
 10
136.3953182005
 20
104.485743204
 10
136.4880369507
 20
104.2981629631
 10
136.4880369507
 20
104.2981629631
  0
LWPOLYLINE
  5
147
330
1F
100
AcDbEntity
  8
0
  6
Continuous
 62
     7
370
    25
100
AcDbPolyline
 90
       14
 70
   128
 43
0.0
 10
137.2935043179
 20
110.6881098727
 10
137.3465301
 20
110.620650919
 10
137.3942063652
 20
110.3876745233
 10
137.437334051
 20
110.0533020122
 10
137.4823020302
 20
109.6493906712
 10
137.5620604955
 20
108.820280982
 10
137.6190760635
 20
108.1376636772
 10
137.6847529315
 20
107.2645773143
 10
137.7874144815
 20
106.0777875733
 10
137.8525698088
 20
105.4497091005
 10
137.9212455355
 20
104.896282302
 10
137.9953192078
 20
104.485743204
 10
138.0880342327
 20
104.2981629631
 10
138.0880342327
 20
104.2981629631
  0
LWPOLYLINE
  5
148
330
1F
100
AcDbEntity
  8
0
  6
Continuous
 62
     7
370
    25
100
AcDbPolyline
 90
       14
 70
   128
 43
0.0
 10
138.8935053252
 20
110.6881098727
 10
138.9465311073
 20
110.620650919
 10
138.9942036473
 20
110.3876745233
 10
139.0373350583
 20
110.0533020122
 10
139.0823030375
 20
109.6493906712
 10
139.1620615028
 20
108.820280982
 10
139.2190733455
 20
108.1376636772
 10
139.2847502135
 20
107.2645773143
 10
139.3874117635
 20
106.0777875733
 10
139.4525708162
 20
105.4497091005
 10
139.5212465428
 20
104.896282302
 10
139.5953202151
 20
104.485743204
 10
139.68803524
 20
104.2981629631
 10
139.68803524
 20
104.2981629631
  0
LWPOLYLINE
  5
149
330
1F
100
AcDbEntity
  8
0
  6
Continuous
 62
     7
370
    25
100
AcDbPolyline
 90
       14
 70
   128
 43
0.0
 10
140.4935063325
 20
110.6881098727
 10
140.5465283893
 20
110.620650919
 10
140.5942046546
 20
110.3876745233
 10
140.6373360656
 20
110.0533020122
 10
140.6823040448
 20
109.6493906712
 10
140.7620625101
 20
108.820280982
 10
140.8190743529
 20
108.1376636772
 10
140.8847512208
 20
107.2645773143
 10
140.9874127709
 20
106.0777875733
 10
141.0525718235
 20
105.4497091005
 10
141.1212475501
 20
104.896282302
 10
141.1953174971
 20
104.485743204
 10
141.2880362474
 20
104.2981629631
 10
141.2880362474
 20
104.2981629631
  0
LWPOLYLINE
  5
14A
330
1F
100
AcDbEntity
  8
0
  6
Continuous
 62
     7
370
    25
100
AcDbPolyline
 90
       14
 70
   128
 43
0.0
 10
142.0935036145
 20
110.6881098727
 10
142.1465293966
 20
110.620650919
 10
142.1942056619
 20
110.3876745233
 10
142.237337073
 20
110.0533020122
 10
142.2823013269
 20
109.6493906712
 10
142.3620635174
 20
108.820280982
 10
142.4190753602
 20
108.1376636772
 10
142.4847522281
 20
107.2645773143
 10
142.5874137782
 20
106.0777875733
 10
142.6525728308
 20
105.4497091005
 10
142.7212485574
 20
104.896282302
 10
142.7953185044
 20
104.485743204
 10
142.8880372547
 20
104.2981629631
 10
142.8880372547
 20
104.2981629631
  0
LWPOLYLINE
  5
14B
330
1F
100
AcDbEntity
  8
0
  6
Continuous
 62
     7
370
    25
100
AcDbPolyline
 90
       14
 70
   128
 43
0.0
 10
143.6935046219
 20
110.6881098727
 10
143.746530404
 20
110.620650919
 10
143.7942029439
 20
110.3876745233
 10
143.837334355
 20
110.0533020122
 10
143.8823023342
 20
109.6493906712
 10
143.9620607995
 20
108.820280982
 10
144.0190763675
 20
108.1376636772
 10
144.0847532355
 20
107.2645773143
 10
144.1874147855
 20
106.0777875733
 10
144.2525701128
 20
105.4497091005
 10
144.3212458395
 20
104.896282302
 10
144.3953195118
 20
104.485743204
 10
144.4880345367
 20
104.2981629631
 10
144.4880345367
 20
104.2981629631
  0
LWPOLYLINE
  5
14C
330
1F
100
AcDbEntity
  8
0
  6
Continuous
 62
     7
370
    25
100
AcDbPolyline
 90
       14
 70
   128
 43
0.0
 10
145.2935056292
 20
110.6881098727
 10
145.3465314113
 20
110.620650919
 10
145.3942039512
 20
110.3876745233
 10
145.4373353623
 20
110.0533020122
 10
145.4823033415
 20
109.6493906712
 10
145.5620618068
 20
108.820280982
 10
145.6190736495
 20
108.1376636772
 10
145.6847505175
 20
107.2645773143
 10
145.7874120675
 20
106.0777875733
 10
145.8525711201
 20
105.4497091005
 10
145.9212468468
 20
104.896282302
 10
145.9953205191
 20
104.485743204
 10
146.088035544
 20
104.2981629631
 10
146.088035544
 20
104.2981629631
  0
LINE
  5
14D
330
1F
100
AcDbEntity
  8
0
  6
Continuous
 62
     7
370
    25
100
AcDbLine
 10
155.2140021228
 20
109.9565627424
 30
0.0
 11
146.2465429209
 21
109.9565627424
 31
0.0
  0
LINE
  5
14E
330
1F
100
AcDbEntity
  8
0
  6
Continuous
 62
     7
370
    25
100
AcDbLine
 10
145.4481051766
 20
109.9565627424
 30
0.0
 11
144.6465419136
 21
109.9565627424
 31
0.0
  0
LINE
  5
14F
330
1F
100
AcDbEntity
  8
0
  6
Continuous
 62
     7
370
    25
100
AcDbLine
 10
143.8481041692
 20
109.9565627424
 30
0.0
 11
143.0465409063
 21
109.9565627424
 31
0.0
  0
LINE
  5
150
330
1F
100
AcDbEntity
  8
0
  6
Continuous
 62
     7
370
    25
100
AcDbLine
 10
142.2481068872
 20
109.9565627424
 30
0.0
 11
141.4465436243
 21
109.9565627424
 31
0.0
  0
LINE
  5
151
330
1F
100
AcDbEntity
  8
0
  6
Continuous
 62
     7
370
    25
100
AcDbLine
 10
140.6481058799
 20
109.9565627424
 30
0.0
 11
139.846542617
 21
109.9565627424
 31
0.0
  0
LINE
  5
152
330
1F
100
AcDbEntity
  8
0
  6
Continuous
 62
     7
370
    25
100
AcDbLine
 10
139.0481048726
 20
109.9565627424
 30
0.0
 11
138.2465416096
 21
109.9565627424
 31
0.0
  0
LINE
  5
153
330
1F
100
AcDbEntity
  8
0
  6
Continuous
 62
     7
370
    25
100
AcDbLine
 10
137.4481038653
 20
109.9565627424
 30
0.0
 11
136.6465406023
 21
109.9565627424
 31
0.0
  0
LINE
  5
154
330
1F
100
AcDbEntity
  8
0
  6
Continuous
 62
     7
370
    25
100
AcDbLine
 10
135.8481065832
 20
109.9565627424
 30
0.0
 11
135.0465433203
 21
109.9565627424
 31
0.0
  0
LINE
  5
155
330
1F
100
AcDbEntity
  8
0
  6
Continuous
 62
     7
370
    25
100
AcDbLine
 10
134.2481055759
 20
109.9565627424
 30
0.0
 11
133.446542313
 21
109.9565627424
 31
0.0
  0
LINE
  5
156
330
1F
100
AcDbEntity
  8
0
  6
Continuous
 62
     7
370
    25
100
AcDbLine
 10
132.6481045686
 20
109.9565627424
 30
0.0
 11
131.8465413057
 21
109.9565627424
 31
0.0
  0
LINE
  5
157
330
1F
100
AcDbEntity
  8
0
  6
Continuous
 62
     7
370
    25
100
AcDbLine
 10
126.2481042646
 20
109.9565627424
 30
0.0
 11
125.4465410017
 21
109.9565627424
 31
0.0
  0
LINE
  5
158
330
1F
100
AcDbEntity
  8
0
  6
Continuous
 62
     7
370
    25
100
AcDbLine
 10
124.6481069826
 20
109.9565627424
 30
0.0
 11
123.8465437196
 21
109.9565627424
 31
0.0
  0
LINE
  5
159
330
1F
100
AcDbEntity
  8
0
  6
Continuous
 62
     7
370
    25
100
AcDbLine
 10
123.04810225
 20
109.9565627424
 30
0.0
 11
122.246538987
 21
109.9565627424
 31
0.0
  0
LINE
  5
15A
330
1F
100
AcDbEntity
  8
0
  6
Continuous
 62
     7
370
    25
100
AcDbLine
 10
121.4481049679
 20
109.9565627424
 30
0.0
 11
120.646541705
 21
109.9565627424
 31
0.0
  0
LINE
  5
15B
330
1F
100
AcDbEntity
  8
0
  6
Continuous
 62
     7
370
    25
100
AcDbLine
 10
119.8481076859
 20
109.9565627424
 30
0.0
 11
119.046544423
 21
109.9565627424
 31
0.0
  0
LINE
  5
15C
330
1F
100
AcDbEntity
  8
0
  6
Continuous
 62
     7
370
    25
100
AcDbLine
 10
118.2481029533
 20
109.9565627424
 30
0.0
 11
117.6652514838
 21
109.9565627424
 31
0.0
  0
LINE
  5
15D
330
1F
100
AcDbEntity
  8
0
  6
Continuous
 62
     7
370
    25
100
AcDbLine
 10
111.8481063746
 20
109.9565627424
 30
0.0
 11
111.0465431117
 21
109.9565627424
 31
0.0
  0
LINE
  5
15E
330
1F
100
AcDbEntity
  8
0
  6
Continuous
 62
     7
370
    25
100
AcDbLine
 10
110.2481090926
 20
109.9565627424
 30
0.0
 11
109.4465383791
 21
109.9565627424
 31
0.0
  0
LINE
  5
15F
330
1F
100
AcDbEntity
  8
0
  6
Continuous
 62
     7
370
    25
100
AcDbLine
 10
108.64810436
 20
109.9565627424
 30
0.0
 11
107.846541097
 21
109.9565627424
 31
0.0
  0
LINE
  5
160
330
1F
100
AcDbEntity
  8
0
  6
Continuous
 62
     7
370
    25
100
AcDbLine
 10
107.048107078
 20
109.9565627424
 30
0.0
 11
106.246543815
 21
109.9565627424
 31
0.0
  0
LINE
  5
161
330
1F
100
AcDbEntity
  8
0
  6
Continuous
 62
     7
370
    25
100
AcDbLine
 10
105.4481023453
 20
109.9565627424
 30
0.0
 11
104.6465390824
 21
109.9565627424
 31
0.0
  0
LINE
  5
162
330
1F
100
AcDbEntity
  8
0
  6
Continuous
 62
     7
370
    25
100
AcDbLine
 10
103.8481050633
 20
109.9565627424
 30
0.0
 11
103.0465418004
 21
109.9565627424
 31
0.0
  0
LINE
  5
163
330
1F
100
AcDbEntity
  8
0
  6
Continuous
 62
     7
370
    25
100
AcDbLine
 10
102.2481077813
 20
109.9565627424
 30
0.0
 11
101.4465445183
 21
109.9565627424
 31
0.0
  0
LINE
  5
164
330
1F
100
AcDbEntity
  8
0
  6
Continuous
 62
     7
370
    25
100
AcDbLine
 10
100.6481030487
 20
109.9565627424
 30
0.0
 11
99.8465397857
 21
109.9565627424
 31
0.0
  0
LINE
  5
165
330
1F
100
AcDbEntity
  8
0
  6
Continuous
 62
     7
370
    25
100
AcDbLine
 10
100.8268126749
 20
105.3565626403
 30
0.0
 11
101.064128568
 21
105.3565626403
 31
0.0
  0
LINE
  5
166
330
1F
100
AcDbEntity
  8
0
  6
Continuous
 62
     7
370
    25
100
AcDbLine
 10
101.8625625871
 20
105.3565626403
 30
0.0
 11
102.6641333007
 21
105.3565626403
 31
0.0
  0
LINE
  5
167
330
1F
100
AcDbEntity
  8
0
  6
Continuous
 62
     7
370
    25
100
AcDbLine
 10
103.4625673197
 20
105.3565626403
 30
0.0
 11
104.2641305827
 21
105.3565626403
 31
0.0
  0
LINE
  5
168
330
1F
100
AcDbEntity
  8
0
  6
Continuous
 62
     7
370
    25
100
AcDbLine
 10
105.0625646018
 20
105.3565626403
 30
0.0
 11
105.8641278647
 21
105.3565626403
 31
0.0
  0
LINE
  5
169
330
1F
100
AcDbEntity
  8
0
  6
Continuous
 62
     7
370
    25
100
AcDbLine
 10
106.6625693344
 20
105.3565626403
 30
0.0
 11
107.4641325973
 21
105.3565626403
 31
0.0
  0
LINE
  5
16A
330
1F
100
AcDbEntity
  8
0
  6
Continuous
 62
     7
370
    25
100
AcDbLine
 10
108.2625666164
 20
105.3565626403
 30
0.0
 11
109.0641298794
 21
105.3565626403
 31
0.0
  0
LINE
  5
16B
330
1F
100
AcDbEntity
  8
0
  6
Continuous
 62
     7
370
    25
100
AcDbLine
 10
109.8625638984
 20
105.3565626403
 30
0.0
 11
110.6641271614
 21
105.3565626403
 31
0.0
  0
LINE
  5
16C
330
1F
100
AcDbEntity
  8
0
  6
Continuous
 62
     7
370
    25
100
AcDbLine
 10
111.462568631
 20
105.3565626403
 30
0.0
 11
112.264131894
 21
105.3565626403
 31
0.0
  0
LINE
  5
16D
330
1F
100
AcDbEntity
  8
0
  6
Continuous
 62
     7
370
    25
100
AcDbLine
 10
132.3553377293
 20
105.3565626403
 30
0.0
 11
133.064130088
 21
105.3565626403
 31
0.0
  0
LINE
  5
16E
330
1F
100
AcDbEntity
  8
0
  6
Continuous
 62
     7
370
    25
100
AcDbLine
 10
133.8625678323
 20
105.3565626403
 30
0.0
 11
134.6641310953
 21
105.3565626403
 31
0.0
  0
LINE
  5
16F
330
1F
100
AcDbEntity
  8
0
  6
Continuous
 62
     7
370
    25
100
AcDbLine
 10
135.4625651144
 20
105.3565626403
 30
0.0
 11
136.2641283773
 21
105.3565626403
 31
0.0
  0
LINE
  5
170
330
1F
100
AcDbEntity
  8
0
  6
Continuous
 62
     7
370
    25
100
AcDbLine
 10
137.0625661217
 20
105.3565626403
 30
0.0
 11
137.8641293846
 21
105.3565626403
 31
0.0
  0
LINE
  5
171
330
1F
100
AcDbEntity
  8
0
  6
Continuous
 62
     7
370
    25
100
AcDbLine
 10
138.662567129
 20
105.3565626403
 30
0.0
 11
139.464130392
 21
105.3565626403
 31
0.0
  0
LINE
  5
172
330
1F
100
AcDbEntity
  8
0
  6
Continuous
 62
     7
370
    25
100
AcDbLine
 10
140.262564411
 20
105.3565626403
 30
0.0
 11
141.0641313993
 21
105.3565626403
 31
0.0
  0
LINE
  5
173
330
1F
100
AcDbEntity
  8
0
  6
Continuous
 62
     7
370
    25
100
AcDbLine
 10
141.8625654184
 20
105.3565626403
 30
0.0
 11
142.6641286813
 21
105.3565626403
 31
0.0
  0
LINE
  5
174
330
1F
100
AcDbEntity
  8
0
  6
Continuous
 62
     7
370
    25
100
AcDbLine
 10
143.4625664257
 20
105.3565626403
 30
0.0
 11
144.2641296886
 21
105.3565626403
 31
0.0
  0
LINE
  5
175
330
1F
100
AcDbEntity
  8
0
  6
Continuous
 62
     7
370
    25
100
AcDbLine
 10
145.062567433
 20
105.3565626403
 30
0.0
 11
145.8641306959
 21
105.3565626403
 31
0.0
  0
LINE
  5
176
330
1F
100
AcDbEntity
  8
0
  6
Continuous
 62
     7
370
    25
100
AcDbLine
 10
146.662564715
 20
105.3565626403
 30
0.0
 11
156.2820838295
 21
105.3565626403
 31
0.0
  0
LINE
  5
177
330
1F
100
AcDbEntity
  8
0
  6
Continuous
 62
     7
370
    25
100
AcDbLine
 10
120.0890520118
 20
98.4100047404
 30
0.0
 11
119.9553364419
 21
98.4100047404
 31
0.0
  0
LINE
  5
178
330
1F
100
AcDbEntity
  8
0
  6
Continuous
 62
     7
370
    25
100
AcDbLine
 10
124.7553357385
 20
98.4100047404
 30
0.0
 11
120.0890520118
 21
98.4100047404
 31
0.0
  0
LINE
  5
179
330
1F
100
AcDbEntity
  8
0
  6
Continuous
 62
     7
370
    25
100
AcDbLine
 10
120.9249848031
 20
97.5036555806
 30
0.0
 11
120.8405920767
 21
97.5036555806
 31
0.0
  0
LINE
  5
17A
330
1F
100
AcDbEntity
  8
0
  6
Continuous
 62
     7
370
    25
100
AcDbLine
 10
123.8700726532
 20
97.5036555806
 30
0.0
 11
120.9249848031
 21
97.5036555806
 31
0.0
  0
LINE
  5
17B
330
1F
100
AcDbEntity
  8
0
  6
Continuous
 62
     7
370
    25
100
AcDbLine
 10
120.0890520118
 20
99.2036554868
 30
0.0
 11
119.9553364419
 21
99.2036554868
 31
0.0
  0
LINE
  5
17C
330
1F
100
AcDbEntity
  8
0
  6
Continuous
 62
     7
370
    25
100
AcDbLine
 10
124.7553357385
 20
99.2036554868
 30
0.0
 11
120.0890520118
 21
99.2036554868
 31
0.0
  0
LWPOLYLINE
  5
17D
330
1F
100
AcDbEntity
  8
0
  6
Continuous
 62
     7
370
    25
100
AcDbPolyline
 90
       10
 70
   128
 43
0.0
 10
117.8553381466
 20
107.6565626914
 10
117.7640238308
 20
108.7614215117
 10
117.6758238577
 20
109.8286232351
 10
117.5937408112
 20
110.8218352216
 10
117.5205686592
 20
111.7072435932
 10
117.4587958955
 20
112.4547049308
 10
117.4105235838
 20
113.0387713107
 10
117.377405753
 20
113.4395594614
 10
117.3605525397
 20
113.6434236447
 10
117.3584365748
 20
113.6690704057
  0
LINE
  5
17E
330
1F
100
AcDbEntity
  8
0
  6
Continuous
 62
     7
370
    25
100
AcDbLine
 10
126.8553340338
 20
107.6565626914
 30
0.0
 11
117.8553381466
 21
107.6565626914
 31
0.0
  0
LWPOLYLINE
  5
17F
330
1F
100
AcDbEntity
  8
0
  6
Continuous
 62
     7
370
    25
100
AcDbPolyline
 90
       10
 70
   128
 43
0.0
 10
127.3543031417
 20
113.6940601187
 10
127.346722176
 20
113.60233183
 10
127.3242102467
 20
113.3299348781
 10
127.287449082
 20
112.885148255
 10
127.2375637196
 20
112.2814896422
 10
127.1760591768
 20
111.5373058615
 10
127.1048092745
 20
110.6752150132
 10
127.0259821318
 20
109.7214175293
 10
126.9419768356
 20
108.7049019894
 10
126.8553340338
 20
107.6565626914
  0
SPLINE
  5
180
330
1F
100
AcDbEntity
  8
0
  6
Continuous
 62
     7
370
    25
100
AcDbSpline
210
0.0
220
0.0
230
1.0
 70
     8
 71
     3
 72
    16
 73
    12
 74
     0
 42
0.00000001
 43
0.00000001
 40
0.0
 40
0.0
 40
0.0
 40
0.0
 40
0.1607087163896888
 40
0.3466099829112728
 40
0.5326770843070202
 40
0.7015574087527358
 40
0.8417024071595017
 40
0.9344035403458364
 40
0.9634384638471423
 40
0.998674044994428
 40
1.0
 40
1.0
 40
1.0
 40
1.0
 10
123.4409117602058
 20
101.7445577213715
 30
0.0
 10
123.2921429900513
 20
101.7690871394408
 30
0.0
 10
122.9712845945681
 20
101.8219911845282
 30
0.0
 10
122.472975060757
 20
101.8540493434229
 30
0.0
 10
121.9617489839612
 20
101.8422190294322
 30
0.0
 10
121.5117856781816
 20
101.7954084897925
 30
0.0
 10
121.1080577177052
 20
101.7199626755503
 30
0.0
 10
120.9331634588298
 20
101.681889173383
 30
0.0
 10
120.7041084572726
 20
101.6220506200951
 30
0.0
 10
120.821109689685
 20
101.6532674312023
 30
0.0
 10
120.8541389244759
 20
101.6607661580942
 30
0.0
 10
120.8553367756553
 20
101.6610381098638
 30
0.0
  0
SPLINE
  5
181
330
1F
100
AcDbEntity
  8
0
  6
Continuous
 62
     7
370
    25
100
AcDbSpline
210
0.0
220
0.0
230
1.0
 70
     8
 71
     3
 72
    10
 73
     6
 74
     0
 42
0.00000001
 43
0.00000001
 40
0.0
 40
0.0
 40
0.0
 40
0.0
 40
0.0288350002630318
 40
0.4104965860532245
 40
1.0
 40
1.0
 40
1.0
 40
1.0
 10
123.9348554514594
 20
101.6330066973518
 30
0.0
 10
123.9301495924021
 20
101.6342526167599
 30
0.0
 10
123.8631567344226
 20
101.6519895912304
 30
0.0
 10
123.6993286659637
 20
101.6929509709426
 30
0.0
 10
123.5385222755658
 20
101.7250645636361
 30
0.0
 10
123.4409117602058
 20
101.7445577213715
 30
0.0
  0
LINE
  5
182
330
1F
100
AcDbEntity
  8
0
  6
Continuous
 62
     7
370
    25
100
AcDbLine
 10
131.8553367161
 20
101.6078125591
 30
0.0
 11
131.8553367161
 21
113.7053128237
 31
0.0
  0
LINE
  5
183
330
1F
100
AcDbEntity
  8
0
  6
Continuous
 62
     7
370
    25
100
AcDbLine
 10
112.8565871619
 20
113.6578158381
 30
0.0
 11
112.8565871619
 21
101.6553095447
 31
0.0
  0
LINE
  5
184
330
1F
100
AcDbEntity
  8
0
  6
Continuous
 62
     7
370
    25
100
AcDbLine
 10
132.3553377293
 20
113.2078082206
 30
0.0
 11
132.3553377293
 21
102.1053171622
 31
0.0
  0
LINE
  5
185
330
1F
100
AcDbEntity
  8
0
  6
Continuous
 62
     7
370
    25
100
AcDbLine
 10
112.3553344511
 20
102.1565627212
 30
0.0
 11
112.3553344511
 21
113.1565626616
 31
0.0
  0
LINE
  5
186
330
1F
100
AcDbEntity
  8
0
  6
Continuous
 62
     7
370
    25
100
AcDbLine
 10
85.9720577819
 20
114.6565629075
 30
0.0
 11
71.9720592124
 21
114.6565629075
 31
0.0
  0
LINE
  5
187
330
1F
100
AcDbEntity
  8
0
  6
Continuous
 62
     7
370
    25
100
AcDbLine
 10
71.9720592124
 20
100.6565624753
 30
0.0
 11
85.9720577819
 21
100.6565624753
 31
0.0
  0
LINE
  5
188
330
1F
100
AcDbEntity
  8
0
  6
Continuous
 62
     7
370
    25
100
AcDbLine
 10
85.9720577819
 20
100.6565624753
 30
0.0
 11
86.4720587952
 21
101.1565625573
 31
0.0
  0
LINE
  5
189
330
1F
100
AcDbEntity
  8
0
  6
Continuous
 62
     7
370
    25
100
AcDbLine
 10
86.4720587952
 20
114.1565628255
 30
0.0
 11
85.9720577819
 21
114.6565629075
 31
0.0
  0
LINE
  5
18A
330
1F
100
AcDbEntity
  8
0
  6
Continuous
 62
     7
370
    25
100
AcDbLine
 10
86.4720587952
 20
102.6565628031
 30
0.0
 11
87.9720543845
 21
102.6565628031
 31
0.0
  0
LINE
  5
18B
330
1F
100
AcDbEntity
  8
0
  6
Continuous
 62
     7
370
    25
100
AcDbLine
 10
87.9720543845
 20
112.6565625796
 30
0.0
 11
86.4720587952
 21
112.6565625796
 31
0.0
  0
SPLINE
  5
18C
330
1F
100
AcDbEntity
  8
0
  6
Continuous
 62
     7
370
    25
100
AcDbSpline
210
0.0
220
0.0
230
1.0
 70
     8
 71
     3
 72
    17
 73
    13
 74
     0
 42
0.00000001
 43
0.00000001
 40
0.0
 40
0.0
 40
0.0
 40
0.0
 40
0.0968058661969621
 40
0.1874728899367278
 40
0.2689917479200635
 40
0.3402155631403308
 40
0.4533384905083906
 40
0.5412184733989592
 40
0.6392500133651875
 40
0.7525942611079348
 40
0.8761132607473936
 40
1.0
 40
1.0
 40
1.0
 40
1.0
 10
88.82793237996192
 20
104.5006660184066
 30
0.0
 10
88.83363500904962
 20
104.4562852908815
 30
0.0
 10
88.84467864098335
 20
104.3703381931126
 30
0.0
 10
88.90217329859374
 20
104.2585106507079
 30
0.0
 10
88.97551454060209
 20
104.1730716888023
 30
0.0
 10
89.07472249890284
 20
104.1004928450786
 30
0.0
 10
89.19486659101693
 20
104.0564053429086
 30
0.0
 10
89.33410868120042
 20
104.0542168079689
 30
0.0
 10
89.46774344899524
 20
104.096041617333
 30
0.0
 10
89.59307915297602
 20
104.1893100867202
 30
0.0
 10
89.68947890430725
 20
104.3305267117208
 30
0.0
 10
89.70726795270176
 20
104.4438967457584
 30
0.0
 10
89.716175697566
 20
104.5006660184066
 30
0.0
  0
SPLINE
  5
18D
330
1F
100
AcDbEntity
  8
0
  6
Continuous
 62
     7
370
    25
100
AcDbSpline
210
0.0
220
0.0
230
1.0
 70
     8
 71
     3
 72
    17
 73
    13
 74
     0
 42
0.00000001
 43
0.00000001
 40
0.0
 40
0.0
 40
0.0
 40
0.0
 40
0.0968062491768841
 40
0.1874712266457252
 40
0.2689939447049175
 40
0.3402180416983073
 40
0.4533363278255855
 40
0.5412166583838143
 40
0.6392485861789315
 40
0.7525932823301572
 40
0.8761127706310856
 40
1.0
 40
1.0
 40
1.0
 40
1.0
 10
90.42793711257073
 20
104.5006660184066
 30
0.0
 10
90.43364062045708
 20
104.4562857892678
 30
0.0
 10
90.4446858125674
 20
104.3703407592081
 30
0.0
 10
90.50216843319254
 20
104.2585059377966
 30
0.0
 10
90.57551972949976
 20
104.173073970496
 30
0.0
 10
90.67472469025104
 20
104.1004940386154
 30
0.0
 10
90.79486613194211
 20
104.0564045574888
 30
0.0
 10
90.93410599298021
 20
104.0542170091843
 30
0.0
 10
91.06774072126042
 20
104.0960415513042
 30
0.0
 10
91.19307643804142
 20
104.1893101072613
 30
0.0
 10
91.28947618554645
 20
104.3305267063845
 30
0.0
 10
91.3072652344667
 20
104.4438967439779
 30
0.0
 10
91.3161729795942
 20
104.5006660184066
 30
0.0
  0
SPLINE
  5
18E
330
1F
100
AcDbEntity
  8
0
  6
Continuous
 62
     7
370
    25
100
AcDbSpline
210
0.0
220
0.0
230
1.0
 70
     8
 71
     3
 72
    17
 73
    13
 74
     0
 42
0.00000001
 43
0.00000001
 40
0.0
 40
0.0
 40
0.0
 40
0.0
 40
0.0968058661969621
 40
0.1874728899367278
 40
0.2689917479200635
 40
0.3402155631403308
 40
0.4533384905083906
 40
0.5412184733989592
 40
0.6392500133651875
 40
0.7525942611079348
 40
0.8761132607473936
 40
1.0
 40
1.0
 40
1.0
 40
1.0
 10
92.02793439459892
 20
104.5006660184066
 30
0.0
 10
92.03363702368661
 20
104.4562852908815
 30
0.0
 10
92.04468065562034
 20
104.3703381931126
 30
0.0
 10
92.10217531323073
 20
104.2585106507079
 30
0.0
 10
92.1755165552391
 20
104.1730716888023
 30
0.0
 10
92.27472451353982
 20
104.1004928450786
 30
0.0
 10
92.39486860565394
 20
104.0564053429086
 30
0.0
 10
92.53411069583741
 20
104.0542168079689
 30
0.0
 10
92.66774546363224
 20
104.096041617333
 30
0.0
 10
92.79308116761301
 20
104.1893100867202
 30
0.0
 10
92.88948091894424
 20
104.3305267117208
 30
0.0
 10
92.90726996733875
 20
104.4438967457584
 30
0.0
 10
92.916177712203
 20
104.5006660184066
 30
0.0
  0
SPLINE
  5
18F
330
1F
100
AcDbEntity
  8
0
  6
Continuous
 62
     7
370
    25
100
AcDbSpline
210
0.0
220
0.0
230
1.0
 70
     8
 71
     3
 72
    17
 73
    13
 74
     0
 42
0.00000001
 43
0.00000001
 40
0.0
 40
0.0
 40
0.0
 40
0.0
 40
0.0968070095264631
 40
0.1874717549562597
 40
0.2689907268094102
 40
0.3402146415188369
 40
0.4533377269029327
 40
0.541217832548869
 40
0.639249509450692
 40
0.7525939155186272
 40
0.8761130876959008
 40
1.0
 40
1.0
 40
1.0
 40
1.0
 10
93.62793167662713
 20
104.5006660184066
 30
0.0
 10
93.6336381351448
 20
104.456285769373
 30
0.0
 10
93.64468898567851
 20
104.3703411336237
 30
0.0
 10
93.70217091580236
 20
104.2585087364762
 30
0.0
 10
93.77551435771109
 20
104.1730719204543
 30
0.0
 10
93.87472157410348
 20
104.1004927465036
 30
0.0
 10
93.99486594077722
 20
104.0564053665415
 30
0.0
 10
94.1341079635865
 20
104.0542168016131
 30
0.0
 10
94.26774275034613
 20
104.0960416194187
 30
0.0
 10
94.39307844818353
 20
104.1893100860714
 30
0.0
 10
94.48947820135115
 20
104.3305267118893
 30
0.0
 10
94.5072672494933
 20
104.4438967458147
 30
0.0
 10
94.51617499423118
 20
104.5006660184066
 30
0.0
  0
SPLINE
  5
190
330
1F
100
AcDbEntity
  8
0
  6
Continuous
 62
     7
370
    25
100
AcDbSpline
210
0.0
220
0.0
230
1.0
 70
     8
 71
     3
 72
    17
 73
    13
 74
     0
 42
0.00000001
 43
0.00000001
 40
0.0
 40
0.0
 40
0.0
 40
0.0
 40
0.0968062396260755
 40
0.1874736131143391
 40
0.2689927855570775
 40
0.3402168755235684
 40
0.4533351504907087
 40
0.5412154723787512
 40
0.6392473905021355
 40
0.7525920754708858
 40
0.8761115515855039
 40
1.0
 40
1.0
 40
1.0
 40
1.0
 10
95.22793640923592
 20
104.5006660184066
 30
0.0
 10
95.23363903735371
 20
104.4562852878035
 30
0.0
 10
95.24468266740915
 20
104.3703381840739
 30
0.0
 10
95.30217733798189
 20
104.2585106828054
 30
0.0
 10
95.3755185379059
 20
104.1730715873443
 30
0.0
 10
95.47472475760861
 20
104.1004946414372
 30
0.0
 10
95.59486523619518
 20
104.0564044147723
 30
0.0
 10
95.73410536250816
 20
104.0542170425553
 30
0.0
 10
95.86773989624255
 20
104.096041563558
 30
0.0
 10
95.9930762183
 20
104.1893099976617
 30
0.0
 10
96.08947385262151
 20
104.3305276518608
 30
0.0
 10
96.10726892252953
 20
104.4438968717542
 30
0.0
 10
96.11617972683999
 20
104.5006660184066
 30
0.0
  0
SPLINE
  5
191
330
1F
100
AcDbEntity
  8
0
  6
Continuous
 62
     7
370
    25
100
AcDbSpline
210
0.0
220
0.0
230
1.0
 70
     8
 71
     3
 72
    17
 73
    13
 74
     0
 42
0.00000001
 43
0.00000001
 40
0.0
 40
0.0
 40
0.0
 40
0.0
 40
0.0968058661969621
 40
0.1874728899367278
 40
0.2689917479200635
 40
0.3402155631403308
 40
0.4533384905083906
 40
0.5412184733989592
 40
0.6392500133651875
 40
0.7525942611079348
 40
0.8761132607473936
 40
1.0
 40
1.0
 40
1.0
 40
1.0
 10
96.8279336912641
 20
104.5006660184066
 30
0.0
 10
96.8336363203518
 20
104.4562852908815
 30
0.0
 10
96.84467995228552
 20
104.3703381931126
 30
0.0
 10
96.90217460989592
 20
104.2585106507079
 30
0.0
 10
96.97551585190429
 20
104.1730716888023
 30
0.0
 10
97.07472381020501
 20
104.1004928450786
 30
0.0
 10
97.19486790231912
 20
104.0564053429086
 30
0.0
 10
97.3341099925026
 20
104.0542168079689
 30
0.0
 10
97.46774476029742
 20
104.096041617333
 30
0.0
 10
97.59308046427822
 20
104.1893100867202
 30
0.0
 10
97.68948021560944
 20
104.3305267117208
 30
0.0
 10
97.70726926400394
 20
104.4438967457584
 30
0.0
 10
97.71617700886819
 20
104.5006660184066
 30
0.0
  0
SPLINE
  5
192
330
1F
100
AcDbEntity
  8
0
  6
Continuous
 62
     7
370
    25
100
AcDbSpline
210
0.0
220
0.0
230
1.0
 70
     8
 71
     3
 72
    19
 73
    15
 74
     0
 42
0.00000001
 43
0.00000001
 40
0.0
 40
0.0
 40
0.0
 40
0.0
 40
0.0132672705445564
 40
0.0500368027047408
 40
0.1021664185259996
 40
0.1650058133534125
 40
0.2937960121481503
 40
0.3997109777713237
 40
0.5350905314036097
 40
0.719279324127603
 40
0.8169150665203884
 40
0.9031432908101173
 40
0.9676465590113246
 40
0.9999999999999999
 40
0.9999999999999999
 40
0.9999999999999999
 40
0.9999999999999999
 10
89.63388403487296
 20
104.6250155100773
 30
0.0
 10
89.61454799555032
 20
104.6467134683966
 30
0.0
 10
89.5416231553258
 20
104.7285461600474
 30
0.0
 10
89.5374230316903
 20
104.9643221215306
 30
0.0
 10
89.48264436782644
 20
105.280338049588
 30
0.0
 10
89.43122844645056
 20
105.8064578709694
 30
0.0
 10
89.36770131814995
 20
106.4432124989135
 30
0.0
 10
89.30183331605876
 20
107.2387568089137
 30
0.0
 10
89.23744075557885
 20
108.1537790507946
 30
0.0
 10
89.15838162054024
 20
109.0490732111177
 30
0.0
 10
89.082514145988
 20
109.8405032770185
 30
0.0
 10
89.00573485275497
 20
110.3668265190092
 30
0.0
 10
88.97557766316433
 20
110.7695743068133
 30
0.0
 10
88.87346367223405
 20
110.953518718731
 30
0.0
 10
88.83935412001702
 20
111.0149624196987
 30
0.0
  0
SPLINE
  5
193
330
1F
100
AcDbEntity
  8
0
  6
Continuous
 62
     7
370
    25
100
AcDbSpline
210
0.0
220
0.0
230
1.0
 70
     8
 71
     3
 72
    19
 73
    15
 74
     0
 42
0.00000001
 43
0.00000001
 40
0.0
 40
0.0
 40
0.0
 40
0.0
 40
0.0132672697817206
 40
0.0500370307735531
 40
0.1021666435974855
 40
0.165005907343227
 40
0.2937960987328412
 40
0.3997111541548076
 40
0.5350907000030981
 40
0.7192794821366834
 40
0.8169152189156506
 40
0.9031432963791429
 40
0.9676465608715689
 40
1.0
 40
1.0
 40
1.0
 40
1.0
 10
91.23388876748177
 20
104.6250155100773
 30
0.0
 10
91.21455288252174
 20
104.6467135022555
 30
0.0
 10
91.14162828788425
 20
104.7285466993039
 30
0.0
 10
91.13741656197493
 20
104.9643208214633
 30
0.0
 10
91.08264126458162
 20
105.2803378771972
 30
0.0
 10
91.03123772286648
 20
105.8064585723754
 30
0.0
 10
90.9677079374211
 20
106.4432128498628
 30
0.0
 10
90.90182769566196
 20
107.2387563662626
 30
0.0
 10
90.83743886567252
 20
108.1537791006703
 30
0.0
 10
90.75838050415828
 20
109.0490734178411
 30
0.0
 10
90.68250835378174
 20
109.8405025855098
 30
0.0
 10
90.60574151462555
 20
110.3668270718699
 30
0.0
 10
90.57558220636068
 20
110.7695742834566
 30
0.0
 10
90.4734683574151
 20
110.9535187128826
 30
0.0
 10
90.43935885262582
 20
111.0149624196987
 30
0.0
  0
SPLINE
  5
194
330
1F
100
AcDbEntity
  8
0
  6
Continuous
 62
     7
370
    25
100
AcDbSpline
210
0.0
220
0.0
230
1.0
 70
     8
 71
     3
 72
    19
 73
    15
 74
     0
 42
0.00000001
 43
0.00000001
 40
0.0
 40
0.0
 40
0.0
 40
0.0
 40
0.0132672694767312
 40
0.0500370296232967
 40
0.1021666412488682
 40
0.1650059035500542
 40
0.2937960919790262
 40
0.3997110490775624
 40
0.535090591813734
 40
0.7192793697131686
 40
0.8169152231244224
 40
0.9031432986056949
 40
0.9676465616153131
 40
1.0
 40
1.0
 40
1.0
 40
1.0
 10
92.83388604950997
 20
104.6250155100773
 30
0.0
 10
92.81455016439284
 20
104.6467135022423
 30
0.0
 10
92.7416255691628
 20
104.728546699241
 30
0.0
 10
92.73741385573209
 20
104.9643208224485
 30
0.0
 10
92.68263847856662
 20
105.2803378714816
 30
0.0
 10
92.63123545234747
 20
105.8064586099609
 30
0.0
 10
92.56770186952221
 20
106.443212361549
 30
0.0
 10
92.50183607768975
 20
107.2387568831651
 30
0.0
 10
92.43744083233604
 20
108.1537788429835
 30
0.0
 10
92.35839089882317
 20
109.0490742581867
 30
0.0
 10
92.28250343567352
 20
109.8405021017429
 30
0.0
 10
92.20573921567397
 20
110.366827115301
 30
0.0
 10
92.17557944774232
 20
110.7695742792436
 30
0.0
 10
92.07346562926566
 20
110.9535187118277
 30
0.0
 10
92.03935613465401
 20
111.0149624196987
 30
0.0
  0
SPLINE
  5
195
330
1F
100
AcDbEntity
  8
0
  6
Continuous
 62
     7
370
    25
100
AcDbSpline
210
0.0
220
0.0
230
1.0
 70
     8
 71
     3
 72
    19
 73
    15
 74
     0
 42
0.00000001
 43
0.00000001
 40
0.0
 40
0.0
 40
0.0
 40
0.0
 40
0.0132665650269012
 40
0.0500363458174209
 40
0.1021659867105567
 40
0.1650054117607432
 40
0.2937956724974688
 40
0.3997106890607259
 40
0.5350903078041674
 40
0.7192791891142494
 40
0.816914978465204
 40
0.9031432442266263
 40
0.9676465434508514
 40
1.0
 40
1.0
 40
1.0
 40
1.0
 10
94.43388333153817
 20
104.6250155100773
 30
0.0
 10
94.41455030874396
 20
104.6467137493409
 30
0.0
 10
94.34163363345793
 20
104.728551105222
 30
0.0
 10
94.33741646519891
 20
104.9643193177473
 30
0.0
 10
94.2826458537464
 20
105.2803389047452
 30
0.0
 10
94.23122634670311
 20
105.8064573255087
 30
0.0
 10
94.16770099687356
 20
106.4432126481515
 30
0.0
 10
94.10183249010096
 20
107.2387567610152
 30
0.0
 10
94.03744010390471
 20
108.1537790709741
 30
0.0
 10
93.95838090938983
 20
109.0490732080649
 30
0.0
 10
93.88251344399019
 20
109.8405032775408
 30
0.0
 10
93.80573414916965
 20
110.3668265189113
 30
0.0
 10
93.77557695985386
 20
110.7695743068227
 30
0.0
 10
93.67346296890531
 20
110.9535187187333
 30
0.0
 10
93.63935341668221
 20
111.0149624196987
 30
0.0
  0
SPLINE
  5
196
330
1F
100
AcDbEntity
  8
0
  6
Continuous
 62
     7
370
    25
100
AcDbSpline
210
0.0
220
0.0
230
1.0
 70
     8
 71
     3
 72
    19
 73
    15
 74
     0
 42
0.00000001
 43
0.00000001
 40
0.0
 40
0.0
 40
0.0
 40
0.0
 40
0.0132672694767312
 40
0.0500370296232967
 40
0.1021666412488682
 40
0.1650059035500542
 40
0.2937960919790262
 40
0.3997110490775624
 40
0.535090591813734
 40
0.7192793697131686
 40
0.8169152231244224
 40
0.9031432986056949
 40
0.9676465616153131
 40
1.0
 40
1.0
 40
1.0
 40
1.0
 10
96.03388806414696
 20
104.6250155100773
 30
0.0
 10
96.01455217902985
 20
104.6467135022423
 30
0.0
 10
95.94162758379981
 20
104.728546699241
 30
0.0
 10
95.93741587036908
 20
104.9643208224485
 30
0.0
 10
95.88264049320362
 20
105.2803378714816
 30
0.0
 10
95.83123746698446
 20
105.8064586099609
 30
0.0
 10
95.7677038841592
 20
106.443212361549
 30
0.0
 10
95.70183809232675
 20
107.2387568831651
 30
0.0
 10
95.63744284697304
 20
108.1537788429835
 30
0.0
 10
95.55839291346018
 20
109.0490742581867
 30
0.0
 10
95.4825054503105
 20
109.8405021017429
 30
0.0
 10
95.40574123031098
 20
110.366827115301
 30
0.0
 10
95.37558146237932
 20
110.7695742792436
 30
0.0
 10
95.27346764390265
 20
110.9535187118277
 30
0.0
 10
95.23935814929101
 20
111.0149624196987
 30
0.0
  0
SPLINE
  5
197
330
1F
100
AcDbEntity
  8
0
  6
Continuous
 62
     7
370
    25
100
AcDbSpline
210
0.0
220
0.0
230
1.0
 70
     8
 71
     3
 72
    13
 73
     9
 74
     0
 42
0.00000001
 43
0.00000001
 40
0.0
 40
0.0
 40
0.0
 40
0.0
 40
0.0363755975557072
 40
0.1371892577935699
 40
0.2801154579397288
 40
0.4524056459787478
 40
0.8055167417948425
 40
1.0
 40
1.0
 40
1.0
 40
1.0
 10
97.63388534617516
 20
104.6250155100773
 30
0.0
 10
97.61454944565028
 20
104.646713499318
 30
0.0
 10
97.54162479231047
 20
104.7285466852879
 30
0.0
 10
97.53741430875313
 20
104.9643207006757
 30
0.0
 10
97.48263119579602
 20
105.280336280063
 30
0.0
 10
97.43135396454893
 20
105.8064760576373
 30
0.0
 10
97.374340203705
 20
106.3682300564288
 30
0.0
 10
97.33951384878885
 20
106.7975374081003
 30
0.0
 10
97.32714494299981
 20
106.95000993071
 30
0.0
  0
SPLINE
  5
198
330
1F
100
AcDbEntity
  8
0
  6
Continuous
 62
     7
370
    25
100
AcDbSpline
210
0.0
220
0.0
230
1.0
 70
     8
 71
     3
 72
    10
 73
     6
 74
     0
 42
0.00000001
 43
0.00000001
 40
0.0
 40
0.0
 40
0.0
 40
0.0
 40
0.2918532990175914
 40
0.971290143124361
 40
1.0
 40
1.0
 40
1.0
 40
1.0
 10
89.63935276103112
 20
104.2981629630725
 30
0.0
 10
89.68235296941894
 20
104.3954725154288
 30
0.0
 10
89.82545801123268
 20
104.7193194938721
 30
0.0
 10
89.83590940299294
 20
105.0907606536486
 30
0.0
 10
89.86219921184534
 20
105.3462063004156
 30
0.0
 10
89.86326505971047
 20
105.3565626403491
 30
0.0
  0
SPLINE
  5
199
330
1F
100
AcDbEntity
  8
0
  6
Continuous
 62
     7
370
    25
100
AcDbSpline
210
0.0
220
0.0
230
1.0
 70
     8
 71
     3
 72
    10
 73
     6
 74
     0
 42
0.00000001
 43
0.00000001
 40
0.0
 40
0.0
 40
0.0
 40
0.0
 40
0.2918515130045606
 40
0.9712900707153835
 40
1.0
 40
1.0
 40
1.0
 40
1.0
 10
91.23935749363991
 20
104.2981629630725
 30
0.0
 10
91.28235477431812
 20
104.3954726847147
 30
0.0
 10
91.42545093770808
 20
104.7193221842159
 30
0.0
 10
91.4359067297049
 20
105.0907606357673
 30
0.0
 10
91.46219649561452
 20
105.3462062997189
 30
0.0
 10
91.46326234173866
 20
105.3565626403491
 30
0.0
  0
SPLINE
  5
19A
330
1F
100
AcDbEntity
  8
0
  6
Continuous
 62
     7
370
    25
100
AcDbSpline
210
0.0
220
0.0
230
1.0
 70
     8
 71
     3
 72
    10
 73
     6
 74
     0
 42
0.00000001
 43
0.00000001
 40
0.0
 40
0.0
 40
0.0
 40
0.0
 40
0.2918513102455119
 40
0.971289395927548
 40
1.0
 40
1.0
 40
1.0
 40
1.0
 10
92.83935477566811
 20
104.2981629630725
 30
0.0
 10
92.88235421984074
 20
104.3954724641768
 30
0.0
 10
93.02545758340109
 20
104.7193212297213
 30
0.0
 10
93.03584678362276
 20
105.0907667281634
 30
0.0
 10
93.06219868433442
 20
105.3462063060221
 30
0.0
 10
93.06326707434746
 20
105.3565626403491
 30
0.0
  0
SPLINE
  5
19B
330
1F
100
AcDbEntity
  8
0
  6
Continuous
 62
     7
370
    25
100
AcDbSpline
210
0.0
220
0.0
230
1.0
 70
     8
 71
     3
 72
    10
 73
     6
 74
     0
 42
0.00000001
 43
0.00000001
 40
0.0
 40
0.0
 40
0.0
 40
0.0
 40
0.2918515130045606
 40
0.9712900707153835
 40
1.0
 40
1.0
 40
1.0
 40
1.0
 10
94.43935950827691
 20
104.2981629630725
 30
0.0
 10
94.48235678895512
 20
104.3954726847147
 30
0.0
 10
94.62545295234506
 20
104.7193221842159
 30
0.0
 10
94.63590874434195
 20
105.0907606357673
 30
0.0
 10
94.66219851025151
 20
105.3462062997189
 30
0.0
 10
94.66326435637565
 20
105.3565626403491
 30
0.0
  0
SPLINE
  5
19C
330
1F
100
AcDbEntity
  8
0
  6
Continuous
 62
     7
370
    25
100
AcDbSpline
210
0.0
220
0.0
230
1.0
 70
     8
 71
     3
 72
    10
 73
     6
 74
     0
 42
0.00000001
 43
0.00000001
 40
0.0
 40
0.0
 40
0.0
 40
0.0
 40
0.2918515130045606
 40
0.9712900707153835
 40
1.0
 40
1.0
 40
1.0
 40
1.0
 10
96.0393567903051
 20
104.2981629630725
 30
0.0
 10
96.08235407098333
 20
104.3954726847147
 30
0.0
 10
96.22545023437328
 20
104.7193221842159
 30
0.0
 10
96.23590602637
 20
105.0907606357673
 30
0.0
 10
96.26219579227971
 20
105.3462062997189
 30
0.0
 10
96.26326163840385
 20
105.3565626403491
 30
0.0
  0
SPLINE
  5
19D
330
1F
100
AcDbEntity
  8
0
  6
Continuous
 62
     7
370
    25
100
AcDbSpline
210
0.0
220
0.0
230
1.0
 70
     8
 71
     3
 72
     9
 73
     5
 74
     0
 42
0.00000001
 43
0.00000001
 40
0.0
 40
0.0
 40
0.0
 40
0.0
 40
0.3760629160542644
 40
1.0
 40
1.0
 40
1.0
 40
1.0
 10
97.63935407233329
 20
104.2981629630725
 30
0.0
 10
97.6828897251322
 20
104.3953812024515
 30
0.0
 10
97.7986566644936
 20
104.65389709229
 30
0.0
 10
97.81813154842177
 20
104.9379271515047
 30
0.0
 10
97.83028265071007
 20
105.1151440384041
 30
0.0
  0
SPLINE
  5
19E
330
1F
100
AcDbEntity
  8
0
  6
Continuous
 62
     7
370
    25
100
AcDbSpline
210
0.0
220
0.0
230
1.0
 70
     8
 71
     3
 72
    17
 73
    13
 74
     0
 42
0.00000001
 43
0.00000001
 40
0.0
 40
0.0
 40
0.0
 40
0.0
 40
0.0968058661969621
 40
0.1874728899367278
 40
0.2689917479200635
 40
0.3402155631403308
 40
0.4533384905083906
 40
0.5412184733989592
 40
0.6392500133651875
 40
0.7525942611079348
 40
0.8761132607473936
 40
1.0
 40
1.0
 40
1.0
 40
1.0
 10
88.91617705655189
 20
110.8124593643646
 30
0.0
 10
88.91047442746422
 20
110.8568400918897
 30
0.0
 10
88.8994307955305
 20
110.9427871896585
 30
0.0
 10
88.8419361379201
 20
111.0546147320632
 30
0.0
 10
88.76859489591175
 20
111.1400536939689
 30
0.0
 10
88.669386937611
 20
111.2126325376926
 30
0.0
 10
88.54924284549692
 20
111.2567200398625
 30
0.0
 10
88.41000075531339
 20
111.2589085748023
 30
0.0
 10
88.27636598751862
 20
111.2170837654381
 30
0.0
 10
88.15103028353779
 20
111.1238152960509
 30
0.0
 10
88.05463053220657
 20
110.9825986710504
 30
0.0
 10
88.0368414838121
 20
110.8692286370127
 30
0.0
 10
88.02793373894784
 20
110.8124593643646
 30
0.0
  0
SPLINE
  5
19F
330
1F
100
AcDbEntity
  8
0
  6
Continuous
 62
     7
370
    25
100
AcDbSpline
210
0.0
220
0.0
230
1.0
 70
     8
 71
     3
 72
    17
 73
    13
 74
     0
 42
0.00000001
 43
0.00000001
 40
0.0
 40
0.0
 40
0.0
 40
0.0
 40
0.0968063588206641
 40
0.1874738439449164
 40
0.2689931167597409
 40
0.340217294422295
 40
0.4533357086685385
 40
0.5412161387609575
 40
0.6392481775880713
 40
0.7525930021146965
 40
0.8761126303151016
 40
1.0
 40
1.0
 40
1.0
 40
1.0
 10
90.5161743385801
 20
110.8124593643646
 30
0.0
 10
90.51047171045165
 20
110.8568400949702
 30
0.0
 10
90.4994280803756
 20
110.9427871987046
 30
0.0
 10
90.44193340994508
 20
111.0546146999394
 30
0.0
 10
90.36859220955945
 20
111.1400537955101
 30
0.0
 10
90.2693859916146
 20
111.212630741
 30
0.0
 10
90.14924550364766
 20
111.2567209698912
 30
0.0
 10
90.01000540856744
 20
111.2589083346956
 30
0.0
 10
89.87637074616768
 20
111.2170838442291
 30
0.0
 10
89.75103500804563
 20
111.1238152715396
 30
0.0
 10
89.65463526691985
 20
110.982598677418
 30
0.0
 10
89.63684621712308
 20
110.8692286391374
 30
0.0
 10
89.62793847155663
 20
110.8124593643646
 30
0.0
  0
SPLINE
  5
1A0
330
1F
100
AcDbEntity
  8
0
  6
Continuous
 62
     7
370
    25
100
AcDbSpline
210
0.0
220
0.0
230
1.0
 70
     8
 71
     3
 72
    17
 73
    13
 74
     0
 42
0.00000001
 43
0.00000001
 40
0.0
 40
0.0
 40
0.0
 40
0.0
 40
0.0968058661969621
 40
0.1874728899367278
 40
0.2689917479200635
 40
0.3402155631403308
 40
0.4533384905083906
 40
0.5412184733989592
 40
0.6392500133651875
 40
0.7525942611079348
 40
0.8761132607473936
 40
1.0
 40
1.0
 40
1.0
 40
1.0
 10
92.11617907118888
 20
110.8124593643646
 30
0.0
 10
92.11047644210122
 20
110.8568400918897
 30
0.0
 10
92.0994328101675
 20
110.9427871896585
 30
0.0
 10
92.04193815255708
 20
111.0546147320632
 30
0.0
 10
91.96859691054874
 20
111.1400536939689
 30
0.0
 10
91.86938895224799
 20
111.2126325376926
 30
0.0
 10
91.7492448601339
 20
111.2567200398625
 30
0.0
 10
91.61000276995038
 20
111.2589085748023
 30
0.0
 10
91.47636800215561
 20
111.2170837654381
 30
0.0
 10
91.35103229817479
 20
111.1238152960509
 30
0.0
 10
91.25463254684357
 20
110.9825986710504
 30
0.0
 10
91.23684349844908
 20
110.8692286370127
 30
0.0
 10
91.22793575358483
 20
110.8124593643646
 30
0.0
  0
SPLINE
  5
1A1
330
1F
100
AcDbEntity
  8
0
  6
Continuous
 62
     7
370
    25
100
AcDbSpline
210
0.0
220
0.0
230
1.0
 70
     8
 71
     3
 72
    17
 73
    13
 74
     0
 42
0.00000001
 43
0.00000001
 40
0.0
 40
0.0
 40
0.0
 40
0.0
 40
0.0968058661969621
 40
0.1874728899367278
 40
0.2689917479200635
 40
0.3402155631403308
 40
0.4533384905083906
 40
0.5412184733989592
 40
0.6392500133651875
 40
0.7525942611079348
 40
0.8761132607473936
 40
1.0
 40
1.0
 40
1.0
 40
1.0
 10
93.71617635321708
 20
110.8124593643646
 30
0.0
 10
93.71047372412941
 20
110.8568400918897
 30
0.0
 10
93.6994300921957
 20
110.9427871896585
 30
0.0
 10
93.64193543458529
 20
111.0546147320632
 30
0.0
 10
93.56859419257694
 20
111.1400536939689
 30
0.0
 10
93.46938623427617
 20
111.2126325376926
 30
0.0
 10
93.34924214216208
 20
111.2567200398625
 30
0.0
 10
93.21000005197858
 20
111.2589085748023
 30
0.0
 10
93.0763652841838
 20
111.2170837654381
 30
0.0
 10
92.95102958020298
 20
111.1238152960509
 30
0.0
 10
92.85462982887177
 20
110.9825986710504
 30
0.0
 10
92.83684078047729
 20
110.8692286370127
 30
0.0
 10
92.82793303561303
 20
110.8124593643646
 30
0.0
  0
SPLINE
  5
1A2
330
1F
100
AcDbEntity
  8
0
  6
Continuous
 62
     7
370
    25
100
AcDbSpline
210
0.0
220
0.0
230
1.0
 70
     8
 71
     3
 72
    17
 73
    13
 74
     0
 42
0.00000001
 43
0.00000001
 40
0.0
 40
0.0
 40
0.0
 40
0.0
 40
0.0968061793929155
 40
0.1874710915047988
 40
0.2689937507973427
 40
0.3402134285401891
 40
0.4533367218947792
 40
0.541216989103397
 40
0.6392488462310001
 40
0.7525934606763154
 40
0.87611285993671
 40
1.0
 40
1.0
 40
1.0
 40
1.0
 10
95.31617363524529
 20
110.8124593643646
 30
0.0
 10
95.31047009840722
 20
110.8568395515369
 30
0.0
 10
95.29942485023015
 20
110.9427845003259
 30
0.0
 10
95.24194261653277
 20
111.0546198826021
 30
0.0
 10
95.16859138021843
 20
111.1400484958725
 30
0.0
 10
95.0693914804641
 20
111.2126361522098
 30
0.0
 10
94.94924628946937
 20
111.2567193428776
 30
0.0
 10
94.81000494199557
 20
111.2589087622461
 30
0.0
 10
94.67636996513909
 20
111.2170837039284
 30
0.0
 10
94.55103432888087
 20
111.1238153151862
 30
0.0
 10
94.45463455730608
 20
110.9825986660794
 30
0.0
 10
94.43684551169319
 20
110.8692286353541
 30
0.0
 10
94.42793776822181
 20
110.8124593643646
 30
0.0
  0
SPLINE
  5
1A3
330
1F
100
AcDbEntity
  8
0
  6
Continuous
 62
     7
370
    25
100
AcDbSpline
210
0.0
220
0.0
230
1.0
 70
     8
 71
     3
 72
    15
 73
    11
 74
     0
 42
0.00000001
 43
0.00000001
 40
0.0
 40
0.0
 40
0.0
 40
0.0
 40
0.0026212480696577
 40
0.0997981537064761
 40
0.2541416974243992
 40
0.3740440752780908
 40
0.5077971139108675
 40
0.6624426244512641
 40
0.8309704425019642
 40
1.0
 40
1.0
 40
1.0
 40
1.0
 10
96.76409711670966
 20
111.1382692957471
 30
0.0
 10
96.76352261873892
 20
111.1389388967689
 30
0.0
 10
96.74164989427123
 20
111.1644324570592
 30
0.0
 10
96.66734257632298
 20
111.210665764912
 30
0.0
 10
96.54973459730824
 20
111.2571915645085
 30
0.0
 10
96.40987016989561
 20
111.2587817652239
 30
0.0
 10
96.27641058074711
 20
111.2171253780182
 30
0.0
 10
96.15101813011239
 20
111.1238023506462
 30
0.0
 10
96.05463534140607
 20
110.9826020340368
 30
0.0
 10
96.03684396223483
 20
110.8692297591185
 30
0.0
 10
96.02793505025002
 20
110.8124593643646
 30
0.0
  0
SPLINE
  5
1A4
330
1F
100
AcDbEntity
  8
0
  6
Continuous
 62
     7
370
    25
100
AcDbSpline
210
0.0
220
0.0
230
1.0
 70
     8
 71
     3
 72
    10
 73
     6
 74
     0
 42
0.00000001
 43
0.00000001
 40
0.0
 40
0.0
 40
0.0
 40
0.0
 40
0.2918513102455119
 40
0.971289395927548
 40
1.0
 40
1.0
 40
1.0
 40
1.0
 10
88.10475667548272
 20
111.0149624196987
 30
0.0
 10
88.06175723131012
 20
110.9176529185944
 30
0.0
 10
87.91865386774977
 20
110.5938041530498
 30
0.0
 10
87.9082646675277
 20
110.2223586546077
 30
0.0
 10
87.88191276681643
 20
109.9669190767491
 30
0.0
 10
87.88084437680337
 20
109.9565627424221
 30
0.0
  0
SPLINE
  5
1A5
330
1F
100
AcDbEntity
  8
0
  6
Continuous
 62
     7
370
    25
100
AcDbSpline
210
0.0
220
0.0
230
1.0
 70
     8
 71
     3
 72
    10
 73
     6
 74
     0
 42
0.00000001
 43
0.00000001
 40
0.0
 40
0.0
 40
0.0
 40
0.0
 40
0.2918515130045606
 40
0.9712900707153835
 40
1.0
 40
1.0
 40
1.0
 40
1.0
 10
89.70475395751092
 20
111.0149624196987
 30
0.0
 10
89.6617566768327
 20
110.9176526980564
 30
0.0
 10
89.51866051344271
 20
110.5938031985553
 30
0.0
 10
89.50820472144603
 20
110.2223647470039
 30
0.0
 10
89.48191495553628
 20
109.9669190830523
 30
0.0
 10
89.48084910941215
 20
109.9565627424221
 30
0.0
  0
SPLINE
  5
1A6
330
1F
100
AcDbEntity
  8
0
  6
Continuous
 62
     7
370
    25
100
AcDbSpline
210
0.0
220
0.0
230
1.0
 70
     8
 71
     3
 72
    10
 73
     6
 74
     0
 42
0.00000001
 43
0.00000001
 40
0.0
 40
0.0
 40
0.0
 40
0.0
 40
0.2918532990175914
 40
0.971290143124361
 40
1.0
 40
1.0
 40
1.0
 40
1.0
 10
91.30475869011971
 20
111.0149624196987
 30
0.0
 10
91.26175848173187
 20
110.9176528673423
 30
0.0
 10
91.11865343991813
 20
110.593805888899
 30
0.0
 10
91.10820204815808
 20
110.2223647291225
 30
0.0
 10
91.08191223930548
 20
109.9669190823556
 30
0.0
 10
91.08084639144036
 20
109.9565627424221
 30
0.0
  0
SPLINE
  5
1A7
330
1F
100
AcDbEntity
  8
0
  6
Continuous
 62
     7
370
    25
100
AcDbSpline
210
0.0
220
0.0
230
1.0
 70
     8
 71
     3
 72
    10
 73
     6
 74
     0
 42
0.00000001
 43
0.00000001
 40
0.0
 40
0.0
 40
0.0
 40
0.0
 40
0.2918513102455119
 40
0.971289395927548
 40
1.0
 40
1.0
 40
1.0
 40
1.0
 10
92.90475597214791
 20
111.0149624196987
 30
0.0
 10
92.86175652797532
 20
110.9176529185944
 30
0.0
 10
92.71865316441495
 20
110.5938041530498
 30
0.0
 10
92.70826396419308
 20
110.2223586546077
 30
0.0
 10
92.6819120634816
 20
109.9669190767491
 30
0.0
 10
92.68084367346856
 20
109.9565627424221
 30
0.0
  0
SPLINE
  5
1A8
330
1F
100
AcDbEntity
  8
0
  6
Continuous
 62
     7
370
    25
100
AcDbSpline
210
0.0
220
0.0
230
1.0
 70
     8
 71
     3
 72
    10
 73
     6
 74
     0
 42
0.00000001
 43
0.00000001
 40
0.0
 40
0.0
 40
0.0
 40
0.0
 40
0.2918515130045606
 40
0.9712900707153835
 40
1.0
 40
1.0
 40
1.0
 40
1.0
 10
94.50475325417611
 20
111.0149624196987
 30
0.0
 10
94.46175597349789
 20
110.9176526980564
 30
0.0
 10
94.3186598101079
 20
110.5938031985553
 30
0.0
 10
94.30820401811124
 20
110.2223647470039
 30
0.0
 10
94.28191425220147
 20
109.9669190830523
 30
0.0
 10
94.28084840607734
 20
109.9565627424221
 30
0.0
  0
SPLINE
  5
1A9
330
1F
100
AcDbEntity
  8
0
  6
Continuous
 62
     7
370
    25
100
AcDbSpline
210
0.0
220
0.0
230
1.0
 70
     8
 71
     3
 72
    10
 73
     6
 74
     0
 42
0.00000001
 43
0.00000001
 40
0.0
 40
0.0
 40
0.0
 40
0.0
 40
0.2918532990175914
 40
0.971290143124361
 40
1.0
 40
1.0
 40
1.0
 40
1.0
 10
96.1047579867849
 20
111.0149624196987
 30
0.0
 10
96.06175777839708
 20
110.9176528673423
 30
0.0
 10
95.91865273658334
 20
110.593805888899
 30
0.0
 10
95.90820134482328
 20
110.2223647291225
 30
0.0
 10
95.88191153597067
 20
109.9669190823556
 30
0.0
 10
95.88084568810555
 20
109.9565627424221
 30
0.0
  0
SPLINE
  5
1AA
330
1F
100
AcDbEntity
  8
0
  6
Continuous
 62
     7
370
    25
100
AcDbSpline
210
0.0
220
0.0
230
1.0
 70
     8
 71
     3
 72
    19
 73
    15
 74
     0
 42
0.00000001
 43
0.00000001
 40
0.0
 40
0.0
 40
0.0
 40
0.0
 40
0.0132672691716958
 40
0.0500370284728667
 40
0.1021666388998965
 40
0.165005899756309
 40
0.293796085224192
 40
0.3997110398875768
 40
0.5350905795111598
 40
0.7192793531758047
 40
0.8169150854655126
 40
0.9031433008325827
 40
0.9676465623591696
 40
1.0
 40
1.0
 40
1.0
 40
1.0
 10
88.11022540164086
 20
110.6881098726938
 30
0.0
 10
88.12956128675361
 20
110.6664118805284
 30
0.0
 10
88.20248588196716
 20
110.5845786835279
 30
0.0
 10
88.20669759574454
 20
110.3488045603581
 30
0.0
 10
88.26147297069437
 20
110.032787511084
 30
0.0
 10
88.31287601123094
 20
109.5066667741619
 30
0.0
 10
88.37640948801894
 20
108.8699130110415
 30
0.0
 10
88.44227568085938
 20
108.0743685330373
 30
0.0
 10
88.50666886613523
 20
107.1593463491739
 30
0.0
 10
88.58572778795518
 20
106.2640521690517
 30
0.0
 10
88.66159529531895
 20
105.4726221061977
 30
0.0
 10
88.73837458286104
 20
104.9462988636786
 30
0.0
 10
88.76853177343656
 20
104.543551075966
 30
0.0
 10
88.8706457643016
 20
104.3596066640422
 30
0.0
 10
88.90475531649682
 20
104.2981629630725
 30
0.0
  0
SPLINE
  5
1AB
330
1F
100
AcDbEntity
  8
0
  6
Continuous
 62
     7
370
    25
100
AcDbSpline
210
0.0
220
0.0
230
1.0
 70
     8
 71
     3
 72
    19
 73
    15
 74
     0
 42
0.00000001
 43
0.00000001
 40
0.0
 40
0.0
 40
0.0
 40
0.0
 40
0.0132672697366363
 40
0.0500370306035195
 40
0.1021666432503075
 40
0.1650059067825115
 40
0.2937960977344767
 40
0.3997110569078815
 40
0.5350906022961315
 40
0.719279483090615
 40
0.816915219537801
 40
0.903143296708277
 40
0.9676465609815109
 40
1.0
 40
1.0
 40
1.0
 40
1.0
 10
89.71022268366906
 20
110.6881098726938
 30
0.0
 10
89.72955856877759
 20
110.6664118805281
 30
0.0
 10
89.80248316397523
 20
110.5845786835264
 30
0.0
 10
89.8066948780887
 20
110.3488045603824
 30
0.0
 10
89.86147025088931
 20
110.0327875109429
 30
0.0
 10
89.91287330531489
 20
109.5066667750895
 30
0.0
 10
89.97640667923795
 20
108.8699130040545
 30
0.0
 10
90.04227326108958
 20
108.0743685559814
 30
0.0
 10
90.10666446294383
 20
107.1593460048335
 30
0.0
 10
90.18573214978737
 20
106.2640522848109
 30
0.0
 10
90.2616028881067
 20
105.4726227790625
 30
0.0
 10
90.33836997572507
 20
104.9462983143103
 30
0.0
 10
90.36852924098763
 20
104.5435510989838
 30
0.0
 10
90.47064309278362
 20
104.3596066698057
 30
0.0
 10
90.50475259852502
 20
104.2981629630725
 30
0.0
  0
SPLINE
  5
1AC
330
1F
100
AcDbEntity
  8
0
  6
Continuous
 62
     7
370
    25
100
AcDbSpline
210
0.0
220
0.0
230
1.0
 70
     8
 71
     3
 72
    19
 73
    15
 74
     0
 42
0.00000001
 43
0.00000001
 40
0.0
 40
0.0
 40
0.0
 40
0.0
 40
0.0132672705445564
 40
0.0500368027047408
 40
0.1021664185259996
 40
0.1650058133534125
 40
0.2937960121481503
 40
0.3997109777713237
 40
0.5350905314036097
 40
0.719279324127603
 40
0.8169150665203884
 40
0.9031432908101173
 40
0.9676465590113246
 40
0.9999999999999999
 40
0.9999999999999999
 40
0.9999999999999999
 40
0.9999999999999999
 10
91.31022741627784
 20
110.6881098726938
 30
0.0
 10
91.32956345560048
 20
110.6664119143745
 30
0.0
 10
91.40248829582504
 20
110.5845792227237
 30
0.0
 10
91.40668841946054
 20
110.3488032612405
 30
0.0
 10
91.46146708332445
 20
110.0327873331832
 30
0.0
 10
91.5128830047002
 20
109.5066675118018
 30
0.0
 10
91.5764101330009
 20
108.8699128838577
 30
0.0
 10
91.64227813509207
 20
108.0743685738574
 30
0.0
 10
91.706670695572
 20
107.1593463319765
 30
0.0
 10
91.78572983061059
 20
106.2640521716534
 30
0.0
 10
91.86159730516283
 20
105.4726221057526
 30
0.0
 10
91.93837659839593
 20
104.946298863762
 30
0.0
 10
91.96853378798644
 20
104.5435510759579
 30
0.0
 10
92.07064777891678
 20
104.3596066640402
 30
0.0
 10
92.10475733113381
 20
104.2981629630725
 30
0.0
  0
SPLINE
  5
1AD
330
1F
100
AcDbEntity
  8
0
  6
Continuous
 62
     7
370
    25
100
AcDbSpline
210
0.0
220
0.0
230
1.0
 70
     8
 71
     3
 72
    19
 73
    15
 74
     0
 42
0.00000001
 43
0.00000001
 40
0.0
 40
0.0
 40
0.0
 40
0.0
 40
0.0132672694767312
 40
0.0500370296232967
 40
0.1021666412488682
 40
0.1650059035500542
 40
0.2937960919790262
 40
0.3997110490775624
 40
0.535090591813734
 40
0.7192793697131686
 40
0.8169152231244224
 40
0.9031432986056949
 40
0.9676465616153131
 40
1.0
 40
1.0
 40
1.0
 40
1.0
 10
92.91022469830605
 20
110.6881098726938
 30
0.0
 10
92.9295605834232
 20
110.6664118805289
 30
0.0
 10
93.00248517865322
 20
110.5845786835302
 30
0.0
 10
93.00669689208394
 20
110.3488045603226
 30
0.0
 10
93.06147226924939
 20
110.0327875112895
 30
0.0
 10
93.11287529546858
 20
109.5066667728103
 30
0.0
 10
93.17640887829378
 20
108.8699130212221
 30
0.0
 10
93.24227467012625
 20
108.074368499606
 30
0.0
 10
93.30666991547997
 20
107.1593465397876
 30
0.0
 10
93.38571984899279
 20
106.2640511245844
 30
0.0
 10
93.46160731214253
 20
105.4726232810282
 30
0.0
 10
93.53837153214207
 20
104.9462982674701
 30
0.0
 10
93.5685313000737
 20
104.5435511035275
 30
0.0
 10
93.67064511855037
 20
104.3596066709434
 30
0.0
 10
93.70475461316201
 20
104.2981629630725
 30
0.0
  0
SPLINE
  5
1AE
330
1F
100
AcDbEntity
  8
0
  6
Continuous
 62
     7
370
    25
100
AcDbSpline
210
0.0
220
0.0
230
1.0
 70
     8
 71
     3
 72
    19
 73
    15
 74
     0
 42
0.00000001
 43
0.00000001
 40
0.0
 40
0.0
 40
0.0
 40
0.0
 40
0.0132672697817206
 40
0.0500370307735531
 40
0.1021666435974855
 40
0.165005907343227
 40
0.2937960987328412
 40
0.3997111541548076
 40
0.5350907000030981
 40
0.7192794821366834
 40
0.8169152189156506
 40
0.9031432963791429
 40
0.9676465608715689
 40
1.0
 40
1.0
 40
1.0
 40
1.0
 10
94.51022198033425
 20
110.6881098726938
 30
0.0
 10
94.52955786529427
 20
110.6664118805157
 30
0.0
 10
94.60248245993178
 20
110.5845786834672
 30
0.0
 10
94.60669418584108
 20
110.3488045613078
 30
0.0
 10
94.6614694832344
 20
110.032787505574
 30
0.0
 10
94.71287302494954
 20
109.5066668103957
 30
0.0
 10
94.77640281039493
 20
108.8699125329083
 30
0.0
 10
94.842283052154
 20
108.0743690165085
 30
0.0
 10
94.90667188214353
 20
107.1593462821009
 30
0.0
 10
94.98573024365773
 20
106.26405196493
 30
0.0
 10
95.06160239403432
 20
105.4726227972613
 30
0.0
 10
95.13836923319045
 20
104.9462983109012
 30
0.0
 10
95.16852854145536
 20
104.5435510993145
 30
0.0
 10
95.27064239040092
 20
104.3596066698885
 30
0.0
 10
95.30475189519021
 20
104.2981629630725
 30
0.0
  0
SPLINE
  5
1AF
330
1F
100
AcDbEntity
  8
0
  6
Continuous
 62
     7
370
    25
100
AcDbSpline
210
0.0
220
0.0
230
1.0
 70
     8
 71
     3
 72
    19
 73
    15
 74
     0
 42
0.00000001
 43
0.00000001
 40
0.0
 40
0.0
 40
0.0
 40
0.0
 40
0.0132672705445564
 40
0.0500368027047408
 40
0.1021664185259996
 40
0.1650058133534125
 40
0.2937960121481503
 40
0.3997109777713237
 40
0.5350905314036097
 40
0.719279324127603
 40
0.8169150665203884
 40
0.9031432908101173
 40
0.9676465590113246
 40
0.9999999999999999
 40
0.9999999999999999
 40
0.9999999999999999
 40
0.9999999999999999
 10
96.11022671294303
 20
110.6881098726938
 30
0.0
 10
96.12956275226567
 20
110.6664119143745
 30
0.0
 10
96.20248759249023
 20
110.5845792227237
 30
0.0
 10
96.20668771612576
 20
110.3488032612405
 30
0.0
 10
96.26146637998963
 20
110.0327873331832
 30
0.0
 10
96.31288230136542
 20
109.5066675118018
 30
0.0
 10
96.37640942966608
 20
108.8699128838577
 30
0.0
 10
96.44227743175725
 20
108.0743685738574
 30
0.0
 10
96.50666999223719
 20
107.1593463319765
 30
0.0
 10
96.58572912727578
 20
106.2640521716534
 30
0.0
 10
96.66159660182804
 20
105.4726221057526
 30
0.0
 10
96.73837589506113
 20
104.946298863762
 30
0.0
 10
96.76853308465164
 20
104.5435510759579
 30
0.0
 10
96.87064707558196
 20
104.3596066640402
 30
0.0
 10
96.904756627799
 20
104.2981629630725
 30
0.0
  0
LINE
  5
1B0
330
1F
100
AcDbEntity
  8
0
  6
Continuous
 62
     7
370
    25
100
AcDbLine
 10
86.5047519429
 20
111.0149624197
 30
0.0
 11
86.3877629263
 21
110.7196994031
 31
0.0
  0
SPLINE
  5
1B1
330
1F
100
AcDbEntity
  8
0
  6
Continuous
 62
     7
370
    25
100
AcDbSpline
210
0.0
220
0.0
230
1.0
 70
     8
 71
     3
 72
    10
 73
     6
 74
     0
 42
0.00000001
 43
0.00000001
 40
0.0
 40
0.0
 40
0.0
 40
0.0
 40
0.0858405417056643
 40
0.5422408754454057
 40
1.0
 40
1.0
 40
1.0
 40
1.0
 10
86.5864401085386
 20
111.1394609229813
 30
0.0
 10
86.5776785265778
 20
111.1333437706409
 30
0.0
 10
86.52233302457718
 20
111.0947027046087
 30
0.0
 10
86.45638457170102
 20
110.9802627547418
 30
0.0
 10
86.43742855381252
 20
110.8684492270552
 30
0.0
 10
86.42793645691962
 20
110.8124593643646
 30
0.0
  0
SPLINE
  5
1B2
330
1F
100
AcDbEntity
  8
0
  6
Continuous
 62
     7
370
    25
100
AcDbSpline
210
0.0
220
0.0
230
1.0
 70
     8
 71
     3
 72
    10
 73
     6
 74
     0
 42
0.00000001
 43
0.00000001
 40
0.0
 40
0.0
 40
0.0
 40
0.0
 40
0.2918515130045606
 40
0.9712900707153835
 40
1.0
 40
1.0
 40
1.0
 40
1.0
 10
88.03935547900292
 20
104.2981629630725
 30
0.0
 10
88.08235275968114
 20
104.3954726847147
 30
0.0
 10
88.2254489230711
 20
104.7193221842159
 30
0.0
 10
88.23590471506782
 20
105.0907606357673
 30
0.0
 10
88.26219448097753
 20
105.3462062997189
 30
0.0
 10
88.26326032710166
 20
105.3565626403491
 30
0.0
  0
SPLINE
  5
1B3
330
1F
100
AcDbEntity
  8
0
  6
Continuous
 62
     7
370
    25
100
AcDbSpline
210
0.0
220
0.0
230
1.0
 70
     8
 71
     3
 72
    11
 73
     7
 74
     0
 42
0.00000001
 43
0.00000001
 40
0.0
 40
0.0
 40
0.0
 40
0.0
 40
0.0339986146601441
 40
0.3374966327340881
 40
0.6682599513509297
 40
1.0
 40
1.0
 40
1.0
 40
1.0
 10
87.84090926480386
 20
104.0950545480649
 30
0.0
 10
87.84651470077372
 20
104.0966917893353
 30
0.0
 10
87.90215860814317
 20
104.1129443167184
 30
0.0
 10
87.99191631767886
 20
104.1925214430298
 30
0.0
 10
88.08978401569406
 20
104.3296909536451
 30
0.0
 10
88.10737163910048
 20
104.4436183423608
 30
0.0
 10
88.1161784155378
 20
104.5006660184066
 30
0.0
  0
LINE
  5
1B4
330
1F
100
AcDbEntity
  8
0
  6
Continuous
 62
     7
370
    25
100
AcDbLine
 10
33.7872823102
 20
105.2565625774
 30
0.0
 11
57.3972781522
 21
105.2565625774
 31
0.0
  0
LINE
  5
1B5
330
1F
100
AcDbEntity
  8
0
  6
Continuous
 62
     7
370
    25
100
AcDbLine
 10
57.3972781522
 20
110.0565628054
 30
0.0
 11
33.7872823102
 21
110.0565628054
 31
0.0
  0
LINE
  5
1B6
330
1F
100
AcDbEntity
  8
0
  6
Continuous
 62
     7
370
    25
100
AcDbLine
 10
33.7872823102
 20
110.0565628054
 30
0.0
 11
32.401638232
 21
107.6565626914
 31
0.0
  0
LINE
  5
1B7
330
1F
100
AcDbEntity
  8
0
  6
Continuous
 62
     7
370
    25
100
AcDbLine
 10
32.401638232
 20
107.6565626914
 30
0.0
 11
33.7872823102
 21
105.2565625774
 31
0.0
  0
LINE
  5
1B8
330
1F
100
AcDbEntity
  8
0
  6
Continuous
 62
     7
370
    25
100
AcDbLine
 10
96.2648262603
 20
109.9565627424
 30
0.0
 11
95.4632629974
 21
109.9565627424
 31
0.0
  0
LINE
  5
1B9
330
1F
100
AcDbEntity
  8
0
  6
Continuous
 62
     7
370
    25
100
AcDbLine
 10
94.6648289783
 20
109.9565627424
 30
0.0
 11
93.8632582648
 21
109.9565627424
 31
0.0
  0
LINE
  5
1BA
330
1F
100
AcDbEntity
  8
0
  6
Continuous
 62
     7
370
    25
100
AcDbLine
 10
93.0648242457
 20
109.9565627424
 30
0.0
 11
92.2632609828
 21
109.9565627424
 31
0.0
  0
LINE
  5
1BB
330
1F
100
AcDbEntity
  8
0
  6
Continuous
 62
     7
370
    25
100
AcDbLine
 10
91.4648269637
 20
109.9565627424
 30
0.0
 11
90.6632637007
 21
109.9565627424
 31
0.0
  0
LINE
  5
1BC
330
1F
100
AcDbEntity
  8
0
  6
Continuous
 62
     7
370
    25
100
AcDbLine
 10
89.8648222311
 20
109.9565627424
 30
0.0
 11
89.0632589681
 21
109.9565627424
 31
0.0
  0
LINE
  5
1BD
330
1F
100
AcDbEntity
  8
0
  6
Continuous
 62
     7
370
    25
100
AcDbLine
 10
88.264824949
 20
109.9565627424
 30
0.0
 11
87.4632616861
 21
109.9565627424
 31
0.0
  0
LINE
  5
1BE
330
1F
100
AcDbEntity
  8
0
  6
Continuous
 62
     7
370
    25
100
AcDbLine
 10
80.4720540864
 20
109.9565627424
 30
0.0
 11
76.9720544441
 21
109.9565627424
 31
0.0
  0
LINE
  5
1BF
330
1F
100
AcDbEntity
  8
0
  6
Continuous
 62
     7
370
    25
100
AcDbLine
 10
71.9720592124
 20
109.9565627424
 30
0.0
 11
57.3972781522
 21
109.9565627424
 31
0.0
  0
LINE
  5
1C0
330
1F
100
AcDbEntity
  8
0
  6
Continuous
 62
     7
370
    25
100
AcDbLine
 10
57.3972781522
 20
105.3565626403
 30
0.0
 11
71.9720592124
 21
105.3565626403
 31
0.0
  0
LINE
  5
1C1
330
1F
100
AcDbEntity
  8
0
  6
Continuous
 62
     7
370
    25
100
AcDbLine
 10
75.556101404
 20
105.3565626403
 30
0.0
 11
79.3912728651
 21
105.3565626403
 31
0.0
  0
LINE
  5
1C2
330
1F
100
AcDbEntity
  8
0
  6
Continuous
 62
     7
370
    25
100
AcDbLine
 10
87.9720543845
 20
105.3565626403
 30
0.0
 11
88.6808504684
 21
105.3565626403
 31
0.0
  0
LINE
  5
1C3
330
1F
100
AcDbEntity
  8
0
  6
Continuous
 62
     7
370
    25
100
AcDbLine
 10
89.4792844875
 20
105.3565626403
 30
0.0
 11
90.2808477504
 21
105.3565626403
 31
0.0
  0
LINE
  5
1C4
330
1F
100
AcDbEntity
  8
0
  6
Continuous
 62
     7
370
    25
100
AcDbLine
 10
91.0792892201
 20
105.3565626403
 30
0.0
 11
91.880852483
 21
105.3565626403
 31
0.0
  0
LINE
  5
1C5
330
1F
100
AcDbEntity
  8
0
  6
Continuous
 62
     7
370
    25
100
AcDbLine
 10
92.6792865021
 20
105.3565626403
 30
0.0
 11
93.4808497651
 21
105.3565626403
 31
0.0
  0
LINE
  5
1C6
330
1F
100
AcDbEntity
  8
0
  6
Continuous
 62
     7
370
    25
100
AcDbLine
 10
94.2792837842
 20
105.3565626403
 30
0.0
 11
95.0808470471
 21
105.3565626403
 31
0.0
  0
LINE
  5
1C7
330
1F
100
AcDbEntity
  8
0
  6
Continuous
 62
     7
370
    25
100
AcDbLine
 10
95.8792885168
 20
105.3565626403
 30
0.0
 11
96.6808517797
 21
105.3565626403
 31
0.0
  0
LINE
  5
1C8
330
1F
100
AcDbEntity
  8
0
  6
Continuous
 62
     7
370
    25
100
AcDbLine
 10
97.4792857988
 20
105.3565626403
 30
0.0
 11
97.7905114515
 21
105.3565626403
 31
0.0
  0
LINE
  5
1C9
330
1F
100
AcDbEntity
  8
0
  6
Continuous
 62
     7
370
    25
100
AcDbLine
 10
71.9720592124
 20
113.6865718195
 30
0.0
 11
78.7220617158
 21
113.6865718195
 31
0.0
  0
LINE
  5
1CA
330
1F
100
AcDbEntity
  8
0
  6
Continuous
 62
     7
370
    25
100
AcDbLine
 10
76.9720544441
 20
111.21169826
 30
0.0
 11
71.9720592124
 21
111.21169826
 31
0.0
  0
LINE
  5
1CB
330
1F
100
AcDbEntity
  8
0
  6
Continuous
 62
     7
370
    25
100
AcDbLine
 10
76.9720544441
 20
111.21169826
 30
0.0
 11
76.9720544441
 21
108.7065626539
 31
0.0
  0
LINE
  5
1CC
330
1F
100
AcDbEntity
  8
0
  6
Continuous
 62
     7
370
    25
100
AcDbLine
 10
76.9720544441
 20
108.7065626539
 30
0.0
 11
76.2220491989
 21
108.7065626539
 31
0.0
  0
SPLINE
  5
1CD
330
1F
100
AcDbEntity
  8
0
  6
Continuous
 62
     7
370
    25
100
AcDbSpline
210
0.0
220
0.0
230
1.0
 70
     8
 71
     3
 72
    17
 73
    13
 74
     0
 42
0.00000001
 43
0.00000001
 40
0.0
 40
0.0
 40
0.0
 40
0.0
 40
0.1067876703432775
 40
0.2134041243753054
 40
0.3208486045225351
 40
0.4280219513589936
 40
0.532751036519984
 40
0.6362564539179689
 40
0.7421290137894977
 40
0.8518056217356554
 40
0.9611701532461262
 40
1.0
 40
1.0
 40
1.0
 40
1.0
 10
76.22204919886681
 20
108.7065626539464
 30
0.0
 10
76.02633366964898
 20
108.6874258867121
 30
0.0
 10
75.63521640859143
 20
108.6491830348745
 30
0.0
 10
75.11273865538821
 20
108.3504316214288
 30
0.0
 10
74.71376688129538
 20
107.9089908866372
 30
0.0
 10
74.48573145477087
 20
107.3600008458467
 30
0.0
 10
74.44982876449728
 20
106.7754307252657
 30
0.0
 10
74.60291004046542
 20
106.2127740422251
 30
0.0
 10
74.93503641228398
 20
105.7212051792937
 30
0.0
 10
75.42052529557796
 20
105.3629238995155
 30
0.0
 10
75.88085222776371
 20
105.2192932946233
 30
0.0
 10
76.15121010783713
 20
105.2092057878434
 30
0.0
 10
76.22204919886681
 20
105.2065626623283
 30
0.0
  0
LINE
  5
1CE
330
1F
100
AcDbEntity
  8
0
  6
Continuous
 62
     7
370
    25
100
AcDbLine
 10
76.2220491989
 20
105.2065626623
 30
0.0
 11
78.7220617158
 21
105.2065626623
 31
0.0
  0
SPLINE
  5
1CF
330
1F
100
AcDbEntity
  8
0
  6
Continuous
 62
     7
370
    25
100
AcDbSpline
210
0.0
220
0.0
230
1.0
 70
     8
 71
     3
 72
    12
 73
     8
 74
     0
 42
0.00000001
 43
0.00000001
 40
0.0
 40
0.0
 40
0.0
 40
0.0
 40
0.2061823536701563
 40
0.4099603915616707
 40
0.6195517580468728
 40
0.8387070625387751
 40
1.0
 40
1.0
 40
1.0
 40
1.0
 10
78.72206171584222
 20
105.2065626623283
 30
0.0
 10
78.91096301951819
 20
105.2243768391395
 30
0.0
 10
79.28656282737273
 20
105.2597974596283
 30
0.0
 10
79.79615248205815
 20
105.537770272881
 30
0.0
 10
80.19940013402474
 20
105.9597679563857
 30
0.0
 10
80.43505807411084
 20
106.4612964454814
 30
0.0
 10
80.46103924074107
 20
106.8091067822412
 30
0.0
 10
80.47205408644768
 20
106.956562716345
 30
0.0
  0
LINE
  5
1D0
330
1F
100
AcDbEntity
  8
0
  6
Continuous
 62
     7
370
    25
100
AcDbLine
 10
80.4720540864
 20
106.9565627163
 30
0.0
 11
80.4720540864
 21
112.6063102761
 31
0.0
  0
SPLINE
  5
1D1
330
1F
100
AcDbEntity
  8
0
  6
Continuous
 62
     7
370
    25
100
AcDbSpline
210
0.0
220
0.0
230
1.0
 70
     8
 71
     3
 72
    12
 73
     8
 74
     0
 42
0.00000001
 43
0.00000001
 40
0.0
 40
0.0
 40
0.0
 40
0.0
 40
0.2517338576490355
 40
0.4837613945196576
 40
0.6903657287836844
 40
0.8753229311435311
 40
1.0
 40
1.0
 40
1.0
 40
1.0
 10
78.72206171584222
 20
113.6865718195389
 30
0.0
 10
78.91266977478305
 20
113.6774721488181
 30
0.0
 10
79.27896464374126
 20
113.659985151087
 30
0.0
 10
79.78634561639299
 20
113.5134871016008
 30
0.0
 10
80.19651525306568
 20
113.2696396796436
 30
0.0
 10
80.43972206099858
 20
112.9368343948245
 30
0.0
 10
80.46277258308534
 20
112.7011933116574
 30
0.0
 10
80.47205408644767
 20
112.6063102761458
 30
0.0
  0
LINE
  5
1D2
330
1F
100
AcDbEntity
  8
0
  6
Continuous
 62
     7
370
    25
100
AcDbLine
 10
85.9720577819
 20
107.6565626914
 30
0.0
 11
85.9720577819
 21
114.6565629075
 31
0.0
  0
LINE
  5
1D3
330
1F
100
AcDbEntity
  8
0
  6
Continuous
 62
     7
370
    25
100
AcDbLine
 10
85.9720577819
 20
100.6565624753
 30
0.0
 11
85.9720577819
 21
107.6565626914
 31
0.0
  0
LINE
  5
1D4
330
1F
100
AcDbEntity
  8
0
  6
Continuous
 62
     7
370
    25
100
AcDbLine
 10
71.9720592124
 20
113.6865718195
 30
0.0
 11
71.9720592124
 21
114.6565629075
 31
0.0
  0
LINE
  5
1D5
330
1F
100
AcDbEntity
  8
0
  6
Continuous
 62
     7
370
    25
100
AcDbLine
 10
71.9720592124
 20
100.6565624753
 30
0.0
 11
71.9720592124
 21
111.21169826
 31
0.0
  0
LINE
  5
1D6
330
1F
100
AcDbEntity
  8
0
  6
Continuous
 62
     7
370
    25
100
AcDbLine
 10
86.4720587952
 20
107.6565626914
 30
0.0
 11
86.4720587952
 21
101.1565625573
 31
0.0
  0
LINE
  5
1D7
330
1F
100
AcDbEntity
  8
0
  6
Continuous
 62
     7
370
    25
100
AcDbLine
 10
86.4720587952
 20
114.1565628255
 30
0.0
 11
86.4720587952
 21
107.6565626914
 31
0.0
  0
LINE
  5
1D8
330
1F
100
AcDbEntity
  8
0
  6
Continuous
 62
     7
370
    25
100
AcDbLine
 10
71.9720592124
 20
113.2470159697
 30
0.0
 11
78.7220617158
 21
113.2470159697
 31
0.0
  0
SPLINE
  5
1D9
330
1F
100
AcDbEntity
  8
0
  6
Continuous
 62
     7
370
    25
100
AcDbSpline
210
0.0
220
0.0
230
1.0
 70
     8
 71
     3
 72
    12
 73
     8
 74
     0
 42
0.00000001
 43
0.00000001
 40
0.0
 40
0.0
 40
0.0
 40
0.0
 40
0.2516131794033112
 40
0.4829562852514411
 40
0.6890838156305017
 40
0.8738996370855223
 40
1.0
 40
1.0
 40
1.0
 40
1.0
 10
78.72206171584222
 20
113.2470159696589
 30
0.0
 10
78.91191068643325
 20
113.2383272459219
 30
0.0
 10
79.27631430715329
 20
113.2216497660316
 30
0.0
 10
79.78209655613398
 20
113.0809690679116
 30
0.0
 10
80.19323697904211
 20
112.8439835370871
 30
0.0
 10
80.43936673688913
 20
112.5136344243378
 30
0.0
 10
80.46262220871293
 20
112.2777254590911
 30
0.0
 10
80.47205408644768
 20
112.1820462772797
 30
0.0
  0
LINE
  5
1DA
330
1F
100
AcDbEntity
  8
0
  6
Continuous
 62
     7
370
    25
100
AcDbLine
 10
71.9720592124
 20
113.2470159697
 30
0.0
 11
71.9720592124
 21
111.21169826
 31
0.0
  0
LINE
  5
1DB
330
1F
100
AcDbEntity
  8
0
  6
Continuous
 62
     7
370
    25
100
AcDbLine
 10
87.9720543845
 20
112.6565625796
 30
0.0
 11
87.9720543845
 21
102.6565628031
 31
0.0
  0
LINE
  5
1DC
330
1F
100
AcDbEntity
  8
0
  6
Continuous
 62
     7
370
    25
100
AcDbLine
 10
71.9720592124
 20
113.6865718195
 30
0.0
 11
71.9720592124
 21
113.2470159697
 31
0.0
  0
LINE
  5
1DD
330
1F
100
AcDbEntity
  8
0
  6
Continuous
 62
     7
370
    25
100
AcDbLine
 10
33.7872823102
 20
110.0565628054
 30
0.0
 11
33.7872823102
 21
105.2565625774
 31
0.0
  0
LINE
  5
1DE
330
1F
100
AcDbEntity
  8
0
  6
Continuous
 62
     7
370
    25
100
AcDbLine
 10
57.3972781522
 20
110.0565628054
 30
0.0
 11
57.3972781522
 21
105.2565625774
 31
0.0
  0
DIMENSION
  5
1DF
330
1F
100
AcDbEntity
  8
0
  6
Continuous
 62
     7
370
    18
100
AcDbDimension
  2
_D
 10
68.8058918529
 20
114.0565626914
 30
0.0
 11
68.8058918529
 21
120.3362805267
 31
0.0
 70
   160
  1
%%c<>
 71
     2
 42
-1.0
  3
SLDDIMSTYLE0
100
AcDbAlignedDimension
 13
71.9720555767
 23
101.2565626914
 33
0.0
 14
71.9720555767
 24
114.0565626914
 34
0.0
 50
90.0
100
AcDbRotatedDimension
  0
DIMENSION
  5
1F2
330
1F
100
AcDbEntity
  8
0
  6
Continuous
 62
     7
370
    18
100
AcDbDimension
  2
_D_1
 10
57.3972840584
 20
135.4177590678
 30
0.0
 11
44.8994637353
 21
135.4177590678
 31
0.0
 70
   160
  1
<>
 71
     2
 42
-1.0
  3
SLDDIMSTYLE1
100
AcDbAlignedDimension
 13
32.4016434123
 23
107.6565626914
 33
0.0
 14
57.3972840584
 24
110.0565626914
 34
0.0
100
AcDbRotatedDimension
  0
DIMENSION
  5
1FD
330
1F
100
AcDbEntity
  8
0
  6
Continuous
 62
     7
370
    18
100
AcDbDimension
  2
_D_2
 10
64.0974352302
 20
100.6565626914
 30
0.0
 11
64.0974352302
 21
120.3362805267
 31
0.0
 70
   160
  1
%%c<>
 71
     2
 42
-1.0
  3
SLDDIMSTYLE0
100
AcDbAlignedDimension
 13
71.9720555767
 23
114.6565626914
 33
0.0
 14
71.9720555767
 24
100.6565626914
 34
0.0
 50
90.0
100
AcDbRotatedDimension
  0
DIMENSION
  5
209
330
1F
100
AcDbEntity
  8
0
  6
Continuous
 62
     7
370
    18
100
AcDbDimension
  2
_D_3
 10
132.3553358817
 20
135.4177590678
 30
0.0
 11
102.1636957292
 21
135.4177590678
 31
0.0
 70
   160
  1
(80)
 71
     2
 42
-1.0
  3
SLDDIMSTYLE0
100
AcDbAlignedDimension
 13
71.9720555767
 23
114.6565626914
 33
0.0
 14
132.3553358817
 24
113.2078080156
 34
0.0
100
AcDbRotatedDimension
  0
DIMENSION
  5
215
330
1F
100
AcDbEntity
  8
0
  6
Continuous
 62
     7
370
    18
100
AcDbDimension
  2
_D_4
 10
259.1668972889
 20
149.0097286957
 30
0.0
 11
145.7842703506
 21
149.0097286957
 31
0.0
 70
   160
  1
L=500～10000
 71
     2
 42
-1.0
  3
SLDDIMSTYLE0
100
AcDbAlignedDimension
 13
32.4016434123
 23
107.6565626914
 33
0.0
 14
259.1668972889
 24
119.2837176229
 34
0.0
100
AcDbRotatedDimension
  0
DIMENSION
  5
21F
330
1F
100
AcDbEntity
  8
0
  6
Continuous
 62
     7
370
    18
100
AcDbDimension
  2
_D_5
 10
259.1668972889
 20
135.4177590678
 30
0.0
 11
225.8030520014
 21
135.4177590678
 31
0.0
 70
   160
  1
(80)
 71
     2
 42
-1.0
  3
SLDDIMSTYLE0
100
AcDbAlignedDimension
 13
192.4392067139
 23
110.1565626914
 33
0.0
 14
259.1668972889
 24
119.2837176229
 34
0.0
100
AcDbRotatedDimension
  0
DIMENSION
  5
22B
330
1F
100
AcDbEntity
  8
0
  6
Continuous
 62
     7
370
    18
100
AcDbDimension
  2
_D_6
 10
41.8213821262
 20
110.0565626914
 30
0.0
 11
41.8213821262
 21
120.3362805267
 31
0.0
 70
   160
  1
%%c<>
 71
     2
 42
-1.0
  3
SLDDIMSTYLE2
100
AcDbAlignedDimension
 13
33.7872840584
 23
105.2565626914
 33
0.0
 14
33.7872840584
 24
110.0565626914
 34
0.0
 50
90.0
100
AcDbRotatedDimension
  0
DIMENSION
  5
237
330
1F
100
AcDbEntity
  8
0
  6
Continuous
 62
     7
370
    18
100
AcDbDimension
  2
_D_7
 10
87.9720555767
 20
122.9091842245
 30
0.0
 11
79.9720555767
 21
122.9091842245
 31
0.0
 70
   160
  1
(<>)
 71
     2
 42
-1.0
  3
SLDDIMSTYLE0
100
AcDbAlignedDimension
 13
71.9720555767
 23
114.6565626914
 33
0.0
 14
87.9720555767
 24
112.6565626914
 34
0.0
100
AcDbRotatedDimension
  0
INSERT
  5
248
330
1F
100
AcDbEntity
  8
0
  6
Continuous
 62
     7
370
    18
100
AcDbBlockReference
  2
SW_NOTE_0
 10
23.0827664399
 20
88.4223356435
 30
0.0
  0
LEADER
  5
24A
330
1F
100
AcDbEntity
  8
0
  6
Continuous
 62
     7
370
    18
100
AcDbLeader
  3
SLDDIMSTYLE3
 76
     2
 10
32.7659181566
 20
107.0256203263
 30
0.0
 10
23.0827664399
 20
88.4223356435
 30
0.0
  0
INSERT
  5
250
330
1F
100
AcDbEntity
  8
0
  6
Continuous
 62
     7
370
    18
100
AcDbBlockReference
  2
SW_NOTE_0_1
 10
23.5389076064
 20
84.1089718209
 30
0.0
  0
INSERT
  5
256
330
1F
100
AcDbEntity
  8
0
  6
Continuous
 62
     7
370
    18
100
AcDbBlockReference
  2
SW_NOTE_0_2
 10
56.7562358277
 20
88.4223356435
 30
0.0
  0
LEADER
  5
257
330
1F
100
AcDbEntity
  8
0
  6
Continuous
 62
     7
370
    18
100
AcDbLeader
  3
SLDDIMSTYLE3
 76
     2
 10
50.22422747
 20
105.2565626914
 30
0.0
 10
56.7562358277
 20
88.4223356435
 30
0.0
  0
MTEXT
  5
258
330
1F
100
AcDbEntity
  8
0
  6
Continuous
 62
     7
370
    18
100
AcDbMText
 10
55.9063260962
 20
87.1877596997
 30
0.0
 40
2.6458333333
 41
0.0
 71
     1
 72
     1
  1
（SUS304）
  7
SLDTEXTSTYLE1
 73
     1
 44
1.0
  0
MTEXT
  5
259
330
1F
100
AcDbEntity
  8
0
  6
Continuous
 62
     7
370
    18
100
AcDbMText
 10
83.2263647724
 20
87.1877596997
 30
0.0
 40
2.6458333333
 41
0.0
 71
     1
 72
     1
  1
（SUS304）
  7
SLDTEXTSTYLE1
 73
     1
 44
1.0
  0
INSERT
  5
25F
330
1F
100
AcDbEntity
  8
0
  6
Continuous
 62
     7
370
    18
100
AcDbBlockReference
  2
SW_NOTE_0_3
 10
80.679138322
 20
88.4223356435
 30
0.0
  0
LEADER
  5
260
330
1F
100
AcDbEntity
  8
0
  6
Continuous
 62
     7
370
    18
100
AcDbLeader
  3
SLDDIMSTYLE3
 76
     2
 10
76.7417017115
 20
100.6565626914
 30
0.0
 10
80.679138322
 20
88.4223356435
 30
0.0
  0
INSERT
  5
266
330
1F
100
AcDbEntity
  8
0
  6
Continuous
 62
     7
370
    18
100
AcDbBlockReference
  2
SW_NOTE_0_4
 10
133.0600907029
 20
88.4223356435
 30
0.0
  0
LEADER
  5
267
330
1F
100
AcDbEntity
  8
0
  6
Continuous
 62
     7
370
    18
100
AcDbLeader
  3
SLDDIMSTYLE3
 76
     2
 10
127.9571713351
 20
101.6175581028
 30
0.0
 10
133.0600907029
 20
88.4223356435
 30
0.0
  0
INSERT
  5
26D
330
1F
100
AcDbEntity
  8
0
  6
Continuous
 62
     7
370
    18
100
AcDbBlockReference
  2
SW_NOTE_0_5
 10
119.4973672049
 20
88.4223356435
 30
0.0
  0
LEADER
  5
26E
330
1F
100
AcDbEntity
  8
0
  6
Continuous
 62
     7
370
    18
100
AcDbLeader
  3
SLDDIMSTYLE3
 76
     2
 10
121.4236359219
 20
97.5036554487
 30
0.0
 10
119.4973672049
 20
88.4223356435
 30
0.0
  0
MTEXT
  5
26F
330
1F
100
AcDbEntity
  8
0
  6
Continuous
 62
     7
370
    18
100
AcDbMText
 10
107.8639543104
 20
87.1877596997
 30
0.0
 40
2.6458333333
 41
0.0
 71
     1
 72
     1
  1
(M4x8)
  7
SLDTEXTSTYLE0
 73
     1
 44
1.0
  0
INSERT
  5
275
330
1F
100
AcDbEntity
  8
0
  6
Continuous
 62
     7
370
    18
100
AcDbBlockReference
  2
SW_NOTE_0_6
 10
175.5770975057
 20
88.4223356435
 30
0.0
  0
LEADER
  5
276
330
1F
100
AcDbEntity
  8
0
  6
Continuous
 62
     7
370
    18
100
AcDbLeader
  3
SLDDIMSTYLE3
 76
     2
 10
169.0721593122
 20
105.3565626914
 30
0.0
 10
175.5770975057
 20
88.4223356435
 30
0.0
  0
INSERT
  5
27C
330
1F
100
AcDbEntity
  8
0
  6
Continuous
 62
     7
370
    18
100
AcDbBlockReference
  2
SW_NOTE_0_7
 10
198.2528344671
 20
88.4223356435
 30
0.0
  0
LEADER
  5
27D
330
1F
100
AcDbEntity
  8
0
  6
Continuous
 62
     7
370
    18
100
AcDbLeader
  3
SLDDIMSTYLE3
 76
     2
 10
191.8019980133
 20
105.1565626914
 30
0.0
 10
198.2528344671
 20
88.4223356435
 30
0.0
  0
INSERT
  5
283
330
1F
100
AcDbEntity
  8
0
  6
Continuous
 62
     7
370
    18
100
AcDbBlockReference
  2
SW_NOTE_0_8
 10
253.2144462031
 20
88.4223356435
 30
0.0
  0
LEADER
  5
284
330
1F
100
AcDbEntity
  8
0
  6
Continuous
 62
     7
370
    18
100
AcDbLeader
  3
SLDDIMSTYLE3
 76
     2
 10
256.6102750891
 20
97.2295209563
 30
0.0
 10
253.2144462031
 20
88.4223356435
 30
0.0
  0
MTEXT
  5
285
330
1F
100
AcDbEntity
  8
0
  6
Continuous
 62
     7
370
    18
100
AcDbMText
 10
266.2180796767
 20
116.7606363415
 30
0.0
 40
2.6458333333
 41
0.0
 71
     1
 72
     1
  1
赤（+）
  7
SLDTEXTSTYLE1
 73
     1
 44
1.0
  0
MTEXT
  5
286
330
1F
100
AcDbEntity
  8
0
  6
Continuous
 62
     7
370
    18
100
AcDbMText
 10
266.2180796767
 20
101.425066468
 30
0.0
 40
2.6458333333
 41
0.0
 71
     1
 72
     1
  1
黒（-）
  7
SLDTEXTSTYLE1
 73
     1
 44
1.0
  0
INSERT
  5
28C
330
1F
100
AcDbEntity
  8
0
  6
Continuous
 62
     7
370
    18
100
AcDbBlockReference
  2
SW_NOTE_0_9
 10
104.7154195011
 20
122.3225624009
 30
0.0
  0
LEADER
  5
28D
330
1F
100
AcDbEntity
  8
0
  6
Continuous
 62
     7
370
    18
100
AcDbLeader
  3
SLDDIMSTYLE3
 76
     2
 10
102.7315200974
 20
111.3335324077
 30
0.0
 10
104.7154195011
 20
122.3225624009
 30
0.0
  0
MTEXT
  5
28E
330
1F
100
AcDbEntity
  8
0
  6
Continuous
 62
     7
370
    18
100
AcDbMText
 10
104.3094110439
 20
121.2119610204
 30
0.0
 40
2.6458333333
 41
0.0
 71
     1
 72
     1
  1
（SUS304）
  7
SLDTEXTSTYLE1
 73
     1
 44
1.0
  0
INSERT
  5
29A
330
1F
100
AcDbEntity
  8
0
  6
Continuous
 62
     7
370
    18
100
AcDbBlockReference
  2
SW_CENTERMARKSYMBOL_0
 10
259.1669012672
 20
115.183604406
 30
0.0
  0
INSERT
  5
2A6
330
1F
100
AcDbEntity
  8
0
  6
Continuous
 62
     7
370
    18
100
AcDbBlockReference
  2
SW_CENTERMARKSYMBOL_1
 10
259.1669012672
 20
100.1295209767
 30
0.0
  0
ARC
  5
2A7
330
1F
100
AcDbEntity
  8
0
  6
HIDDEN
 62
     7
370
    18
100
AcDbCircle
 10
104.6567101627
 20
110.0681694258
 30
0.0
 40
7.964822490398768
100
AcDbArc
 50
157.380135052
 51
202.619864948
  0
ARC
  5
2A8
330
1F
100
AcDbEntity
  8
0
  6
HIDDEN
 62
     7
370
    18
100
AcDbCircle
 10
89.9524224881
 20
103.9413828948
 30
0.0
 40
7.964822490398768
100
AcDbArc
 50
337.380135052
 51
22.619864948
  0
ARC
  5
2A9
330
1F
100
AcDbEntity
  8
0
  6
HIDDEN
 62
     7
370
    18
100
AcDbCircle
 10
107.7767692453
 20
110.3122065494
 30
0.0
 40
8.094886496560216
100
AcDbArc
 50
157.380135052
 51
202.619864948
  0
ARC
  5
2AA
330
1F
100
AcDbEntity
  8
0
  6
HIDDEN
 62
     7
370
    18
100
AcDbCircle
 10
92.8323634055
 20
104.0853707828
 30
0.0
 40
8.094886496560216
100
AcDbArc
 50
337.380135052
 51
22.619864948
  0
ARC
  5
2AB
330
1F
100
AcDbEntity
  8
0
  6
HIDDEN
 62
     7
370
    18
100
AcDbCircle
 10
162.3180441039
 20
110.3940626914
 30
0.0
 40
7.117499999999993
100
AcDbArc
 50
157.380135052
 51
202.619864948
  0
ARC
  5
2AC
330
1F
100
AcDbEntity
  8
0
  6
HIDDEN
 62
     7
370
    18
100
AcDbCircle
 10
149.1780441039
 20
104.9190626914
 30
0.0
 40
7.117499999999998
100
AcDbArc
 50
337.380135052
 51
22.619864948
  0
ARC
  5
2AD
330
1F
100
AcDbEntity
  8
0
  6
HIDDEN
 62
     7
370
    18
100
AcDbCircle
 10
165.3180441039
 20
110.3940626914
 30
0.0
 40
7.117499999999966
100
AcDbArc
 50
157.380135052
 51
202.619864948
  0
ARC
  5
2AE
330
1F
100
AcDbEntity
  8
0
  6
HIDDEN
 62
     7
370
    18
100
AcDbCircle
 10
152.1780441039
 20
104.9190626914
 30
0.0
 40
7.117500000000025
100
AcDbArc
 50
337.380135052
 51
22.619864948
  0
ARC
  5
2AF
330
1F
100
AcDbEntity
  8
0
  6
HIDDEN
 62
     7
370
    18
100
AcDbCircle
 10
233.1481556011
 20
111.2959797157
 30
0.0
 40
9.4624842633208
100
AcDbArc
 50
157.380135052
 51
202.619864948
  0
ARC
  5
2B0
330
1F
100
AcDbEntity
  8
0
  6
HIDDEN
 62
     7
370
    18
100
AcDbCircle
 10
215.6789538842
 20
104.017145667
 30
0.0
 40
9.462484263320851
100
AcDbArc
 50
337.380135052
 51
22.619864948
  0
ARC
  5
2B1
330
1F
100
AcDbEntity
  8
0
  6
HIDDEN
 62
     7
370
    18
100
AcDbCircle
 10
237.9279551958
 20
112.0375628802
 30
0.0
 40
11.39060049086126
100
AcDbArc
 50
157.380135052
 51
202.619864948
  0
ARC
  5
2B2
330
1F
100
AcDbEntity
  8
0
  6
HIDDEN
 62
     7
370
    18
100
AcDbCircle
 10
216.8991542896
 20
103.2755625026
 30
0.0
 40
11.39060049086131
100
AcDbArc
 50
337.380135052
 51
22.619864948
  0
LINE
  5
2B3
330
1F
100
AcDbEntity
  8
0
  6
CENTERX2
 62
     7
370
    18
100
AcDbLine
 10
97.0657562239
 20
107.6565626914
 30
0.0
 11
29.0178974493
 21
107.6565626914
 31
0.0
  0
LINE
  5
2B4
330
1F
100
AcDbEntity
  8
0
  6
CENTERX2
 62
     7
370
    18
100
AcDbLine
 10
155.7480448388
 20
107.6565626914
 30
0.0
 11
100.1298928164
 21
107.6565626914
 31
0.0
  0
LINE
  5
2B5
330
1F
100
AcDbEntity
  8
0
  6
CENTERX2
 62
     7
370
    18
100
AcDbLine
 10
224.4135611546
 20
107.6565626914
 30
0.0
 11
158.7480404269
 21
107.6565626914
 31
0.0
  0
LINE
  5
2B6
330
1F
100
AcDbEntity
  8
0
  6
CENTERX2
 62
     7
370
    18
100
AcDbLine
 10
267.1592284804
 20
107.6565626914
 30
0.0
 11
227.4135549432
 21
107.6565626914
 31
0.0
  0
LINE
  5
2B7
330
1F
100
AcDbEntity
  8
0
  6
CENTERX2
 62
     7
370
    18
100
AcDbLine
 10
122.3553323649
 20
96.2742855678
 30
0.0
 11
122.3553323649
 21
104.1237856167
 31
0.0
  0
ENDSEC
  0
SECTION
  2
OBJECTS
  0
DICTIONARY
  5
C
330
0
100
AcDbDictionary
281
     1
  3
ACAD_GROUP
350
D
  3
ACAD_LAYOUT
350
1A
  3
ACAD_MLINESTYLE
350
17
  3
ACAD_PLOTSETTINGS
350
19
  3
ACAD_PLOTSTYLENAME
350
E
  3
ACAD_SCALELIST
350
47
  3
DWGPROPS
350
2B8
  0
DICTIONARY
  5
D
102
{ACAD_REACTORS
330
C
102
}
330
C
100
AcDbDictionary
281
     1
  0
DICTIONARY
  5
1A
102
{ACAD_REACTORS
330
C
102
}
330
C
100
AcDbDictionary
281
     1
  3
Layout1
350
1E
  3
Layout2
350
26
  3
Model
350
22
  0
DICTIONARY
  5
17
102
{ACAD_REACTORS
330
C
102
}
330
C
100
AcDbDictionary
281
     1
  3
Standard
350
18
  0
DICTIONARY
  5
19
102
{ACAD_REACTORS
330
C
102
}
330
C
100
AcDbDictionary
281
     1
  0
ACDBDICTIONARYWDFLT
  5
E
102
{ACAD_REACTORS
330
C
102
}
330
C
100
AcDbDictionary
281
     1
  3
Normal
350
F
100
AcDbDictionaryWithDefault
340
F
  0
DICTIONARY
  5
47
102
{ACAD_REACTORS
330
C
102
}
330
C
100
AcDbDictionary
281
     1
  3
A0
350
48
  3
A1
350
49
  3
A2
350
4A
  3
A3
350
4B
  3
A4
350
4C
  3
A5
350
4D
  3
A6
350
4E
  3
A7
350
4F
  3
A8
350
50
  3
A9
350
51
  3
B0
350
52
  3
B1
350
53
  3
B2
350
54
  3
B3
350
55
  3
B4
350
56
  3
B5
350
57
  3
B6
350
58
  3
B7
350
59
  3
B8
350
5A
  3
B9
350
5B
  3
C0
350
5C
  3
C1
350
5D
  3
C2
350
5E
  3
C3
350
5F
  3
C4
350
60
  3
C5
350
61
  3
C6
350
62
  3
C7
350
63
  3
C8
350
64
  3
C9
350
65
  3
D0
350
66
  3
D1
350
67
  3
D2
350
68
  0
XRECORD
  5
2B8
102
{ACAD_REACTORS
330
C
102
}
330
C
100
AcDbXrecord
280
     1
  1
DWGPROPS COOKIE
  2

  3

  4

  6

  7

  8
p870382
  9

300
=
301
=
302
=
303
=
304
=
305
=
306
=
307
=
308
=
309
=
 40
0.0
 41
2460257.307726181
 42
2460257.307728704
  1

 90
        0
  0
LAYOUT
  5
1E
102
{ACAD_REACTORS
330
1A
102
}
330
1A
100
AcDbPlotSettings
  1

  2
none_device
  4

  6

 40
0.0
 41
0.0
 42
0.0
 43
0.0
 44
0.0
 45
0.0
 46
0.0
 47
0.0
 48
0.0
 49
0.0
140
0.0
141
0.0
142
1.0
143
1.0
 70
   688
 72
     1
 73
     0
 74
     5
  7

 75
    16
147
1.0
148
0.0
149
0.0
100
AcDbLayout
  1
Layout1
 70
     1
 71
     1
 10
0.0
 20
0.0
 11
420.0
 21
297.0
 12
0.0
 22
0.0
 32
0.0
 14
1.0000000000E+20
 24
1.0000000000E+20
 34
1.0000000000E+20
 15
-1.0000000000E+20
 25
-1.0000000000E+20
 35
-1.0000000000E+20
146
0.0
 13
0.0
 23
0.0
 33
0.0
 16
1.0
 26
0.0
 36
0.0
 17
0.0
 27
1.0
 37
0.0
 76
     0
330
1B
  0
LAYOUT
  5
26
102
{ACAD_REACTORS
330
1A
102
}
330
1A
100
AcDbPlotSettings
  1

  2
none_device
  4

  6

 40
0.0
 41
0.0
 42
0.0
 43
0.0
 44
0.0
 45
0.0
 46
0.0
 47
0.0
 48
0.0
 49
0.0
140
0.0
141
0.0
142
1.0
143
1.0
 70
   688
 72
     1
 73
     0
 74
     5
  7

 75
    16
147
1.0
148
0.0
149
0.0
100
AcDbLayout
  1
Layout2
 70
     1
 71
     2
 10
0.0
 20
0.0
 11
0.0
 21
0.0
 12
0.0
 22
0.0
 32
0.0
 14
0.0
 24
0.0
 34
0.0
 15
0.0
 25
0.0
 35
0.0
146
0.0
 13
0.0
 23
0.0
 33
0.0
 16
1.0
 26
0.0
 36
0.0
 17
0.0
 27
1.0
 37
0.0
 76
     0
330
23
  0
LAYOUT
  5
22
102
{ACAD_REACTORS
330
1A
102
}
330
1A
100
AcDbPlotSettings
  1

  2
none_device
  4
Letter_(8.50_x_11.00_Inches)
  6

 40
6.35
 41
6.35
 42
6.35000508
 43
6.35000508
 44
215.9
 45
279.4
 46
0.0
 47
0.0
 48
0.0
 49
0.0
140
0.0
141
0.0
142
1.0
143
1.0
 70
  1712
 72
     1
 73
     0
 74
     0
  7

 75
     0
147
1.0
148
0.0
149
0.0
100
AcDbLayout
  1
Model
 70
     1
 71
     0
 10
0.0
 20
0.0
 11
297.0
 21
210.0
 12
0.0
 22
0.0
 32
0.0
 14
0.0
 24
0.0
 34
0.0
 15
297.0
 25
210.0
 35
0.0
146
0.0
 13
0.0
 23
0.0
 33
0.0
 16
1.0
 26
0.0
 36
0.0
 17
0.0
 27
1.0
 37
0.0
 76
     0
330
1F
331
29
  0
MLINESTYLE
  5
18
102
{ACAD_REACTORS
330
17
102
}
330
17
100
AcDbMlineStyle
  2
Standard
 70
     0
  3

 62
   256
 51
90.0
 52
90.0
 71
     2
 49
0.5
 62
   256
  6
BYLAYER
 49
-0.5
 62
   256
  6
BYLAYER
  0
ACDBPLACEHOLDER
  5
F
102
{ACAD_REACTORS
330
E
102
}
330
E
  0
SCALE
  5
48
102
{ACAD_REACTORS
330
47
102
}
330
47
100
AcDbScale
 70
     0
300
1:1
140
1.0
141
1.0
290
     1
  0
SCALE
  5
49
102
{ACAD_REACTORS
330
47
102
}
330
47
100
AcDbScale
 70
     0
300
1:2
140
1.0
141
2.0
290
     0
  0
SCALE
  5
4A
102
{ACAD_REACTORS
330
47
102
}
330
47
100
AcDbScale
 70
     0
300
1:4
140
1.0
141
4.0
290
     0
  0
SCALE
  5
4B
102
{ACAD_REACTORS
330
47
102
}
330
47
100
AcDbScale
 70
     0
300
1:5
140
1.0
141
5.0
290
     0
  0
SCALE
  5
4C
102
{ACAD_REACTORS
330
47
102
}
330
47
100
AcDbScale
 70
     0
300
1:8
140
1.0
141
8.0
290
     0
  0
SCALE
  5
4D
102
{ACAD_REACTORS
330
47
102
}
330
47
100
AcDbScale
 70
     0
300
1:10
140
1.0
141
10.0
290
     0
  0
SCALE
  5
4E
102
{ACAD_REACTORS
330
47
102
}
330
47
100
AcDbScale
 70
     0
300
1:16
140
1.0
141
16.0
290
     0
  0
SCALE
  5
4F
102
{ACAD_REACTORS
330
47
102
}
330
47
100
AcDbScale
 70
     0
300
1:20
140
1.0
141
20.0
290
     0
  0
SCALE
  5
50
102
{ACAD_REACTORS
330
47
102
}
330
47
100
AcDbScale
 70
     0
300
1:30
140
1.0
141
30.0
290
     0
  0
SCALE
  5
51
102
{ACAD_REACTORS
330
47
102
}
330
47
100
AcDbScale
 70
     0
300
1:40
140
1.0
141
40.0
290
     0
  0
SCALE
  5
52
102
{ACAD_REACTORS
330
47
102
}
330
47
100
AcDbScale
 70
     0
300
1:50
140
1.0
141
50.0
290
     0
  0
SCALE
  5
53
102
{ACAD_REACTORS
330
47
102
}
330
47
100
AcDbScale
 70
     0
300
1:100
140
1.0
141
100.0
290
     0
  0
SCALE
  5
54
102
{ACAD_REACTORS
330
47
102
}
330
47
100
AcDbScale
 70
     0
300
2:1
140
2.0
141
1.0
290
     0
  0
SCALE
  5
55
102
{ACAD_REACTORS
330
47
102
}
330
47
100
AcDbScale
 70
     0
300
4:1
140
4.0
141
1.0
290
     0
  0
SCALE
  5
56
102
{ACAD_REACTORS
330
47
102
}
330
47
100
AcDbScale
 70
     0
300
8:1
140
8.0
141
1.0
290
     0
  0
SCALE
  5
57
102
{ACAD_REACTORS
330
47
102
}
330
47
100
AcDbScale
 70
     0
300
10:1
140
10.0
141
1.0
290
     0
  0
SCALE
  5
58
102
{ACAD_REACTORS
330
47
102
}
330
47
100
AcDbScale
 70
     0
300
100:1
140
100.0
141
1.0
290
     0
  0
SCALE
  5
59
102
{ACAD_REACTORS
330
47
102
}
330
47
100
AcDbScale
 70
     0
300
1/128" = 1'-0"
140
0.0078125
141
12.0
290
     0
  0
SCALE
  5
5A
102
{ACAD_REACTORS
330
47
102
}
330
47
100
AcDbScale
 70
     0
300
1/64" = 1'-0"
140
0.015625
141
12.0
290
     0
  0
SCALE
  5
5B
102
{ACAD_REACTORS
330
47
102
}
330
47
100
AcDbScale
 70
     0
300
1/32" = 1'-0"
140
0.03125
141
12.0
290
     0
  0
SCALE
  5
5C
102
{ACAD_REACTORS
330
47
102
}
330
47
100
AcDbScale
 70
     0
300
1/16" = 1'-0"
140
0.0625
141
12.0
290
     0
  0
SCALE
  5
5D
102
{ACAD_REACTORS
330
47
102
}
330
47
100
AcDbScale
 70
     0
300
3/32" = 1'-0"
140
0.09375
141
12.0
290
     0
  0
SCALE
  5
5E
102
{ACAD_REACTORS
330
47
102
}
330
47
100
AcDbScale
 70
     0
300
1/8" = 1'-0"
140
0.125
141
12.0
290
     0
  0
SCALE
  5
5F
102
{ACAD_REACTORS
330
47
102
}
330
47
100
AcDbScale
 70
     0
300
3/16" = 1'-0"
140
0.1875
141
12.0
290
     0
  0
SCALE
  5
60
102
{ACAD_REACTORS
330
47
102
}
330
47
100
AcDbScale
 70
     0
300
1/4" = 1'-0"
140
0.25
141
12.0
290
     0
  0
SCALE
  5
61
102
{ACAD_REACTORS
330
47
102
}
330
47
100
AcDbScale
 70
     0
300
3/8" = 1'-0"
140
0.375
141
12.0
290
     0
  0
SCALE
  5
62
102
{ACAD_REACTORS
330
47
102
}
330
47
100
AcDbScale
 70
     0
300
1/2" = 1'-0"
140
0.5
141
12.0
290
     0
  0
SCALE
  5
63
102
{ACAD_REACTORS
330
47
102
}
330
47
100
AcDbScale
 70
     0
300
3/4" = 1'-0"
140
0.75
141
12.0
290
     0
  0
SCALE
  5
64
102
{ACAD_REACTORS
330
47
102
}
330
47
100
AcDbScale
 70
     0
300
1" = 1'-0"
140
1.0
141
12.0
290
     0
  0
SCALE
  5
65
102
{ACAD_REACTORS
330
47
102
}
330
47
100
AcDbScale
 70
     0
300
1-1/2" = 1'-0"
140
1.5
141
12.0
290
     0
  0
SCALE
  5
66
102
{ACAD_REACTORS
330
47
102
}
330
47
100
AcDbScale
 70
     0
300
3" = 1'-0"
140
3.0
141
12.0
290
     0
  0
SCALE
  5
67
102
{ACAD_REACTORS
330
47
102
}
330
47
100
AcDbScale
 70
     0
300
6" = 1'-0"
140
6.0
141
12.0
290
     0
  0
SCALE
  5
68
102
{ACAD_REACTORS
330
47
102
}
330
47
100
AcDbScale
 70
     0
300
1'-0" = 1'-0"
140
12.0
141
12.0
290
     0
  0
ENDSEC
  0
EOF
