  0
SECTION
  2
HEADER
  9
$ACADVER
  1
AC1015
  9
$ACADMAINTVER
 70
     6
  9
$DWGCODEPAGE
  3
DOS932
  9
$INSBASE
 10
0.0
 20
0.0
 30
0.0
  9
$EXTMIN
 10
0.0
 20
0.0
 30
0.0
  9
$EXTMAX
 10
297.0
 20
210.0
 30
0.0
  9
$LIMMIN
 10
0.0
 20
0.0
  9
$LIMMAX
 10
297.0
 20
210.0
  9
$ORTHOMODE
 70
     0
  9
$REGENMODE
 70
     1
  9
$FILLMODE
 70
     1
  9
$QTEXTMODE
 70
     0
  9
$MIRRTEXT
 70
     1
  9
$LTSCALE
 40
1.0
  9
$ATTMODE
 70
     1
  9
$TEXTSIZE
 40
3.5277777778
  9
$TRACEWID
 40
1.0
  9
$TEXTSTYLE
  7
STANDARD
  9
$CLAYER
  8
0
  9
$CELTYPE
  6
ByLayer
  9
$CECOLOR
 62
   256
  9
$CELTSCALE
 40
1.0
  9
$DISPSILH
 70
     0
  9
$DIMSCALE
 40
1.0
  9
$DIMASZ
 40
3.0
  9
$DIMEXO
 40
1.0
  9
$DIMDLI
 40
3.75
  9
$DIMRND
 40
0.0
  9
$DIMDLE
 40
0.0
  9
$DIMEXE
 40
1.0
  9
$DIMTP
 40
0.0
  9
$DIMTM
 40
0.0
  9
$DIMTXT
 40
3.5277777778
  9
$DIMCEN
 40
2.5
  9
$DIMTSZ
 40
0.0
  9
$DIMTOL
 70
     0
  9
$DIMLIM
 70
     0
  9
$DIMTIH
 70
     1
  9
$DIMTOH
 70
     1
  9
$DIMSE1
 70
     0
  9
$DIMSE2
 70
     0
  9
$DIMTAD
 70
     1
  9
$DIMZIN
 70
     0
  9
$DIMBLK
  1

  9
$DIMASO
 70
     1
  9
$DIMSHO
 70
     1
  9
$DIMPOST
  1

  9
$DIMAPOST
  1

  9
$DIMALT
 70
     0
  9
$DIMALTD
 70
     3
  9
$DIMALTF
 40
0.0393700787
  9
$DIMLFAC
 40
2.0
  9
$DIMTOFL
 70
     1
  9
$DIMTVP
 40
0.0
  9
$DIMTIX
 70
     0
  9
$DIMSOXD
 70
     0
  9
$DIMSAH
 70
     0
  9
$DIMBLK1
  1

  9
$DIMBLK2
  1

  9
$DIMSTYLE
  2
ISO-25
  9
$DIMCLRD
 70
     0
  9
$DIMCLRE
 70
     0
  9
$DIMCLRT
 70
     0
  9
$DIMTFAC
 40
1.0
  9
$DIMGAP
 40
1.524
  9
$DIMJUST
 70
     0
  9
$DIMSD1
 70
     0
  9
$DIMSD2
 70
     0
  9
$DIMTOLJ
 70
     0
  9
$DIMTZIN
 70
     0
  9
$DIMALTZ
 70
     0
  9
$DIMALTTZ
 70
     0
  9
$DIMUPT
 70
     0
  9
$DIMDEC
 70
     8
  9
$DIMTDEC
 70
     8
  9
$DIMALTU
 70
     2
  9
$DIMALTTD
 70
     3
  9
$DIMTXSTY
  7
STANDARD
  9
$DIMAUNIT
 70
     0
  9
$DIMADEC
 70
     2
  9
$DIMALTRND
 40
0.0
  9
$DIMAZIN
 70
     0
  9
$DIMDSEP
 70
    44
  9
$DIMATFIT
 70
     3
  9
$DIMFRAC
 70
     0
  9
$DIMLDRBLK
  1

  9
$DIMLUNIT
 70
     2
  9
$DIMLWD
 70
    -2
  9
$DIMLWE
 70
    -2
  9
$DIMTMOVE
 70
     0
  9
$LUNITS
 70
     2
  9
$LUPREC
 70
     2
  9
$SKETCHINC
 40
1.0
  9
$FILLETRAD
 40
10.0
  9
$AUNITS
 70
     0
  9
$AUPREC
 70
     2
  9
$MENU
  1
.
  9
$ELEVATION
 40
0.0
  9
$PELEVATION
 40
0.0
  9
$THICKNESS
 40
0.0
  9
$LIMCHECK
 70
     0
  9
$CHAMFERA
 40
0.0
  9
$CHAMFERB
 40
0.0
  9
$CHAMFERC
 40
0.0
  9
$CHAMFERD
 40
0.0
  9
$SKPOLY
 70
     0
  9
$TDCREATE
 40
2460257.663496042
  9
$TDUCREATE
 40
2460257.288496042
  9
$TDUPDATE
 40
2460257.663498391
  9
$TDUUPDATE
 40
2460257.288498391
  9
$TDINDWG
 40
0.0000000116
  9
$TDUSRTIMER
 40
0.0000000116
  9
$USRTIMER
 70
     1
  9
$ANGBASE
 50
0.0
  9
$ANGDIR
 70
     0
  9
$PDMODE
 70
     0
  9
$PDSIZE
 40
-1.0
  9
$PLINEWID
 40
0.0
  9
$SPLFRAME
 70
     0
  9
$SPLINETYPE
 70
     6
  9
$SPLINESEGS
 70
     8
  9
$HANDSEED
  5
2CC
  9
$SURFTAB1
 70
     6
  9
$SURFTAB2
 70
     6
  9
$SURFTYPE
 70
     6
  9
$SURFU
 70
     6
  9
$SURFV
 70
     6
  9
$UCSBASE
  2

  9
$UCSNAME
  2

  9
$UCSORG
 10
0.0
 20
0.0
 30
0.0
  9
$UCSXDIR
 10
1.0
 20
0.0
 30
0.0
  9
$UCSYDIR
 10
0.0
 20
1.0
 30
0.0
  9
$UCSORTHOREF
  2

  9
$UCSORTHOVIEW
 70
     0
  9
$UCSORGTOP
 10
0.0
 20
0.0
 30
0.0
  9
$UCSORGBOTTOM
 10
0.0
 20
0.0
 30
0.0
  9
$UCSORGLEFT
 10
0.0
 20
0.0
 30
0.0
  9
$UCSORGRIGHT
 10
0.0
 20
0.0
 30
0.0
  9
$UCSORGFRONT
 10
0.0
 20
0.0
 30
0.0
  9
$UCSORGBACK
 10
0.0
 20
0.0
 30
0.0
  9
$PUCSBASE
  2

  9
$PUCSNAME
  2

  9
$PUCSORG
 10
0.0
 20
0.0
 30
0.0
  9
$PUCSXDIR
 10
1.0
 20
0.0
 30
0.0
  9
$PUCSYDIR
 10
0.0
 20
1.0
 30
0.0
  9
$PUCSORTHOREF
  2

  9
$PUCSORTHOVIEW
 70
     0
  9
$PUCSORGTOP
 10
0.0
 20
0.0
 30
0.0
  9
$PUCSORGBOTTOM
 10
0.0
 20
0.0
 30
0.0
  9
$PUCSORGLEFT
 10
0.0
 20
0.0
 30
0.0
  9
$PUCSORGRIGHT
 10
0.0
 20
0.0
 30
0.0
  9
$PUCSORGFRONT
 10
0.0
 20
0.0
 30
0.0
  9
$PUCSORGBACK
 10
0.0
 20
0.0
 30
0.0
  9
$USERI1
 70
     0
  9
$USERI2
 70
     0
  9
$USERI3
 70
     0
  9
$USERI4
 70
     0
  9
$USERI5
 70
     0
  9
$USERR1
 40
0.0
  9
$USERR2
 40
0.0
  9
$USERR3
 40
0.0
  9
$USERR4
 40
0.0
  9
$USERR5
 40
0.0
  9
$WORLDVIEW
 70
     1
  9
$SHADEDGE
 70
     3
  9
$SHADEDIF
 70
    70
  9
$TILEMODE
 70
     1
  9
$MAXACTVP
 70
    64
  9
$PINSBASE
 10
0.0
 20
0.0
 30
0.0
  9
$PLIMCHECK
 70
     0
  9
$PEXTMIN
 10
1.0000000000E+20
 20
1.0000000000E+20
 30
1.0000000000E+20
  9
$PEXTMAX
 10
-1.0000000000E+20
 20
-1.0000000000E+20
 30
-1.0000000000E+20
  9
$PLIMMIN
 10
0.0
 20
0.0
  9
$PLIMMAX
 10
420.0
 20
297.0
  9
$UNITMODE
 70
     0
  9
$VISRETAIN
 70
     1
  9
$PLINEGEN
 70
     0
  9
$PSLTSCALE
 70
     1
  9
$TREEDEPTH
 70
  3020
  9
$CMLSTYLE
  2
Standard
  9
$CMLJUST
 70
     0
  9
$CMLSCALE
 40
20.0
  9
$PROXYGRAPHICS
 70
     1
  9
$MEASUREMENT
 70
     1
  9
$CELWEIGHT
370
    -1
  9
$ENDCAPS
280
     0
  9
$JOINSTYLE
280
     0
  9
$LWDISPLAY
290
     1
  9
$INSUNITS
 70
     4
  9
$HYPERLINKBASE
  1

  9
$STYLESHEET
  1

  9
$XEDIT
290
     1
  9
$CEPSNTYPE
380
     0
  9
$PSTYLEMODE
290
     1
  9
$FINGERPRINTGUID
  2
{161c78ac-aac9-47d5-941e-5e0f0c5f1037}
  9
$VERSIONGUID
  2
{FAEB1C32-E019-11D5-929B-00C0DF256EC4}
  9
$EXTNAMES
290
     1
  9
$PSVPSCALE
 40
0.0
  9
$OLESTARTUP
290
     0
  0
ENDSEC
  0
SECTION
  2
CLASSES
  0
CLASS
  1
ACDBDICTIONARYWDFLT
  2
AcDbDictionaryWithDefault
  3
ObjectDBX Classes
 90
        0
280
     0
281
     0
  0
CLASS
  1
VISUALSTYLE
  2
AcDbVisualStyle
  3
ObjectDBX Classes
 90
     4095
280
     0
281
     0
  0
CLASS
  1
MATERIAL
  2
AcDbMaterial
  3
ObjectDBX Classes
 90
     1153
280
     0
281
     0
  0
CLASS
  1
SCALE
  2
AcDbScale
  3
ObjectDBX Classes
 90
     1153
280
     0
281
     0
  0
CLASS
  1
TABLESTYLE
  2
AcDbTableStyle
  3
ObjectDBX Classes
 90
     4095
280
     0
281
     0
  0
CLASS
  1
MLEADERSTYLE
  2
AcDbMLeaderStyle
  3
ACDB_MLEADERSTYLE_CLASS
 90
     4095
280
     0
281
     0
  0
CLASS
  1
SUN
  2
AcDbSun
  3
SCENEOE
 90
     1153
280
     0
281
     0
  0
CLASS
  1
ACDBPLACEHOLDER
  2
AcDbPlaceHolder
  3
ObjectDBX Classes
 90
        0
280
     0
281
     0
  0
CLASS
  1
LAYOUT
  2
AcDbLayout
  3
ObjectDBX Classes
 90
        0
280
     0
281
     0
  0
ENDSEC
  0
SECTION
  2
TABLES
  0
TABLE
  2
VPORT
  5
8
330
0
100
AcDbSymbolTable
 70
     1
  0
VPORT
  5
29
330
8
100
AcDbSymbolTableRecord
100
AcDbViewportTableRecord
  2
*Active
 70
     0
 10
0.0
 20
0.0
 11
1.0
 21
1.0
 12
148.5
 22
105.0
 13
0.0
 23
0.0
 14
10.0
 24
10.0
 15
10.0
 25
10.0
 16
0.0
 26
0.0
 36
1.0
 17
0.0
 27
0.0
 37
0.0
 40
210.0
 41
1.4142857143
 42
50.0
 43
0.0
 44
0.0
 50
0.0
 51
0.0
 71
     0
 72
  2000
 73
     1
 74
     3
 75
     0
 76
     0
 77
     0
 78
     0
281
     0
 65
     1
110
0.0
120
0.0
130
0.0
111
1.0
121
0.0
131
0.0
112
0.0
122
1.0
132
0.0
 79
     0
146
0.0
  0
ENDTAB
  0
TABLE
  2
LTYPE
  5
5
330
0
100
AcDbSymbolTable
 70
     6
  0
LTYPE
  5
14
330
5
100
AcDbSymbolTableRecord
100
AcDbLinetypeTableRecord
  2
ByBlock
 70
     0
  3

 72
    65
 73
     0
 40
0.0
  0
LTYPE
  5
15
330
5
100
AcDbSymbolTableRecord
100
AcDbLinetypeTableRecord
  2
ByLayer
 70
     0
  3

 72
    65
 73
     0
 40
0.0
  0
LTYPE
  5
16
330
5
100
AcDbSymbolTableRecord
100
AcDbLinetypeTableRecord
  2
Continuous
 70
     0
  3
Solid line
 72
    65
 73
     0
 40
0.0
  0
LTYPE
  5
6E
330
5
100
AcDbSymbolTableRecord
100
AcDbLinetypeTableRecord
  2
HIDDEN
 70
     0
  3
Hidden __ __ __ __ __ __ __ __ __ __ __ __ __ __
 72
    65
 73
     2
 40
1.905
 49
1.27
 74
     0
 49
-0.635
 74
     0
  0
LTYPE
  5
6F
330
5
100
AcDbSymbolTableRecord
100
AcDbLinetypeTableRecord
  2
PHANTOM
 70
     0
  3
Phantom ______  __  __  ______  __  __  ______
 72
    65
 73
     6
 40
12.7
 49
6.35
 74
     0
 49
-1.27
 74
     0
 49
1.27
 74
     0
 49
-1.27
 74
     0
 49
1.27
 74
     0
 49
-1.27
 74
     0
  0
LTYPE
  5
70
330
5
100
AcDbSymbolTableRecord
100
AcDbLinetypeTableRecord
  2
CENTER
 70
     0
  3
Center ____ _ ____ _ ____ _ ____ _ ____ _ ____
 72
    65
 73
     4
 40
10.16
 49
6.35
 74
     0
 49
-1.27
 74
     0
 49
1.27
 74
     0
 49
-1.27
 74
     0
  0
LTYPE
  5
71
330
5
100
AcDbSymbolTableRecord
100
AcDbLinetypeTableRecord
  2
CENTERX2
 70
     0
  3
Center (2x) ________  __  ________  __  _____
 72
    65
 73
     4
 40
20.32
 49
12.7
 74
     0
 49
-2.54
 74
     0
 49
2.54
 74
     0
 49
-2.54
 74
     0
  0
LTYPE
  5
72
330
5
100
AcDbSymbolTableRecord
100
AcDbLinetypeTableRecord
  2
DOT2
 70
     0
  3
Dot (.5x) ........................................
 72
    65
 73
     2
 40
0.635
 49
0.0
 74
     0
 49
-0.635
 74
     0
  0
ENDTAB
  0
TABLE
  2
LAYER
  5
2
330
0
100
AcDbSymbolTable
 70
     1
  0
LAYER
  5
10
330
2
100
AcDbSymbolTableRecord
100
AcDbLayerTableRecord
  2
0
 70
     0
 62
     7
  6
Continuous
370
    -3
390
F
  0
ENDTAB
  0
TABLE
  2
STYLE
  5
3
330
0
100
AcDbSymbolTable
 70
     3
  0
STYLE
  5
11
330
3
100
AcDbSymbolTableRecord
100
AcDbTextStyleTableRecord
  2
STANDARD
 70
     0
 40
0.0
 41
1.0
 50
0.0
 71
     0
 42
3.5277777778
  3
MSGOTHIC.TTC
  4

1001
ACAD
1000
MS UI GOTHIC
1071
    32818
  0
STYLE
  5
77
330
3
100
AcDbSymbolTableRecord
100
AcDbTextStyleTableRecord
  2
SLDTEXTSTYLE0
 70
     0
 40
0.0
 41
1.0
 50
0.0
 71
     0
 42
3.5277777778
  3
MSGOTHIC.TTC
  4

1001
ACAD
1000
MS UI Gothic
1071
      306
  0
STYLE
  5
79
330
3
100
AcDbSymbolTableRecord
100
AcDbTextStyleTableRecord
  2
SLDTEXTSTYLE1
 70
     0
 40
0.0
 41
1.0
 50
0.0
 71
     0
 42
3.5277777778
  3
MSGOTHIC.TTC
  4
bigfont
1001
ACAD
1000
MS UI Gothic
1071
      306
  0
ENDTAB
  0
TABLE
  2
VIEW
  5
6
330
0
100
AcDbSymbolTable
 70
     0
  0
ENDTAB
  0
TABLE
  2
UCS
  5
7
330
0
100
AcDbSymbolTable
 70
     0
  0
ENDTAB
  0
TABLE
  2
APPID
  5
9
330
0
100
AcDbSymbolTable
 70
     1
  0
APPID
  5
12
330
9
100
AcDbSymbolTableRecord
100
AcDbRegAppTableRecord
  2
ACAD
 70
     0
  0
ENDTAB
  0
TABLE
  2
DIMSTYLE
  5
A
330
0
100
AcDbSymbolTable
 70
     5
100
AcDbDimStyleTable
  0
DIMSTYLE
105
27
330
A
100
AcDbSymbolTableRecord
100
AcDbDimStyleTableRecord
  2
ISO-25
 70
     0
 41
2.5
 42
0.625
 43
3.75
 44
1.25
 73
     0
 74
     0
 77
     1
 78
     8
140
2.5
141
2.5
143
0.0393700787
147
0.625
171
     3
172
     1
178
     0
271
     2
272
     2
274
     3
278
    44
283
     0
284
     8
340
11
  0
DIMSTYLE
105
1F5
102
{ACAD_REACTORS
330
1F4
330
21E
330
228
330
234
330
240
330
24C
102
}
330
A
100
AcDbSymbolTableRecord
100
AcDbDimStyleTableRecord
  2
SLDDIMSTYLE0
 70
     0
 41
3.0
 44
0.0
 45
0.000000001
 73
     0
 74
     0
 77
     3
 78
    12
 79
     3
140
3.0316840278
147
0.7579210069
173
     1
178
     0
271
     8
272
     8
276
     2
284
    12
340
77
341
1F6
343
1F6
344
1F6
  0
DIMSTYLE
105
208
102
{ACAD_REACTORS
330
207
102
}
330
A
100
AcDbSymbolTableRecord
100
AcDbDimStyleTableRecord
  2
SLDDIMSTYLE1
 70
     0
 41
3.0
 44
0.0
 45
0.000000001
 73
     0
 74
     0
 77
     3
 78
    12
 79
     3
140
3.0316840278
147
0.7579210069
173
     1
178
     0
271
     0
272
     0
276
     2
284
    12
340
77
341
1F6
343
1F6
344
1F6
  0
DIMSTYLE
105
213
102
{ACAD_REACTORS
330
212
102
}
330
A
100
AcDbSymbolTableRecord
100
AcDbDimStyleTableRecord
  2
SLDDIMSTYLE2
 70
     0
 41
3.0
 44
0.0
 45
0.000000001
 73
     0
 74
     0
 77
     3
 78
    12
 79
     3
140
3.0316840278
147
0.7579210069
172
     1
173
     1
178
     0
271
     8
272
     8
276
     2
284
    12
289
     0
340
77
341
1F6
343
1F6
344
1F6
  0
DIMSTYLE
105
25E
330
A
100
AcDbSymbolTableRecord
100
AcDbDimStyleTableRecord
  2
SLDDIMSTYLE3
 70
     0
 41
3.0
 44
0.0
 45
0.000000001
146
3.0
147
0.0
173
     1
178
     0
271
     0
272
     0
276
     2
340
11
341
1F6
343
1F6
344
1F6
  0
ENDTAB
  0
TABLE
  2
BLOCK_RECORD
  5
1
330
0
100
AcDbSymbolTable
 70
    22
  0
BLOCK_RECORD
  5
1F
330
1
100
AcDbSymbolTableRecord
100
AcDbBlockTableRecord
  2
*Model_Space
340
22
  0
BLOCK_RECORD
  5
1B
330
1
100
AcDbSymbolTableRecord
100
AcDbBlockTableRecord
  2
*Paper_Space
340
1E
  0
BLOCK_RECORD
  5
23
330
1
100
AcDbSymbolTableRecord
100
AcDbBlockTableRecord
  2
*Paper_Space0
340
26
  0
BLOCK_RECORD
  5
7B
330
1
100
AcDbSymbolTableRecord
100
AcDbBlockTableRecord
  2
SW_BROKEN_VIEW_0
340
0
102
{BLKREFS
331
81
102
}
  0
BLOCK_RECORD
  5
1F6
330
1
100
AcDbSymbolTableRecord
100
AcDbBlockTableRecord
  2
_Open30
340
0
102
{BLKREFS
331
1FF
331
200
331
20C
331
20D
331
217
331
218
331
222
331
223
331
22E
331
22F
331
238
331
239
331
246
331
247
331
252
331
253
102
}
  0
BLOCK_RECORD
  5
1FC
330
1
100
AcDbSymbolTableRecord
100
AcDbBlockTableRecord
  2
_D
340
0
  0
BLOCK_RECORD
  5
209
330
1
100
AcDbSymbolTableRecord
100
AcDbBlockTableRecord
  2
_D_1
340
0
  0
BLOCK_RECORD
  5
214
330
1
100
AcDbSymbolTableRecord
100
AcDbBlockTableRecord
  2
_D_2
340
0
  0
BLOCK_RECORD
  5
21F
330
1
100
AcDbSymbolTableRecord
100
AcDbBlockTableRecord
  2
_D_3
340
0
  0
BLOCK_RECORD
  5
229
330
1
100
AcDbSymbolTableRecord
100
AcDbBlockTableRecord
  2
_D_4
340
0
  0
BLOCK_RECORD
  5
235
330
1
100
AcDbSymbolTableRecord
100
AcDbBlockTableRecord
  2
_D_5
340
0
  0
BLOCK_RECORD
  5
241
330
1
100
AcDbSymbolTableRecord
100
AcDbBlockTableRecord
  2
_D_6
340
0
  0
BLOCK_RECORD
  5
24D
330
1
100
AcDbSymbolTableRecord
100
AcDbBlockTableRecord
  2
_D_7
340
0
  0
BLOCK_RECORD
  5
258
330
1
100
AcDbSymbolTableRecord
100
AcDbBlockTableRecord
  2
SW_NOTE_0
340
0
102
{BLKREFS
331
25D
102
}
  0
BLOCK_RECORD
  5
260
330
1
100
AcDbSymbolTableRecord
100
AcDbBlockTableRecord
  2
SW_NOTE_0_1
340
0
102
{BLKREFS
331
265
102
}
  0
BLOCK_RECORD
  5
268
330
1
100
AcDbSymbolTableRecord
100
AcDbBlockTableRecord
  2
SW_NOTE_0_2
340
0
102
{BLKREFS
331
26D
102
}
  0
BLOCK_RECORD
  5
270
330
1
100
AcDbSymbolTableRecord
100
AcDbBlockTableRecord
  2
SW_NOTE_0_3
340
0
102
{BLKREFS
331
275
102
}
  0
BLOCK_RECORD
  5
277
330
1
100
AcDbSymbolTableRecord
100
AcDbBlockTableRecord
  2
SW_NOTE_0_4
340
0
102
{BLKREFS
331
27C
102
}
  0
BLOCK_RECORD
  5
27F
330
1
100
AcDbSymbolTableRecord
100
AcDbBlockTableRecord
  2
SW_NOTE_0_5
340
0
102
{BLKREFS
331
284
102
}
  0
BLOCK_RECORD
  5
287
330
1
100
AcDbSymbolTableRecord
100
AcDbBlockTableRecord
  2
SW_NOTE_0_6
340
0
102
{BLKREFS
331
28C
102
}
  0
BLOCK_RECORD
  5
28E
330
1
100
AcDbSymbolTableRecord
100
AcDbBlockTableRecord
  2
SW_NOTE_0_7
340
0
102
{BLKREFS
331
293
102
}
  0
BLOCK_RECORD
  5
295
330
1
100
AcDbSymbolTableRecord
100
AcDbBlockTableRecord
  2
SW_NOTE_0_8
340
0
102
{BLKREFS
331
29A
102
}
  0
BLOCK_RECORD
  5
29E
330
1
100
AcDbSymbolTableRecord
100
AcDbBlockTableRecord
  2
SW_CENTERMARKSYMBOL_0
340
0
102
{BLKREFS
331
2A9
102
}
  0
BLOCK_RECORD
  5
2AA
330
1
100
AcDbSymbolTableRecord
100
AcDbBlockTableRecord
  2
SW_CENTERMARKSYMBOL_1
340
0
102
{BLKREFS
331
2B5
102
}
  0
ENDTAB
  0
ENDSEC
  0
SECTION
  2
BLOCKS
  0
BLOCK
  5
20
330
1F
100
AcDbEntity
  8
0
100
AcDbBlockBegin
  2
*Model_Space
 70
     0
 10
0.0
 20
0.0
 30
0.0
  3
*Model_Space
  1

  0
ENDBLK
  5
21
330
1F
100
AcDbEntity
  8
0
100
AcDbBlockEnd
  0
BLOCK
  5
1C
330
1B
100
AcDbEntity
 67
     1
  8
0
100
AcDbBlockBegin
  2
*Paper_Space
 70
     0
 10
0.0
 20
0.0
 30
0.0
  3
*Paper_Space
  1

  0
ENDBLK
  5
1D
330
1B
100
AcDbEntity
 67
     1
  8
0
100
AcDbBlockEnd
  0
BLOCK
  5
24
330
23
100
AcDbEntity
  8
0
100
AcDbBlockBegin
  2
*Paper_Space0
 70
     0
 10
0.0
 20
0.0
 30
0.0
  3
*Paper_Space0
  1

  0
ENDBLK
  5
25
330
23
100
AcDbEntity
  8
0
100
AcDbBlockEnd
  0
BLOCK
  5
7C
330
7B
100
AcDbEntity
  8
0
100
AcDbBlockBegin
  2
SW_BROKEN_VIEW_0
 70
     0
 10
0.0
 20
0.0
 30
0.0
  3
SW_BROKEN_VIEW_0
  1

  0
LINE
  5
7E
330
7B
100
AcDbEntity
  8
0
  6
HIDDEN
 62
     0
100
AcDbLine
 10
0.0
 20
0.0
 30
0.0
 11
12.000001967
 21
0.0
 31
0.0
  0
LINE
  5
7F
330
7B
100
AcDbEntity
  8
0
  6
HIDDEN
 62
     0
100
AcDbLine
 10
12.000001967
 20
0.0
 30
0.0
 11
12.000001967
 21
-12.7999996766
 31
0.0
  0
LINE
  5
80
330
7B
100
AcDbEntity
  8
0
  6
HIDDEN
 62
     0
100
AcDbLine
 10
12.000001967
 20
-12.7999996766
 30
0.0
 11
0.0
 21
-12.7999996766
 31
0.0
  0
ENDBLK
  5
7D
330
7B
100
AcDbEntity
  8
0
100
AcDbBlockEnd
  0
BLOCK
  5
1F7
330
1F6
100
AcDbEntity
  8
0
100
AcDbBlockBegin
  2
_Open30
 70
     0
 10
0.0
 20
0.0
 30
0.0
  3
_Open30
  1

  0
LINE
  5
1F9
330
1F6
100
AcDbEntity
  8
0
  6
ByBlock
 62
     0
370
    -2
100
AcDbLine
 10
-1.0
 20
0.267949
 30
0.0
 11
0.0
 21
0.0
 31
0.0
  0
LINE
  5
1FA
330
1F6
100
AcDbEntity
  8
0
  6
ByBlock
 62
     0
370
    -2
100
AcDbLine
 10
0.0
 20
0.0
 30
0.0
 11
-1.0
 21
-0.267949
 31
0.0
  0
LINE
  5
1FB
330
1F6
100
AcDbEntity
  8
0
  6
ByBlock
 62
     0
370
    -2
100
AcDbLine
 10
0.0
 20
0.0
 30
0.0
 11
-1.0
 21
0.0
 31
0.0
  0
ENDBLK
  5
1F8
330
1F6
100
AcDbEntity
  8
0
100
AcDbBlockEnd
  0
BLOCK
  5
1FD
330
1FC
100
AcDbEntity
  8
0
100
AcDbBlockBegin
  2
_D
 70
     0
 10
0.0
 20
0.0
 30
0.0
  3
_D
  1

  0
INSERT
  5
1FF
330
1FC
100
AcDbEntity
  8
0
  6
Continuous
 62
     7
370
    18
100
AcDbBlockReference
  2
_Open30
 10
85.8320070253
 20
113.7031242355
 30
0.0
 41
3.0
 42
3.0
 50
90.0
  0
INSERT
  5
200
330
1FC
100
AcDbEntity
  8
0
  6
Continuous
 62
     7
370
    18
100
AcDbBlockReference
  2
_Open30
 10
85.8320070253
 20
100.9031242355
 30
0.0
 41
3.0
 42
3.0
 50
270.0
  0
LINE
  5
201
330
1FC
100
AcDbEntity
  8
0
  6
Continuous
 62
     7
370
    18
100
AcDbLine
 10
87.8660953024
 20
113.7031242355
 30
0.0
 11
84.8320070253
 21
113.7031242355
 31
0.0
  0
LINE
  5
202
330
1FC
100
AcDbEntity
  8
0
  6
Continuous
 62
     7
370
    18
100
AcDbLine
 10
87.8660953024
 20
100.9031242355
 30
0.0
 11
84.8320070253
 21
100.9031242355
 31
0.0
  0
LINE
  5
203
330
1FC
100
AcDbEntity
  8
0
  6
Continuous
 62
     7
370
    18
100
AcDbLine
 10
85.8320070253
 20
113.7031242355
 30
0.0
 11
85.8320070253
 21
125.0332561762
 31
0.0
  0
LINE
  5
204
330
1FC
100
AcDbEntity
  8
0
  6
Continuous
 62
     7
370
    18
100
AcDbLine
 10
85.8320070253
 20
113.7031242355
 30
0.0
 11
85.8320070253
 21
100.9031242355
 31
0.0
  0
MTEXT
  5
205
330
1FC
100
AcDbEntity
  8
0
  6
Continuous
 62
     7
370
    18
100
AcDbMText
 10
82.7532190301
 20
115.6748454527
 30
0.0
 40
2.6458333333
 41
0.0
 71
     1
 72
     1
  1
%%c
  7
SLDTEXTSTYLE0
 11
-7.044195017643634E-15
 21
1.0
 31
0.0
 73
     1
 44
1.0
  0
MTEXT
  5
206
330
1FC
100
AcDbEntity
  8
0
  6
Continuous
 62
     7
370
    18
100
AcDbMText
 10
82.7532190301
 20
119.0262344175
 30
0.0
 40
2.6458333333
 41
0.0
 71
     1
 72
     1
  1
12.8
  7
SLDTEXTSTYLE0
 11
-7.044195017643634E-15
 21
1.0
 31
0.0
 73
     1
 44
1.0
  0
ENDBLK
  5
1FE
330
1FC
100
AcDbEntity
  8
0
100
AcDbBlockEnd
  0
BLOCK
  5
20A
330
209
100
AcDbEntity
  8
0
100
AcDbBlockBegin
  2
_D_1
 70
     0
 10
0.0
 20
0.0
 30
0.0
  3
_D_1
  1

  0
INSERT
  5
20C
330
209
100
AcDbEntity
  8
0
  6
Continuous
 62
     7
370
    18
100
AcDbBlockReference
  2
_Open30
 10
38.4183304223
 20
133.8954118112
 30
0.0
 41
3.0
 42
3.0
 50
180.0
  0
INSERT
  5
20D
330
209
100
AcDbEntity
  8
0
  6
Continuous
 62
     7
370
    18
100
AcDbBlockReference
  2
_Open30
 10
53.8039710683
 20
133.8954118112
 30
0.0
 41
3.0
 42
3.0
 50
0.0
  0
LINE
  5
20E
330
209
100
AcDbEntity
  8
0
  6
Continuous
 62
     7
370
    18
100
AcDbLine
 10
38.4183304223
 20
108.3031242355
 30
0.0
 11
38.4183304223
 21
134.8954118112
 31
0.0
  0
LINE
  5
20F
330
209
100
AcDbEntity
  8
0
  6
Continuous
 62
     7
370
    18
100
AcDbLine
 10
53.8039710683
 20
110.7031242355
 30
0.0
 11
53.8039710683
 21
134.8954118112
 31
0.0
  0
LINE
  5
210
330
209
100
AcDbEntity
  8
0
  6
Continuous
 62
     7
370
    18
100
AcDbLine
 10
38.4183304223
 20
133.8954118112
 30
0.0
 11
53.8039710683
 21
133.8954118112
 31
0.0
  0
MTEXT
  5
211
330
209
100
AcDbEntity
  8
0
  6
Continuous
 62
     7
370
    18
100
AcDbMText
 10
44.3472618777
 20
136.9741995735
 30
0.0
 40
2.6458333333
 41
0.0
 71
     1
 72
     1
  1
15
  7
SLDTEXTSTYLE0
 73
     1
 44
1.0
  0
ENDBLK
  5
20B
330
209
100
AcDbEntity
  8
0
100
AcDbBlockEnd
  0
BLOCK
  5
215
330
214
100
AcDbEntity
  8
0
100
AcDbBlockBegin
  2
_D_2
 70
     0
 10
0.0
 20
0.0
 30
0.0
  3
_D_2
  1

  0
INSERT
  5
217
330
214
100
AcDbEntity
  8
0
  6
Continuous
 62
     7
370
    18
100
AcDbBlockReference
  2
_Open30
 10
46.1111507453
 20
104.9031242355
 30
0.0
 41
3.0
 42
3.0
 50
90.0
  0
INSERT
  5
218
330
214
100
AcDbEntity
  8
0
  6
Continuous
 62
     7
370
    18
100
AcDbBlockReference
  2
_Open30
 10
46.1111507453
 20
109.7031242355
 30
0.0
 41
3.0
 42
3.0
 50
270.0
  0
LINE
  5
219
330
214
100
AcDbEntity
  8
0
  6
Continuous
 62
     7
370
    18
100
AcDbLine
 10
46.1111507453
 20
104.9031242355
 30
0.0
 11
46.1111507453
 21
101.4031242355
 31
0.0
  0
LINE
  5
21A
330
214
100
AcDbEntity
  8
0
  6
Continuous
 62
     7
370
    18
100
AcDbLine
 10
46.1111507453
 20
104.9031242355
 30
0.0
 11
46.1111507453
 21
109.7031242355
 31
0.0
  0
LINE
  5
21B
330
214
100
AcDbEntity
  8
0
  6
Continuous
 62
     7
370
    18
100
AcDbLine
 10
46.1111507453
 20
109.7031242355
 30
0.0
 11
46.1111507453
 21
124.1513118589
 31
0.0
  0
MTEXT
  5
21C
330
214
100
AcDbEntity
  8
0
  6
Continuous
 62
     7
370
    18
100
AcDbMText
 10
43.0323627501
 20
116.5567897701
 30
0.0
 40
2.6458333333
 41
0.0
 71
     1
 72
     1
  1
%%c
  7
SLDTEXTSTYLE0
 11
6.123233995736766E-17
 21
1.0
 31
0.0
 73
     1
 44
1.0
  0
MTEXT
  5
21D
330
214
100
AcDbEntity
  8
0
  6
Continuous
 62
     7
370
    18
100
AcDbMText
 10
43.0323627501
 20
119.9081787349
 30
0.0
 40
2.6458333333
 41
0.0
 71
     1
 72
     1
  1
4.8
  7
SLDTEXTSTYLE0
 11
6.123233995736766E-17
 21
1.0
 31
0.0
 73
     1
 44
1.0
  0
ENDBLK
  5
216
330
214
100
AcDbEntity
  8
0
100
AcDbBlockEnd
  0
BLOCK
  5
220
330
21F
100
AcDbEntity
  8
0
100
AcDbBlockBegin
  2
_D_3
 70
     0
 10
0.0
 20
0.0
 30
0.0
  3
_D_3
  1

  0
INSERT
  5
222
330
21F
100
AcDbEntity
  8
0
  6
Continuous
 62
     7
370
    18
100
AcDbBlockReference
  2
_Open30
 10
38.4183304223
 20
147.913430161
 30
0.0
 41
3.0
 42
3.0
 50
180.0
  0
INSERT
  5
223
330
21F
100
AcDbEntity
  8
0
  6
Continuous
 62
     7
370
    18
100
AcDbBlockReference
  2
_Open30
 10
258.7112752768
 20
147.913430161
 30
0.0
 41
3.0
 42
3.0
 50
0.0
  0
LINE
  5
224
330
21F
100
AcDbEntity
  8
0
  6
Continuous
 62
     7
370
    18
100
AcDbLine
 10
38.4183304223
 20
108.3031242355
 30
0.0
 11
38.4183304223
 21
148.913430161
 31
0.0
  0
LINE
  5
225
330
21F
100
AcDbEntity
  8
0
  6
Continuous
 62
     7
370
    18
100
AcDbLine
 10
258.7112752768
 20
119.930279167
 30
0.0
 11
258.7112752768
 21
148.913430161
 31
0.0
  0
LINE
  5
226
330
21F
100
AcDbEntity
  8
0
  6
Continuous
 62
     7
370
    18
100
AcDbLine
 10
38.4183304223
 20
147.913430161
 30
0.0
 11
258.7112752768
 21
147.913430161
 31
0.0
  0
MTEXT
  5
227
330
21F
100
AcDbEntity
  8
0
  6
Continuous
 62
     7
370
    18
100
AcDbMText
 10
137.9128735455
 20
150.9922179234
 30
0.0
 40
2.6458333333
 41
0.0
 71
     1
 72
     1
  1
L=500～10000
  7
SLDTEXTSTYLE1
 73
     1
 44
1.0
  0
ENDBLK
  5
221
330
21F
100
AcDbEntity
  8
0
100
AcDbBlockEnd
  0
BLOCK
  5
22A
330
229
100
AcDbEntity
  8
0
100
AcDbBlockBegin
  2
_D_4
 70
     0
 10
0.0
 20
0.0
 30
0.0
  3
_D_4
  1

  0
ARC
  5
22C
330
229
100
AcDbEntity
  8
0
  6
Continuous
 62
     7
370
    18
100
AcDbCircle
 10
227.6462949422
 20
135.6593004459
 30
0.0
 40
3.944175412646004
100
AcDbArc
 50
153.4349488229
 51
206.5650511771
  0
ARC
  5
22D
330
229
100
AcDbEntity
  8
0
  6
Continuous
 62
     7
370
    18
100
AcDbCircle
 10
224.1185172071
 20
135.6593004459
 30
0.0
 40
3.944175412646004
100
AcDbArc
 50
333.4349488229
 51
26.5650511771
  0
INSERT
  5
22E
330
229
100
AcDbEntity
  8
0
  6
Continuous
 62
     7
370
    18
100
AcDbBlockReference
  2
_Open30
 10
193.0535366979
 20
133.8954118112
 30
0.0
 41
3.0
 42
3.0
 50
180.0
  0
INSERT
  5
22F
330
229
100
AcDbEntity
  8
0
  6
Continuous
 62
     7
370
    18
100
AcDbBlockReference
  2
_Open30
 10
258.7112752768
 20
133.8954118112
 30
0.0
 41
3.0
 42
3.0
 50
0.0
  0
LINE
  5
230
330
229
100
AcDbEntity
  8
0
  6
Continuous
 62
     7
370
    18
100
AcDbLine
 10
193.0535366979
 20
109.8031242355
 30
0.0
 11
193.0535366979
 21
134.8954118112
 31
0.0
  0
LINE
  5
231
330
229
100
AcDbEntity
  8
0
  6
Continuous
 62
     7
370
    18
100
AcDbLine
 10
258.7112752768
 20
119.930279167
 30
0.0
 11
258.7112752768
 21
134.8954118112
 31
0.0
  0
LINE
  5
232
330
229
100
AcDbEntity
  8
0
  6
Continuous
 62
     7
370
    18
100
AcDbLine
 10
193.0535366979
 20
133.8954118112
 30
0.0
 11
258.7112752768
 21
133.8954118112
 31
0.0
  0
MTEXT
  5
233
330
229
100
AcDbEntity
  8
0
  6
Continuous
 62
     7
370
    18
100
AcDbMText
 10
224.1185172071
 20
136.9741993407
 30
0.0
 40
2.6458333333
 41
0.0
 71
     1
 72
     1
  1
80
  7
SLDTEXTSTYLE0
 73
     1
 44
1.0
  0
ENDBLK
  5
22B
330
229
100
AcDbEntity
  8
0
100
AcDbBlockEnd
  0
BLOCK
  5
236
330
235
100
AcDbEntity
  8
0
100
AcDbBlockBegin
  2
_D_5
 70
     0
 10
0.0
 20
0.0
 30
0.0
  3
_D_5
  1

  0
INSERT
  5
238
330
235
100
AcDbEntity
  8
0
  6
Continuous
 62
     7
370
    18
100
AcDbBlockReference
  2
_Open30
 10
80.9018379203
 20
114.3031242355
 30
0.0
 41
3.0
 42
3.0
 50
90.0
  0
INSERT
  5
239
330
235
100
AcDbEntity
  8
0
  6
Continuous
 62
     7
370
    18
100
AcDbBlockReference
  2
_Open30
 10
80.9018379203
 20
100.3031242355
 30
0.0
 41
3.0
 42
3.0
 50
270.0
  0
LINE
  5
23A
330
235
100
AcDbEntity
  8
0
  6
Continuous
 62
     7
370
    18
100
AcDbLine
 10
87.8660953024
 20
114.3031242355
 30
0.0
 11
79.9018379203
 21
114.3031242355
 31
0.0
  0
LINE
  5
23B
330
235
100
AcDbEntity
  8
0
  6
Continuous
 62
     7
370
    18
100
AcDbLine
 10
87.8660953024
 20
100.3031242355
 30
0.0
 11
79.9018379203
 21
100.3031242355
 31
0.0
  0
LINE
  5
23C
330
235
100
AcDbEntity
  8
0
  6
Continuous
 62
     7
370
    18
100
AcDbLine
 10
80.9018379203
 20
114.3031242355
 30
0.0
 11
80.9018379203
 21
123.7936341644
 31
0.0
  0
LINE
  5
23D
330
235
100
AcDbEntity
  8
0
  6
Continuous
 62
     7
370
    18
100
AcDbLine
 10
80.9018379203
 20
114.3031242355
 30
0.0
 11
80.9018379203
 21
100.3031242355
 31
0.0
  0
MTEXT
  5
23E
330
235
100
AcDbEntity
  8
0
  6
Continuous
 62
     7
370
    18
100
AcDbMText
 10
77.8230499251
 20
116.9144674645
 30
0.0
 40
2.6458333333
 41
0.0
 71
     1
 72
     1
  1
%%c
  7
SLDTEXTSTYLE0
 11
-7.044195017643634E-15
 21
1.0
 31
0.0
 73
     1
 44
1.0
  0
MTEXT
  5
23F
330
235
100
AcDbEntity
  8
0
  6
Continuous
 62
     7
370
    18
100
AcDbMText
 10
77.8230499251
 20
120.2658564293
 30
0.0
 40
2.6458333333
 41
0.0
 71
     1
 72
     1
  1
14
  7
SLDTEXTSTYLE0
 11
-7.044195017643634E-15
 21
1.0
 31
0.0
 73
     1
 44
1.0
  0
ENDBLK
  5
237
330
235
100
AcDbEntity
  8
0
100
AcDbBlockEnd
  0
BLOCK
  5
242
330
241
100
AcDbEntity
  8
0
100
AcDbBlockBegin
  2
_D_6
 70
     0
 10
0.0
 20
0.0
 30
0.0
  3
_D_6
  1

  0
ARC
  5
244
330
241
100
AcDbEntity
  8
0
  6
Continuous
 62
     7
370
    18
100
AcDbCircle
 10
98.6299842573
 20
122.1179394492
 30
0.0
 40
3.944175412646004
100
AcDbArc
 50
153.4349488229
 51
206.5650511771
  0
ARC
  5
245
330
241
100
AcDbEntity
  8
0
  6
Continuous
 62
     7
370
    18
100
AcDbCircle
 10
95.1022065221
 20
122.1179394492
 30
0.0
 40
3.944175412646004
100
AcDbArc
 50
333.4349488229
 51
26.5650511771
  0
INSERT
  5
246
330
241
100
AcDbEntity
  8
0
  6
Continuous
 62
     7
370
    18
100
AcDbBlockReference
  2
_Open30
 10
88.8660953024
 20
120.3540508145
 30
0.0
 41
3.0
 42
3.0
 50
180.0
  0
INSERT
  5
247
330
241
100
AcDbEntity
  8
0
  6
Continuous
 62
     7
370
    18
100
AcDbBlockReference
  2
_Open30
 10
104.8660953024
 20
120.3540508145
 30
0.0
 41
3.0
 42
3.0
 50
0.0
  0
LINE
  5
248
330
241
100
AcDbEntity
  8
0
  6
Continuous
 62
     7
370
    18
100
AcDbLine
 10
88.8660953024
 20
115.3031242355
 30
0.0
 11
88.8660953024
 21
121.3540508145
 31
0.0
  0
LINE
  5
249
330
241
100
AcDbEntity
  8
0
  6
Continuous
 62
     7
370
    18
100
AcDbLine
 10
104.8660953024
 20
114.8031242355
 30
0.0
 11
104.8660953024
 21
121.3540508145
 31
0.0
  0
LINE
  5
24A
330
241
100
AcDbEntity
  8
0
  6
Continuous
 62
     7
370
    18
100
AcDbLine
 10
88.8660953024
 20
120.3540508145
 30
0.0
 11
104.8660953024
 21
120.3540508145
 31
0.0
  0
MTEXT
  5
24B
330
241
100
AcDbEntity
  8
0
  6
Continuous
 62
     7
370
    18
100
AcDbMText
 10
95.1022065221
 20
123.432838344
 30
0.0
 40
2.6458333333
 41
0.0
 71
     1
 72
     1
  1
16
  7
SLDTEXTSTYLE0
 73
     1
 44
1.0
  0
ENDBLK
  5
243
330
241
100
AcDbEntity
  8
0
100
AcDbBlockEnd
  0
BLOCK
  5
24E
330
24D
100
AcDbEntity
  8
0
100
AcDbBlockBegin
  2
_D_7
 70
     0
 10
0.0
 20
0.0
 30
0.0
  3
_D_7
  1

  0
ARC
  5
250
330
24D
100
AcDbEntity
  8
0
  6
Continuous
 62
     7
370
    18
100
AcDbCircle
 10
104.4026395523
 20
135.6593004459
 30
0.0
 40
3.944175412646004
100
AcDbArc
 50
153.4349488229
 51
206.5650511771
  0
ARC
  5
251
330
24D
100
AcDbEntity
  8
0
  6
Continuous
 62
     7
370
    18
100
AcDbCircle
 10
102.6387509176
 20
135.6593004459
 30
0.0
 40
3.944175412646004
100
AcDbArc
 50
333.4349488229
 51
26.5650511771
  0
INSERT
  5
252
330
24D
100
AcDbEntity
  8
0
  6
Continuous
 62
     7
370
    18
100
AcDbBlockReference
  2
_Open30
 10
53.8039710683
 20
133.8954118112
 30
0.0
 41
3.0
 42
3.0
 50
180.0
  0
INSERT
  5
253
330
24D
100
AcDbEntity
  8
0
  6
Continuous
 62
     7
370
    18
100
AcDbBlockReference
  2
_Open30
 10
153.237419227
 20
133.8954118112
 30
0.0
 41
3.0
 42
3.0
 50
0.0
  0
LINE
  5
254
330
24D
100
AcDbEntity
  8
0
  6
Continuous
 62
     7
370
    18
100
AcDbLine
 10
53.8039710683
 20
110.7031242355
 30
0.0
 11
53.8039710683
 21
134.8954118112
 31
0.0
  0
LINE
  5
255
330
24D
100
AcDbEntity
  8
0
  6
Continuous
 62
     7
370
    18
100
AcDbLine
 10
153.237419227
 20
109.4706909747
 30
0.0
 11
153.237419227
 21
134.8954118112
 31
0.0
  0
LINE
  5
256
330
24D
100
AcDbEntity
  8
0
  6
Continuous
 62
     7
370
    18
100
AcDbLine
 10
53.8039710683
 20
133.8954118112
 30
0.0
 11
153.237419227
 21
133.8954118112
 31
0.0
  0
MTEXT
  5
257
330
24D
100
AcDbEntity
  8
0
  6
Continuous
 62
     7
370
    18
100
AcDbMText
 10
100.8748618172
 20
136.9741993407
 30
0.0
 40
2.6458333333
 41
0.0
 71
     1
 72
     1
  1
200
  7
SLDTEXTSTYLE0
 73
     1
 44
1.0
  0
ENDBLK
  5
24F
330
24D
100
AcDbEntity
  8
0
100
AcDbBlockEnd
  0
BLOCK
  5
259
330
258
100
AcDbEntity
  8
0
100
AcDbBlockBegin
  2
SW_NOTE_0
 70
     0
 10
0.0
 20
0.0
 30
0.0
  3
SW_NOTE_0
  1

  0
LINE
  5
25B
330
258
100
AcDbEntity
  8
0
  6
Continuous
 62
     0
370
    18
100
AcDbLine
 10
-19.5161545983
 20
0.0
 30
0.0
 11
0.0
 21
0.0
 31
0.0
  0
MTEXT
  5
25C
330
258
100
AcDbEntity
  8
0
  6
Continuous
 62
     0
370
    18
100
AcDbMText
 10
-19.9804909604
 20
3.0316993619
 30
0.0
 40
2.6458333333
 41
0.0
 71
     1
 72
     1
  1
先端120°形
  7
SLDTEXTSTYLE1
 73
     1
 44
1.0
  0
ENDBLK
  5
25A
330
258
100
AcDbEntity
  8
0
100
AcDbBlockEnd
  0
BLOCK
  5
261
330
260
100
AcDbEntity
  8
0
100
AcDbBlockBegin
  2
SW_NOTE_0_1
 70
     0
 10
0.0
 20
0.0
 30
0.0
  3
SW_NOTE_0_1
  1

  0
LINE
  5
263
330
260
100
AcDbEntity
  8
0
  6
Continuous
 62
     0
370
    18
100
AcDbLine
 10
12.6160183588
 20
0.0
 30
0.0
 11
0.0
 21
0.0
 31
0.0
  0
MTEXT
  5
264
330
260
100
AcDbEntity
  8
0
  6
Continuous
 62
     0
370
    18
100
AcDbMText
 10
0.4748599072
 20
3.0316993619
 30
0.0
 40
2.6458333333
 41
0.0
 71
     1
 72
     1
  1
 保護管 
  7
SLDTEXTSTYLE1
 73
     1
 44
1.0
  0
ENDBLK
  5
262
330
260
100
AcDbEntity
  8
0
100
AcDbBlockEnd
  0
BLOCK
  5
269
330
268
100
AcDbEntity
  8
0
100
AcDbBlockBegin
  2
SW_NOTE_0_2
 70
     0
 10
0.0
 20
0.0
 30
0.0
  3
SW_NOTE_0_2
  1

  0
LINE
  5
26B
330
268
100
AcDbEntity
  8
0
  6
Continuous
 62
     0
370
    18
100
AcDbLine
 10
21.1806805471
 20
0.0
 30
0.0
 11
0.0
 21
0.0
 31
0.0
  0
MTEXT
  5
26C
330
268
100
AcDbEntity
  8
0
  6
Continuous
 62
     0
370
    18
100
AcDbMText
 10
0.3875401509
 20
3.0696855547
 30
0.0
 40
2.6458333333
 41
0.0
 71
     1
 72
     1
  1
   三角ﾊﾟｲﾌﾟ   
  7
SLDTEXTSTYLE1
 73
     1
 44
1.0
  0
ENDBLK
  5
26A
330
268
100
AcDbEntity
  8
0
100
AcDbBlockEnd
  0
BLOCK
  5
271
330
270
100
AcDbEntity
  8
0
100
AcDbBlockBegin
  2
SW_NOTE_0_3
 70
     0
 10
0.0
 20
0.0
 30
0.0
  3
SW_NOTE_0_3
  1

  0
LINE
  5
273
330
270
100
AcDbEntity
  8
0
  6
Continuous
 62
     0
370
    18
100
AcDbLine
 10
5.7466519663
 20
0.0
 30
0.0
 11
0.0
 21
0.0
 31
0.0
  0
MTEXT
  5
274
330
270
100
AcDbEntity
  8
0
  6
Continuous
 62
     0
370
    18
100
AcDbMText
 10
0.4952155562
 20
3.0620213547
 30
0.0
 40
2.6458333333
 41
0.0
 71
     1
 72
     1
  1
ｶｼﾒ
  7
SLDTEXTSTYLE1
 73
     1
 44
1.0
  0
ENDBLK
  5
272
330
270
100
AcDbEntity
  8
0
100
AcDbBlockEnd
  0
BLOCK
  5
278
330
277
100
AcDbEntity
  8
0
100
AcDbBlockBegin
  2
SW_NOTE_0_4
 70
     0
 10
0.0
 20
0.0
 30
0.0
  3
SW_NOTE_0_4
  1

  0
LINE
  5
27A
330
277
100
AcDbEntity
  8
0
  6
Continuous
 62
     0
370
    18
100
AcDbLine
 10
21.1806805471
 20
0.0
 30
0.0
 11
0.0
 21
0.0
 31
0.0
  0
MTEXT
  5
27B
330
277
100
AcDbEntity
  8
0
  6
Continuous
 62
     0
370
    18
100
AcDbMText
 10
0.4713870919
 20
3.0316993619
 30
0.0
 40
2.6458333333
 41
0.0
 71
     1
 72
     1
  1
ﾊﾞｲﾖﾈｯﾄｷｬｯﾌﾟ
  7
SLDTEXTSTYLE1
 73
     1
 44
1.0
  0
ENDBLK
  5
279
330
277
100
AcDbEntity
  8
0
100
AcDbBlockEnd
  0
BLOCK
  5
280
330
27F
100
AcDbEntity
  8
0
100
AcDbBlockBegin
  2
SW_NOTE_0_5
 70
     0
 10
0.0
 20
0.0
 30
0.0
  3
SW_NOTE_0_5
  1

  0
LINE
  5
282
330
27F
100
AcDbEntity
  8
0
  6
Continuous
 62
     0
370
    18
100
AcDbLine
 10
13.591057215
 20
0.0
 30
0.0
 11
0.0
 21
0.0
 31
0.0
  0
MTEXT
  5
283
330
27F
100
AcDbEntity
  8
0
  6
Continuous
 62
     0
370
    18
100
AcDbMText
 10
0.4950812522
 20
3.0316993619
 30
0.0
 40
2.6458333333
 41
0.0
 71
     1
 72
     1
  1
 ｽﾌﾟﾘﾝｸﾞ 
  7
SLDTEXTSTYLE1
 73
     1
 44
1.0
  0
ENDBLK
  5
281
330
27F
100
AcDbEntity
  8
0
100
AcDbBlockEnd
  0
BLOCK
  5
288
330
287
100
AcDbEntity
  8
0
100
AcDbBlockBegin
  2
SW_NOTE_0_6
 70
     0
 10
0.0
 20
0.0
 30
0.0
  3
SW_NOTE_0_6
  1

  0
LINE
  5
28A
330
287
100
AcDbEntity
  8
0
  6
Continuous
 62
     0
370
    18
100
AcDbLine
 10
10.9109269121
 20
0.0
 30
0.0
 11
0.0
 21
0.0
 31
0.0
  0
MTEXT
  5
28B
330
287
100
AcDbEntity
  8
0
  6
Continuous
 62
     0
370
    18
100
AcDbMText
 10
0.4990425757
 20
3.0316993619
 30
0.0
 40
2.6458333333
 41
0.0
 71
     1
 72
     1
  1
リード線
  7
SLDTEXTSTYLE1
 73
     1
 44
1.0
  0
ENDBLK
  5
289
330
287
100
AcDbEntity
  8
0
100
AcDbBlockEnd
  0
BLOCK
  5
28F
330
28E
100
AcDbEntity
  8
0
100
AcDbBlockBegin
  2
SW_NOTE_0_7
 70
     0
 10
0.0
 20
0.0
 30
0.0
  3
SW_NOTE_0_7
  1

  0
LINE
  5
291
330
28E
100
AcDbEntity
  8
0
  6
Continuous
 62
     0
370
    18
100
AcDbLine
 10
19.44128849
 20
0.0
 30
0.0
 11
0.0
 21
0.0
 31
0.0
  0
MTEXT
  5
292
330
28E
100
AcDbEntity
  8
0
  6
Continuous
 62
     0
370
    18
100
AcDbMText
 10
0.4514344238
 20
3.0316993619
 30
0.0
 40
2.6458333333
 41
0.0
 71
     1
 72
     1
  1
滅収縮ﾁｭｰﾌﾞ
  7
SLDTEXTSTYLE1
 73
     1
 44
1.0
  0
ENDBLK
  5
290
330
28E
100
AcDbEntity
  8
0
100
AcDbBlockEnd
  0
BLOCK
  5
296
330
295
100
AcDbEntity
  8
0
100
AcDbBlockBegin
  2
SW_NOTE_0_8
 70
     0
 10
0.0
 20
0.0
 30
0.0
  3
SW_NOTE_0_8
  1

  0
LINE
  5
298
330
295
100
AcDbEntity
  8
0
  6
Continuous
 62
     0
370
    18
100
AcDbLine
 10
-13.4748373514
 20
0.0
 30
0.0
 11
0.0
 21
0.0
 31
0.0
  0
MTEXT
  5
299
330
295
100
AcDbEntity
  8
0
  6
Continuous
 62
     0
370
    18
100
AcDbMText
 10
-13.8996037826
 20
3.0316993619
 30
0.0
 40
2.6458333333
 41
0.0
 71
     1
 72
     1
  1
Yﾗｸﾞ(M3)
  7
SLDTEXTSTYLE1
 73
     1
 44
1.0
  0
ENDBLK
  5
297
330
295
100
AcDbEntity
  8
0
100
AcDbBlockEnd
  0
BLOCK
  5
29F
330
29E
100
AcDbEntity
  8
0
100
AcDbBlockBegin
  2
SW_CENTERMARKSYMBOL_0
 70
     0
 10
0.0
 20
0.0
 30
0.0
  3
SW_CENTERMARKSYMBOL_0
  1

  0
LINE
  5
2A1
330
29E
100
AcDbEntity
  8
0
  6
Continuous
 62
     0
370
    18
100
AcDbLine
 10
0.0
 20
0.0
 30
0.0
 11
0.0
 21
2.4999999441
 31
0.0
  0
LINE
  5
2A2
330
29E
100
AcDbEntity
  8
0
  6
Continuous
 62
     0
370
    18
100
AcDbLine
 10
0.0
 20
0.0
 30
0.0
 11
-2.4999976158
 21
0.0
 31
0.0
  0
LINE
  5
2A3
330
29E
100
AcDbEntity
  8
0
  6
Continuous
 62
     0
370
    18
100
AcDbLine
 10
0.0
 20
0.0
 30
0.0
 11
0.0
 21
-2.4999999441
 31
0.0
  0
LINE
  5
2A4
330
29E
100
AcDbEntity
  8
0
  6
Continuous
 62
     0
370
    18
100
AcDbLine
 10
0.0
 20
0.0
 30
0.0
 11
2.4999976158
 21
0.0
 31
0.0
  0
LINE
  5
2A5
330
29E
100
AcDbEntity
  8
0
  6
Continuous
 62
     0
370
    18
100
AcDbLine
 10
0.0
 20
2.4999999441
 30
0.0
 11
0.0
 21
4.1001136415
 31
0.0
  0
LINE
  5
2A6
330
29E
100
AcDbEntity
  8
0
  6
Continuous
 62
     0
370
    18
100
AcDbLine
 10
-2.4999976158
 20
0.0
 30
0.0
 11
-15.3518021107
 21
0.0
 31
0.0
  0
LINE
  5
2A7
330
29E
100
AcDbEntity
  8
0
  6
Continuous
 62
     0
370
    18
100
AcDbLine
 10
0.0
 20
-2.4999999441
 30
0.0
 11
0.0
 21
-4.1001131758
 31
0.0
  0
LINE
  5
2A8
330
29E
100
AcDbEntity
  8
0
  6
Continuous
 62
     0
370
    18
100
AcDbLine
 10
2.4999976158
 20
0.0
 30
0.0
 11
5.5243372917
 21
0.0
 31
0.0
  0
ENDBLK
  5
2A0
330
29E
100
AcDbEntity
  8
0
100
AcDbBlockEnd
  0
BLOCK
  5
2AB
330
2AA
100
AcDbEntity
  8
0
100
AcDbBlockBegin
  2
SW_CENTERMARKSYMBOL_1
 70
     0
 10
0.0
 20
0.0
 30
0.0
  3
SW_CENTERMARKSYMBOL_1
  1

  0
LINE
  5
2AD
330
2AA
100
AcDbEntity
  8
0
  6
Continuous
 62
     0
370
    18
100
AcDbLine
 10
0.0
 20
0.0
 30
0.0
 11
0.0
 21
2.4999999441
 31
0.0
  0
LINE
  5
2AE
330
2AA
100
AcDbEntity
  8
0
  6
Continuous
 62
     0
370
    18
100
AcDbLine
 10
0.0
 20
0.0
 30
0.0
 11
-2.4999976158
 21
0.0
 31
0.0
  0
LINE
  5
2AF
330
2AA
100
AcDbEntity
  8
0
  6
Continuous
 62
     0
370
    18
100
AcDbLine
 10
0.0
 20
0.0
 30
0.0
 11
0.0
 21
-2.4999999441
 31
0.0
  0
LINE
  5
2B0
330
2AA
100
AcDbEntity
  8
0
  6
Continuous
 62
     0
370
    18
100
AcDbLine
 10
0.0
 20
0.0
 30
0.0
 11
2.4999976158
 21
0.0
 31
0.0
  0
LINE
  5
2B1
330
2AA
100
AcDbEntity
  8
0
  6
Continuous
 62
     0
370
    18
100
AcDbLine
 10
0.0
 20
2.4999999441
 30
0.0
 11
0.0
 21
4.1001131758
 31
0.0
  0
LINE
  5
2B2
330
2AA
100
AcDbEntity
  8
0
  6
Continuous
 62
     0
370
    18
100
AcDbLine
 10
-2.4999976158
 20
0.0
 30
0.0
 11
-15.2803063393
 21
0.0
 31
0.0
  0
LINE
  5
2B3
330
2AA
100
AcDbEntity
  8
0
  6
Continuous
 62
     0
370
    18
100
AcDbLine
 10
0.0
 20
-2.4999999441
 30
0.0
 11
0.0
 21
-4.1001136415
 31
0.0
  0
LINE
  5
2B4
330
2AA
100
AcDbEntity
  8
0
  6
Continuous
 62
     0
370
    18
100
AcDbLine
 10
2.4999976158
 20
0.0
 30
0.0
 11
5.5243372917
 21
0.0
 31
0.0
  0
ENDBLK
  5
2AC
330
2AA
100
AcDbEntity
  8
0
100
AcDbBlockEnd
  0
ENDSEC
  0
SECTION
  2
ENTITIES
  0
LINE
  5
73
330
1F
100
AcDbEntity
  8
0
  6
Continuous
 62
     7
370
    25
100
AcDbLine
 10
12.8700158558
 20
190.0085404097
 30
0.0
 11
12.8700749558
 21
18.0082352097
 31
0.0
  0
LINE
  5
74
330
1F
100
AcDbEntity
  8
0
  6
Continuous
 62
     7
370
    25
100
AcDbLine
 10
12.8700749558
 20
18.0082352097
 30
0.0
 11
282.5707921135
 21
18.0082352097
 31
0.0
  0
LINE
  5
75
330
1F
100
AcDbEntity
  8
0
  6
Continuous
 62
     7
370
    25
100
AcDbLine
 10
12.8700158558
 20
190.0085404097
 30
0.0
 11
282.5707921135
 21
190.0085404097
 31
0.0
  0
LINE
  5
76
330
1F
100
AcDbEntity
  8
0
  6
Continuous
 62
     7
370
    25
100
AcDbLine
 10
282.5707921135
 20
18.0082352097
 30
0.0
 11
282.5707921135
 21
190.0085404097
 31
0.0
  0
MTEXT
  5
78
330
1F
100
AcDbEntity
  8
0
  6
Continuous
 62
     7
370
    18
100
AcDbMText
 10
157.8017695906
 20
41.1871481108
 30
0.0
 40
4.7625
 41
0.0
 71
     1
 72
     1
  1
RKC INSTRUMENT INC.
  7
SLDTEXTSTYLE0
 73
     1
 44
1.0
  0
MTEXT
  5
7A
330
1F
100
AcDbEntity
  8
0
  6
Continuous
 62
     7
370
    18
100
AcDbMText
 10
157.8017695906
 20
49.9879037899
 30
0.0
 40
4.7625
 41
0.0
 71
     1
 72
     1
  1
MODEL：T-221-ﾛ-EXA-Y-ﾛ
  7
SLDTEXTSTYLE1
 73
     1
 44
1.0
  0
INSERT
  5
81
330
1F
100
AcDbEntity
  8
0
  6
Continuous
 62
     7
100
AcDbBlockReference
  2
SW_BROKEN_VIEW_0
 10
88.86609244
 20
113.7031240738
 30
0.0
  0
LINE
  5
82
330
1F
100
AcDbEntity
  8
0
  6
Continuous
 62
     7
370
    25
100
AcDbLine
 10
252.430312501
 20
117.080166319
 30
0.0
 11
243.4303091632
 21
117.080166319
 31
0.0
  0
LINE
  5
83
330
1F
100
AcDbEntity
  8
0
  6
Continuous
 62
     7
370
    25
100
AcDbLine
 10
243.4303091632
 20
112.580166047
 30
0.0
 11
252.430312501
 21
112.580166047
 31
0.0
  0
LINE
  5
84
330
1F
100
AcDbEntity
  8
0
  6
Continuous
 62
     7
370
    25
100
AcDbLine
 10
252.430312501
 20
102.026082424
 30
0.0
 11
243.4303091632
 21
102.026082424
 31
0.0
  0
LINE
  5
85
330
1F
100
AcDbEntity
  8
0
  6
Continuous
 62
     7
370
    25
100
AcDbLine
 10
243.4303091632
 20
97.5260821521
 30
0.0
 11
252.430312501
 21
97.5260821521
 31
0.0
  0
LINE
  5
86
330
1F
100
AcDbEntity
  8
0
  6
Continuous
 62
     7
370
    25
100
AcDbLine
 10
243.4303091632
 20
100.1510823495
 30
0.0
 11
226.9015686379
 21
102.4740457885
 31
0.0
  0
LINE
  5
87
330
1F
100
AcDbEntity
  8
0
  6
Continuous
 62
     7
370
    25
100
AcDbLine
 10
226.8430070744
 20
101.7322743661
 30
0.0
 11
243.43001114
 21
99.4011241361
 31
0.0
  0
LINE
  5
88
330
1F
100
AcDbEntity
  8
0
  6
Continuous
 62
     7
370
    25
100
AcDbLine
 10
225.1896487342
 20
111.891608534
 30
0.0
 11
243.4303091632
 21
114.4551661215
 31
0.0
  0
LINE
  5
89
330
1F
100
AcDbEntity
  8
0
  6
Continuous
 62
     7
370
    25
100
AcDbLine
 10
243.43001114
 20
115.2051243349
 30
0.0
 11
225.2334879504
 21
112.6477707527
 31
0.0
  0
LINE
  5
8A
330
1F
100
AcDbEntity
  8
0
  6
Continuous
 62
     7
370
    25
100
AcDbLine
 10
252.430312501
 20
114.8301659502
 30
0.0
 11
252.430312501
 21
117.080166319
 31
0.0
  0
LINE
  5
8B
330
1F
100
AcDbEntity
  8
0
  6
Continuous
 62
     7
370
    25
100
AcDbLine
 10
252.430312501
 20
112.580166047
 30
0.0
 11
252.430312501
 21
114.8301659502
 31
0.0
  0
LINE
  5
8C
330
1F
100
AcDbEntity
  8
0
  6
Continuous
 62
     7
370
    25
100
AcDbLine
 10
243.4303091632
 20
114.8301659502
 30
0.0
 11
243.4303091632
 21
117.080166319
 31
0.0
  0
LINE
  5
8D
330
1F
100
AcDbEntity
  8
0
  6
Continuous
 62
     7
370
    25
100
AcDbLine
 10
243.4303091632
 20
112.580166047
 30
0.0
 11
243.4303091632
 21
114.8301659502
 31
0.0
  0
LINE
  5
8E
330
1F
100
AcDbEntity
  8
0
  6
Continuous
 62
     7
370
    25
100
AcDbLine
 10
243.4303091632
 20
99.7760825209
 30
0.0
 11
243.4303091632
 21
102.026082424
 31
0.0
  0
LINE
  5
8F
330
1F
100
AcDbEntity
  8
0
  6
Continuous
 62
     7
370
    25
100
AcDbLine
 10
243.4303091632
 20
97.5260821521
 30
0.0
 11
243.4303091632
 21
99.7760825209
 31
0.0
  0
LINE
  5
90
330
1F
100
AcDbEntity
  8
0
  6
Continuous
 62
     7
370
    25
100
AcDbLine
 10
252.430312501
 20
99.7760825209
 30
0.0
 11
252.430312501
 21
102.026082424
 31
0.0
  0
LINE
  5
91
330
1F
100
AcDbEntity
  8
0
  6
Continuous
 62
     7
370
    25
100
AcDbLine
 10
252.430312501
 20
97.5260821521
 30
0.0
 11
252.430312501
 21
99.7760825209
 31
0.0
  0
LINE
  5
92
330
1F
100
AcDbEntity
  8
0
  6
Continuous
 62
     7
370
    25
100
AcDbLine
 10
258.7303148375
 20
101.3760825969
 30
0.0
 11
263.1303148137
 21
101.3760825969
 31
0.0
  0
ARC
  5
93
330
1F
100
AcDbEntity
  8
0
  6
Continuous
 62
     7
370
    25
100
AcDbCircle
 10
255.0231782386
 20
98.8760394149
 30
0.0
 40
1.999957090001019
100
AcDbArc
 50
236.9757529609
 51
270.0003098608
  0
LINE
  5
94
330
1F
100
AcDbEntity
  8
0
  6
Continuous
 62
     7
370
    25
100
AcDbLine
 10
263.1303148137
 20
98.1760829106
 30
0.0
 11
258.7303148375
 21
98.1760829106
 31
0.0
  0
ARC
  5
95
330
1F
100
AcDbEntity
  8
0
  6
Continuous
 62
     7
370
    25
100
AcDbCircle
 10
258.7112678723
 20
99.7760827537
 30
0.0
 40
1.600113210061898
100
AcDbArc
 50
89.3179629486
 51
270.6820370514
  0
LINE
  5
96
330
1F
100
AcDbEntity
  8
0
  6
Continuous
 62
     7
370
    25
100
AcDbLine
 10
263.4303049909
 20
102.3760822951
 30
0.0
 11
263.4303049909
 21
101.6760825529
 31
0.0
  0
LINE
  5
97
330
1F
100
AcDbEntity
  8
0
  6
Continuous
 62
     7
370
    25
100
AcDbLine
 10
253.9332138167
 20
97.199195379
 30
0.0
 11
252.430312501
 21
98.1760829106
 31
0.0
  0
ARC
  5
98
330
1F
100
AcDbEntity
  8
0
  6
Continuous
 62
     7
370
    25
100
AcDbCircle
 10
263.1302978665
 20
101.6760897209
 30
0.0
 40
0.3000071244807391
100
AcDbArc
 50
270.0032366077
 51
359.9986310529
  0
ARC
  5
99
330
1F
100
AcDbEntity
  8
0
  6
Continuous
 62
     7
370
    25
100
AcDbCircle
 10
263.1302970714
 20
97.8760749916
 30
0.0
 40
0.3000079195139182
100
AcDbArc
 50
0.0014318384
 51
89.9966115663
  0
ARC
  5
9A
330
1F
100
AcDbEntity
  8
0
  6
Continuous
 62
     7
370
    25
100
AcDbCircle
 10
255.0231813154
 20
100.6761152477
 30
0.0
 40
1.999967469129994
100
AcDbArc
 50
89.999778286
 51
123.0241588922
  0
LINE
  5
9B
330
1F
100
AcDbEntity
  8
0
  6
Continuous
 62
     7
370
    25
100
AcDbLine
 10
263.1303148137
 20
96.8760823249
 30
0.0
 11
255.0231890546
 21
96.8760823249
 31
0.0
  0
ARC
  5
9C
330
1F
100
AcDbEntity
  8
0
  6
Continuous
 62
     7
370
    25
100
AcDbCircle
 10
263.1302970714
 20
97.1760902439
 30
0.0
 40
0.3000079195139182
100
AcDbArc
 50
270.0033884337
 51
359.9985681616
  0
ARC
  5
9D
330
1F
100
AcDbEntity
  8
0
  6
Continuous
 62
     7
370
    25
100
AcDbCircle
 10
263.1302978665
 20
102.3760755929
 30
0.0
 40
0.3000071244623597
100
AcDbArc
 50
0.001280011
 51
89.9967633938
  0
LINE
  5
9E
330
1F
100
AcDbEntity
  8
0
  6
Continuous
 62
     7
370
    25
100
AcDbLine
 10
255.0231890546
 20
102.6760827168
 30
0.0
 11
263.1303148137
 21
102.6760827168
 31
0.0
  0
LINE
  5
9F
330
1F
100
AcDbEntity
  8
0
  6
Continuous
 62
     7
370
    25
100
AcDbLine
 10
263.4303049909
 20
97.8760824889
 30
0.0
 11
263.4303049909
 21
97.1760827466
 31
0.0
  0
LINE
  5
A0
330
1F
100
AcDbEntity
  8
0
  6
Continuous
 62
     7
370
    25
100
AcDbLine
 10
252.430312501
 20
101.3760825969
 30
0.0
 11
253.9332138167
 21
102.3529696628
 31
0.0
  0
ARC
  5
A1
330
1F
100
AcDbEntity
  8
0
  6
Continuous
 62
     7
370
    25
100
AcDbCircle
 10
255.0231813154
 20
113.9301332233
 30
0.0
 40
1.999967469129781
100
AcDbArc
 50
236.9758411078
 51
270.000221714
  0
LINE
  5
A2
330
1F
100
AcDbEntity
  8
0
  6
Continuous
 62
     7
370
    25
100
AcDbLine
 10
252.430312501
 20
116.4301655605
 30
0.0
 11
253.9332138167
 21
117.4070530921
 31
0.0
  0
ARC
  5
A3
330
1F
100
AcDbEntity
  8
0
  6
Continuous
 62
     7
370
    25
100
AcDbCircle
 10
255.0231782386
 20
115.7302090561
 30
0.0
 40
1.999957090001161
100
AcDbArc
 50
89.9996901392
 51
123.0242470391
  0
LINE
  5
A4
330
1F
100
AcDbEntity
  8
0
  6
Continuous
 62
     7
370
    25
100
AcDbLine
 10
255.0231890546
 20
117.7301661461
 30
0.0
 11
263.1303148137
 21
117.7301661461
 31
0.0
  0
LINE
  5
A5
330
1F
100
AcDbEntity
  8
0
  6
Continuous
 62
     7
370
    25
100
AcDbLine
 10
263.4303049909
 20
117.4301657244
 30
0.0
 11
263.4303049909
 21
116.7301659822
 31
0.0
  0
ARC
  5
A6
330
1F
100
AcDbEntity
  8
0
  6
Continuous
 62
     7
370
    25
100
AcDbCircle
 10
263.1302970714
 20
116.7301734795
 30
0.0
 40
0.3000079195139182
100
AcDbArc
 50
270.0033884337
 51
359.9985681616
  0
LINE
  5
A7
330
1F
100
AcDbEntity
  8
0
  6
Continuous
 62
     7
370
    25
100
AcDbLine
 10
258.7303148375
 20
116.4301655605
 30
0.0
 11
263.1303148137
 21
116.4301655605
 31
0.0
  0
ARC
  5
A8
330
1F
100
AcDbEntity
  8
0
  6
Continuous
 62
     7
370
    25
100
AcDbCircle
 10
258.7112678723
 20
114.8301657173
 30
0.0
 40
1.600113210061898
100
AcDbArc
 50
89.3179629486
 51
270.6820370514
  0
LINE
  5
A9
330
1F
100
AcDbEntity
  8
0
  6
Continuous
 62
     7
370
    25
100
AcDbLine
 10
263.1303148137
 20
113.2301658742
 30
0.0
 11
258.7303148375
 21
113.2301658742
 31
0.0
  0
ARC
  5
AA
330
1F
100
AcDbEntity
  8
0
  6
Continuous
 62
     7
370
    25
100
AcDbCircle
 10
263.1302978665
 20
112.9301587502
 30
0.0
 40
0.3000071244807391
100
AcDbArc
 50
0.0013689471
 51
89.9967633923
  0
ARC
  5
AB
330
1F
100
AcDbEntity
  8
0
  6
Continuous
 62
     7
370
    25
100
AcDbCircle
 10
263.1302978665
 20
112.2301728782
 30
0.0
 40
0.3000071244623572
100
AcDbArc
 50
270.0032366062
 51
359.9987199891
  0
LINE
  5
AC
330
1F
100
AcDbEntity
  8
0
  6
Continuous
 62
     7
370
    25
100
AcDbLine
 10
253.9332138167
 20
112.2532788083
 30
0.0
 11
252.430312501
 21
113.2301658742
 31
0.0
  0
LINE
  5
AD
330
1F
100
AcDbEntity
  8
0
  6
Continuous
 62
     7
370
    25
100
AcDbLine
 10
263.1303148137
 20
111.9301657542
 30
0.0
 11
255.0231890546
 21
111.9301657542
 31
0.0
  0
LINE
  5
AE
330
1F
100
AcDbEntity
  8
0
  6
Continuous
 62
     7
370
    25
100
AcDbLine
 10
263.4303049909
 20
112.9301659181
 30
0.0
 11
263.4303049909
 21
112.2301661759
 31
0.0
  0
ARC
  5
AF
330
1F
100
AcDbEntity
  8
0
  6
Continuous
 62
     7
370
    25
100
AcDbCircle
 10
263.1302970714
 20
117.4301582271
 30
0.0
 40
0.3000079195139182
100
AcDbArc
 50
0.0014318384
 51
89.9966115663
  0
LINE
  5
B0
330
1F
100
AcDbEntity
  8
0
  6
Continuous
 62
     7
370
    25
100
AcDbLine
 10
183.0535396777
 20
105.8031242225
 30
0.0
 11
193.0535375915
 21
105.8031242225
 31
0.0
  0
LINE
  5
B1
330
1F
100
AcDbEntity
  8
0
  6
Continuous
 62
     7
370
    25
100
AcDbLine
 10
193.0535375915
 20
108.8031242486
 30
0.0
 11
183.0535396777
 21
108.8031242486
 31
0.0
  0
LINE
  5
B2
330
1F
100
AcDbEntity
  8
0
  6
Continuous
 62
     7
370
    25
100
AcDbLine
 10
193.0535375915
 20
105.8031242225
 30
0.0
 11
194.0535396181
 21
106.0531242635
 31
0.0
  0
LINE
  5
B3
330
1F
100
AcDbEntity
  8
0
  6
Continuous
 62
     7
370
    25
100
AcDbLine
 10
194.0535396181
 20
108.5531242076
 30
0.0
 11
193.0535375915
 21
108.8031242486
 31
0.0
  0
LINE
  5
B4
330
1F
100
AcDbEntity
  8
0
  6
Continuous
 62
     7
370
    25
100
AcDbLine
 10
194.0535396181
 20
106.0531242635
 30
0.0
 11
202.0535334788
 21
106.0531242635
 31
0.0
  0
LINE
  5
B5
330
1F
100
AcDbEntity
  8
0
  6
Continuous
 62
     7
370
    25
100
AcDbLine
 10
202.0535334788
 20
108.5531242076
 30
0.0
 11
194.0535396181
 21
108.5531242076
 31
0.0
  0
LINE
  5
B6
330
1F
100
AcDbEntity
  8
0
  6
Continuous
 62
     7
370
    25
100
AcDbLine
 10
223.7440138898
 20
104.1297268472
 30
0.0
 11
202.0542859874
 21
107.1780192812
 31
0.0
  0
LINE
  5
B7
330
1F
100
AcDbEntity
  8
0
  6
Continuous
 62
     7
370
    25
100
AcDbLine
 10
202.0535334788
 20
106.4281242085
 30
0.0
 11
223.7400799833
 21
103.3802789986
 31
0.0
  0
LINE
  5
B8
330
1F
100
AcDbEntity
  8
0
  6
Continuous
 62
     7
370
    25
100
AcDbLine
 10
202.0542859874
 20
107.4282291899
 30
0.0
 11
222.3646432004
 21
110.2826635703
 31
0.0
  0
LINE
  5
B9
330
1F
100
AcDbEntity
  8
0
  6
Continuous
 62
     7
370
    25
100
AcDbLine
 10
222.3525658093
 20
111.0309670563
 30
0.0
 11
202.0535334788
 21
108.1781242625
 31
0.0
  0
LINE
  5
BA
330
1F
100
AcDbEntity
  8
0
  6
Continuous
 62
     7
370
    25
100
AcDbLine
 10
162.7881839715
 20
106.003124232
 30
0.0
 11
183.0535396777
 21
106.003124232
 31
0.0
  0
LINE
  5
BB
330
1F
100
AcDbEntity
  8
0
  6
Continuous
 62
     7
370
    25
100
AcDbLine
 10
183.0535396777
 20
108.6031242391
 30
0.0
 11
162.0452567778
 21
108.6031242391
 31
0.0
  0
LINE
  5
BC
330
1F
100
AcDbEntity
  8
0
  6
Continuous
 62
     7
370
    25
100
AcDbLine
 10
183.0535396777
 20
107.3031242355
 30
0.0
 11
183.0535396777
 21
108.8031242486
 31
0.0
  0
LINE
  5
BD
330
1F
100
AcDbEntity
  8
0
  6
Continuous
 62
     7
370
    25
100
AcDbLine
 10
183.0535396777
 20
105.8031242225
 30
0.0
 11
183.0535396777
 21
107.3031242355
 31
0.0
  0
LINE
  5
BE
330
1F
100
AcDbEntity
  8
0
  6
Continuous
 62
     7
370
    25
100
AcDbLine
 10
202.0535334788
 20
107.3031242355
 30
0.0
 11
202.0535334788
 21
108.5531242076
 31
0.0
  0
LINE
  5
BF
330
1F
100
AcDbEntity
  8
0
  6
Continuous
 62
     7
370
    25
100
AcDbLine
 10
202.0535334788
 20
106.0531242635
 30
0.0
 11
202.0535334788
 21
107.3031242355
 31
0.0
  0
SPLINE
  5
C0
330
1F
100
AcDbEntity
  8
0
  6
Continuous
 62
     7
370
    25
100
AcDbSpline
210
0.0
220
0.0
230
1.0
 70
     8
 71
     3
 72
    11
 73
     7
 74
     0
 42
0.00000001
 43
0.00000001
 40
0.0
 40
0.0
 40
0.0
 40
0.0
 40
0.2472932379604844
 40
0.5013046508331349
 40
0.7546214510741022
 40
1.0
 40
1.0
 40
1.0
 40
1.0
 10
149.8174243715292
 20
104.804752476097
 30
0.0
 10
149.8325265083889
 20
104.785083730459
 30
0.0
 10
149.863141059388
 20
104.7452119015901
 30
0.0
 10
149.9258902748406
 20
104.7018560559985
 30
0.0
 10
149.9964043412149
 20
104.6732185956696
 30
0.0
 10
150.0462959691162
 20
104.6697162003289
 30
0.0
 10
150.0708446946626
 20
104.6679928782889
 30
0.0
  0
SPLINE
  5
C1
330
1F
100
AcDbEntity
  8
0
  6
Continuous
 62
     7
370
    25
100
AcDbSpline
210
0.0
220
0.0
230
1.0
 70
     8
 71
     3
 72
    11
 73
     7
 74
     0
 42
0.00000001
 43
0.00000001
 40
0.0
 40
0.0
 40
0.0
 40
0.0
 40
0.2472932379604844
 40
0.5013046508331349
 40
0.7546214510741022
 40
1.0
 40
1.0
 40
1.0
 40
1.0
 10
150.3174253848081
 20
104.804752476097
 30
0.0
 10
150.3325275216678
 20
104.785083730459
 30
0.0
 10
150.3631420726669
 20
104.7452119015901
 30
0.0
 10
150.4258912881195
 20
104.7018560559985
 30
0.0
 10
150.4964053544938
 20
104.6732185956696
 30
0.0
 10
150.5462969823951
 20
104.6697162003289
 30
0.0
 10
150.5708457079416
 20
104.6679928782889
 30
0.0
  0
SPLINE
  5
C2
330
1F
100
AcDbEntity
  8
0
  6
Continuous
 62
     7
370
    25
100
AcDbSpline
210
0.0
220
0.0
230
1.0
 70
     8
 71
     3
 72
    11
 73
     7
 74
     0
 42
0.00000001
 43
0.00000001
 40
0.0
 40
0.0
 40
0.0
 40
0.0
 40
0.2472907319963665
 40
0.5013097043989383
 40
0.7546239376355786
 40
1.0
 40
1.0
 40
1.0
 40
1.0
 10
150.8174226727968
 20
104.804752476097
 30
0.0
 10
150.8325246918637
 20
104.7850835596045
 30
0.0
 10
150.8631396229333
 20
104.7452105783847
 30
0.0
 10
150.9258918445107
 20
104.7018571368573
 30
0.0
 10
150.9964062492909
 20
104.6732184283766
 30
0.0
 10
151.0462979566015
 20
104.6697161451595
 30
0.0
 10
151.0708467212206
 20
104.6679928782889
 30
0.0
  0
SPLINE
  5
C3
330
1F
100
AcDbEntity
  8
0
  6
Continuous
 62
     7
370
    25
100
AcDbSpline
210
0.0
220
0.0
230
1.0
 70
     8
 71
     3
 72
    11
 73
     7
 74
     0
 42
0.00000001
 43
0.00000001
 40
0.0
 40
0.0
 40
0.0
 40
0.0
 40
0.2472901819369804
 40
0.5012984557636366
 40
0.7546121255425586
 40
1.0
 40
1.0
 40
1.0
 40
1.0
 10
151.3174236860758
 20
104.804752476097
 30
0.0
 10
151.332525823071
 20
104.7850837300263
 30
0.0
 10
151.3631403743449
 20
104.7452119002803
 30
0.0
 10
151.4258895876958
 20
104.7018560613979
 30
0.0
 10
151.4964048197054
 20
104.6732181055942
 30
0.0
 10
151.5462977433683
 20
104.6697160682574
 30
0.0
 10
151.5708477344995
 20
104.6679928782889
 30
0.0
  0
SPLINE
  5
C4
330
1F
100
AcDbEntity
  8
0
  6
Continuous
 62
     7
370
    25
100
AcDbSpline
210
0.0
220
0.0
230
1.0
 70
     8
 71
     3
 72
    11
 73
     7
 74
     0
 42
0.00000001
 43
0.00000001
 40
0.0
 40
0.0
 40
0.0
 40
0.0
 40
0.2472932379604844
 40
0.5013046508331349
 40
0.7546214510741022
 40
1.0
 40
1.0
 40
1.0
 40
1.0
 10
151.8174246993547
 20
104.804752476097
 30
0.0
 10
151.8325268362144
 20
104.785083730459
 30
0.0
 10
151.8631413872135
 20
104.7452119015901
 30
0.0
 10
151.9258906026661
 20
104.7018560559985
 30
0.0
 10
151.9964046690404
 20
104.6732185956696
 30
0.0
 10
152.0462962969417
 20
104.6697162003289
 30
0.0
 10
152.0708450224882
 20
104.6679928782889
 30
0.0
  0
SPLINE
  5
C5
330
1F
100
AcDbEntity
  8
0
  6
Continuous
 62
     7
370
    25
100
AcDbSpline
210
0.0
220
0.0
230
1.0
 70
     8
 71
     3
 72
    11
 73
     7
 74
     0
 42
0.00000001
 43
0.00000001
 40
0.0
 40
0.0
 40
0.0
 40
0.0
 40
0.2472932379604844
 40
0.5013046508331349
 40
0.7546214510741022
 40
1.0
 40
1.0
 40
1.0
 40
1.0
 10
152.3174257126337
 20
104.804752476097
 30
0.0
 10
152.3325278494934
 20
104.785083730459
 30
0.0
 10
152.3631424004925
 20
104.7452119015901
 30
0.0
 10
152.4258916159451
 20
104.7018560559985
 30
0.0
 10
152.4964056823194
 20
104.6732185956696
 30
0.0
 10
152.5462973102207
 20
104.6697162003289
 30
0.0
 10
152.5708460357671
 20
104.6679928782889
 30
0.0
  0
SPLINE
  5
C6
330
1F
100
AcDbEntity
  8
0
  6
Continuous
 62
     7
370
    25
100
AcDbSpline
210
0.0
220
0.0
230
1.0
 70
     8
 71
     3
 72
    11
 73
     7
 74
     0
 42
0.00000001
 43
0.00000001
 40
0.0
 40
0.0
 40
0.0
 40
0.0
 40
0.2472907319963665
 40
0.5013097043989383
 40
0.7546239376355786
 40
1.0
 40
1.0
 40
1.0
 40
1.0
 10
152.8174230006223
 20
104.804752476097
 30
0.0
 10
152.8325250196892
 20
104.7850835596045
 30
0.0
 10
152.8631399507588
 20
104.7452105783847
 30
0.0
 10
152.9258921723363
 20
104.7018571368573
 30
0.0
 10
152.9964065771164
 20
104.6732184283766
 30
0.0
 10
153.046298284427
 20
104.6697161451595
 30
0.0
 10
153.0708470490461
 20
104.6679928782889
 30
0.0
  0
SPLINE
  5
C7
330
1F
100
AcDbEntity
  8
0
  6
Continuous
 62
     7
370
    25
100
AcDbSpline
210
0.0
220
0.0
230
1.0
 70
     8
 71
     3
 72
    11
 73
     7
 74
     0
 42
0.00000001
 43
0.00000001
 40
0.0
 40
0.0
 40
0.0
 40
0.0
 40
0.2453878744574415
 40
0.4987015442363634
 40
0.7527098180630196
 40
1.0
 40
1.0
 40
1.0
 40
1.0
 10
149.8208479133135
 20
109.9382555927643
 30
0.0
 10
149.7962979221823
 20
109.9365324027957
 30
0.0
 10
149.7464049985194
 20
109.933030365459
 30
0.0
 10
149.6758897665098
 20
109.9043924096553
 30
0.0
 10
149.6131405531588
 20
109.8610365707729
 30
0.0
 10
149.5825260018849
 20
109.8211647410268
 30
0.0
 10
149.5674238648897
 20
109.8014959949561
 30
0.0
  0
SPLINE
  5
C8
330
1F
100
AcDbEntity
  8
0
  6
Continuous
 62
     7
370
    25
100
AcDbSpline
210
0.0
220
0.0
230
1.0
 70
     8
 71
     3
 72
    11
 73
     7
 74
     0
 42
0.00000001
 43
0.00000001
 40
0.0
 40
0.0
 40
0.0
 40
0.0
 40
0.2453785489258979
 40
0.4986953491668652
 40
0.7527067620395157
 40
1.0
 40
1.0
 40
1.0
 40
1.0
 10
150.3208452013021
 20
109.9382555927643
 30
0.0
 10
150.2962964757557
 20
109.9365322707243
 30
0.0
 10
150.2464048478543
 20
109.9330298753835
 30
0.0
 10
150.1758907814801
 20
109.9043924150547
 30
0.0
 10
150.1131415660275
 20
109.8610365694631
 30
0.0
 10
150.0825270150283
 20
109.8211647405942
 30
0.0
 10
150.0674248781687
 20
109.8014959949561
 30
0.0
  0
SPLINE
  5
C9
330
1F
100
AcDbEntity
  8
0
  6
Continuous
 62
     7
370
    25
100
AcDbSpline
210
0.0
220
0.0
230
1.0
 70
     8
 71
     3
 72
    11
 73
     7
 74
     0
 42
0.00000001
 43
0.00000001
 40
0.0
 40
0.0
 40
0.0
 40
0.0
 40
0.2453760623644214
 40
0.4986902956010618
 40
0.7527092680036335
 40
1.0
 40
1.0
 40
1.0
 40
1.0
 10
150.8208462145811
 20
109.9382555927643
 30
0.0
 10
150.796297449962
 20
109.9365323258937
 30
0.0
 10
150.7464057426514
 20
109.9330300426766
 30
0.0
 10
150.6758913378712
 20
109.9043913341958
 30
0.0
 10
150.6131391162938
 20
109.8610378926684
 30
0.0
 10
150.5825241852242
 20
109.8211649114487
 30
0.0
 10
150.5674221661573
 20
109.8014959949561
 30
0.0
  0
SPLINE
  5
CA
330
1F
100
AcDbEntity
  8
0
  6
Continuous
 62
     7
370
    25
100
AcDbSpline
210
0.0
220
0.0
230
1.0
 70
     8
 71
     3
 72
    11
 73
     7
 74
     0
 42
0.00000001
 43
0.00000001
 40
0.0
 40
0.0
 40
0.0
 40
0.0
 40
0.2453757001659865
 40
0.4987011691401224
 40
0.7527096330283031
 40
1.0
 40
1.0
 40
1.0
 40
1.0
 10
151.32084722786
 20
109.9382555927643
 30
0.0
 10
151.2962985627237
 20
109.9365321038343
 30
0.0
 10
151.2464058961065
 20
109.9330292877698
 30
0.0
 10
151.1758899090579
 20
109.904393451606
 30
0.0
 10
151.1131399010324
 20
109.8610364798262
 30
0.0
 10
151.0825253274408
 20
109.8211647109833
 30
0.0
 10
151.0674231794363
 20
109.8014959949561
 30
0.0
  0
SPLINE
  5
CB
330
1F
100
AcDbEntity
  8
0
  6
Continuous
 62
     7
370
    25
100
AcDbSpline
210
0.0
220
0.0
230
1.0
 70
     8
 71
     3
 72
    11
 73
     7
 74
     0
 42
0.00000001
 43
0.00000001
 40
0.0
 40
0.0
 40
0.0
 40
0.0
 40
0.2453878744574415
 40
0.4987015442363634
 40
0.7527098180630196
 40
1.0
 40
1.0
 40
1.0
 40
1.0
 10
151.820848241139
 20
109.9382555927643
 30
0.0
 10
151.7962982500078
 20
109.9365324027957
 30
0.0
 10
151.7464053263449
 20
109.933030365459
 30
0.0
 10
151.6758900943353
 20
109.9043924096553
 30
0.0
 10
151.6131408809843
 20
109.8610365707729
 30
0.0
 10
151.5825263297104
 20
109.8211647410268
 30
0.0
 10
151.5674241927152
 20
109.8014959949561
 30
0.0
  0
SPLINE
  5
CC
330
1F
100
AcDbEntity
  8
0
  6
Continuous
 62
     7
370
    25
100
AcDbSpline
210
0.0
220
0.0
230
1.0
 70
     8
 71
     3
 72
    11
 73
     7
 74
     0
 42
0.00000001
 43
0.00000001
 40
0.0
 40
0.0
 40
0.0
 40
0.0
 40
0.2453785489258979
 40
0.4986953491668652
 40
0.7527067620395157
 40
1.0
 40
1.0
 40
1.0
 40
1.0
 10
152.3208455291277
 20
109.9382555927643
 30
0.0
 10
152.2962968035812
 20
109.9365322707243
 30
0.0
 10
152.2464051756799
 20
109.9330298753835
 30
0.0
 10
152.1758911093056
 20
109.9043924150547
 30
0.0
 10
152.113141893853
 20
109.8610365694631
 30
0.0
 10
152.0825273428539
 20
109.8211647405942
 30
0.0
 10
152.0674252059942
 20
109.8014959949561
 30
0.0
  0
SPLINE
  5
CD
330
1F
100
AcDbEntity
  8
0
  6
Continuous
 62
     7
370
    25
100
AcDbSpline
210
0.0
220
0.0
230
1.0
 70
     8
 71
     3
 72
    11
 73
     7
 74
     0
 42
0.00000001
 43
0.00000001
 40
0.0
 40
0.0
 40
0.0
 40
0.0
 40
0.2453760623644214
 40
0.4986902956010618
 40
0.7527092680036335
 40
1.0
 40
1.0
 40
1.0
 40
1.0
 10
152.8208465424066
 20
109.9382555927643
 30
0.0
 10
152.7962977777875
 20
109.9365323258937
 30
0.0
 10
152.7464060704769
 20
109.9330300426766
 30
0.0
 10
152.6758916656968
 20
109.9043913341958
 30
0.0
 10
152.6131394441194
 20
109.8610378926684
 30
0.0
 10
152.5825245130497
 20
109.8211649114487
 30
0.0
 10
152.5674224939829
 20
109.8014959949561
 30
0.0
  0
SPLINE
  5
CE
330
1F
100
AcDbEntity
  8
0
  6
Continuous
 62
     7
370
    25
100
AcDbSpline
210
0.0
220
0.0
230
1.0
 70
     8
 71
     3
 72
    11
 73
     7
 74
     0
 42
0.00000001
 43
0.00000001
 40
0.0
 40
0.0
 40
0.0
 40
0.0
 40
0.2453760623644214
 40
0.4986902956010618
 40
0.7527092680036335
 40
1.0
 40
1.0
 40
1.0
 40
1.0
 10
149.3208469000345
 20
109.9382555927643
 30
0.0
 10
149.2962981354154
 20
109.9365323258937
 30
0.0
 10
149.2464064281048
 20
109.9330300426766
 30
0.0
 10
149.1758920233246
 20
109.9043913341958
 30
0.0
 10
149.1131398017472
 20
109.8610378926684
 30
0.0
 10
149.0825248706776
 20
109.8211649114487
 30
0.0
 10
149.0674228516107
 20
109.8014959949561
 30
0.0
  0
SPLINE
  5
CF
330
1F
100
AcDbEntity
  8
0
  6
Continuous
 62
     7
370
    25
100
AcDbSpline
210
0.0
220
0.0
230
1.0
 70
     8
 71
     3
 72
    11
 73
     7
 74
     0
 42
0.00000001
 43
0.00000001
 40
0.0
 40
0.0
 40
0.0
 40
0.0
 40
0.247290366971697
 40
0.5012988308598776
 40
0.7546242998340134
 40
1.0
 40
1.0
 40
1.0
 40
1.0
 10
149.3174233582502
 20
104.804752476097
 30
0.0
 10
149.3325255062547
 20
104.7850837600698
 30
0.0
 10
149.3631400798464
 20
104.745211991227
 30
0.0
 10
149.4258900878719
 20
104.7018550194472
 30
0.0
 10
149.4964060749204
 20
104.6732191832833
 30
0.0
 10
149.5462987415376
 20
104.6697163672189
 30
0.0
 10
149.570847406674
 20
104.6679928782889
 30
0.0
  0
SPLINE
  5
D0
330
1F
100
AcDbEntity
  8
0
  6
Continuous
 62
     7
370
    25
100
AcDbSpline
210
0.0
220
0.0
230
1.0
 70
     8
 71
     3
 72
    11
 73
     7
 74
     0
 42
0.00000001
 43
0.00000001
 40
0.0
 40
0.0
 40
0.0
 40
0.0
 40
0.2453947155742937
 40
0.4987382897115161
 40
0.7527630584643317
 40
1.0
 40
1.0
 40
1.0
 40
1.0
 10
150.0708446946626
 20
104.6679928782889
 30
0.0
 10
150.0953828282774
 20
104.6697394443412
 30
0.0
 10
150.1452539380244
 20
104.6732891514478
 30
0.0
 10
150.2157251225354
 20
104.7019543728683
 30
0.0
 10
150.2784371693817
 20
104.7453033669969
 30
0.0
 10
150.3090327977032
 20
104.7851577565462
 30
0.0
 10
150.3241234567648
 20
104.8048151075401
 30
0.0
  0
SPLINE
  5
D1
330
1F
100
AcDbEntity
  8
0
  6
Continuous
 62
     7
370
    25
100
AcDbSpline
210
0.0
220
0.0
230
1.0
 70
     8
 71
     3
 72
    11
 73
     7
 74
     0
 42
0.00000001
 43
0.00000001
 40
0.0
 40
0.0
 40
0.0
 40
0.0
 40
0.2453972028857185
 40
0.4987433449036912
 40
0.7527605524801754
 40
1.0
 40
1.0
 40
1.0
 40
1.0
 10
150.5708457079416
 20
104.6679928782889
 30
0.0
 10
150.5953838024544
 20
104.6697394995184
 30
0.0
 10
150.6452548327309
 20
104.6732893187668
 30
0.0
 10
150.7157256797422
 20
104.70195329148
 30
0.0
 10
150.7784347192022
 20
104.7453046901093
 30
0.0
 10
150.8090299678246
 20
104.7851579273947
 30
0.0
 10
150.8241207447534
 20
104.8048151075401
 30
0.0
  0
SPLINE
  5
D2
330
1F
100
AcDbEntity
  8
0
  6
Continuous
 62
     7
370
    25
100
AcDbSpline
210
0.0
220
0.0
230
1.0
 70
     8
 71
     3
 72
    11
 73
     7
 74
     0
 42
0.00000001
 43
0.00000001
 40
0.0
 40
0.0
 40
0.0
 40
0.0
 40
0.2453850249324426
 40
0.4987429690988946
 40
0.7527603671185061
 40
1.0
 40
1.0
 40
1.0
 40
1.0
 10
151.0708467212206
 20
104.6679928782889
 30
0.0
 10
151.0953834894672
 20
104.6697397986966
 30
0.0
 10
151.1452542615357
 20
104.6732903995174
 30
0.0
 10
151.2157258659763
 20
104.7019522484771
 30
0.0
 10
151.2784356990282
 20
104.7453047812611
 30
0.0
 10
151.3090309700536
 20
104.7851579575035
 30
0.0
 10
151.3241217580324
 20
104.8048151075401
 30
0.0
  0
SPLINE
  5
D3
330
1F
100
AcDbEntity
  8
0
  6
Continuous
 62
     7
370
    25
100
AcDbSpline
210
0.0
220
0.0
230
1.0
 70
     8
 71
     3
 72
    11
 73
     7
 74
     0
 42
0.00000001
 43
0.00000001
 40
0.0
 40
0.0
 40
0.0
 40
0.0
 40
0.2453850249324426
 40
0.4987429690988946
 40
0.7527603671185061
 40
1.0
 40
1.0
 40
1.0
 40
1.0
 10
151.5708477344995
 20
104.6679928782889
 30
0.0
 10
151.5953845027462
 20
104.6697397986966
 30
0.0
 10
151.6452552748147
 20
104.6732903995174
 30
0.0
 10
151.7157268792553
 20
104.7019522484771
 30
0.0
 10
151.7784367123072
 20
104.7453047812611
 30
0.0
 10
151.8090319833325
 20
104.7851579575035
 30
0.0
 10
151.8241227713114
 20
104.8048151075401
 30
0.0
  0
SPLINE
  5
D4
330
1F
100
AcDbEntity
  8
0
  6
Continuous
 62
     7
370
    25
100
AcDbSpline
210
0.0
220
0.0
230
1.0
 70
     8
 71
     3
 72
    11
 73
     7
 74
     0
 42
0.00000001
 43
0.00000001
 40
0.0
 40
0.0
 40
0.0
 40
0.0
 40
0.2453966980335284
 40
0.4987423188460711
 40
0.7527691397773432
 40
1.0
 40
1.0
 40
1.0
 40
1.0
 10
152.0708450224882
 20
104.6679928782889
 30
0.0
 10
152.0953831698671
 20
104.6697394324588
 30
0.0
 10
152.1452543075882
 20
104.6732891154159
 30
0.0
 10
152.2157252768847
 20
104.7019545226273
 30
0.0
 10
152.2784374702588
 20
104.7453023465908
 30
0.0
 10
152.3090307891756
 20
104.7851576374917
 30
0.0
 10
152.3241200593
 20
104.8048151075401
 30
0.0
  0
SPLINE
  5
D5
330
1F
100
AcDbEntity
  8
0
  6
Continuous
 62
     7
370
    25
100
AcDbSpline
210
0.0
220
0.0
230
1.0
 70
     8
 71
     3
 72
    11
 73
     7
 74
     0
 42
0.00000001
 43
0.00000001
 40
0.0
 40
0.0
 40
0.0
 40
0.0
 40
0.2453972028857185
 40
0.4987433449036912
 40
0.7527605524801754
 40
1.0
 40
1.0
 40
1.0
 40
1.0
 10
152.5708460357671
 20
104.6679928782889
 30
0.0
 10
152.59538413028
 20
104.6697394995184
 30
0.0
 10
152.6452551605565
 20
104.6732893187668
 30
0.0
 10
152.7157260075678
 20
104.70195329148
 30
0.0
 10
152.7784350470278
 20
104.7453046901093
 30
0.0
 10
152.8090302956502
 20
104.7851579273947
 30
0.0
 10
152.824121072579
 20
104.8048151075401
 30
0.0
  0
SPLINE
  5
D6
330
1F
100
AcDbEntity
  8
0
  6
Continuous
 62
     7
370
    25
100
AcDbSpline
210
0.0
220
0.0
230
1.0
 70
     8
 71
     3
 72
    11
 73
     7
 74
     0
 42
0.00000001
 43
0.00000001
 40
0.0
 40
0.0
 40
0.0
 40
0.0
 40
0.2453850249324426
 40
0.4987429690988946
 40
0.7527603671185061
 40
1.0
 40
1.0
 40
1.0
 40
1.0
 10
153.0708470490461
 20
104.6679928782889
 30
0.0
 10
153.0953838172928
 20
104.6697397986966
 30
0.0
 10
153.1452545893613
 20
104.6732903995174
 30
0.0
 10
153.2157261938019
 20
104.7019522484771
 30
0.0
 10
153.2784360268538
 20
104.7453047812611
 30
0.0
 10
153.3090312978791
 20
104.7851579575035
 30
0.0
 10
153.3241220858579
 20
104.8048151075401
 30
0.0
  0
SPLINE
  5
D7
330
1F
100
AcDbEntity
  8
0
  6
Continuous
 62
     7
370
    25
100
AcDbSpline
210
0.0
220
0.0
230
1.0
 70
     8
 71
     3
 72
    11
 73
     7
 74
     0
 42
0.00000001
 43
0.00000001
 40
0.0
 40
0.0
 40
0.0
 40
0.0
 40
0.2472396328814939
 40
0.5012570309011054
 40
0.7546149750675574
 40
1.0
 40
1.0
 40
1.0
 40
1.0
 10
150.0741229501253
 20
109.801433363513
 30
0.0
 10
150.0590321621465
 20
109.8210905135496
 30
0.0
 10
150.0284368911211
 20
109.860943689792
 30
0.0
 10
149.9657270580692
 20
109.9042962225761
 30
0.0
 10
149.8952554536286
 20
109.9329580715357
 30
0.0
 10
149.8453846815601
 20
109.9365086723565
 30
0.0
 10
149.8208479133135
 20
109.9382555927643
 30
0.0
  0
SPLINE
  5
D8
330
1F
100
AcDbEntity
  8
0
  6
Continuous
 62
     7
370
    25
100
AcDbSpline
210
0.0
220
0.0
230
1.0
 70
     8
 71
     3
 72
    11
 73
     7
 74
     0
 42
0.00000001
 43
0.00000001
 40
0.0
 40
0.0
 40
0.0
 40
0.0
 40
0.2472308602226568
 40
0.5012576811539289
 40
0.7546033019664716
 40
1.0
 40
1.0
 40
1.0
 40
1.0
 10
150.5741202381139
 20
109.801433363513
 30
0.0
 10
150.5590309679895
 20
109.8210908335615
 30
0.0
 10
150.5284376490727
 20
109.8609461244624
 30
0.0
 10
150.4657254556987
 20
109.9042939484258
 30
0.0
 10
150.3952544864021
 20
109.9329593556372
 30
0.0
 10
150.345383348681
 20
109.9365090385943
 30
0.0
 10
150.3208452013021
 20
109.9382555927643
 30
0.0
  0
SPLINE
  5
D9
330
1F
100
AcDbEntity
  8
0
  6
Continuous
 62
     7
370
    25
100
AcDbSpline
210
0.0
220
0.0
230
1.0
 70
     8
 71
     3
 72
    11
 73
     7
 74
     0
 42
0.00000001
 43
0.00000001
 40
0.0
 40
0.0
 40
0.0
 40
0.0
 40
0.2472394475198247
 40
0.5012566550963088
 40
0.7546027971142815
 40
1.0
 40
1.0
 40
1.0
 40
1.0
 10
151.0741212513929
 20
109.801433363513
 30
0.0
 10
151.0590304744641
 20
109.8210905436584
 30
0.0
 10
151.0284352258417
 20
109.8609437809438
 30
0.0
 10
150.9657261863817
 20
109.9042951795731
 30
0.0
 10
150.8952553393704
 20
109.9329591522864
 30
0.0
 10
150.8453843090939
 20
109.9365089715347
 30
0.0
 10
150.8208462145811
 20
109.9382555927643
 30
0.0
  0
SPLINE
  5
DA
330
1F
100
AcDbEntity
  8
0
  6
Continuous
 62
     7
370
    25
100
AcDbSpline
210
0.0
220
0.0
230
1.0
 70
     8
 71
     3
 72
    11
 73
     7
 74
     0
 42
0.00000001
 43
0.00000001
 40
0.0
 40
0.0
 40
0.0
 40
0.0
 40
0.2472396328814939
 40
0.5012570309011054
 40
0.7546149750675574
 40
1.0
 40
1.0
 40
1.0
 40
1.0
 10
151.5741222646719
 20
109.801433363513
 30
0.0
 10
151.5590314766931
 20
109.8210905135496
 30
0.0
 10
151.5284362056677
 20
109.860943689792
 30
0.0
 10
151.4657263726158
 20
109.9042962225761
 30
0.0
 10
151.3952547681752
 20
109.9329580715357
 30
0.0
 10
151.3453839961067
 20
109.9365086723565
 30
0.0
 10
151.32084722786
 20
109.9382555927643
 30
0.0
  0
SPLINE
  5
DB
330
1F
100
AcDbEntity
  8
0
  6
Continuous
 62
     7
370
    25
100
AcDbSpline
210
0.0
220
0.0
230
1.0
 70
     8
 71
     3
 72
    11
 73
     7
 74
     0
 42
0.00000001
 43
0.00000001
 40
0.0
 40
0.0
 40
0.0
 40
0.0
 40
0.2472399978668763
 40
0.5012679068616943
 40
0.754614612820024
 40
1.0
 40
1.0
 40
1.0
 40
1.0
 10
152.0741232779508
 20
109.801433363513
 30
0.0
 10
152.059032619021
 20
109.8210907140507
 30
0.0
 10
152.0284369909664
 20
109.860945102675
 30
0.0
 10
151.9657249420773
 20
109.9042941038807
 30
0.0
 10
151.8952549225416
 20
109.9329588278737
 30
0.0
 10
151.8453851090499
 20
109.9365088945105
 30
0.0
 10
151.820848241139
 20
109.9382555927643
 30
0.0
  0
SPLINE
  5
DC
330
1F
100
AcDbEntity
  8
0
  6
Continuous
 62
     7
370
    25
100
AcDbSpline
210
0.0
220
0.0
230
1.0
 70
     8
 71
     3
 72
    11
 73
     7
 74
     0
 42
0.00000001
 43
0.00000001
 40
0.0
 40
0.0
 40
0.0
 40
0.0
 40
0.2472394475198247
 40
0.5012566550963088
 40
0.7546027971142815
 40
1.0
 40
1.0
 40
1.0
 40
1.0
 10
152.5741205659395
 20
109.801433363513
 30
0.0
 10
152.5590297890107
 20
109.8210905436584
 30
0.0
 10
152.5284345403883
 20
109.8609437809438
 30
0.0
 10
152.4657255009283
 20
109.9042951795731
 30
0.0
 10
152.395254653917
 20
109.9329591522864
 30
0.0
 10
152.3453836236405
 20
109.9365089715347
 30
0.0
 10
152.3208455291277
 20
109.9382555927643
 30
0.0
  0
SPLINE
  5
DD
330
1F
100
AcDbEntity
  8
0
  6
Continuous
 62
     7
370
    25
100
AcDbSpline
210
0.0
220
0.0
230
1.0
 70
     8
 71
     3
 72
    11
 73
     7
 74
     0
 42
0.00000001
 43
0.00000001
 40
0.0
 40
0.0
 40
0.0
 40
0.0
 40
0.2472394475198247
 40
0.5012566550963088
 40
0.7546027971142815
 40
1.0
 40
1.0
 40
1.0
 40
1.0
 10
153.0741215792185
 20
109.801433363513
 30
0.0
 10
153.0590308022897
 20
109.8210905436584
 30
0.0
 10
153.0284355536672
 20
109.8609437809438
 30
0.0
 10
152.9657265142072
 20
109.9042951795731
 30
0.0
 10
152.895255667196
 20
109.9329591522864
 30
0.0
 10
152.8453846369194
 20
109.9365089715347
 30
0.0
 10
152.8208465424066
 20
109.9382555927643
 30
0.0
  0
SPLINE
  5
DE
330
1F
100
AcDbEntity
  8
0
  6
Continuous
 62
     7
370
    25
100
AcDbSpline
210
0.0
220
0.0
230
1.0
 70
     8
 71
     3
 72
    11
 73
     7
 74
     0
 42
0.00000001
 43
0.00000001
 40
0.0
 40
0.0
 40
0.0
 40
0.0
 40
0.2472396328814939
 40
0.5012570309011054
 40
0.7546149750675574
 40
1.0
 40
1.0
 40
1.0
 40
1.0
 10
149.5741219368463
 20
109.801433363513
 30
0.0
 10
149.5590311488675
 20
109.8210905135496
 30
0.0
 10
149.5284358778422
 20
109.860943689792
 30
0.0
 10
149.4657260447903
 20
109.9042962225761
 30
0.0
 10
149.3952544403496
 20
109.9329580715357
 30
0.0
 10
149.3453836682812
 20
109.9365086723565
 30
0.0
 10
149.3208469000345
 20
109.9382555927643
 30
0.0
  0
SPLINE
  5
DF
330
1F
100
AcDbEntity
  8
0
  6
Continuous
 62
     7
370
    25
100
AcDbSpline
210
0.0
220
0.0
230
1.0
 70
     8
 71
     3
 72
    11
 73
     7
 74
     0
 42
0.00000001
 43
0.00000001
 40
0.0
 40
0.0
 40
0.0
 40
0.0
 40
0.2453850249324426
 40
0.4987429690988946
 40
0.7527603671185061
 40
1.0
 40
1.0
 40
1.0
 40
1.0
 10
149.570847406674
 20
104.6679928782889
 30
0.0
 10
149.5953841749206
 20
104.6697397986966
 30
0.0
 10
149.6452549469891
 20
104.6732903995174
 30
0.0
 10
149.7157265514298
 20
104.7019522484771
 30
0.0
 10
149.7784363844816
 20
104.7453047812611
 30
0.0
 10
149.809031655507
 20
104.7851579575035
 30
0.0
 10
149.8241224434858
 20
104.8048151075401
 30
0.0
  0
SPLINE
  5
E0
330
1F
100
AcDbEntity
  8
0
  6
Continuous
 62
     7
370
    25
100
AcDbSpline
210
0.0
220
0.0
230
1.0
 70
     8
 71
     3
 72
    17
 73
    13
 74
     0
 42
0.00000001
 43
0.00000001
 40
0.0
 40
0.0
 40
0.0
 40
0.0
 40
0.0016433150510659
 40
0.0249874902623763
 40
0.0769335003629555
 40
0.1473114772770375
 40
0.3091135737369938
 40
0.485533930686126
 40
0.658049610087959
 40
0.8063019520227834
 40
0.9275884645497772
 40
1.0
 40
1.0
 40
1.0
 40
1.0
 10
149.0604379323011
 20
109.4768483541467
 30
0.0
 10
149.0580764897267
 20
109.4781814388634
 30
0.0
 10
149.0221694837657
 20
109.4984517098342
 30
0.0
 10
149.0937609336786
 20
109.2736832992548
 30
0.0
 10
149.0622402626547
 20
109.1236885231599
 30
0.0
 10
149.1096568586298
 20
108.6358167598977
 30
0.0
 10
149.1154497879804
 20
108.0223761425642
 30
0.0
 10
149.1508232938132
 20
107.2143664598097
 30
0.0
 10
149.1739989972161
 20
106.438405742712
 30
0.0
 10
149.2079976939593
 20
105.7480031622448
 30
0.0
 10
149.2124575785639
 20
105.2090882433261
 30
0.0
 10
149.2888609397949
 20
104.9147769756487
 30
0.0
 10
149.3174233582502
 20
104.804752476097
 30
0.0
  0
SPLINE
  5
E1
330
1F
100
AcDbEntity
  8
0
  6
Continuous
 62
     7
370
    25
100
AcDbSpline
210
0.0
220
0.0
230
1.0
 70
     8
 71
     3
 72
    24
 73
    20
 74
     0
 42
0.00000001
 43
0.00000001
 40
0.0
 40
0.0
 40
0.0
 40
0.0
 40
0.0035910845742999
 40
0.0284653257535671
 40
0.0747560930616819
 40
0.1379711876359945
 40
0.2157835814293163
 40
0.3042909352256401
 40
0.3951645743219132
 40
0.4803137519501555
 40
0.555886877147565
 40
0.6672632445309178
 40
0.7288119381485982
 40
0.7566808071961078
 40
0.775194024816076
 40
0.7976235979098167
 40
0.8714024495804146
 40
0.9831253634527336
 40
1.0
 40
1.0
 40
1.0
 40
1.0
 10
148.6904868033415
 20
105.2554332069614
 30
0.0
 10
148.6989528841433
 20
105.2540246070044
 30
0.0
 10
148.7660606736963
 20
105.2428591064981
 30
0.0
 10
148.6055679486027
 20
105.4985577150071
 30
0.0
 10
148.6224027249481
 20
105.7214682894265
 30
0.0
 10
148.5205696943943
 20
106.1522060408802
 30
0.0
 10
148.4588726888669
 20
106.6369686063715
 30
0.0
 10
148.3781285320576
 20
107.1957784940865
 30
0.0
 10
148.3011201270339
 20
107.7665016338815
 30
0.0
 10
148.2242642133551
 20
108.3093561259825
 30
0.0
 10
148.1271444510348
 20
108.8970381250939
 30
0.0
 10
148.0351657999954
 20
109.4201473319838
 30
0.0
 10
147.8460596510452
 20
109.8509706126762
 30
0.0
 10
147.6145314308947
 20
109.9469396556852
 30
0.0
 10
147.4622489567662
 20
109.9279660404483
 30
0.0
 10
147.2367540503399
 20
109.8020081705092
 30
0.0
 10
147.0742271906809
 20
109.3383281033947
 30
0.0
 10
146.9963308503953
 20
108.9170047502272
 30
0.0
 10
146.9533403762484
 20
108.639534082456
 30
0.0
 10
146.9476991441732
 20
108.6031242390656
 30
0.0
  0
SPLINE
  5
E2
330
1F
100
AcDbEntity
  8
0
  6
Continuous
 62
     7
370
    25
100
AcDbSpline
210
0.0
220
0.0
230
1.0
 70
     8
 71
     3
 72
    16
 73
    12
 74
     0
 42
0.00000001
 43
0.00000001
 40
0.0
 40
0.0
 40
0.0
 40
0.0
 40
0.0954949790837458
 40
0.1855297162970318
 40
0.3372661030531811
 40
0.4512357676939358
 40
0.5407910766582248
 40
0.6397784732525897
 40
0.7535671005984933
 40
0.8770272910032674
 40
1.0
 40
1.0
 40
1.0
 40
1.0
 10
146.1850912418848
 20
105.0262647565016
 30
0.0
 10
146.1913198789042
 20
104.9908528911712
 30
0.0
 10
146.2034210099817
 20
104.9220539512548
 30
0.0
 10
146.2645546618611
 20
104.8096186610135
 30
0.0
 10
146.3647062453922
 20
104.7157500164522
 30
0.0
 10
146.4920899483326
 20
104.6683943668161
 30
0.0
 10
146.607035939501
 20
104.6664940568564
 30
0.0
 10
146.7168330967365
 20
104.7016510880951
 30
0.0
 10
146.8194020361997
 20
104.7776976460143
 30
0.0
 10
146.8997187977325
 20
104.8907139976792
 30
0.0
 10
146.9184411059182
 20
104.9818476704459
 30
0.0
 10
146.9277837422376
 20
105.0273243687608
 30
0.0
  0
SPLINE
  5
E3
330
1F
100
AcDbEntity
  8
0
  6
Continuous
 62
     7
370
    25
100
AcDbSpline
210
0.0
220
0.0
230
1.0
 70
     8
 71
     3
 72
    23
 73
    19
 74
     0
 42
0.00000001
 43
0.00000001
 40
0.0
 40
0.0
 40
0.0
 40
0.0
 40
0.0256936398928729
 40
0.0762418688752293
 40
0.1447930126671748
 40
0.2227492643378638
 40
0.3028109810394232
 40
0.3791540192446739
 40
0.5069197824014565
 40
0.5976463890137547
 40
0.6626194371502537
 40
0.7070806483986165
 40
0.7486125820278445
 40
0.7699771623830378
 40
0.7879043229157693
 40
0.8196515318266864
 40
0.9201358552770997
 40
1.0
 40
1.0
 40
1.0
 40
1.0
 10
141.2701555636411
 20
109.5299681998351
 30
0.0
 10
141.3045582697012
 20
109.4830740810142
 30
0.0
 10
141.4066429340508
 20
109.3439230976166
 30
0.0
 10
141.4602449476074
 20
109.014346204157
 30
0.0
 10
141.5493893124362
 20
108.5852202507978
 30
0.0
 10
141.6226992071302
 20
108.0808156445632
 30
0.0
 10
141.6964794421151
 20
107.5607243485122
 30
0.0
 10
141.7822285221679
 20
106.9289368864987
 30
0.0
 10
141.8746481006754
 20
106.2741652242907
 30
0.0
 10
141.9756891740138
 20
105.6460951865365
 30
0.0
 10
142.075182888921
 20
105.2080258530574
 30
0.0
 10
142.1786700929453
 20
104.8845277110499
 30
0.0
 10
142.3564151290706
 20
104.6943132460725
 30
0.0
 10
142.5412204585973
 20
104.6610074360908
 30
0.0
 10
142.7006293262097
 20
104.6971417393065
 30
0.0
 10
142.957323727112
 20
104.9407774401403
 30
0.0
 10
143.0431043706913
 20
105.4333690446326
 30
0.0
 10
143.1127691393184
 20
105.8282556495884
 30
0.0
 10
143.1436189558988
 20
106.0031242319875
 30
0.0
  0
SPLINE
  5
E4
330
1F
100
AcDbEntity
  8
0
  6
Continuous
 62
     7
370
    25
100
AcDbSpline
210
0.0
220
0.0
230
1.0
 70
     8
 71
     3
 72
    12
 73
     8
 74
     0
 42
0.00000001
 43
0.00000001
 40
0.0
 40
0.0
 40
0.0
 40
0.0
 40
0.100293240165517
 40
0.3095714112075077
 40
0.6126827726601393
 40
0.972989783020233
 40
1.0
 40
1.0
 40
1.0
 40
1.0
 10
141.2879140224939
 20
109.7704468644717
 30
0.0
 10
141.2503100774449
 20
109.7489421629485
 30
0.0
 10
141.1342393799921
 20
109.6825644012254
 30
0.0
 10
141.0833416940028
 20
109.4054406168173
 30
0.0
 10
140.9897346602176
 20
109.0636756313967
 30
0.0
 10
140.9414577426738
 20
108.7746487237924
 30
0.0
 10
140.9166528663382
 20
108.6143060075275
 30
0.0
 10
140.9149230566507
 20
108.6031242390656
 30
0.0
  0
SPLINE
  5
E5
330
1F
100
AcDbEntity
  8
0
  6
Continuous
 62
     7
370
    25
100
AcDbSpline
210
0.0
220
0.0
230
1.0
 70
     8
 71
     3
 72
    26
 73
    22
 74
     0
 42
0.00000001
 43
0.00000001
 40
0.0
 40
0.0
 40
0.0
 40
0.0
 40
0.0009978637509167
 40
0.0078496404697647
 40
0.0248526825700586
 40
0.0781441980489301
 40
0.153646247345748
 40
0.2475911531970063
 40
0.3523085624739596
 40
0.4536519855541492
 40
0.5438620203232134
 40
0.6180021615093537
 40
0.672751294103821
 40
0.710860253092481
 40
0.7403344867555767
 40
0.758087236226401
 40
0.7802709630757526
 40
0.8275987719225447
 40
0.9229780711535369
 40
0.9987504577290357
 40
1.0
 40
1.0
 40
1.0
 40
1.0
 10
140.6632796969896
 20
105.2463870379635
 30
0.0
 10
140.6655668076431
 20
105.245714877853
 30
0.0
 10
140.6835582381646
 20
105.2404273672073
 30
0.0
 10
140.6406575762246
 20
105.3290475224555
 30
0.0
 10
140.6263216632562
 20
105.4488726103701
 30
0.0
 10
140.5372495267001
 20
105.796061766074
 30
0.0
 10
140.4705800692709
 20
106.2573354631443
 30
0.0
 10
140.3805207218267
 20
106.8549846513354
 30
0.0
 10
140.2938630841359
 20
107.5005134465776
 30
0.0
 10
140.204698981696
 20
108.1403629492327
 30
0.0
 10
140.1168501638284
 20
108.7123096477718
 30
0.0
 10
140.0283741447243
 20
109.1817101994324
 30
0.0
 10
139.9384744175223
 20
109.53420390018
 30
0.0
 10
139.8272879719219
 20
109.7807312882458
 30
0.0
 10
139.6802337660222
 20
109.9078659431829
 30
0.0
 10
139.5300835991196
 20
109.9447356594131
 30
0.0
 10
139.3356282730209
 20
109.9083741782524
 30
0.0
 10
139.0799757827311
 20
109.6165993235602
 30
0.0
 10
139.0045155570589
 20
109.1377792520057
 30
0.0
 10
138.9282830662756
 20
108.7717542055797
 30
0.0
 10
138.9033797346055
 20
108.6058162834121
 30
0.0
 10
138.902975722838
 20
108.6031242390656
 30
0.0
  0
SPLINE
  5
E6
330
1F
100
AcDbEntity
  8
0
  6
Continuous
 62
     7
370
    25
100
AcDbSpline
210
0.0
220
0.0
230
1.0
 70
     8
 71
     3
 72
    16
 73
    12
 74
     0
 42
0.00000001
 43
0.00000001
 40
0.0
 40
0.0
 40
0.0
 40
0.0
 40
0.0951603217604253
 40
0.1849072392572872
 40
0.336245482848979
 40
0.4500324437951044
 40
0.5395532370505607
 40
0.6386183298722857
 40
0.7526323018616228
 40
0.8764799648607273
 40
1.0
 40
1.0
 40
1.0
 40
1.0
 10
138.1420665529257
 20
105.0262952573159
 30
0.0
 10
138.1482579863581
 20
104.9909944807222
 30
0.0
 10
138.1602886399106
 20
104.9224010898757
 30
0.0
 10
138.2213250279872
 20
104.8103040690629
 30
0.0
 10
138.3214105053587
 20
104.7167817459047
 30
0.0
 10
138.4487130220672
 20
104.669767719457
 30
0.0
 10
138.563637155358
 20
104.6681446993606
 30
0.0
 10
138.6734817868475
 20
104.7035571384445
 30
0.0
 10
138.7761650863364
 20
104.7799408626527
 30
0.0
 10
138.8566164905918
 20
104.8934157898696
 30
0.0
 10
138.875480901437
 20
104.9848957505172
 30
0.0
 10
138.8849006143099
 20
105.0305751502075
 30
0.0
  0
SPLINE
  5
E7
330
1F
100
AcDbEntity
  8
0
  6
Continuous
 62
     7
370
    25
100
AcDbSpline
210
0.0
220
0.0
230
1.0
 70
     8
 71
     3
 72
    16
 73
    12
 74
     0
 42
0.00000001
 43
0.00000001
 40
0.0
 40
0.0
 40
0.0
 40
0.0
 40
0.0948306438110375
 40
0.1842928963585038
 40
0.3352324775842924
 40
0.4488315943811041
 40
0.5383104391481852
 40
0.6374530049741146
 40
0.7516847086305664
 40
0.8759240126783671
 40
1.0
 40
1.0
 40
1.0
 40
1.0
 10
130.0989841219669
 20
105.0264309975811
 30
0.0
 10
130.1051430920263
 20
104.9912339255602
 30
0.0
 10
130.1171123709979
 20
104.92283229835
 30
0.0
 10
130.1780581133312
 20
104.8110493092497
 30
0.0
 10
130.2780842992146
 20
104.7178478237252
 30
0.0
 10
130.4053181179572
 20
104.6711526708717
 30
0.0
 10
130.5202359310324
 20
104.6698015653338
 30
0.0
 10
130.6301439871874
 20
104.705472824282
 30
0.0
 10
130.7329492679547
 20
104.7822197099532
 30
0.0
 10
130.8135503639748
 20
104.8961744054332
 30
0.0
 10
130.8325611739357
 20
104.9880224512305
 30
0.0
 10
130.8420603272205
 20
105.033916269944
 30
0.0
  0
SPLINE
  5
E8
330
1F
100
AcDbEntity
  8
0
  6
Continuous
 62
     7
370
    25
100
AcDbSpline
210
0.0
220
0.0
230
1.0
 70
     8
 71
     3
 72
    12
 73
     8
 74
     0
 42
0.00000001
 43
0.00000001
 40
0.0
 40
0.0
 40
0.0
 40
0.0
 40
0.1269906653285731
 40
0.3474736400857173
 40
0.6424431668892305
 40
0.9853746552342586
 40
1.0
 40
1.0
 40
1.0
 40
1.0
 10
127.1522031274324
 20
109.7316475003519
 30
0.0
 10
127.1213977106064
 20
109.6916647202912
 30
0.0
 10
127.0371074969029
 20
109.5822632765514
 30
0.0
 10
126.9797979444781
 20
109.3296043044528
 30
0.0
 10
126.9041750430267
 20
109.0023361290329
 30
0.0
 10
126.8591595703527
 20
108.7482292319581
 30
0.0
 10
126.8384637936802
 20
108.6088263136797
 30
0.0
 10
126.8376172628885
 20
108.6031242390656
 30
0.0
  0
SPLINE
  5
E9
330
1F
100
AcDbEntity
  8
0
  6
Continuous
 62
     7
370
    25
100
AcDbSpline
210
0.0
220
0.0
230
1.0
 70
     8
 71
     3
 72
    21
 73
    17
 74
     0
 42
0.00000001
 43
0.00000001
 40
0.0
 40
0.0
 40
0.0
 40
0.0
 40
0.0131702018391307
 40
0.0598254189304931
 40
0.1319387027207043
 40
0.2235369975798718
 40
0.3291563024197592
 40
0.4418711176083585
 40
0.5504970861477938
 40
0.6471712941423848
 40
0.7286927373205699
 40
0.7931547220783152
 40
0.8927420691880866
 40
0.9352576174544157
 40
0.9717547855909343
 40
1.0
 40
1.0
 40
1.0
 40
1.0
 10
126.5880246755367
 20
105.2425013273516
 30
0.0
 10
126.5843665630001
 20
105.2655221396688
 30
0.0
 10
126.5677496487214
 20
105.3700937899608
 30
0.0
 10
126.5002325420872
 20
105.5942746565114
 30
0.0
 10
126.4406406809746
 20
105.962125619153
 30
0.0
 10
126.3643748910868
 20
106.4322837814169
 30
0.0
 10
126.2883840844616
 20
106.9754130707985
 30
0.0
 10
126.2099623660971
 20
107.5483903750928
 30
0.0
 10
126.1323979392175
 20
108.1059400505192
 30
0.0
 10
126.056369469965
 20
108.6066974611
 30
0.0
 10
125.9813408010124
 20
109.0322314440114
 30
0.0
 10
125.888699695823
 20
109.4475315046949
 30
0.0
 10
125.7602850763888
 20
109.8333343202253
 30
0.0
 10
125.4468442068008
 20
109.9579083192726
 30
0.0
 10
125.2425054347563
 20
109.8968664463109
 30
0.0
 10
125.1913638641987
 20
109.7901734490013
 30
0.0
 10
125.1690522876268
 20
109.7436264041373
 30
0.0
  0
SPLINE
  5
EA
330
1F
100
AcDbEntity
  8
0
  6
Continuous
 62
     7
370
    25
100
AcDbSpline
210
0.0
220
0.0
230
1.0
 70
     8
 71
     3
 72
    23
 73
    19
 74
     0
 42
0.00000001
 43
0.00000001
 40
0.0
 40
0.0
 40
0.0
 40
0.0
 40
0.0118047358192123
 40
0.0430480907237682
 40
0.0921007749474604
 40
0.1531863036775133
 40
0.2207684124512918
 40
0.2897797392467586
 40
0.4173117108514948
 40
0.5177145566555746
 40
0.5936146990912272
 40
0.6890436701138295
 40
0.7329657232729381
 40
0.7721763108438188
 40
0.8050027699968897
 40
0.8442876474601303
 40
0.9615606260544937
 40
1.0
 40
1.0
 40
1.0
 40
1.0
 10
127.1765199598556
 20
109.4879425014862
 30
0.0
 10
127.2029546893066
 20
109.4799679650729
 30
0.0
 10
127.2993536811257
 20
109.45088738485
 30
0.0
 10
127.3303376052141
 20
109.209130310125
 30
0.0
 10
127.4157945581771
 20
108.9240109621589
 30
0.0
 10
127.4774587535701
 20
108.5237092129481
 30
0.0
 10
127.545691257783
 20
108.0897129676289
 30
0.0
 10
127.6270823213152
 20
107.5041861930777
 30
0.0
 10
127.7169149378679
 20
106.8471653603882
 30
0.0
 10
127.8116747352263
 20
106.1742675252932
 30
0.0
 10
127.9175356734933
 20
105.5771769159086
 30
0.0
 10
128.0029160609155
 20
105.1004196893252
 30
0.0
 10
128.2090019660431
 20
104.7441960810833
 30
0.0
 10
128.4790821679764
 20
104.6360479925773
 30
0.0
 10
128.7194107397525
 20
104.7611481916105
 30
0.0
 10
128.9294832740893
 20
105.1401877320846
 30
0.0
 10
128.999296991037
 20
105.575368149745
 30
0.0
 10
129.0555291819778
 20
105.9184344056314
 30
0.0
 10
129.0694107410198
 20
106.0031242319875
 30
0.0
  0
SPLINE
  5
EB
330
1F
100
AcDbEntity
  8
0
  6
Continuous
 62
     7
370
    25
100
AcDbSpline
210
0.0
220
0.0
230
1.0
 70
     8
 71
     3
 72
    19
 73
    15
 74
     0
 42
0.00000001
 43
0.00000001
 40
0.0
 40
0.0
 40
0.0
 40
0.0
 40
0.0046280783814491
 40
0.021081305104134
 40
0.0799567424101404
 40
0.1776438480351304
 40
0.3172437205824991
 40
0.5029212111392787
 40
0.6080027396489202
 40
0.7149917007545457
 40
0.8166417734126085
 40
0.9042454496636827
 40
0.9675918287302261
 40
1.0
 40
1.0
 40
1.0
 40
1.0
 10
129.3172598925119
 20
109.3612481724032
 30
0.0
 10
129.3176255398409
 20
109.3541091745361
 30
0.0
 10
129.3192910956649
 20
109.3215904097769
 30
0.0
 10
129.3650510763673
 20
109.2053500799152
 30
0.0
 10
129.4108731396762
 20
108.9427545167073
 30
0.0
 10
129.4977630853294
 20
108.4948708532814
 30
0.0
 10
129.590075902168
 20
107.8497118149417
 30
0.0
 10
129.6804580072273
 20
107.1931537963802
 30
0.0
 10
129.7643861800497
 20
106.5860298614092
 30
0.0
 10
129.8363858638066
 20
106.1088463397632
 30
0.0
 10
129.908453148922
 20
105.6559494407441
 30
0.0
 10
129.9984367997369
 20
105.2831894213882
 30
0.0
 10
130.0535418227254
 20
104.992578624753
 30
0.0
 10
130.1609956529317
 20
104.8882105928962
 30
0.0
 10
130.1973634508138
 20
104.8528871848741
 30
0.0
  0
SPLINE
  5
EC
330
1F
100
AcDbEntity
  8
0
  6
Continuous
 62
     7
370
    25
100
AcDbSpline
210
0.0
220
0.0
230
1.0
 70
     8
 71
     3
 72
    12
 73
     8
 74
     0
 42
0.00000001
 43
0.00000001
 40
0.0
 40
0.0
 40
0.0
 40
0.0
 40
0.1061456800299123
 40
0.3025912452024881
 40
0.5749070650768958
 40
0.8978785585569631
 40
1.0
 40
1.0
 40
1.0
 40
1.0
 10
146.8342417028433
 20
104.8544902238556
 30
0.0
 10
146.8656467783163
 20
104.884673248758
 30
0.0
 10
146.9551737462571
 20
104.9707164969298
 30
0.0
 10
147.0091566335122
 20
105.2069289632698
 30
0.0
 10
147.0870456765321
 20
105.5132016585824
 30
0.0
 10
147.1373265686295
 20
105.7923174977982
 30
0.0
 10
147.1627927780761
 20
105.9622909608812
 30
0.0
 10
147.1689106073862
 20
106.0031242319875
 30
0.0
  0
SPLINE
  5
ED
330
1F
100
AcDbEntity
  8
0
  6
Continuous
 62
     7
370
    25
100
AcDbSpline
210
0.0
220
0.0
230
1.0
 70
     8
 71
     3
 72
    25
 73
    21
 74
     0
 42
0.00000001
 43
0.00000001
 40
0.0
 40
0.0
 40
0.0
 40
0.0
 40
0.0084306500484119
 40
0.0424157149386348
 40
0.0960966030491003
 40
0.1658295364438741
 40
0.2481793857860072
 40
0.3382456556238925
 40
0.4269354209252091
 40
0.5074617974595683
 40
0.5767112195805202
 40
0.6324925496913067
 40
0.712052172133139
 40
0.7438214298396832
 40
0.7735672922042188
 40
0.8123285477840257
 40
0.8450155610126725
 40
0.8931586970869081
 40
0.9918382772117816
 40
1.0
 40
1.0
 40
1.0
 40
1.0
 10
147.4176743176466
 20
109.3688389170476
 30
0.0
 10
147.4202927620273
 20
109.3504806627531
 30
0.0
 10
147.4334665018693
 20
109.2581178584076
 30
0.0
 10
147.4992782910293
 20
109.05628955001
 30
0.0
 10
147.5549764053598
 20
108.714299456265
 30
0.0
 10
147.6297273166441
 20
108.2684018415061
 30
0.0
 10
147.7042062723338
 20
107.7412287711987
 30
0.0
 10
147.7822100846802
 20
107.1726873259094
 30
0.0
 10
147.8598029941417
 20
106.6078288404056
 30
0.0
 10
147.9369225470974
 20
106.0899915375685
 30
0.0
 10
148.0121262449301
 20
105.6424233191834
 30
0.0
 10
148.1074111215523
 20
105.209120171232
 30
0.0
 10
148.2127497541013
 20
104.8310779304335
 30
0.0
 10
148.4910924302073
 20
104.6520608198096
 30
0.0
 10
148.7264582225639
 20
104.6849234637896
 30
0.0
 10
148.8908127573163
 20
104.8537476287556
 30
0.0
 10
148.9958350188574
 20
105.0956981694648
 30
0.0
 10
149.0905026782264
 20
105.4799310129616
 30
0.0
 10
149.1528781845686
 20
105.814771658958
 30
0.0
 10
149.1882339836879
 20
106.0469558826343
 30
0.0
 10
149.1909348514562
 20
106.0646926868268
 30
0.0
  0
SPLINE
  5
EE
330
1F
100
AcDbEntity
  8
0
  6
Continuous
 62
     7
370
    25
100
AcDbSpline
210
0.0
220
0.0
230
1.0
 70
     8
 71
     3
 72
    25
 73
    21
 74
     0
 42
0.00000001
 43
0.00000001
 40
0.0
 40
0.0
 40
0.0
 40
0.0
 40
0.0159910900101693
 40
0.0517969289848631
 40
0.1047356856085493
 40
0.1687295709161317
 40
0.2381773474413038
 40
0.3080973261376047
 40
0.4352391593078068
 40
0.5336246130391797
 40
0.6076871131876366
 40
0.7011634540516118
 40
0.748149282416829
 40
0.7701181744357263
 40
0.7875056247427775
 40
0.8160272233669449
 40
0.8526272227941765
 40
0.9049370801326689
 40
0.9759273606284193
 40
1.0
 40
1.0
 40
1.0
 40
1.0
 10
146.8310752060896
 20
105.0899569760569
 30
0.0
 10
146.8009009332967
 20
105.111008905987
 30
0.0
 10
146.7031630890328
 20
105.1791984614763
 30
0.0
 10
146.6641131266438
 20
105.4314249166297
 30
0.0
 10
146.5801391821555
 20
105.7544470545722
 30
0.0
 10
146.5156077705028
 20
106.1716512359251
 30
0.0
 10
146.4470915066281
 20
106.6217722220026
 30
0.0
 10
146.3653937174269
 20
107.2148236591724
 30
0.0
 10
146.2750798930952
 20
107.8713544749167
 30
0.0
 10
146.1811876540068
 20
108.5381525383491
 30
0.0
 10
146.0691160571925
 20
109.1225092537279
 30
0.0
 10
145.9918768516661
 20
109.6052078943081
 30
0.0
 10
145.7385386770219
 20
109.9061652070624
 30
0.0
 10
145.5405445639325
 20
109.9463003560696
 30
0.0
 10
145.3890014783716
 20
109.9096474537909
 30
0.0
 10
145.2421791520984
 20
109.7834546910578
 30
0.0
 10
145.1312779630881
 20
109.5399960111301
 30
0.0
 10
145.042431722176
 20
109.1922994710518
 30
0.0
 10
144.9786819523463
 20
108.8673805808592
 30
0.0
 10
144.94601068555
 20
108.6565201156476
 30
0.0
 10
144.9377373900896
 20
108.6031242390656
 30
0.0
  0
SPLINE
  5
EF
330
1F
100
AcDbEntity
  8
0
  6
Continuous
 62
     7
370
    25
100
AcDbSpline
210
0.0
220
0.0
230
1.0
 70
     8
 71
     3
 72
    19
 73
    15
 74
     0
 42
0.00000001
 43
0.00000001
 40
0.0
 40
0.0
 40
0.0
 40
0.0
 40
0.002726204678622
 40
0.0328651827514517
 40
0.0969025478027026
 40
0.1984212552672908
 40
0.3404775512333227
 40
0.5260421933620985
 40
0.6296728460468187
 40
0.7340971919404602
 40
0.8319846239025444
 40
0.9146697755610212
 40
0.972213449997436
 40
1.0
 40
1.0
 40
1.0
 40
1.0
 10
144.677026673842
 20
105.2532946574994
 30
0.0
 10
144.6814961626151
 20
105.2529709234806
 30
0.0
 10
144.7353771373212
 20
105.2490682166243
 30
0.0
 10
144.5872636138625
 20
105.4823218887457
 30
0.0
 10
144.6072708502768
 20
105.7128044659733
 30
0.0
 10
144.4834850875578
 20
106.2187751546874
 30
0.0
 10
144.4070118237196
 20
106.8626830315279
 30
0.0
 10
144.310661016084
 20
107.531308616834
 30
0.0
 10
144.2269969736039
 20
108.1360958011978
 30
0.0
 10
144.1540120314262
 20
108.6044799695071
 30
0.0
 10
144.0823852366003
 20
109.0451850040481
 30
0.0
 10
143.9890316779974
 20
109.3926682678483
 30
0.0
 10
143.9378495221898
 20
109.6714408099187
 30
0.0
 10
143.8231047612611
 20
109.7446705090122
 30
0.0
 10
143.7857397940641
 20
109.7685166984358
 30
0.0
  0
SPLINE
  5
F0
330
1F
100
AcDbEntity
  8
0
  6
Continuous
 62
     7
370
    25
100
AcDbSpline
210
0.0
220
0.0
230
1.0
 70
     8
 71
     3
 72
    16
 73
    12
 74
     0
 42
0.00000001
 43
0.00000001
 40
0.0
 40
0.0
 40
0.0
 40
0.0
 40
0.0661557639366052
 40
0.1237436641689377
 40
0.1708977770626249
 40
0.2084191770247844
 40
0.3009671102505502
 40
0.3970268865580808
 40
0.623449659451213
 40
0.7999652222457696
 40
1.0
 40
1.0
 40
1.0
 40
1.0
 10
143.9042338278776
 20
109.5891984529355
 30
0.0
 10
143.8950642690091
 20
109.6353294541471
 30
0.0
 10
143.8779127050985
 20
109.7216170091842
 30
0.0
 10
143.8057554947988
 20
109.8216291801491
 30
0.0
 10
143.7272033123872
 20
109.8850025530246
 30
0.0
 10
143.6139360862747
 20
109.9384620037958
 30
0.0
 10
143.4432391236423
 20
109.9460295079832
 30
0.0
 10
143.1920711924504
 20
109.7672184270362
 30
0.0
 10
143.084140753721
 20
109.4134425487686
 30
0.0
 10
142.9919559735903
 20
109.0042832713064
 30
0.0
 10
142.9488398918635
 20
108.7422984135475
 30
0.0
 10
142.9259353425985
 20
108.6031242390656
 30
0.0
  0
SPLINE
  5
F1
330
1F
100
AcDbEntity
  8
0
  6
Continuous
 62
     7
370
    25
100
AcDbSpline
210
0.0
220
0.0
230
1.0
 70
     8
 71
     3
 72
    25
 73
    21
 74
     0
 42
0.00000001
 43
0.00000001
 40
0.0
 40
0.0
 40
0.0
 40
0.0
 40
0.0011424721374146
 40
0.0177692908859804
 40
0.0614367572617219
 40
0.1248000507469275
 40
0.2036519190269646
 40
0.294017546418782
 40
0.3911377310630517
 40
0.4881844847820053
 40
0.5769989674125557
 40
0.7194402560628504
 40
0.8250065730918982
 40
0.8607816297087864
 40
0.894242683684109
 40
0.9109233634211171
 40
0.9328982486358689
 40
0.9625746393232949
 40
0.9805675024877347
 40
1.0
 40
1.0
 40
1.0
 40
1.0
 10
142.6721611168867
 20
105.2427786286482
 30
0.0
 10
142.6743444917289
 20
105.242566065791
 30
0.0
 10
142.7083033266225
 20
105.2392599972084
 30
0.0
 10
142.6036042227243
 20
105.4172790456374
 30
0.0
 10
142.6136081699564
 20
105.5803102383518
 30
0.0
 10
142.5221640060965
 20
105.9447898196841
 30
0.0
 10
142.4668012491321
 20
106.356274407194
 30
0.0
 10
142.393470541907
 20
106.8442268916053
 30
0.0
 10
142.3237018098012
 20
107.3612699028251
 30
0.0
 10
142.2524182216075
 20
107.8763403214685
 30
0.0
 10
142.1673658113422
 20
108.4748673335926
 30
0.0
 10
142.0591601208536
 20
109.0772707933137
 30
0.0
 10
141.9521658427746
 20
109.6055797873818
 30
0.0
 10
141.7428406011161
 20
109.8569314538929
 30
0.0
 10
141.5958973084369
 20
109.9323056493727
 30
0.0
 10
141.461130361988
 20
109.9353313790908
 30
0.0
 10
141.3400786123595
 20
109.8913478041772
 30
0.0
 10
141.2438090987316
 20
109.8012377589829
 30
0.0
 10
141.183359287164
 20
109.6918761773706
 30
0.0
 10
141.1705329132473
 20
109.6238901943551
 30
0.0
 10
141.163873031426
 20
109.5885896008023
 30
0.0
  0
SPLINE
  5
F2
330
1F
100
AcDbEntity
  8
0
  6
Continuous
 62
     7
370
    25
100
AcDbSpline
210
0.0
220
0.0
230
1.0
 70
     8
 71
     3
 72
    23
 73
    19
 74
     0
 42
0.00000001
 43
0.00000001
 40
0.0
 40
0.0
 40
0.0
 40
0.0
 40
0.0028774801855334
 40
0.0271127473974807
 40
0.0791497562335116
 40
0.1659431872496183
 40
0.284229993322063
 40
0.4091110710627424
 40
0.5260742861503397
 40
0.622529875870558
 40
0.6853770982433185
 40
0.7221506026481902
 40
0.7481959075316632
 40
0.7704848495662069
 40
0.8011862692936973
 40
0.8476639929937255
 40
0.9146309678924364
 40
0.9999999999999999
 40
0.9999999999999999
 40
0.9999999999999999
 40
0.9999999999999999
 10
143.4199572649484
 20
109.3375297147342
 30
0.0
 10
143.4139744701622
 20
109.3348946210298
 30
0.0
 10
143.3576022301084
 20
109.3100657341667
 30
0.0
 10
143.5087421554364
 20
109.0925101464013
 30
0.0
 10
143.4947121566763
 20
108.7846493094622
 30
0.0
 10
143.6294606273878
 20
108.2118360514782
 30
0.0
 10
143.7101040621867
 20
107.5108717888359
 30
0.0
 10
143.8210625942769
 20
106.7330761661168
 30
0.0
 10
143.9260423188096
 20
106.0066665355676
 30
0.0
 10
144.035607024887
 20
105.4161621085937
 30
0.0
 10
144.1426213245395
 20
105.0035272030148
 30
0.0
 10
144.2866375320223
 20
104.7612148077081
 30
0.0
 10
144.4554858756163
 20
104.6684725381175
 30
0.0
 10
144.6337681607932
 20
104.6634489610929
 30
0.0
 10
144.8281414910297
 20
104.7856428031865
 30
0.0
 10
144.9692525672474
 20
105.0752750933062
 30
0.0
 10
145.073931905088
 20
105.4932180689684
 30
0.0
 10
145.1281820289967
 20
105.8199972954913
 30
0.0
 10
145.1585837748533
 20
106.0031242319875
 30
0.0
  0
SPLINE
  5
F3
330
1F
100
AcDbEntity
  8
0
  6
Continuous
 62
     7
370
    25
100
AcDbSpline
210
0.0
220
0.0
230
1.0
 70
     8
 71
     3
 72
    18
 73
    14
 74
     0
 42
0.00000001
 43
0.00000001
 40
0.0
 40
0.0
 40
0.0
 40
0.0
 40
0.0000148403106322
 40
0.0242788984049686
 40
0.1073542769103682
 40
0.1804802288671332
 40
0.2796434723551787
 40
0.4051608636148747
 40
0.5527826372394338
 40
0.7114192663922334
 40
0.8619561980936488
 40
0.9786971563413859
 40
1.0
 40
1.0
 40
1.0
 40
1.0
 10
145.408200576592
 20
109.3682540464708
 30
0.0
 10
145.4081794582653
 20
109.3682604972726
 30
0.0
 10
145.3736296619013
 20
109.3788140743973
 30
0.0
 10
145.5172670577423
 20
109.1004690045607
 30
0.0
 10
145.4908309401818
 20
108.9412879355851
 30
0.0
 10
145.5831530930802
 20
108.532323526366
 30
0.0
 10
145.6397189885555
 20
108.1070470962251
 30
0.0
 10
145.7198140208754
 20
107.5537249330745
 30
0.0
 10
145.8068037012922
 20
106.919959993129
 30
0.0
 10
145.895258518127
 20
106.2431380631655
 30
0.0
 10
146.0220869064017
 20
105.6303891534181
 30
0.0
 10
146.0607847562719
 20
105.1838700120221
 30
0.0
 10
146.1764571152108
 20
105.0131587057198
 30
0.0
 10
146.1943076100832
 20
104.9868146307328
 30
0.0
  0
SPLINE
  5
F4
330
1F
100
AcDbEntity
  8
0
  6
Continuous
 62
     7
370
    25
100
AcDbSpline
210
0.0
220
0.0
230
1.0
 70
     8
 71
     3
 72
    25
 73
    21
 74
     0
 42
0.00000001
 43
0.00000001
 40
0.0
 40
0.0
 40
0.0
 40
0.0
 40
0.0155719655128792
 40
0.0508281617116032
 40
0.1032982396025585
 40
0.1669392634646144
 40
0.2361577551289463
 40
0.3059624538275525
 40
0.4331393814629465
 40
0.5317635939117675
 40
0.6061260162915333
 40
0.7001496244626035
 40
0.7477995469563702
 40
0.7700336048377042
 40
0.7875228666378233
 40
0.8160173618585091
 40
0.8524085417675344
 40
0.904233263664623
 40
0.9746422977194636
 40
0.9999999999999999
 40
0.9999999999999999
 40
0.9999999999999999
 40
0.9999999999999999
 10
138.7881660011297
 20
105.0936205662348
 30
0.0
 10
138.7580943717508
 20
105.1131813044833
 30
0.0
 10
138.6599381281003
 20
105.1770291447621
 30
0.0
 10
138.6218500140178
 20
105.4275277197681
 30
0.0
 10
138.5376753588734
 20
105.7462544503646
 30
0.0
 10
138.4734578225748
 20
106.16112654082
 30
0.0
 10
138.4049686272487
 20
106.609206382943
 30
0.0
 10
138.3233117507797
 20
107.2011270681888
 30
0.0
 10
138.2329990942123
 20
107.8575077602175
 30
0.0
 10
138.1391261966776
 20
108.5250088839727
 30
0.0
 10
138.0271948519733
 20
109.1115987757143
 30
0.0
 10
137.9500418318764
 20
109.5966659432798
 30
0.0
 10
137.6978487624071
 20
109.902659085218
 30
0.0
 10
137.4978205761893
 20
109.9449795029787
 30
0.0
 10
137.3455022515055
 20
109.9084048635202
 30
0.0
 10
137.1988682214624
 20
109.782764899714
 30
0.0
 10
137.0882118229745
 20
109.5412240356178
 30
0.0
 10
136.9996724068233
 20
109.196670196006
 30
0.0
 10
136.9356600192014
 20
108.8715679241383
 30
0.0
 10
136.9026901548576
 20
108.6593235917557
 30
0.0
 10
136.8939601924902
 20
108.6031242390656
 30
0.0
  0
SPLINE
  5
F5
330
1F
100
AcDbEntity
  8
0
  6
Continuous
 62
     7
370
    25
100
AcDbSpline
210
0.0
220
0.0
230
1.0
 70
     8
 71
     3
 72
    19
 73
    15
 74
     0
 42
0.00000001
 43
0.00000001
 40
0.0
 40
0.0
 40
0.0
 40
0.0
 40
0.0021402515975948
 40
0.0314485755491565
 40
0.094820940651565
 40
0.195838870648336
 40
0.3376343612333075
 40
0.5232568237052262
 40
0.6270827167828739
 40
0.7318332677179312
 40
0.8301866862914477
 40
0.9134714329088471
 40
0.9717128746844163
 40
1.0
 40
1.0
 40
1.0
 40
1.0
 10
136.6362110820299
 20
105.2525828942218
 30
0.0
 10
136.639680718945
 20
105.2523562391097
 30
0.0
 10
136.6906631075458
 20
105.2490257986965
 30
0.0
 10
136.5445839189343
 20
105.4782279761321
 30
0.0
 10
136.5653810664579
 20
105.7043814569128
 30
0.0
 10
136.4411116903051
 20
106.2080393553989
 30
0.0
 10
136.3650151922232
 20
106.849412798617
 30
0.0
 10
136.2686028869485
 20
107.51712004783
 30
0.0
 10
136.1850429691368
 20
108.1217954612897
 30
0.0
 10
136.1121590468236
 20
108.5910747567355
 30
0.0
 10
136.0405077627753
 20
109.0329770691428
 30
0.0
 10
135.9475608599302
 20
109.3834688150687
 30
0.0
 10
135.8960244868291
 20
109.6631919537577
 30
0.0
 10
135.7821479497331
 20
109.7403769606751
 30
0.0
 10
135.7449204769617
 20
109.7656095750191
 30
0.0
  0
SPLINE
  5
F6
330
1F
100
AcDbEntity
  8
0
  6
Continuous
 62
     7
370
    25
100
AcDbSpline
210
0.0
220
0.0
230
1.0
 70
     8
 71
     3
 72
    11
 73
     7
 74
     0
 42
0.00000001
 43
0.00000001
 40
0.0
 40
0.0
 40
0.0
 40
0.0
 40
0.14918233650594
 40
0.4367557300182933
 40
0.8236354213332088
 40
1.0
 40
1.0
 40
1.0
 40
1.0
 10
138.7929343727117
 20
104.8577903653988
 30
0.0
 10
138.8319483723305
 20
104.9043188948379
 30
0.0
 10
138.9461682477092
 20
105.0405387873387
 30
0.0
 10
139.0043318015741
 20
105.378532991665
 30
0.0
 10
139.0796124234963
 20
105.7085352730036
 30
0.0
 10
139.11413394669
 20
105.93287756346
 30
0.0
 10
139.1249434199815
 20
106.0031242319875
 30
0.0
  0
SPLINE
  5
F7
330
1F
100
AcDbEntity
  8
0
  6
Continuous
 62
     7
370
    25
100
AcDbSpline
210
0.0
220
0.0
230
1.0
 70
     8
 71
     3
 72
    22
 73
    18
 74
     0
 42
0.00000001
 43
0.00000001
 40
0.0
 40
0.0
 40
0.0
 40
0.0
 40
0.0017976621022938
 40
0.0331072186517251
 40
0.0987389430599111
 40
0.1895037225000556
 40
0.2981143585836644
 40
0.4118896694225381
 40
0.5145631959528384
 40
0.5992931927169494
 40
0.6624180419034383
 40
0.7120188044355504
 40
0.7535084947066163
 40
0.7928274365506431
 40
0.8410021359086765
 40
0.9550786602335978
 40
0.9999999999999999
 40
0.9999999999999999
 40
0.9999999999999999
 40
0.9999999999999999
 10
139.3823758807665
 20
109.3586425646701
 30
0.0
 10
139.3783335454846
 20
109.3584125207791
 30
0.0
 10
139.3038865858083
 20
109.3541758439374
 30
0.0
 10
139.5239566180735
 20
109.0323192546498
 30
0.0
 10
139.4798647292121
 20
108.7137345718679
 30
0.0
 10
139.6223120292224
 20
108.1069481939663
 30
0.0
 10
139.6972614926175
 20
107.4452365301447
 30
0.0
 10
139.7979895151725
 20
106.7407044878708
 30
0.0
 10
139.8910567409601
 20
106.0932983834676
 30
0.0
 10
139.9846094079062
 20
105.5557531354443
 30
0.0
 10
140.0801202643436
 20
105.1373173597682
 30
0.0
 10
140.203352149598
 20
104.820597131518
 30
0.0
 10
140.4559559739038
 20
104.6324012631724
 30
0.0
 10
140.7594668567941
 20
104.7236154565841
 30
0.0
 10
140.9918777462993
 20
105.118558346655
 30
0.0
 10
141.0639525716602
 20
105.5654597485385
 30
0.0
 10
141.11946964413
 20
105.9067111693982
 30
0.0
 10
141.1351547685152
 20
106.0031242319875
 30
0.0
  0
SPLINE
  5
F8
330
1F
100
AcDbEntity
  8
0
  6
Continuous
 62
     7
370
    25
100
AcDbSpline
210
0.0
220
0.0
230
1.0
 70
     8
 71
     3
 72
    16
 73
    12
 74
     0
 42
0.00000001
 43
0.00000001
 40
0.0
 40
0.0
 40
0.0
 40
0.0
 40
0.07710663062762
 40
0.1416938741234626
 40
0.191999114868895
 40
0.2302219473434621
 40
0.3258565669993047
 40
0.4275640852791842
 40
0.7394038991796485
 40
0.9947209744780635
 40
1.0
 40
1.0
 40
1.0
 40
1.0
 10
135.8604622182136
 20
109.5874175313422
 30
0.0
 10
135.8487998542969
 20
109.6411555943714
 30
0.0
 10
135.8273686814995
 20
109.7399065613963
 30
0.0
 10
135.7370014120432
 20
109.8461173124259
 30
0.0
 10
135.6455208038143
 20
109.9047554662587
 30
0.0
 10
135.5217665679487
 20
109.9452585235349
 30
0.0
 10
135.3436715779588
 20
109.9249336119591
 30
0.0
 10
135.0794700177507
 20
109.6591057856565
 30
0.0
 10
134.9884555037599
 20
109.1774308880643
 30
0.0
 10
134.9095066258347
 20
108.7878717863318
 30
0.0
 10
134.8821023397172
 20
108.606792453654
 30
0.0
 10
134.8815471973901
 20
108.6031242390656
 30
0.0
  0
SPLINE
  5
F9
330
1F
100
AcDbEntity
  8
0
  6
Continuous
 62
     7
370
    25
100
AcDbSpline
210
0.0
220
0.0
230
1.0
 70
     8
 71
     3
 72
    22
 73
    18
 74
     0
 42
0.00000001
 43
0.00000001
 40
0.0
 40
0.0
 40
0.0
 40
0.0
 40
0.0103114041698565
 40
0.0519200337360498
 40
0.1166897268716444
 40
0.1987723383910228
 40
0.2924772000693873
 40
0.3902434794407083
 40
0.4810082101694966
 40
0.5592802643262075
 40
0.6226524717984757
 40
0.7130913157273403
 40
0.7530667038280007
 40
0.7846955216012561
 40
0.8533503577640588
 40
0.9434283563416841
 40
1.0
 40
1.0
 40
1.0
 40
1.0
 10
134.6298554089552
 20
105.2448063507237
 30
0.0
 10
134.6267714326649
 20
105.2669835552448
 30
0.0
 10
134.6112429798574
 20
105.3786503261266
 30
0.0
 10
134.5363394420034
 20
105.6217117072133
 30
0.0
 10
134.4742556037802
 20
106.0265502460701
 30
0.0
 10
134.3919053108578
 20
106.541889667547
 30
0.0
 10
134.3111074228622
 20
107.1300972588317
 30
0.0
 10
134.2283125286683
 20
107.737159857909
 30
0.0
 10
134.1462258226852
 20
108.3097149629106
 30
0.0
 10
134.0682739643091
 20
108.8099793928104
 30
0.0
 10
133.9661925600593
 20
109.2972815344726
 30
0.0
 10
133.8750351159286
 20
109.7323405655553
 30
0.0
 10
133.5649839796741
 20
109.9571002559475
 30
0.0
 10
133.2366252542913
 20
109.9008125428979
 30
0.0
 10
133.0306546440236
 20
109.485458931383
 30
0.0
 10
132.9450105652302
 20
109.0399068285698
 30
0.0
 10
132.8918880305966
 20
108.7247134166011
 30
0.0
 10
132.8713954535013
 20
108.6031242390656
 30
0.0
  0
SPLINE
  5
FA
330
1F
100
AcDbEntity
  8
0
  6
Continuous
 62
     7
370
    25
100
AcDbSpline
210
0.0
220
0.0
230
1.0
 70
     8
 71
     3
 72
    23
 73
    19
 74
     0
 42
0.00000001
 43
0.00000001
 40
0.0
 40
0.0
 40
0.0
 40
0.0
 40
0.0139991884858264
 40
0.0594881313696177
 40
0.1388057295854483
 40
0.2348734115638416
 40
0.338599323538947
 40
0.4411720044235541
 40
0.5342712217196595
 40
0.6087391775801941
 40
0.663514909612847
 40
0.7025723084181
 40
0.7337907058442437
 40
0.7649618826027423
 40
0.7922170383884798
 40
0.8572695570056884
 40
0.9101869895632113
 40
1.0
 40
1.0
 40
1.0
 40
1.0
 10
132.6065049615389
 20
105.2573165740379
 30
0.0
 10
132.6041285193001
 20
105.2876352839982
 30
0.0
 10
132.5940300690767
 20
105.4164715663944
 30
0.0
 10
132.5074100770165
 20
105.706969652553
 30
0.0
 10
132.4388979641162
 20
106.1816002145644
 30
0.0
 10
132.3467407214542
 20
106.7800605623864
 30
0.0
 10
132.2594673343437
 20
107.4303453313923
 30
0.0
 10
132.1702075981871
 20
108.0738198197491
 30
0.0
 10
132.0824898299079
 20
108.6533283318813
 30
0.0
 10
131.9971730009016
 20
109.1284499120467
 30
0.0
 10
131.9077910844623
 20
109.4826960238777
 30
0.0
 10
131.8081815632056
 20
109.7371580509882
 30
0.0
 10
131.6545648452129
 20
109.9069360988083
 30
0.0
 10
131.4511072970548
 20
109.9534958145535
 30
0.0
 10
131.1886038341058
 20
109.8499025239679
 30
0.0
 10
131.0506428089422
 20
109.5336653191812
 30
0.0
 10
130.9468829227356
 20
109.1027355482525
 30
0.0
 10
130.8937968482275
 20
108.7960842861634
 30
0.0
 10
130.8603924807792
 20
108.6031242390656
 30
0.0
  0
SPLINE
  5
FB
330
1F
100
AcDbEntity
  8
0
  6
Continuous
 62
     7
370
    25
100
AcDbSpline
210
0.0
220
0.0
230
1.0
 70
     8
 71
     3
 72
    23
 73
    19
 74
     0
 42
0.00000001
 43
0.00000001
 40
0.0
 40
0.0
 40
0.0
 40
0.0
 40
0.0030533649945442
 40
0.0278197058345103
 40
0.0803685249168778
 40
0.1676197766378927
 40
0.2861357154784615
 40
0.410739073531966
 40
0.5270163319599003
 40
0.6226830708627294
 40
0.6852103636814717
 40
0.722051690757424
 40
0.7481901528402275
 40
0.7705254482893238
 40
0.801485066358906
 40
0.8485847048993943
 40
0.916242724689607
 40
1.0
 40
1.0
 40
1.0
 40
1.0
 10
135.3774485286957
 20
109.3343452900209
 30
0.0
 10
135.3712955265706
 20
109.331186321401
 30
0.0
 10
135.3152345219333
 20
109.302404443734
 30
0.0
 10
135.465118998052
 20
109.0870345787766
 30
0.0
 10
135.4534360078956
 20
108.772324292129
 30
0.0
 10
135.5868038726791
 20
108.1997801879382
 30
0.0
 10
135.668060525866
 20
107.4977298206768
 30
0.0
 10
135.7785491296207
 20
106.7226805274093
 30
0.0
 10
135.8832147384843
 20
106.0007939681325
 30
0.0
 10
135.9922132470917
 20
105.4148166206832
 30
0.0
 10
136.0988979021515
 20
105.004935109086
 30
0.0
 10
136.2423955191946
 20
104.7631342101634
 30
0.0
 10
136.4113500132141
 20
104.6700260759015
 30
0.0
 10
136.5904055640218
 20
104.6649643495223
 30
0.0
 10
136.7859404194568
 20
104.789142950595
 30
0.0
 10
136.9269643822923
 20
105.0822282264812
 30
0.0
 10
137.0308616807158
 20
105.4991600087397
 30
0.0
 10
137.0845676119153
 20
105.8236361644829
 30
0.0
 10
137.1142757233864
 20
106.0031242319875
 30
0.0
  0
SPLINE
  5
FC
330
1F
100
AcDbEntity
  8
0
  6
Continuous
 62
     7
370
    25
100
AcDbSpline
210
0.0
220
0.0
230
1.0
 70
     8
 71
     3
 72
    18
 73
    14
 74
     0
 42
0.00000001
 43
0.00000001
 40
0.0
 40
0.0
 40
0.0
 40
0.0
 40
0.0000535837722707
 40
0.0245750147644234
 40
0.10833969108454
 40
0.1818938199556447
 40
0.2814841276516747
 40
0.4073481240334855
 40
0.5551334249515117
 40
0.7136481114202627
 40
0.8636939230941746
 40
0.9795680352372989
 40
1.0
 40
1.0
 40
1.0
 40
1.0
 10
137.3645183738952
 20
109.3665187596836
 30
0.0
 10
137.3644418976442
 20
109.3665416944735
 30
0.0
 10
137.3293677526489
 20
109.3770602297712
 30
0.0
 10
137.47462711866
 20
109.096877251443
 30
0.0
 10
137.4475839646378
 20
108.9357352827786
 30
0.0
 10
137.5403884454699
 20
108.5244863798342
 30
0.0
 10
137.5970821236209
 20
108.0973020306047
 30
0.0
 10
137.6773447070614
 20
107.5425239675732
 30
0.0
 10
137.764583979382
 20
106.9081394604647
 30
0.0
 10
137.8528927029005
 20
106.2316765479243
 30
0.0
 10
137.9807637082498
 20
105.6217928748489
 30
0.0
 10
138.0178362457154
 20
105.1771915253444
 30
0.0
 10
138.1342500016479
 20
105.0100618460214
 30
0.0
 10
138.1517001536375
 20
104.9850094947525
 30
0.0
  0
SPLINE
  5
FD
330
1F
100
AcDbEntity
  8
0
  6
Continuous
 62
     7
370
    25
100
AcDbSpline
210
0.0
220
0.0
230
1.0
 70
     8
 71
     3
 72
    12
 73
     8
 74
     0
 42
0.00000001
 43
0.00000001
 40
0.0
 40
0.0
 40
0.0
 40
0.0
 40
0.1103660678538596
 40
0.3113176275246939
 40
0.5874677173247534
 40
0.9136049627437537
 40
1.0
 40
1.0
 40
1.0
 40
1.0
 10
130.7515972402578
 20
104.8611366074094
 30
0.0
 10
130.7827193080698
 20
104.8934358031077
 30
0.0
 10
130.8705075975622
 20
104.9845445031935
 30
0.0
 10
130.9252052561935
 20
105.222657582949
 30
0.0
 10
131.0022348436391
 20
105.5318760829713
 30
0.0
 10
131.0513955276462
 20
105.8051730247276
 30
0.0
 10
131.075894034087
 20
105.9688466904641
 30
0.0
 10
131.0810246613508
 20
106.0031242319875
 30
0.0
  0
SPLINE
  5
FE
330
1F
100
AcDbEntity
  8
0
  6
Continuous
 62
     7
370
    25
100
AcDbSpline
210
0.0
220
0.0
230
1.0
 70
     8
 71
     3
 72
    24
 73
    20
 74
     0
 42
0.00000001
 43
0.00000001
 40
0.0
 40
0.0
 40
0.0
 40
0.0
 40
0.0075934447887938
 40
0.0412535211074781
 40
0.0952606255859605
 40
0.1654572190896085
 40
0.2482729247426437
 40
0.3387927230308938
 40
0.4282082067733711
 40
0.5093276493544211
 40
0.5790851908729804
 40
0.6354329988290375
 40
0.7174463807316362
 40
0.7513660567011534
 40
0.7809707347517153
 40
0.8192638646993254
 40
0.8551311548267507
 40
0.9486921471175497
 40
1.0
 40
1.0
 40
1.0
 40
1.0
 10
131.331570923019
 20
109.3633238575914
 30
0.0
 10
131.3333745019107
 20
109.3469029764365
 30
0.0
 10
131.3431729506976
 20
109.2576919284641
 30
0.0
 10
131.4113903601726
 20
109.0604407007776
 30
0.0
 10
131.4650535976282
 20
108.7211070606927
 30
0.0
 10
131.5404284637112
 20
108.2777102923898
 30
0.0
 10
131.6144362604605
 20
107.7535146185991
 30
0.0
 10
131.6922778296897
 20
107.1878900631092
 30
0.0
 10
131.7695027380013
 20
106.6256080274594
 30
0.0
 10
131.8462145634845
 20
106.1096577877614
 30
0.0
 10
131.9205954431323
 20
105.6635562829844
 30
0.0
 10
132.0157987027214
 20
105.2273382139724
 30
0.0
 10
132.1185374381073
 20
104.8417795781497
 30
0.0
 10
132.4013550230099
 20
104.6553243912781
 30
0.0
 10
132.6376968370574
 20
104.6865774265914
 30
0.0
 10
132.8040906749947
 20
104.8580733788168
 30
0.0
 10
132.9472223955637
 20
105.194558063828
 30
0.0
 10
133.0225678720319
 20
105.5828985365617
 30
0.0
 10
133.0740482657341
 20
105.8932188335788
 30
0.0
 10
133.0922809538131
 20
106.0031242319875
 30
0.0
  0
SPLINE
  5
FF
330
1F
100
AcDbEntity
  8
0
  6
Continuous
 62
     7
370
    25
100
AcDbSpline
210
0.0
220
0.0
230
1.0
 70
     8
 71
     3
 72
    24
 73
    20
 74
     0
 42
0.00000001
 43
0.00000001
 40
0.0
 40
0.0
 40
0.0
 40
0.0
 40
0.0013730833599827
 40
0.019628609148937
 40
0.0683807506157976
 40
0.1444072149385482
 40
0.2342049896692281
 40
0.3308953769853442
 40
0.427197871206505
 40
0.5161777914997286
 40
0.5894628623633515
 40
0.6847092681103577
 40
0.7156144671644484
 40
0.7507828715581844
 40
0.7805067707896507
 40
0.8057166201097715
 40
0.8718020675555488
 40
0.927828514965007
 40
1.0
 40
1.0
 40
1.0
 40
1.0
 10
133.3570690002924
 20
109.3490622821757
 30
0.0
 10
133.353996240652
 20
109.3486425227824
 30
0.0
 10
133.3100702855731
 20
109.342641945317
 30
0.0
 10
133.4395269245808
 20
109.1278954251085
 30
0.0
 10
133.4247544809488
 20
108.8854608679867
 30
0.0
 10
133.543017663062
 20
108.3941012664019
 30
0.0
 10
133.6107492234954
 20
107.8407661788086
 30
0.0
 10
133.6983819219312
 20
107.2283112413432
 30
0.0
 10
133.7810284798692
 20
106.6222198453518
 30
0.0
 10
133.8627153399997
 20
106.0655333231039
 30
0.0
 10
133.9605068617756
 20
105.5155089743479
 30
0.0
 10
134.0493144219409
 20
105.0872386168033
 30
0.0
 10
134.2186648231383
 20
104.7740877219037
 30
0.0
 10
134.409575275837
 20
104.6569529276935
 30
0.0
 10
134.617426776205
 20
104.6780746180373
 30
0.0
 10
134.8319033250711
 20
104.8455162343487
 30
0.0
 10
134.9373010836981
 20
105.1647741462778
 30
0.0
 10
135.0307715356331
 20
105.5722255397439
 30
0.0
 10
135.0761120410323
 20
105.8479179190179
 30
0.0
 10
135.1016373482233
 20
106.0031242319875
 30
0.0
  0
SPLINE
  5
100
330
1F
100
AcDbEntity
  8
0
  6
Continuous
 62
     7
370
    25
100
AcDbSpline
210
0.0
220
0.0
230
1.0
 70
     8
 71
     3
 72
    25
 73
    21
 74
     0
 42
0.00000001
 43
0.00000001
 40
0.0
 40
0.0
 40
0.0
 40
0.0
 40
0.0151652189164226
 40
0.0498695983524497
 40
0.1018676975244751
 40
0.1651522135199603
 40
0.2341380118726648
 40
0.3038246847541941
 40
0.4310326727235496
 40
0.5298933530286767
 40
0.6045555108688099
 40
0.6991312560934141
 40
0.7474492349052276
 40
0.7699483594125259
 40
0.7875380086508434
 40
0.8160046569251517
 40
0.8521870187653969
 40
0.9035293081676431
 40
0.973359885415225
 40
1.0
 40
1.0
 40
1.0
 40
1.0
 10
130.7452102300411
 20
105.0974250189521
 30
0.0
 10
130.715247302426
 20
105.1154907633159
 30
0.0
 10
130.6167166334089
 20
105.1748985054873
 30
0.0
 10
130.5795593036667
 20
105.4238041007756
 30
0.0
 10
130.4951962991461
 20
105.7381445338424
 30
0.0
 10
130.431297819117
 20
106.1506920006308
 30
0.0
 10
130.3628437647731
 20
106.5966974908734
 30
0.0
 10
130.2812207377672
 20
107.1874625928887
 30
0.0
 10
130.1909199732285
 20
107.8436641129382
 30
0.0
 10
130.0970651940335
 20
108.5118495769074
 30
0.0
 10
129.985268689867
 20
109.1006562045192
 30
0.0
 10
129.9081719779796
 20
109.5881295784493
 30
0.0
 10
129.6571298238688
 20
109.8991016043979
 30
0.0
 10
129.4550905385291
 20
109.9436522373886
 30
0.0
 10
129.3020013940603
 20
109.9071615808268
 30
0.0
 10
129.15556387445
 20
109.7820759168114
 30
0.0
 10
129.0451496945296
 20
109.5424515852487
 30
0.0
 10
128.9569178028514
 20
109.2010265833995
 30
0.0
 10
128.8926357175209
 20
108.8757400549069
 30
0.0
 10
128.8593679376065
 20
108.6621159456671
 30
0.0
 10
128.8501811322456
 20
108.6031242390656
 30
0.0
  0
SPLINE
  5
101
330
1F
100
AcDbEntity
  8
0
  6
Continuous
 62
     7
370
    25
100
AcDbSpline
210
0.0
220
0.0
230
1.0
 70
     8
 71
     3
 72
    19
 73
    15
 74
     0
 42
0.00000001
 43
0.00000001
 40
0.0
 40
0.0
 40
0.0
 40
0.0
 40
0.0015620153938586
 40
0.0300362215774003
 40
0.0927356700794971
 40
0.19324577507849
 40
0.3347738033132857
 40
0.5204478449717969
 40
0.6244668376367647
 40
0.7295425956984265
 40
0.8283622925938762
 40
0.9122484977128826
 40
0.9711913427033889
 40
1.0
 40
1.0
 40
1.0
 40
1.0
 10
128.5953023579603
 20
105.2519784658709
 30
0.0
 10
128.597804258056
 20
105.2518374949312
 30
0.0
 10
128.6459136594952
 20
105.2491267441947
 30
0.0
 10
128.5018691220708
 20
105.4742388349931
 30
0.0
 10
128.5235115199676
 20
105.6960436890426
 30
0.0
 10
128.3987192403082
 20
106.1973788603621
 30
0.0
 10
128.3230295940538
 20
106.8361822277442
 30
0.0
 10
128.2265412043549
 20
107.5029523283583
 30
0.0
 10
128.1430856626142
 20
108.1075009353102
 30
0.0
 10
128.0703000330797
 20
108.5776613910374
 30
0.0
 10
127.9986148828827
 20
109.0207729828349
 30
0.0
 10
127.906076945741
 20
109.3742288061815
 30
0.0
 10
127.8541333845452
 20
109.6550058306669
 30
0.0
 10
127.7411377988165
 20
109.736064672574
 30
0.0
 10
127.7040415552145
 20
109.7626761417397
 30
0.0
  0
SPLINE
  5
102
330
1F
100
AcDbEntity
  8
0
  6
Continuous
 62
     7
370
    25
100
AcDbSpline
210
0.0
220
0.0
230
1.0
 70
     8
 71
     3
 72
    16
 73
    12
 74
     0
 42
0.00000001
 43
0.00000001
 40
0.0
 40
0.0
 40
0.0
 40
0.0
 40
0.0929028471777316
 40
0.180680664619983
 40
0.3291925853209715
 40
0.4415296578851954
 40
0.5306157660051578
 40
0.6300599611513614
 40
0.7455520496377168
 40
0.872259477036196
 40
1.0
 40
1.0
 40
1.0
 40
1.0
 10
127.8168303069359
 20
109.5854319516131
 30
0.0
 10
127.8108291985548
 20
109.6201713524609
 30
0.0
 10
127.7991580357898
 20
109.6877337385918
 30
0.0
 10
127.7385953897699
 20
109.7981606847137
 30
0.0
 10
127.6387578840518
 20
109.8899872132052
 30
0.0
 10
127.5116238930977
 20
109.9352655077654
 30
0.0
 10
127.3963998477825
 20
109.935095253646
 30
0.0
 10
127.2857949079159
 20
109.8976121854538
 30
0.0
 10
127.1819874577018
 20
109.8181561346654
 30
0.0
 10
127.1002761695683
 20
109.7005503395838
 30
0.0
 10
127.0802538459567
 20
109.6059222786555
 30
0.0
 10
127.0702020373827
 20
109.5584161463686
 30
0.0
  0
SPLINE
  5
103
330
1F
100
AcDbEntity
  8
0
  6
Continuous
 62
     7
370
    25
100
AcDbSpline
210
0.0
220
0.0
230
1.0
 70
     8
 71
     3
 72
    12
 73
     8
 74
     0
 42
0.00000001
 43
0.00000001
 40
0.0
 40
0.0
 40
0.0
 40
0.0
 40
0.0087228277173336
 40
0.1209879699966551
 40
0.4161317529176305
 40
0.8735390958778438
 40
1.0
 40
1.0
 40
1.0
 40
1.0
 10
125.3143274333959
 20
109.3461104552754
 30
0.0
 10
125.3110936757089
 20
109.3455092893897
 30
0.0
 10
125.2662405855538
 20
109.337170956626
 30
0.0
 10
125.3970876759459
 20
109.12299411368
 30
0.0
 10
125.3814056653043
 20
108.8748109040731
 30
0.0
 10
125.4680290142892
 20
108.5366184718233
 30
0.0
 10
125.4970591250311
 20
108.3280710325829
 30
0.0
 10
125.5033468004947
 20
108.2829014282235
 30
0.0
  0
SPLINE
  5
104
330
1F
100
AcDbEntity
  8
0
  6
Continuous
 62
     7
370
    25
100
AcDbSpline
210
0.0
220
0.0
230
1.0
 70
     8
 71
     3
 72
    14
 73
    10
 74
     0
 42
0.00000001
 43
0.00000001
 40
0.0
 40
0.0
 40
0.0
 40
0.0
 40
0.0561677689108303
 40
0.1712579939385114
 40
0.2691448232715727
 40
0.3531966348707429
 40
0.5747337717764386
 40
0.7629571994047697
 40
1.0
 40
1.0
 40
1.0
 40
1.0
 10
126.1296426054722
 20
104.8815416521885
 30
0.0
 10
126.1474198771491
 20
104.8492216043047
 30
0.0
 10
126.2016235591561
 20
104.750676359017
 30
0.0
 10
126.3709190835752
 20
104.6594098499365
 30
0.0
 10
126.574007653572
 20
104.6800466904
 30
0.0
 10
126.7889277943452
 20
104.8480034316384
 30
0.0
 10
126.8940335186239
 20
105.1690186990689
 30
0.0
 10
126.9872935405789
 20
105.5759241259309
 30
0.0
 10
127.0323254378
 20
105.8502277665191
 30
0.0
 10
127.0574261543041
 20
106.0031242319875
 30
0.0
  0
LINE
  5
105
330
1F
100
AcDbEntity
  8
0
  6
Continuous
 62
     7
370
    25
100
AcDbLine
 10
153.1161093262
 20
109.645346494
 30
0.0
 11
153.0741215792
 21
109.8014333635
 31
0.0
  0
SPLINE
  5
106
330
1F
100
AcDbEntity
  8
0
  6
Continuous
 62
     7
370
    25
100
AcDbSpline
210
0.0
220
0.0
230
1.0
 70
     8
 71
     3
 72
    17
 73
    13
 74
     0
 42
0.00000001
 43
0.00000001
 40
0.0
 40
0.0
 40
0.0
 40
0.0
 40
0.0077223584457014
 40
0.0376881020797837
 40
0.0864810662516174
 40
0.2188593385222637
 40
0.3855048627945507
 40
0.5705372328678344
 40
0.7400203667198975
 40
0.9129407111460314
 40
0.9899119109471447
 40
1.0
 40
1.0
 40
1.0
 40
1.0
 10
153.3401594605928
 20
105.1066954038599
 30
0.0
 10
153.3404834370084
 20
105.1184004928628
 30
0.0
 10
153.3420645674761
 20
105.1755258636023
 30
0.0
 10
153.3243346354999
 20
105.3058970529278
 30
0.0
 10
153.310079779393
 20
105.6254615419322
 30
0.0
 10
153.2847834766713
 20
106.1519817758563
 30
0.0
 10
153.261667522907
 20
106.8852082558763
 30
0.0
 10
153.2310096992219
 20
107.6741222861176
 30
0.0
 10
153.2085727231633
 20
108.4740051319266
 30
0.0
 10
153.168260296529
 20
109.1057335314185
 30
0.0
 10
153.1556991000285
 20
109.5034436952227
 30
0.0
 10
153.120220452719
 20
109.6306108613569
 30
0.0
 10
153.1161093261724
 20
109.6453464939752
 30
0.0
  0
LINE
  5
107
330
1F
100
AcDbEntity
  8
0
  6
Continuous
 62
     7
370
    25
100
AcDbLine
 10
126.4342353788
 20
106.003124232
 30
0.0
 11
127.844067767
 21
106.003124232
 31
0.0
  0
LINE
  5
108
330
1F
100
AcDbEntity
  8
0
  6
Continuous
 62
     7
370
    25
100
AcDbLine
 10
128.4465682801
 20
106.003124232
 30
0.0
 11
129.8550893661
 21
106.003124232
 31
0.0
  0
LINE
  5
109
330
1F
100
AcDbEntity
  8
0
  6
Continuous
 62
     7
370
    25
100
AcDbLine
 10
130.4568578598
 20
106.003124232
 30
0.0
 11
131.865760788
 21
106.003124232
 31
0.0
  0
LINE
  5
10A
330
1F
100
AcDbEntity
  8
0
  6
Continuous
 62
     7
370
    25
100
AcDbLine
 10
132.4686710831
 20
106.003124232
 30
0.0
 11
133.8760112521
 21
106.003124232
 31
0.0
  0
LINE
  5
10B
330
1F
100
AcDbEntity
  8
0
  6
Continuous
 62
     7
370
    25
100
AcDbLine
 10
134.4774295685
 20
106.003124232
 30
0.0
 11
135.8881392625
 21
106.003124232
 31
0.0
  0
LINE
  5
10C
330
1F
100
AcDbEntity
  8
0
  6
Continuous
 62
     7
370
    25
100
AcDbLine
 10
136.4904535112
 20
106.003124232
 30
0.0
 11
137.9009937045
 21
106.003124232
 31
0.0
  0
LINE
  5
10D
330
1F
100
AcDbEntity
  8
0
  6
Continuous
 62
     7
370
    25
100
AcDbLine
 10
138.500752404
 20
106.003124232
 30
0.0
 11
139.9095379856
 21
106.003124232
 31
0.0
  0
LINE
  5
10E
330
1F
100
AcDbEntity
  8
0
  6
Continuous
 62
     7
370
    25
100
AcDbLine
 10
140.5124054399
 20
106.003124232
 30
0.0
 11
141.9217945185
 21
106.003124232
 31
0.0
  0
LINE
  5
10F
330
1F
100
AcDbEntity
  8
0
  6
Continuous
 62
     7
370
    25
100
AcDbLine
 10
142.5218680051
 20
106.003124232
 30
0.0
 11
143.9318903831
 21
106.003124232
 31
0.0
  0
LINE
  5
110
330
1F
100
AcDbEntity
  8
0
  6
Continuous
 62
     7
370
    25
100
AcDbLine
 10
144.534329429
 20
106.003124232
 30
0.0
 11
145.9448062923
 21
106.003124232
 31
0.0
  0
LINE
  5
111
330
1F
100
AcDbEntity
  8
0
  6
Continuous
 62
     7
370
    25
100
AcDbLine
 10
146.544637635
 20
106.003124232
 30
0.0
 11
147.9532444027
 21
106.003124232
 31
0.0
  0
LINE
  5
112
330
1F
100
AcDbEntity
  8
0
  6
Continuous
 62
     7
370
    25
100
AcDbLine
 10
148.5554711071
 20
106.003124232
 30
0.0
 11
149.193315312
 21
106.003124232
 31
0.0
  0
LINE
  5
113
330
1F
100
AcDbEntity
  8
0
  6
Continuous
 62
     7
370
    25
100
AcDbLine
 10
153.2930829671
 20
106.003124232
 30
0.0
 11
159.7881824818
 21
106.003124232
 31
0.0
  0
LINE
  5
114
330
1F
100
AcDbEntity
  8
0
  6
Continuous
 62
     7
370
    25
100
AcDbLine
 10
159.0452552882
 20
108.6031242391
 30
0.0
 11
153.1974286881
 21
108.6031242391
 31
0.0
  0
LINE
  5
115
330
1F
100
AcDbEntity
  8
0
  6
Continuous
 62
     7
370
    25
100
AcDbLine
 10
149.0983986404
 20
108.6031242391
 30
0.0
 11
148.1745378223
 21
108.6031242391
 31
0.0
  0
LINE
  5
116
330
1F
100
AcDbEntity
  8
0
  6
Continuous
 62
     7
370
    25
100
AcDbLine
 10
147.5733020452
 20
108.6031242391
 30
0.0
 11
146.1652689722
 21
108.6031242391
 31
0.0
  0
LINE
  5
117
330
1F
100
AcDbEntity
  8
0
  6
Continuous
 62
     7
370
    25
100
AcDbLine
 10
145.564238086
 20
108.6031242391
 30
0.0
 11
144.1536420134
 21
108.6031242391
 31
0.0
  0
LINE
  5
118
330
1F
100
AcDbEntity
  8
0
  6
Continuous
 62
     7
370
    25
100
AcDbLine
 10
143.5497352031
 20
108.6031242391
 30
0.0
 11
142.1390646246
 21
108.6031242391
 31
0.0
  0
LINE
  5
119
330
1F
100
AcDbEntity
  8
0
  6
Continuous
 62
     7
370
    25
100
AcDbLine
 10
141.541159257
 20
108.6031242391
 30
0.0
 11
140.130507305
 21
108.6031242391
 31
0.0
  0
LINE
  5
11A
330
1F
100
AcDbEntity
  8
0
  6
Continuous
 62
     7
370
    25
100
AcDbLine
 10
139.5288989988
 20
108.6031242391
 30
0.0
 11
138.1209627834
 21
108.6031242391
 31
0.0
  0
LINE
  5
11B
330
1F
100
AcDbEntity
  8
0
  6
Continuous
 62
     7
370
    25
100
AcDbLine
 10
137.520069733
 20
108.6031242391
 30
0.0
 11
136.1096822765
 21
108.6031242391
 31
0.0
  0
LINE
  5
11C
330
1F
100
AcDbEntity
  8
0
  6
Continuous
 62
     7
370
    25
100
AcDbLine
 10
135.5056730208
 20
108.6031242391
 30
0.0
 11
134.0974704471
 21
108.6031242391
 31
0.0
  0
LINE
  5
11D
330
1F
100
AcDbEntity
  8
0
  6
Continuous
 62
     7
370
    25
100
AcDbLine
 10
133.495362952
 20
108.6031242391
 30
0.0
 11
132.0872572359
 21
108.6031242391
 31
0.0
  0
LINE
  5
11E
330
1F
100
AcDbEntity
  8
0
  6
Continuous
 62
     7
370
    25
100
AcDbLine
 10
131.4851013121
 20
108.6031242391
 30
0.0
 11
130.0766696331
 21
108.6031242391
 31
0.0
  0
LINE
  5
11F
330
1F
100
AcDbEntity
  8
0
  6
Continuous
 62
     7
370
    25
100
AcDbLine
 10
129.4741411802
 20
108.6031242391
 30
0.0
 11
128.0654245165
 21
108.6031242391
 31
0.0
  0
LINE
  5
120
330
1F
100
AcDbEntity
  8
0
  6
Continuous
 62
     7
370
    25
100
AcDbLine
 10
127.4638385621
 20
108.6031242391
 30
0.0
 11
126.0547344682
 21
108.6031242391
 31
0.0
  0
LINE
  5
121
330
1F
100
AcDbEntity
  8
0
  6
Continuous
 62
     7
370
    25
100
AcDbLine
 10
125.4511834231
 20
108.6031242391
 30
0.0
 11
125.3997874555
 21
108.6031242391
 31
0.0
  0
SPLINE
  5
122
330
1F
100
AcDbEntity
  8
0
  6
Continuous
 62
     7
370
    25
100
AcDbSpline
210
0.0
220
0.0
230
1.0
 70
     8
 71
     3
 72
    16
 73
    12
 74
     0
 42
0.00000001
 43
0.00000001
 40
0.0
 40
0.0
 40
0.0
 40
0.0
 40
0.0030714062683981
 40
0.0669021128396001
 40
0.1983699945492747
 40
0.3711321825133199
 40
0.5712336517755794
 40
0.7562106136015065
 40
0.9033822057530649
 40
0.9921291613916075
 40
1.0
 40
1.0
 40
1.0
 40
1.0
 10
149.5737494078165
 20
109.7701716586509
 30
0.0
 10
149.5759476657034
 20
109.7750097234961
 30
0.0
 10
149.6238306497011
 20
109.8803936199644
 30
0.0
 10
149.5966797049052
 20
109.1722133344199
 30
0.0
 10
149.6606387083534
 20
108.8346651902668
 30
0.0
 10
149.6697052961322
 20
107.8860835211903
 30
0.0
 10
149.711820987637
 20
107.0036538720889
 30
0.0
 10
149.7208113549032
 20
106.1096289613328
 30
0.0
 10
149.7931705885306
 20
105.4292653215576
 30
0.0
 10
149.7414964380323
 20
105.0047491237383
 30
0.0
 10
149.8118874988566
 20
104.8608409430626
 30
0.0
 10
149.817621811915
 20
104.8491176567533
 30
0.0
  0
SPLINE
  5
123
330
1F
100
AcDbEntity
  8
0
  6
Continuous
 62
     7
370
    25
100
AcDbSpline
210
0.0
220
0.0
230
1.0
 70
     8
 71
     3
 72
    16
 73
    12
 74
     0
 42
0.00000001
 43
0.00000001
 40
0.0
 40
0.0
 40
0.0
 40
0.0
 40
0.0030717255945255
 40
0.0669024322064177
 40
0.1983703139998994
 40
0.3711324764730928
 40
0.5712339458629113
 40
0.756210932821298
 40
0.903382525066674
 40
0.9921294807617904
 40
1.0
 40
1.0
 40
1.0
 40
1.0
 10
150.0737466958051
 20
109.7701716586509
 30
0.0
 10
150.0759462291185
 20
109.7750097605395
 30
0.0
 10
150.1238522428083
 20
109.8803840114783
 30
0.0
 10
150.0966611704105
 20
109.1722235095508
 30
0.0
 10
150.16064954514
 20
108.8346605614725
 30
0.0
 10
150.1696984031045
 20
107.8860851960285
 30
0.0
 10
150.2118169339287
 20
107.003652860877
 30
0.0
 10
150.2208164921322
 20
106.109630687511
 30
0.0
 10
150.2931634667532
 20
105.4292615123608
 30
0.0
 10
150.2415084028055
 20
105.0047548282382
 30
0.0
 10
150.3118860899967
 20
104.8608409687191
 30
0.0
 10
150.3176190999037
 20
104.8491176567533
 30
0.0
  0
SPLINE
  5
124
330
1F
100
AcDbEntity
  8
0
  6
Continuous
 62
     7
370
    25
100
AcDbSpline
210
0.0
220
0.0
230
1.0
 70
     8
 71
     3
 72
    16
 73
    12
 74
     0
 42
0.00000001
 43
0.00000001
 40
0.0
 40
0.0
 40
0.0
 40
0.0
 40
0.0030717246903306
 40
0.0669024125129795
 40
0.1983702556075004
 40
0.3711323672263249
 40
0.5712337777141604
 40
0.7562106852080809
 40
0.903382234131943
 40
0.9921291637034546
 40
1.0
 40
1.0
 40
1.0
 40
1.0
 10
150.5737477090841
 20
109.7701716586509
 30
0.0
 10
150.5759472424008
 20
109.7750097605402
 30
0.0
 10
150.623853256162
 20
109.8803840114942
 30
0.0
 10
150.5966621701195
 20
109.1722235066629
 30
0.0
 10
150.6606506768608
 20
108.8346605866785
 30
0.0
 10
150.6696987957552
 20
107.8860850639504
 30
0.0
 10
150.711820553086
 20
107.0036534554152
 30
0.0
 10
150.720809396622
 20
106.10962904688
 30
0.0
 10
150.7931689279551
 20
105.4292653089811
 30
0.0
 10
150.7414947388379
 20
105.0047491238905
 30
0.0
 10
150.8118858000894
 20
104.860840943074
 30
0.0
 10
150.8176201131826
 20
104.8491176567533
 30
0.0
  0
SPLINE
  5
125
330
1F
100
AcDbEntity
  8
0
  6
Continuous
 62
     7
370
    25
100
AcDbSpline
210
0.0
220
0.0
230
1.0
 70
     8
 71
     3
 72
    16
 73
    12
 74
     0
 42
0.00000001
 43
0.00000001
 40
0.0
 40
0.0
 40
0.0
 40
0.0
 40
0.0030717247256032
 40
0.0669024132812203
 40
0.1983702208014064
 40
0.3711323600050347
 40
0.5712337727906358
 40
0.756210682408647
 40
0.9033822330224807
 40
0.9921291636130738
 40
1.0
 40
1.0
 40
1.0
 40
1.0
 10
151.0737487223631
 20
109.7701716586509
 30
0.0
 10
151.075948255493
 20
109.775009760535
 30
0.0
 10
151.1238542651871
 20
109.8803840113761
 30
0.0
 10
151.096663960134
 20
109.1722236604793
 30
0.0
 10
151.1606449363566
 20
108.8346603571481
 30
0.0
 10
151.1697021809931
 20
107.8860851954041
 30
0.0
 10
151.211820941616
 20
107.0036534314778
 30
0.0
 10
151.2208105381681
 20
106.1096290517946
 30
0.0
 10
151.2931699223772
 20
105.4292653082585
 30
0.0
 10
151.2414957523452
 20
105.0047491238993
 30
0.0
 10
151.3118868133856
 20
104.8608409430747
 30
0.0
 10
151.3176211264616
 20
104.8491176567533
 30
0.0
  0
SPLINE
  5
126
330
1F
100
AcDbEntity
  8
0
  6
Continuous
 62
     7
370
    25
100
AcDbSpline
210
0.0
220
0.0
230
1.0
 70
     8
 71
     3
 72
    16
 73
    12
 74
     0
 42
0.00000001
 43
0.00000001
 40
0.0
 40
0.0
 40
0.0
 40
0.0
 40
0.0030717246116863
 40
0.0669024108001016
 40
0.1983702505286994
 40
0.3711323833253334
 40
0.5712337636771712
 40
0.7562106914497296
 40
0.9033822366056122
 40
0.9921291639049687
 40
1.0
 40
1.0
 40
1.0
 40
1.0
 10
151.5737460103517
 20
109.7701716586509
 30
0.0
 10
151.5759455436316
 20
109.7750097605389
 30
0.0
 10
151.6238515565913
 20
109.8803840114628
 30
0.0
 10
151.596660623465
 20
109.1722235123636
 30
0.0
 10
151.6606476552119
 20
108.8346605134418
 30
0.0
 10
151.669704050195
 20
107.8860852591886
 30
0.0
 10
151.7118155796127
 20
107.0036532638377
 30
0.0
 10
151.7208128564477
 20
106.1096291354707
 30
0.0
 10
151.7931707431724
 20
105.4292653019016
 30
0.0
 10
151.7414967679548
 20
105.0047491239763
 30
0.0
 10
151.8118878268401
 20
104.8608409430805
 30
0.0
 10
151.8176221397405
 20
104.8491176567533
 30
0.0
  0
SPLINE
  5
127
330
1F
100
AcDbEntity
  8
0
  6
Continuous
 62
     7
370
    25
100
AcDbSpline
210
0.0
220
0.0
230
1.0
 70
     8
 71
     3
 72
    16
 73
    12
 74
     0
 42
0.00000001
 43
0.00000001
 40
0.0
 40
0.0
 40
0.0
 40
0.0
 40
0.0030717247669926
 40
0.0669024141826854
 40
0.1983702605582933
 40
0.3711323764887996
 40
0.5712337919706331
 40
0.7562107040810842
 40
0.9033822881182119
 40
0.9921291635070195
 40
1.0
 40
1.0
 40
1.0
 40
1.0
 10
152.0737470236307
 20
109.7701716586509
 30
0.0
 10
152.0759465569486
 20
109.7750097605403
 30
0.0
 10
152.1238525707365
 20
109.8803840114957
 30
0.0
 10
152.0966614796057
 20
109.1722235063861
 30
0.0
 10
152.1606500355751
 20
108.8346605890944
 30
0.0
 10
152.1696978788654
 20
107.8860850512913
 30
0.0
 10
152.2118208400862
 20
107.0036535086063
 30
0.0
 10
152.2208056879844
 20
106.1096288286789
 30
0.0
 10
152.2931755749437
 20
105.4292656999693
 30
0.0
 10
152.2414940045032
 20
105.0047490331772
 30
0.0
 10
152.3118851078588
 20
104.8608409425685
 30
0.0
 10
152.3176194277292
 20
104.8491176567533
 30
0.0
  0
SPLINE
  5
128
330
1F
100
AcDbEntity
  8
0
  6
Continuous
 62
     7
370
    25
100
AcDbSpline
210
0.0
220
0.0
230
1.0
 70
     8
 71
     3
 72
    10
 73
     6
 74
     0
 42
0.00000001
 43
0.00000001
 40
0.0
 40
0.0
 40
0.0
 40
0.0
 40
0.6036833445693753
 40
0.9677145969122419
 40
1.0
 40
1.0
 40
1.0
 40
1.0
 10
148.987418517161
 20
108.5536066326805
 30
0.0
 10
149.0081996560134
 20
108.7933486172088
 30
0.0
 10
149.0415121725651
 20
109.1776590673939
 30
0.0
 10
148.9915149801609
 20
109.6014911631583
 30
0.0
 10
149.0618874901565
 20
109.7454069115008
 30
0.0
 10
149.0676202919965
 20
109.7571308142998
 30
0.0
  0
LINE
  5
129
330
1F
100
AcDbEntity
  8
0
  6
Continuous
 62
     7
370
    25
100
AcDbLine
 10
149.3125059751
 20
104.8600031878
 30
0.0
 11
149.3176207986
 21
104.8491176568
 31
0.0
  0
SPLINE
  5
12A
330
1F
100
AcDbEntity
  8
0
  6
Continuous
 62
     7
370
    25
100
AcDbSpline
210
0.0
220
0.0
230
1.0
 70
     8
 71
     3
 72
    16
 73
    12
 74
     0
 42
0.00000001
 43
0.00000001
 40
0.0
 40
0.0
 40
0.0
 40
0.0
 40
0.0030717246903306
 40
0.0669024125129795
 40
0.1983702556075004
 40
0.3711323672263249
 40
0.5712337777141604
 40
0.7562106852080809
 40
0.903382234131943
 40
0.9921291637034546
 40
1.0
 40
1.0
 40
1.0
 40
1.0
 10
152.5737480369096
 20
109.7701716586509
 30
0.0
 10
152.5759475702263
 20
109.7750097605402
 30
0.0
 10
152.6238535839876
 20
109.8803840114942
 30
0.0
 10
152.596662497945
 20
109.1722235066629
 30
0.0
 10
152.6606510046863
 20
108.8346605866785
 30
0.0
 10
152.6696991235808
 20
107.8860850639504
 30
0.0
 10
152.7118208809115
 20
107.0036534554152
 30
0.0
 10
152.7208097244475
 20
106.10962904688
 30
0.0
 10
152.7931692557807
 20
105.4292653089811
 30
0.0
 10
152.7414950666634
 20
105.0047491238905
 30
0.0
 10
152.811886127915
 20
104.860840943074
 30
0.0
 10
152.8176204410082
 20
104.8491176567533
 30
0.0
  0
ARC
  5
12B
330
1F
100
AcDbEntity
  8
0
  6
Continuous
 62
     7
370
    25
100
AcDbCircle
 10
153.2396566593
 20
108.0628005218
 30
0.0
 40
0.557894924912849
100
AcDbArc
 50
76.6195725365
 51
90.2297383254
  0
SPLINE
  5
12C
330
1F
100
AcDbEntity
  8
0
  6
Continuous
 62
     8
370
    25
100
AcDbSpline
210
0.0
220
0.0
230
1.0
 70
     8
 71
     3
 72
    16
 73
    12
 74
     0
 42
0.00000001
 43
0.00000001
 40
0.0
 40
0.0
 40
0.0
 40
0.0
 40
0.0059740821956929
 40
0.0697741340818321
 40
0.201178841299372
 40
0.3738580602544984
 40
0.573863430823036
 40
0.7587515574971492
 40
0.9058524705187095
 40
0.9945568054481685
 40
0.9999999999999999
 40
0.9999999999999999
 40
0.9999999999999999
 40
0.9999999999999999
 10
149.0676202919965
 20
109.7571308142998
 30
0.0
 10
149.0719674063511
 20
109.7669482634023
 30
0.0
 10
149.1227394128126
 20
109.8816108990299
 30
0.0
 10
149.0980555229847
 20
109.1806415779568
 30
0.0
 10
149.1600120913939
 20
108.8308013883597
 30
0.0
 10
149.1698941652056
 20
107.8874335085152
 30
0.0
 10
149.2118966699589
 20
107.0033324697501
 30
0.0
 10
149.2204021652366
 20
106.1095899830991
 30
0.0
 10
149.2941863879549
 20
105.429526973633
 30
0.0
 10
149.2406502176069
 20
105.00860834626
 30
0.0
 10
149.3085786527954
 20
104.8681252975663
 30
0.0
 10
149.3125059750562
 20
104.8600031878361
 30
0.0
  0
SPLINE
  5
12D
330
1F
100
AcDbEntity
  8
0
  6
Continuous
 62
     8
370
    25
100
AcDbSpline
210
0.0
220
0.0
230
1.0
 70
     8
 71
     3
 72
    16
 73
    12
 74
     0
 42
0.00000001
 43
0.00000001
 40
0.0
 40
0.0
 40
0.0
 40
0.0
 40
0.004489890172902
 40
0.0681182646423687
 40
0.1992211111941802
 40
0.37151449797397
 40
0.5710734947319218
 40
0.755548980470906
 40
0.9023168870111504
 40
0.9908033902720336
 40
1.0
 40
1.0
 40
1.0
 40
1.0
 10
149.3206457343584
 20
109.8955633002826
 30
0.0
 10
149.3239247986587
 20
109.9032628654863
 30
0.0
 10
149.3736730466533
 20
110.0200766404292
 30
0.0
 10
149.3470067572512
 20
109.2759846229627
 30
0.0
 10
149.4104910102283
 20
108.9151803180137
 30
0.0
 10
149.4197610843332
 20
107.9179580995097
 30
0.0
 10
149.4617868095531
 20
106.9873069654116
 30
0.0
 10
149.470876124611
 20
106.0460490147791
 30
0.0
 10
149.5430127556292
 20
105.3277951068439
 30
0.0
 10
149.4914281222008
 20
104.8803587573045
 30
0.0
 10
149.5638298112445
 20
104.7252849631056
 30
0.0
 10
149.5706462409979
 20
104.7106851707705
 30
0.0
  0
SPLINE
  5
12E
330
1F
100
AcDbEntity
  8
0
  6
Continuous
 62
     8
370
    25
100
AcDbSpline
210
0.0
220
0.0
230
1.0
 70
     8
 71
     3
 72
    16
 73
    12
 74
     0
 42
0.00000001
 43
0.00000001
 40
0.0
 40
0.0
 40
0.0
 40
0.0
 40
0.0044896029424397
 40
0.068118078540305
 40
0.1992209920074019
 40
0.3715144667262521
 40
0.571073542867663
 40
0.7555491452370298
 40
0.902317126688053
 40
0.9908036751127124
 40
1.0
 40
1.0
 40
1.0
 40
1.0
 10
149.8206467476373
 20
109.8955633002826
 30
0.0
 10
149.8239245185868
 20
109.9032628143755
 30
0.0
 10
149.8736561901468
 20
110.0200829680566
 30
0.0
 10
149.8470244701942
 20
109.2759782561178
 30
0.0
 10
149.9104840368117
 20
108.9151832430903
 30
0.0
 10
149.91976656258
 20
107.9179572514157
 30
0.0
 10
149.9617796448165
 20
106.9873066625302
 30
0.0
 10
149.9708814541939
 20
106.0460503099244
 30
0.0
 10
150.0430066957088
 20
105.3277920303626
 30
0.0
 10
149.9914385949591
 20
104.8803635068295
 30
0.0
 10
150.0638284113746
 20
104.7252849912316
 30
0.0
 10
150.0706435289865
 20
104.7106851707705
 30
0.0
  0
SPLINE
  5
12F
330
1F
100
AcDbEntity
  8
0
  6
Continuous
 62
     8
370
    25
100
AcDbSpline
210
0.0
220
0.0
230
1.0
 70
     8
 71
     3
 72
    16
 73
    12
 74
     0
 42
0.00000001
 43
0.00000001
 40
0.0
 40
0.0
 40
0.0
 40
0.0
 40
0.0044898900686504
 40
0.0681183317129672
 40
0.1992211752206771
 40
0.3715145349994965
 40
0.5710735271238506
 40
0.755549008579464
 40
0.9023169399593008
 40
0.9908033904855713
 40
1.0
 40
1.0
 40
1.0
 40
1.0
 10
150.320644035626
 20
109.8955633002826
 30
0.0
 10
150.3239230962353
 20
109.9032628646277
 30
0.0
 10
150.3736713383691
 20
110.0200767442741
 30
0.0
 10
150.3470121566954
 20
109.2759850719888
 30
0.0
 10
150.4104924974335
 20
108.9151802037734
 30
0.0
 10
150.4197580521973
 20
107.9179580570725
 30
0.0
 10
150.4617863718499
 20
106.9873070136265
 30
0.0
 10
150.4708713493014
 20
106.0460488086465
 30
0.0
 10
150.5430183818751
 20
105.3277954765871
 30
0.0
 10
150.4914263545139
 20
104.8803586693474
 30
0.0
 10
150.5638281033466
 20
104.7252849624601
 30
0.0
 10
150.5706445422655
 20
104.7106851707705
 30
0.0
  0
SPLINE
  5
130
330
1F
100
AcDbEntity
  8
0
  6
Continuous
 62
     8
370
    25
100
AcDbSpline
210
0.0
220
0.0
230
1.0
 70
     8
 71
     3
 72
    16
 73
    12
 74
     0
 42
0.00000001
 43
0.00000001
 40
0.0
 40
0.0
 40
0.0
 40
0.0
 40
0.0044898899679305
 40
0.0681183301848956
 40
0.1992211707516275
 40
0.3715145266654582
 40
0.5710735143131845
 40
0.7555489916305326
 40
0.9023168914705593
 40
0.9908033906918752
 40
1.0
 40
1.0
 40
1.0
 40
1.0
 10
150.820645048905
 20
109.8955633002826
 30
0.0
 10
150.8239241095117
 20
109.9032628646276
 30
0.0
 10
150.8736723516066
 20
110.0200767442719
 30
0.0
 10
150.8470131750001
 20
109.2759850722494
 30
0.0
 10
150.9104934666487
 20
108.9151802014883
 30
0.0
 10
150.9197592964294
 20
107.9179580690491
 30
0.0
 10
150.9617864146923
 20
106.9873069633021
 30
0.0
 10
150.9708753795061
 20
106.0460490152122
 30
0.0
 10
151.0430120789229
 20
105.3277951067804
 30
0.0
 10
150.9914274366218
 20
104.8803587573054
 30
0.0
 10
151.0638291257802
 20
104.7252849631057
 30
0.0
 10
151.0706455555444
 20
104.7106851707705
 30
0.0
  0
SPLINE
  5
131
330
1F
100
AcDbEntity
  8
0
  6
Continuous
 62
     8
370
    25
100
AcDbSpline
210
0.0
220
0.0
230
1.0
 70
     8
 71
     3
 72
    16
 73
    12
 74
     0
 42
0.00000001
 43
0.00000001
 40
0.0
 40
0.0
 40
0.0
 40
0.0
 40
0.004489890172902
 40
0.0681182646423687
 40
0.1992211111941802
 40
0.37151449797397
 40
0.5710734947319218
 40
0.755548980470906
 40
0.9023168870111504
 40
0.9908033902720336
 40
1.0
 40
1.0
 40
1.0
 40
1.0
 10
151.3206460621839
 20
109.8955633002826
 30
0.0
 10
151.3239251264843
 20
109.9032628654863
 30
0.0
 10
151.3736733744789
 20
110.0200766404292
 30
0.0
 10
151.3470070850767
 20
109.2759846229627
 30
0.0
 10
151.4104913380538
 20
108.9151803180137
 30
0.0
 10
151.4197614121588
 20
107.9179580995097
 30
0.0
 10
151.4617871373786
 20
106.9873069654116
 30
0.0
 10
151.4708764524365
 20
106.0460490147791
 30
0.0
 10
151.5430130834547
 20
105.3277951068439
 30
0.0
 10
151.4914284500264
 20
104.8803587573045
 30
0.0
 10
151.56383013907
 20
104.7252849631056
 30
0.0
 10
151.5706465688234
 20
104.7106851707705
 30
0.0
  0
SPLINE
  5
132
330
1F
100
AcDbEntity
  8
0
  6
Continuous
 62
     8
370
    25
100
AcDbSpline
210
0.0
220
0.0
230
1.0
 70
     8
 71
     3
 72
    16
 73
    12
 74
     0
 42
0.00000001
 43
0.00000001
 40
0.0
 40
0.0
 40
0.0
 40
0.0
 40
0.0044898911646326
 40
0.0681183483406524
 40
0.1992212238505674
 40
0.3715146486866607
 40
0.5710736670513225
 40
0.7555492160109378
 40
0.9023171549693969
 40
0.990803677775251
 40
1.0
 40
1.0
 40
1.0
 40
1.0
 10
151.8206433501726
 20
109.8955633002826
 30
0.0
 10
151.8239224106997
 20
109.9032628646238
 30
0.0
 10
151.8736706515858
 20
110.0200767442101
 30
0.0
 10
151.8470116323396
 20
109.2759850797408
 30
0.0
 10
151.9104904035364
 20
108.9151801131973
 30
0.0
 10
151.9197647678205
 20
107.9179583515275
 30
0.0
 10
151.9617805312496
 20
106.9873063730103
 30
0.0
 10
151.9708816673511
 20
106.0460503693557
 30
0.0
 10
152.0430070403491
 20
105.3277920216477
 30
0.0
 10
151.9914389225431
 20
104.8803635069547
 30
0.0
 10
152.0638287391794
 20
104.7252849912424
 30
0.0
 10
152.0706438568121
 20
104.7106851707705
 30
0.0
  0
SPLINE
  5
133
330
1F
100
AcDbEntity
  8
0
  6
Continuous
 62
     8
370
    25
100
AcDbSpline
210
0.0
220
0.0
230
1.0
 70
     8
 71
     3
 72
    16
 73
    12
 74
     0
 42
0.00000001
 43
0.00000001
 40
0.0
 40
0.0
 40
0.0
 40
0.0
 40
0.0044898900686504
 40
0.0681183317129672
 40
0.1992211752206771
 40
0.3715145349994965
 40
0.5710735271238506
 40
0.755549008579464
 40
0.9023169399593008
 40
0.9908033904855713
 40
1.0
 40
1.0
 40
1.0
 40
1.0
 10
152.3206443634515
 20
109.8955633002826
 30
0.0
 10
152.3239234240608
 20
109.9032628646277
 30
0.0
 10
152.3736716661947
 20
110.0200767442741
 30
0.0
 10
152.3470124845209
 20
109.2759850719888
 30
0.0
 10
152.410492825259
 20
108.9151802037734
 30
0.0
 10
152.4197583800228
 20
107.9179580570725
 30
0.0
 10
152.4617866996754
 20
106.9873070136265
 30
0.0
 10
152.470871677127
 20
106.0460488086465
 30
0.0
 10
152.5430187097007
 20
105.3277954765871
 30
0.0
 10
152.4914266823394
 20
104.8803586693474
 30
0.0
 10
152.5638284311722
 20
104.7252849624601
 30
0.0
 10
152.570644870091
 20
104.7106851707705
 30
0.0
  0
SPLINE
  5
134
330
1F
100
AcDbEntity
  8
0
  6
Continuous
 62
     8
370
    25
100
AcDbSpline
210
0.0
220
0.0
230
1.0
 70
     8
 71
     3
 72
    16
 73
    12
 74
     0
 42
0.00000001
 43
0.00000001
 40
0.0
 40
0.0
 40
0.0
 40
0.0
 40
0.0044898900142602
 40
0.0681183308877869
 40
0.1992211394881888
 40
0.3715145201803173
 40
0.5710735098872293
 40
0.7555489891081207
 40
0.9023168904625986
 40
0.9908033905969784
 40
1.0
 40
1.0
 40
1.0
 40
1.0
 10
152.8206453767305
 20
109.8955633002826
 30
0.0
 10
152.823924436945
 20
109.9032628646171
 30
0.0
 10
152.8736726730889
 20
110.0200767441027
 30
0.0
 10
152.8470142756873
 20
109.2759852172
 30
0.0
 10
152.9104870409174
 20
108.9151799834955
 30
0.0
 10
152.9197619963754
 20
107.9179581938679
 30
0.0
 10
152.9617861177821
 20
106.9873069405791
 30
0.0
 10
152.9708758355744
 20
106.0460490198766
 30
0.0
 10
153.0430123879432
 20
105.3277951060964
 30
0.0
 10
152.9914277647175
 20
104.8803587573152
 30
0.0
 10
153.0638294536291
 20
104.7252849631065
 30
0.0
 10
153.07064588337
 20
104.7106851707705
 30
0.0
  0
SPLINE
  5
135
330
1F
100
AcDbEntity
  8
0
  6
Continuous
 62
     7
370
    25
100
AcDbSpline
210
0.0
220
0.0
230
1.0
 70
     8
 71
     3
 72
    16
 73
    12
 74
     0
 42
0.00000001
 43
0.00000001
 40
0.0
 40
0.0
 40
0.0
 40
0.0
 40
0.0956858872466983
 40
0.1858976359092325
 40
0.3379000113502591
 40
0.4520085338905057
 40
0.5416148083014137
 40
0.6405603108463379
 40
0.7542149858425315
 40
0.8774135105508205
 40
1.0
 40
1.0
 40
1.0
 40
1.0
 10
114.9412693346305
 20
109.5611861325362
 30
0.0
 10
114.9349956976057
 20
109.5966866353946
 30
0.0
 10
114.9228073349847
 20
109.665656676274
 30
0.0
 10
114.8615287996082
 20
109.7783740508333
 30
0.0
 10
114.7612403167166
 20
109.8725372102896
 30
0.0
 10
114.6336823049212
 20
109.920170495131
 30
0.0
 10
114.5186027506311
 20
109.9222578181323
 30
0.0
 10
114.4087314458276
 20
109.8872216038998
 30
0.0
 10
114.306139041121
 20
109.8113431609329
 30
0.0
 10
114.2258303213297
 20
109.6985583045512
 30
0.0
 10
114.2071366904655
 20
109.6076010919777
 30
0.0
 10
114.1978131497664
 20
109.5622357330778
 30
0.0
  0
SPLINE
  5
136
330
1F
100
AcDbEntity
  8
0
  6
Continuous
 62
     7
370
    25
100
AcDbSpline
210
0.0
220
0.0
230
1.0
 70
     8
 71
     3
 72
    24
 73
    20
 74
     0
 42
0.00000001
 43
0.00000001
 40
0.0
 40
0.0
 40
0.0
 40
0.0
 40
0.017433989809713
 40
0.0506146444676129
 40
0.0972153951293037
 40
0.1531198577250354
 40
0.2771299889662794
 40
0.3966928474612488
 40
0.4964048241986734
 40
0.5723301180596903
 40
0.6757007507245342
 40
0.7084714178701248
 40
0.7422000515839361
 40
0.776071497523274
 40
0.8022850089624752
 40
0.8671057561939177
 40
0.920146143027639
 40
0.9878937753584381
 40
1.0
 40
1.0
 40
1.0
 40
1.0
 10
111.8133852148814
 20
105.0948077696868
 30
0.0
 10
111.786390613385
 20
105.1233715902781
 30
0.0
 10
111.7080194446393
 20
105.2062985415751
 30
0.0
 10
111.6609165230181
 20
105.4257976928507
 30
0.0
 10
111.5895164457398
 20
105.7157740764113
 30
0.0
 10
111.5052965305203
 20
106.2149103879885
 30
0.0
 10
111.408178672435
 20
106.8735768232926
 30
0.0
 10
111.3052793156134
 20
107.6311389636118
 30
0.0
 10
111.2128614298251
 20
108.2819459043779
 30
0.0
 10
111.1133555371716
 20
108.8946592233456
 30
0.0
 10
111.022324762737
 20
109.3598702993066
 30
0.0
 10
110.8867750733342
 20
109.7146077310155
 30
0.0
 10
110.7338384300381
 20
109.8906158510843
 30
0.0
 10
110.5116504105825
 20
109.9401663193521
 30
0.0
 10
110.2466362740692
 20
109.8162854606076
 30
0.0
 10
110.1169708801117
 20
109.4930362046127
 30
0.0
 10
110.023061021376
 20
109.0979261980776
 30
0.0
 10
109.9669605052606
 20
108.8053453289698
 30
0.0
 10
109.9395704146974
 20
108.6297459416422
 30
0.0
 10
109.9354179466529
 20
108.6031242390656
 30
0.0
  0
SPLINE
  5
137
330
1F
100
AcDbEntity
  8
0
  6
Continuous
 62
     7
370
    25
100
AcDbSpline
210
0.0
220
0.0
230
1.0
 70
     8
 71
     3
 72
    24
 73
    20
 74
     0
 42
0.00000001
 43
0.00000001
 40
0.0
 40
0.0
 40
0.0
 40
0.0
 40
0.004914056351334
 40
0.0276512572564505
 40
0.06970293028054
 40
0.1353316046157057
 40
0.2259906224516467
 40
0.3285988755115273
 40
0.4318773440915407
 40
0.5282793822934847
 40
0.6104310776222904
 40
0.7068396824621653
 40
0.7323773093818454
 40
0.7529275686839594
 40
0.7713910456511341
 40
0.7956168757550365
 40
0.8753030474500489
 40
0.9380108328513932
 40
1.0
 40
1.0
 40
1.0
 40
1.0
 10
109.6694210434718
 20
105.2801707643577
 30
0.0
 10
109.6718620024234
 20
105.2905692640951
 30
0.0
 10
109.6855972099785
 20
105.3490813304538
 30
0.0
 10
109.612668853815
 20
105.4930534612789
 30
0.0
 10
109.579096368052
 20
105.7687445182225
 30
0.0
 10
109.4947511695167
 20
106.1889146359216
 30
0.0
 10
109.4179449272516
 20
106.7400959881475
 30
0.0
 10
109.3293071039337
 20
107.3722941668385
 30
0.0
 10
109.2397204700809
 20
108.0158113520522
 30
0.0
 10
109.1508682797152
 20
108.6178223439954
 30
0.0
 10
109.0367661041814
 20
109.1917461758539
 30
0.0
 10
108.9466974565901
 20
109.6425387723555
 30
0.0
 10
108.7293584271499
 20
109.8707108258102
 30
0.0
 10
108.5958293490732
 20
109.921199238769
 30
0.0
 10
108.4565220697988
 20
109.9202779453041
 30
0.0
 10
108.2127326828736
 20
109.793143122176
 30
0.0
 10
108.0855161678693
 20
109.4215721767632
 30
0.0
 10
107.9900962924951
 20
109.0011921602655
 30
0.0
 10
107.9465566591836
 20
108.7353027799427
 30
0.0
 10
107.9249123001857
 20
108.6031242390656
 30
0.0
  0
SPLINE
  5
138
330
1F
100
AcDbEntity
  8
0
  6
Continuous
 62
     7
370
    25
100
AcDbSpline
210
0.0
220
0.0
230
1.0
 70
     8
 71
     3
 72
    18
 73
    14
 74
     0
 42
0.00000001
 43
0.00000001
 40
0.0
 40
0.0
 40
0.0
 40
0.0
 40
0.0017097547997463
 40
0.0253273773424246
 40
0.0875739983749407
 40
0.2056887243274395
 40
0.3926885701071575
 40
0.5095622433455034
 40
0.6354458801693076
 40
0.7609467086264609
 40
0.8734263001684174
 40
0.9574344347667652
 40
1.0
 40
1.0
 40
1.0
 40
1.0
 10
107.6671520138545
 20
105.2633066080072
 30
0.0
 10
107.6698810444144
 20
105.2631988597715
 30
0.0
 10
107.7103074182897
 20
105.2616027360329
 30
0.0
 10
107.5823978400829
 20
105.466366572121
 30
0.0
 10
107.5988460941652
 20
105.6992591916779
 30
0.0
 10
107.4513114450429
 20
106.2992150373979
 30
0.0
 10
107.3841577874143
 20
106.9175634499511
 30
0.0
 10
107.2905356948203
 20
107.5719284276493
 30
0.0
 10
107.212122246304
 20
108.1272959951534
 30
0.0
 10
107.1312470385886
 20
108.6793792054457
 30
0.0
 10
107.0295359823919
 20
109.1553243773608
 30
0.0
 10
106.969900071691
 20
109.5282244502863
 30
0.0
 10
106.8471041506444
 20
109.6803146930763
 30
0.0
 10
106.8058090174956
 20
109.731461235837
 30
0.0
  0
SPLINE
  5
139
330
1F
100
AcDbEntity
  8
0
  6
Continuous
 62
     7
370
    25
100
AcDbSpline
210
0.0
220
0.0
230
1.0
 70
     8
 71
     3
 72
    12
 73
     8
 74
     0
 42
0.00000001
 43
0.00000001
 40
0.0
 40
0.0
 40
0.0
 40
0.0
 40
0.1048049032527168
 40
0.3209179728323071
 40
0.6311356578539583
 40
0.9982071549625872
 40
1.0
 40
1.0
 40
1.0
 40
1.0
 10
111.7985473836226
 20
104.8546760227093
 30
0.0
 10
111.8359501470912
 20
104.8784218084788
 30
0.0
 10
111.9504793213772
 20
104.9511326187173
 30
0.0
 10
112.0022216920887
 20
105.228471756493
 30
0.0
 10
112.0950649926022
 20
105.5736532614303
 30
0.0
 10
112.1418879007838
 20
105.8524289019179
 30
0.0
 10
112.1651333509079
 20
106.0023953283428
 30
0.0
 10
112.1652463341517
 20
106.0031242319875
 30
0.0
  0
SPLINE
  5
13A
330
1F
100
AcDbEntity
  8
0
  6
Continuous
 62
     7
370
    25
100
AcDbSpline
210
0.0
220
0.0
230
1.0
 70
     8
 71
     3
 72
    25
 73
    21
 74
     0
 42
0.00000001
 43
0.00000001
 40
0.0
 40
0.0
 40
0.0
 40
0.0
 40
0.0013841390932454
 40
0.0088591828202772
 40
0.0263645100988316
 40
0.0806644339993468
 40
0.1571383044199428
 40
0.251758915347089
 40
0.3566259762357527
 40
0.4575070557760126
 40
0.5468061545562309
 40
0.6198543290833602
 40
0.6737310221906547
 40
0.7115834371781592
 40
0.7411903801383405
 40
0.7592283911708887
 40
0.7819902474127285
 40
0.8305813805839211
 40
0.927021386041433
 40
1.0
 40
1.0
 40
1.0
 40
1.0
 10
112.4201791251464
 20
109.3425386003711
 30
0.0
 10
112.4169602620828
 20
109.3434847641513
 30
0.0
 10
112.3963579277561
 20
109.3495406858051
 30
0.0
 10
112.4432153393518
 20
109.2580741251294
 30
0.0
 10
112.4566494628346
 20
109.1328339812566
 30
0.0
 10
112.5472354495601
 20
108.7847713682733
 30
0.0
 10
112.6139098169197
 20
108.3200574780063
 30
0.0
 10
112.7043181307871
 20
107.7233101053618
 30
0.0
 10
112.7909824142252
 20
107.0815266510079
 30
0.0
 10
112.8799677463843
 20
106.4490209471337
 30
0.0
 10
112.9674151531568
 20
105.886564788534
 30
0.0
 10
113.0552891458933
 20
105.4268605184522
 30
0.0
 10
113.144660156791
 20
105.0818227879559
 30
0.0
 10
113.255601869397
 20
104.8397004256909
 30
0.0
 10
113.4024427591775
 20
104.7139643482629
 30
0.0
 10
113.5539443412113
 20
104.6775408299985
 30
0.0
 10
113.7514242280989
 20
104.7175749323274
 30
0.0
 10
114.0040734753132
 20
105.0164570244917
 30
0.0
 10
114.0821325538027
 20
105.4887669595543
 30
0.0
 10
114.1481830299886
 20
105.8482665205397
 30
0.0
 10
114.1766348744197
 20
106.0031242319875
 30
0.0
  0
SPLINE
  5
13B
330
1F
100
AcDbEntity
  8
0
  6
Continuous
 62
     7
370
    25
100
AcDbSpline
210
0.0
220
0.0
230
1.0
 70
     8
 71
     3
 72
    16
 73
    12
 74
     0
 42
0.00000001
 43
0.00000001
 40
0.0
 40
0.0
 40
0.0
 40
0.0
 40
0.0960156369337101
 40
0.1865122050885747
 40
0.3389074783089724
 40
0.4531923563673804
 40
0.5428294302921846
 40
0.6416899201837332
 40
0.7551207489670502
 40
0.8779407571440809
 40
1.0
 40
1.0
 40
1.0
 40
1.0
 10
106.8983824814124
 20
109.55795001942
 30
0.0
 10
106.8920654160251
 20
109.5935739230399
 30
0.0
 10
106.8797943960882
 20
109.6627740349194
 30
0.0
 10
106.8183957224916
 20
109.7758717546858
 30
0.0
 10
106.7180147345594
 20
109.8704257425188
 30
0.0
 10
106.5903357271739
 20
109.9184389617337
 30
0.0
 10
106.475191821188
 20
109.920810854123
 30
0.0
 10
106.3653290451142
 20
109.8860044830998
 30
0.0
 10
106.2628149408739
 20
109.8104207070233
 30
0.0
 10
106.1826115093189
 20
109.6980337177459
 30
0.0
 10
106.1640361237069
 20
109.6073778904007
 30
0.0
 10
106.1547772849364
 20
109.5621907967635
 30
0.0
  0
SPLINE
  5
13C
330
1F
100
AcDbEntity
  8
0
  6
Continuous
 62
     7
370
    25
100
AcDbSpline
210
0.0
220
0.0
230
1.0
 70
     8
 71
     3
 72
    17
 73
    13
 74
     0
 42
0.00000001
 43
0.00000001
 40
0.0
 40
0.0
 40
0.0
 40
0.0
 40
0.1279874448223611
 40
0.2678448794892903
 40
0.3708855480232944
 40
0.4435410159007767
 40
0.5006412546337752
 40
0.5356660422418518
 40
0.5801379591626743
 40
0.6752616546391456
 40
0.8625132992464948
 40
0.9999999999999999
 40
0.9999999999999999
 40
0.9999999999999999
 40
0.9999999999999999
 10
104.8660950625701
 20
106.268503435471
 30
0.0
 10
104.8878845185686
 20
106.1268800542682
 30
0.0
 10
104.9334842586381
 20
105.8304986590167
 30
0.0
 10
105.0126847942082
 20
105.4225587132646
 30
0.0
 10
105.1015672530397
 20
105.0806079887032
 30
0.0
 10
105.2122942730883
 20
104.8403949856656
 30
0.0
 10
105.3589441280794
 20
104.7152062064563
 30
0.0
 10
105.5112233955129
 20
104.6788636383557
 30
0.0
 10
105.7107297123672
 20
104.7210710379149
 30
0.0
 10
105.9622553088529
 20
105.0249529225608
 30
0.0
 10
106.0394531767964
 20
105.4952038393432
 30
0.0
 10
106.1047059125599
 20
105.8520456618903
 30
0.0
 10
106.1323324108882
 20
106.0031242319875
 30
0.0
  0
SPLINE
  5
13D
330
1F
100
AcDbEntity
  8
0
  6
Continuous
 62
     7
370
    25
100
AcDbSpline
210
0.0
220
0.0
230
1.0
 70
     8
 71
     3
 72
    12
 73
     8
 74
     0
 42
0.00000001
 43
0.00000001
 40
0.0
 40
0.0
 40
0.0
 40
0.0
 40
0.0717767757538268
 40
0.2112366320186055
 40
0.4092784017214789
 40
0.6483094219365277
 40
1.0
 40
1.0
 40
1.0
 40
1.0
 10
95.72823363192511
 20
105.0994071062216
 30
0.0
 10
95.70133804060943
 20
105.1254338325002
 30
0.0
 10
95.6221852218041
 20
105.202029610784
 30
0.0
 10
95.57642312780443
 20
105.4168198616055
 30
0.0
 10
95.50491718766288
 20
105.7001942785423
 30
0.0
 10
95.43614618862881
 20
106.1015875599415
 30
0.0
 10
95.39223877393457
 20
106.4016521240718
 30
0.0
 10
95.36609816201162
 20
106.5802978352205
 30
0.0
  0
SPLINE
  5
13E
330
1F
100
AcDbEntity
  8
0
  6
Continuous
 62
     7
370
    25
100
AcDbSpline
210
0.0
220
0.0
230
1.0
 70
     8
 71
     3
 72
    16
 73
    12
 74
     0
 42
0.00000001
 43
0.00000001
 40
0.0
 40
0.0
 40
0.0
 40
0.0
 40
0.1267308324607128
 40
0.3385360537339316
 40
0.4741239739516284
 40
0.545044874276064
 40
0.5987382130320832
 40
0.7291464835013584
 40
0.834905264285135
 40
0.9702997610506277
 40
0.9999999999999999
 40
0.9999999999999999
 40
0.9999999999999999
 40
0.9999999999999999
 10
95.10397928603125
 20
108.3986630780184
 30
0.0
 10
95.08190792947485
 20
108.5362109417094
 30
0.0
 10
95.02294871801799
 20
108.9036425293456
 30
0.0
 10
94.93256491156191
 20
109.400108198547
 30
0.0
 10
94.73192933487356
 20
109.8623879935714
 30
0.0
 10
94.42695961236045
 20
109.9388263329149
 30
0.0
 10
94.16059433309911
 20
109.8144882065573
 30
0.0
 10
94.0307143611082
 20
109.4958833973076
 30
0.0
 10
93.93748501058703
 20
109.1068338224043
 30
0.0
 10
93.88088807204414
 20
108.8137465668068
 30
0.0
 10
93.85292403292158
 20
108.6352376622828
 30
0.0
 10
93.84789335377646
 20
108.6031242390656
 30
0.0
  0
SPLINE
  5
13F
330
1F
100
AcDbEntity
  8
0
  6
Continuous
 62
     7
370
    25
100
AcDbSpline
210
0.0
220
0.0
230
1.0
 70
     8
 71
     3
 72
    11
 73
     7
 74
     0
 42
0.00000001
 43
0.00000001
 40
0.0
 40
0.0
 40
0.0
 40
0.0
 40
0.0555161802679312
 40
0.3540092879600233
 40
0.9163651763257606
 40
1.0
 40
1.0
 40
1.0
 40
1.0
 10
93.58309226878119
 20
105.2811228088596
 30
0.0
 10
93.58569103152026
 20
105.2895764155883
 30
0.0
 10
93.60226252729673
 20
105.3434824171229
 30
0.0
 10
93.52486002242277
 20
105.4829490447324
 30
0.0
 10
93.51180749816368
 20
105.6282744854703
 30
0.0
 10
93.49358573654095
 20
105.7284265750855
 30
0.0
 10
93.4912266100211
 20
105.7413930190288
 30
0.0
  0
SPLINE
  5
140
330
1F
100
AcDbEntity
  8
0
  6
Continuous
 62
     7
370
    25
100
AcDbSpline
210
0.0
220
0.0
230
1.0
 70
     8
 71
     3
 72
    17
 73
    13
 74
     0
 42
0.00000001
 43
0.00000001
 40
0.0
 40
0.0
 40
0.0
 40
0.0
 40
0.0715345184307674
 40
0.2353845047684567
 40
0.426057986839009
 40
0.4757982642821207
 40
0.5159359605832926
 40
0.5520837499098019
 40
0.5989645346513963
 40
0.7513261380089367
 40
0.8722515946159677
 40
1.0
 40
1.0
 40
1.0
 40
1.0
 10
93.09142100460959
 20
108.3986630780184
 30
0.0
 10
93.07981317833797
 20
108.4763572493533
 30
0.0
 10
93.04161759810175
 20
108.7320101068022
 30
0.0
 10
92.94896231914407
 20
109.183977946715
 30
0.0
 10
92.85975573968855
 20
109.6401817066567
 30
0.0
 10
92.64069658747954
 20
109.8681231395476
 30
0.0
 10
92.50779275544762
 20
109.9181095922079
 30
0.0
 10
92.36960499458252
 20
109.9172075135658
 30
0.0
 10
92.1298287531129
 20
109.7946758259058
 30
0.0
 10
92.00103240365954
 20
109.4323963669743
 30
0.0
 10
91.90470240625112
 20
109.0120986361048
 30
0.0
 10
91.86005299647628
 20
108.7419200319632
 30
0.0
 10
91.83711576111746
 20
108.6031242390656
 30
0.0
  0
SPLINE
  5
141
330
1F
100
AcDbEntity
  8
0
  6
Continuous
 62
     7
370
    25
100
AcDbSpline
210
0.0
220
0.0
230
1.0
 70
     8
 71
     3
 72
    11
 73
     7
 74
     0
 42
0.00000001
 43
0.00000001
 40
0.0
 40
0.0
 40
0.0
 40
0.0
 40
0.1986289998815376
 40
0.5725808230273912
 40
0.854370859794642
 40
1.0
 40
1.0
 40
1.0
 40
1.0
 10
91.08093398459386
 20
108.3986630780184
 30
0.0
 10
91.06739531375838
 20
108.4896675812744
 30
0.0
 10
91.0283678641196
 20
108.7520030579903
 30
0.0
 10
90.94587286351883
 20
109.1346302564231
 30
0.0
 10
90.88501340482772
 20
109.5115505625863
 30
0.0
 10
90.76425640790694
 20
109.6705463117063
 30
0.0
 10
90.723112400846
 20
109.7247189260581
 30
0.0
  0
SPLINE
  5
142
330
1F
100
AcDbEntity
  8
0
  6
Continuous
 62
     7
370
    25
100
AcDbSpline
210
0.0
220
0.0
230
1.0
 70
     8
 71
     3
 72
    11
 73
     7
 74
     0
 42
0.00000001
 43
0.00000001
 40
0.0
 40
0.0
 40
0.0
 40
0.0
 40
0.1092176537112507
 40
0.3317784199656495
 40
0.6482114851420796
 40
1.0
 40
1.0
 40
1.0
 40
1.0
 10
95.71685659535359
 20
104.8605279881069
 30
0.0
 10
95.75399307762332
 20
104.8870217840356
 30
0.0
 10
95.86680527411221
 20
104.9675039172204
 30
0.0
 10
95.91915001050438
 20
105.2468004506107
 30
0.0
 10
96.00986448373803
 20
105.5901084226576
 30
0.0
 10
96.05370607404245
 20
105.8606803298099
 30
0.0
 10
96.0767866934104
 20
106.0031242319875
 30
0.0
  0
SPLINE
  5
143
330
1F
100
AcDbEntity
  8
0
  6
Continuous
 62
     7
370
    25
100
AcDbSpline
210
0.0
220
0.0
230
1.0
 70
     8
 71
     3
 72
    21
 73
    17
 74
     0
 42
0.00000001
 43
0.00000001
 40
0.0
 40
0.0
 40
0.0
 40
0.0
 40
0.0022542828269844
 40
0.0132010317556666
 40
0.0374200966593478
 40
0.1118560615656928
 40
0.2159887545043961
 40
0.3439517822253502
 40
0.4848130646958579
 40
0.6194521007940158
 40
0.7379030829944708
 40
0.8342839871286025
 40
0.9052158734901657
 40
0.9554115436668607
 40
0.9950497222705128
 40
1.0
 40
1.0
 40
1.0
 40
1.0
 10
96.3335187996192
 20
109.3393418356338
 30
0.0
 10
96.329552349857
 20
109.3404148927067
 30
0.0
 10
96.30632490534947
 20
109.3466986918495
 30
0.0
 10
96.35788649500343
 20
109.2518174952392
 30
0.0
 10
96.36991913309487
 20
109.120104105773
 30
0.0
 10
96.46266985352436
 20
108.7679963324758
 30
0.0
 10
96.52924192747514
 20
108.2963298317737
 30
0.0
 10
96.62012039740189
 20
107.6964310176952
 30
0.0
 10
96.70677669920674
 20
107.0545719280355
 30
0.0
 10
96.79562032690575
 20
106.4261806899989
 30
0.0
 10
96.88249545176427
 20
105.8699502345076
 30
0.0
 10
96.97006924848601
 20
105.4191557283615
 30
0.0
 10
97.0579133676617
 20
105.0772070134777
 30
0.0
 10
97.17043241902148
 20
104.8462311920781
 30
0.0
 10
97.28774817380733
 20
104.7281948195383
 30
0.0
 10
97.35826579211435
 20
104.7135715424754
 30
0.0
 10
97.36609476454687
 20
104.7119480441817
 30
0.0
  0
SPLINE
  5
144
330
1F
100
AcDbEntity
  8
0
  6
Continuous
 62
     7
370
    25
100
AcDbSpline
210
0.0
220
0.0
230
1.0
 70
     8
 71
     3
 72
    16
 73
    12
 74
     0
 42
0.00000001
 43
0.00000001
 40
0.0
 40
0.0
 40
0.0
 40
0.0
 40
0.0966724133888962
 40
0.1877334963315417
 40
0.3409058500099324
 40
0.4555279629502081
 40
0.5452092839653774
 40
0.6438824359117624
 40
0.7568666768047537
 40
0.8789486713235177
 40
1.0
 40
1.0
 40
1.0
 40
1.0
 10
90.81272053368521
 20
109.5512100379475
 30
0.0
 10
90.80631451701262
 20
109.5870993846843
 30
0.0
 10
90.79387431959388
 20
109.6567948883731
 30
0.0
 10
90.732221499759
 20
109.7707180135621
 30
0.0
 10
90.63162941964062
 20
109.8661154338201
 30
0.0
 10
90.5036691227939
 20
109.9149445691164
 30
0.0
 10
90.38835216195221
 20
109.9179000061427
 30
0.0
 10
90.27846491449253
 20
109.883518327327
 30
0.0
 10
90.17606680060256
 20
109.8084609812641
 30
0.0
 10
90.09604745483819
 20
109.6967714694252
 30
0.0
 10
90.07768429887925
 20
109.6066492456368
 30
0.0
 10
90.06854164250326
 20
109.5617791521856
 30
0.0
  0
SPLINE
  5
145
330
1F
100
AcDbEntity
  8
0
  6
Continuous
 62
     7
370
    25
100
AcDbSpline
210
0.0
220
0.0
230
1.0
 70
     8
 71
     3
 72
    11
 73
     7
 74
     0
 42
0.00000001
 43
0.00000001
 40
0.0
 40
0.0
 40
0.0
 40
0.0
 40
0.1115476457474849
 40
0.3373575828898168
 40
0.656906391025835
 40
0.9999999999999999
 40
0.9999999999999999
 40
0.9999999999999999
 40
0.9999999999999999
 10
87.67592924483252
 20
104.8634951818296
 30
0.0
 10
87.7129413892371
 20
104.8913512881859
 30
0.0
 10
87.82487855734342
 20
104.9755975189883
 30
0.0
 10
87.87762758575754
 20
105.2560550551045
 30
0.0
 10
87.96693695080262
 20
105.5977926583419
 30
0.0
 10
88.0101678184966
 20
105.8648507001398
 30
0.0
 10
88.03255128510428
 20
106.0031242319875
 30
0.0
  0
SPLINE
  5
146
330
1F
100
AcDbEntity
  8
0
  6
Continuous
 62
     7
370
    25
100
AcDbSpline
210
0.0
220
0.0
230
1.0
 70
     8
 71
     3
 72
    17
 73
    13
 74
     0
 42
0.00000001
 43
0.00000001
 40
0.0
 40
0.0
 40
0.0
 40
0.0
 40
0.0031353676139038
 40
0.0181915001458219
 40
0.0506513268527046
 40
0.1499758531345642
 40
0.2884657430765785
 40
0.4580694116538788
 40
0.6441375407080583
 40
0.8214169747523368
 40
0.976903326786609
 40
1.0
 40
1.0
 40
1.0
 40
1.0
 10
88.28987198718023
 20
109.3379183090785
 30
0.0
 10
88.28567105006037
 20
109.3389576459419
 30
0.0
 10
88.26129708259008
 20
109.3449879106604
 30
0.0
 10
88.31530802585056
 20
109.2486728826902
 30
0.0
 10
88.32646319589638
 20
109.1137247189994
 30
0.0
 10
88.42043389429277
 20
108.7595661424099
 30
0.0
 10
88.48686177734648
 20
108.2844448217132
 30
0.0
 10
88.57815916697162
 20
107.683003253267
 30
0.0
 10
88.66415325291244
 20
107.0410713426564
 30
0.0
 10
88.75519159590812
 20
106.4149920634423
 30
0.0
 10
88.81694921025493
 20
105.9855403803193
 30
0.0
 10
88.86046448075147
 20
105.7722881416562
 30
0.0
 10
88.86609243996571
 20
105.7447075960719
 30
0.0
  0
SPLINE
  5
147
330
1F
100
AcDbEntity
  8
0
  6
Continuous
 62
     7
370
    25
100
AcDbSpline
210
0.0
220
0.0
230
1.0
 70
     8
 71
     3
 72
    22
 73
    18
 74
     0
 42
0.00000001
 43
0.00000001
 40
0.0
 40
0.0
 40
0.0
 40
0.0
 40
0.0160177831944892
 40
0.0473987654274843
 40
0.0922382479750874
 40
0.1465982611153528
 40
0.2685069366265153
 40
0.3874395378433491
 40
0.4877312816762966
 40
0.5647298760342621
 40
0.6703170272666993
 40
0.7373937801424268
 40
0.7733057686331012
 40
0.8001920679243048
 40
0.8617947610110384
 40
0.9753963836895783
 40
1.0
 40
1.0
 40
1.0
 40
1.0
 10
87.6856149996085
 20
105.1018944359877
 30
0.0
 10
87.65897865979692
 20
105.1262925518487
 30
0.0
 10
87.58015816339942
 20
105.1984898438538
 30
0.0
 10
87.53522230120694
 20
105.4083520537922
 30
0.0
 10
87.46402836154525
 20
105.6848935271075
 30
0.0
 10
87.38079909777271
 20
106.1710373949756
 30
0.0
 10
87.28411141585705
 20
106.8178080285214
 30
0.0
 10
87.181800628784
 20
107.5689041806857
 30
0.0
 10
87.09022897918639
 20
108.2189055736116
 30
0.0
 10
86.98973662845188
 20
108.8422356800254
 30
0.0
 10
86.89153943103106
 20
109.3732891582863
 30
0.0
 10
86.70593935381531
 20
109.8414055329183
 30
0.0
 10
86.40360584913785
 20
109.9396321931693
 30
0.0
 10
86.1324907611367
 20
109.8298200921715
 30
0.0
 10
85.93700613466129
 20
109.3870463543453
 30
0.0
 10
85.86223902901486
 20
108.9604404792957
 30
0.0
 10
85.8132380329047
 20
108.6571217422109
 30
0.0
 10
85.80451476223897
 20
108.6031242390656
 30
0.0
  0
SPLINE
  5
148
330
1F
100
AcDbEntity
  8
0
  6
Continuous
 62
     7
370
    25
100
AcDbSpline
210
0.0
220
0.0
230
1.0
 70
     8
 71
     3
 72
    24
 73
    20
 74
     0
 42
0.00000001
 43
0.00000001
 40
0.0
 40
0.0
 40
0.0
 40
0.0
 40
0.0051238005083221
 40
0.031588072661812
 40
0.0785777759219848
 40
0.1496766659173013
 40
0.2438035792302678
 40
0.3468955122902485
 40
0.4499420590613017
 40
0.5451776743816659
 40
0.6249567389280792
 40
0.7128103697062244
 40
0.7365662074873781
 40
0.7562562485853083
 40
0.7749497593128137
 40
0.7999204007355467
 40
0.8801028313923629
 40
0.9437507391093782
 40
1.0
 40
1.0
 40
1.0
 40
1.0
 10
85.53835767157507
 20
105.2854364621946
 30
0.0
 10
85.54055889764425
 20
105.2963110421487
 30
0.0
 10
85.55412938870951
 20
105.363352493353
 30
0.0
 10
85.47213004724108
 20
105.5245783193315
 30
0.0
 10
85.43684741646692
 20
105.8304945240884
 30
0.0
 10
85.34899776617283
 20
106.2792247147066
 30
0.0
 10
85.27078999413634
 20
106.8496001237186
 30
0.0
 10
85.18150766982863
 20
107.4884903183351
 30
0.0
 10
85.09147792117176
 20
108.1284399346014
 30
0.0
 10
85.00084418272628
 20
108.7214315492587
 30
0.0
 10
84.88859581930953
 20
109.2661617821422
 30
0.0
 10
84.78958610745279
 20
109.6907065865472
 30
0.0
 10
84.57068088547166
 20
109.8811884167907
 30
0.0
 10
84.43953597565398
 20
109.919842690613
 30
0.0
 10
84.30043593475507
 20
109.909289018043
 30
0.0
 10
84.06532781447284
 20
109.7624603296044
 30
0.0
 10
83.94656935460472
 20
109.3900589748786
 30
0.0
 10
83.85464590235244
 20
108.9776994888961
 30
0.0
 10
83.81318222961596
 20
108.7227382500388
 30
0.0
 10
83.79372971899939
 20
108.6031242390656
 30
0.0
  0
SPLINE
  5
149
330
1F
100
AcDbEntity
  8
0
  6
Continuous
 62
     7
370
    25
100
AcDbSpline
210
0.0
220
0.0
230
1.0
 70
     8
 71
     3
 72
    18
 73
    14
 74
     0
 42
0.00000001
 43
0.00000001
 40
0.0
 40
0.0
 40
0.0
 40
0.0
 40
0.0018035487930533
 40
0.0259989403848873
 40
0.0879664276691424
 40
0.2052624787684623
 40
0.3907944431709075
 40
0.5068512584074432
 40
0.6320634249781285
 40
0.7572744764120627
 40
0.8701384477100302
 40
0.9554368777695352
 40
1.0
 40
1.0
 40
1.0
 40
1.0
 10
83.53532123215628
 20
105.2681713714757
 30
0.0
 10
83.53818309712426
 20
105.2683023740609
 30
0.0
 10
83.57943812553206
 20
105.2701908333125
 30
0.0
 10
83.45008339093908
 20
105.4681203027057
 30
0.0
 10
83.46670024771898
 20
105.7065326896931
 30
0.0
 10
83.32033603766844
 20
106.2951501484262
 30
0.0
 10
83.25367762737336
 20
106.9083596535804
 30
0.0
 10
83.160892307323
 20
107.5550976765426
 30
0.0
 10
83.08331686397935
 20
108.1057047316918
 30
0.0
 10
83.00274375519568
 20
108.6542426608049
 30
0.0
 10
82.9032130661279
 20
109.1316543417709
 30
0.0
 10
82.84121746142507
 20
109.506150070376
 30
0.0
 10
82.72247174180453
 20
109.6663141337724
 30
0.0
 10
82.68172311432791
 20
109.7212758264997
 30
0.0
  0
SPLINE
  5
14A
330
1F
100
AcDbEntity
  8
0
  6
Continuous
 62
     7
370
    25
100
AcDbSpline
210
0.0
220
0.0
230
1.0
 70
     8
 71
     3
 72
    16
 73
    12
 74
     0
 42
0.00000001
 43
0.00000001
 40
0.0
 40
0.0
 40
0.0
 40
0.0
 40
0.0969977499069018
 40
0.1883380194280825
 40
0.3418840913603892
 40
0.4566652148876403
 40
0.5463654122211217
 40
0.6449354240760565
 40
0.7576966974685968
 40
0.8794275341312875
 40
0.9999999999999999
 40
0.9999999999999999
 40
0.9999999999999999
 40
0.9999999999999999
 10
82.76994543917608
 20
109.5477108262041
 30
0.0
 10
82.76349273665984
 20
109.5837420846044
 30
0.0
 10
82.75096369126409
 20
109.6537030460815
 30
0.0
 10
82.6891721475076
 20
109.7680646957266
 30
0.0
 10
82.58847256622234
 20
109.8639214398966
 30
0.0
 10
82.460349920492
 20
109.913182952443
 30
0.0
 10
82.34492221420065
 20
109.9164360232612
 30
0.0
 10
82.2349982607297
 20
109.8822477151445
 30
0.0
 10
82.13264011221253
 20
109.8074149281755
 30
0.0
 10
82.05267982595763
 20
109.6960317693089
 30
0.0
 10
82.03441547924056
 20
109.6061346906593
 30
0.0
 10
82.0253269637389
 20
109.5614010352203
 30
0.0
  0
SPLINE
  5
14B
330
1F
100
AcDbEntity
  8
0
  6
Continuous
 62
     7
370
    25
100
AcDbSpline
210
0.0
220
0.0
230
1.0
 70
     8
 71
     3
 72
    22
 73
    18
 74
     0
 42
0.00000001
 43
0.00000001
 40
0.0
 40
0.0
 40
0.0
 40
0.0
 40
0.0156155481997938
 40
0.0465233209208995
 40
0.0909454120849491
 40
0.1449711750712187
 40
0.2664826872613958
 40
0.3853369842710379
 40
0.4857665233888089
 40
0.563004521806494
 40
0.6690693570767965
 40
0.736782972333394
 40
0.7732344276938451
 40
0.8002487499107734
 40
0.8615760681009654
 40
0.974195916599323
 40
1.0
 40
1.0
 40
1.0
 40
1.0
 10
79.64297401555014
 20
105.1045081927934
 30
0.0
 10
79.61639529566459
 20
105.1276407284743
 30
0.0
 10
79.53720945479104
 20
105.1965593708064
 30
0.0
 10
79.49294834099932
 20
105.4042397658376
 30
0.0
 10
79.42165973195752
 20
105.6773847714242
 30
0.0
 10
79.33861546208391
 20
106.160838856994
 30
0.0
 10
79.24192787773485
 20
106.8052335919118
 30
0.0
 10
79.13973987473067
 20
107.5551093083048
 30
0.0
 10
79.04813368184914
 20
108.2053275007299
 30
0.0
 10
78.94788282077776
 20
108.8301658442297
 30
0.0
 10
78.84887688969656
 20
109.3638132575955
 30
0.0
 10
78.66613040770724
 20
109.836017086425
 30
0.0
 10
78.36157285247532
 20
109.9387439797809
 30
0.0
 10
78.08936122791964
 20
109.8289795508622
 30
0.0
 10
77.89416515308805
 20
109.3896764069881
 30
0.0
 10
77.81910601846243
 20
108.9632940902032
 30
0.0
 10
77.7698929216048
 20
108.6597153928965
 30
0.0
 10
77.76071893818808
 20
108.6031242390656
 30
0.0
  0
SPLINE
  5
14C
330
1F
100
AcDbEntity
  8
0
  6
Continuous
 62
     7
370
    25
100
AcDbSpline
210
0.0
220
0.0
230
1.0
 70
     8
 71
     3
 72
    20
 73
    16
 74
     0
 42
0.00000001
 43
0.00000001
 40
0.0
 40
0.0
 40
0.0
 40
0.0
 40
0.0055953901564555
 40
0.0392180488209129
 40
0.0993991559215445
 40
0.1908351388623853
 40
0.3122425647003854
 40
0.4457092564254259
 40
0.5795948932664279
 40
0.7036751722244902
 40
0.8077633456098152
 40
0.9216124773555446
 40
0.9521774833685892
 40
0.9775881175385067
 40
1.0
 40
1.0
 40
1.0
 40
1.0
 10
77.49346661217642
 20
105.2885603509405
 30
0.0
 10
77.49633836849131
 20
105.2975054115956
 30
0.0
 10
77.51646648756967
 20
105.3602012765256
 30
0.0
 10
77.42524818270438
 20
105.5198236759769
 30
0.0
 10
77.39701671088937
 20
105.8214455769947
 30
0.0
 10
77.30584117843617
 20
106.2682896515755
 30
0.0
 10
77.22896698960244
 20
106.8370457604489
 30
0.0
 10
77.13907608081153
 20
107.4765356284501
 30
0.0
 10
77.04885122397053
 20
108.1189513798869
 30
0.0
 10
76.9576967876638
 20
108.7160176632175
 30
0.0
 10
76.84501487829495
 20
109.263230358504
 30
0.0
 10
76.74541829276795
 20
109.6911752895136
 30
0.0
 10
76.52647542077382
 20
109.8789986430132
 30
0.0
 10
76.39774524616267
 20
109.9200455463463
 30
0.0
 10
76.31855547028117
 20
109.907394137274
 30
0.0
 10
76.28144341357184
 20
109.9014650914379
 30
0.0
  0
SPLINE
  5
14D
330
1F
100
AcDbEntity
  8
0
  6
Continuous
 62
     7
370
    25
100
AcDbSpline
210
0.0
220
0.0
230
1.0
 70
     8
 71
     3
 72
    11
 73
     7
 74
     0
 42
0.00000001
 43
0.00000001
 40
0.0
 40
0.0
 40
0.0
 40
0.0
 40
0.1139498045260263
 40
0.3430309047537903
 40
0.6657027125654579
 40
1.0
 40
1.0
 40
1.0
 40
1.0
 10
79.63494974024725
 20
104.866492643536
 30
0.0
 10
79.67183920746663
 20
104.8957049441243
 30
0.0
 10
79.7828900984163
 20
104.9836447343013
 30
0.0
 10
79.83609697265615
 20
105.265347774969
 30
0.0
 10
79.92402229009804
 20
105.605462215727
 30
0.0
 10
79.96664321402429
 20
105.8690156455628
 30
0.0
 10
79.98833077795935
 20
106.0031242319875
 30
0.0
  0
SPLINE
  5
14E
330
1F
100
AcDbEntity
  8
0
  6
Continuous
 62
     7
370
    25
100
AcDbSpline
210
0.0
220
0.0
230
1.0
 70
     8
 71
     3
 72
    25
 73
    21
 74
     0
 42
0.00000001
 43
0.00000001
 40
0.0
 40
0.0
 40
0.0
 40
0.0
 40
0.0018195031055468
 40
0.0106565595304956
 40
0.0292545870963152
 40
0.0859188382670391
 40
0.1646662240493131
 40
0.260778271274222
 40
0.3658644877173807
 40
0.4656668495399865
 40
0.552931927231673
 40
0.6235588671474508
 40
0.675423284323773
 40
0.7123927078652257
 40
0.7418671923434088
 40
0.760308597700472
 40
0.7841549639840718
 40
0.8354800538814549
 40
0.9341314364549332
 40
1.0
 40
1.0
 40
1.0
 40
1.0
 10
80.24600910790394
 20
109.3366291258045
 30
0.0
 10
80.24167319627041
 20
109.3375594830384
 30
0.0
 10
80.21627840562631
 20
109.3430084472181
 30
0.0
 10
80.27276169815478
 20
109.2455656482591
 30
0.0
 10
80.2829833918255
 20
109.1072807538337
 30
0.0
 10
80.37819854601022
 20
108.7511370190923
 30
0.0
 10
80.44453341126398
 20
108.2725467931928
 30
0.0
 10
80.5359331370028
 20
107.669533518475
 30
0.0
 10
80.62259706658826
 20
107.0277725423891
 30
0.0
 10
80.71119785046686
 20
106.4032331927509
 30
0.0
 10
80.79778988593296
 20
105.8541606941188
 30
0.0
 10
80.88434041795551
 20
105.4096449272064
 30
0.0
 10
80.97241351951119
 20
105.0769901281813
 30
0.0
 10
81.08239698021184
 20
104.8424696332014
 30
0.0
 10
81.22845147669797
 20
104.7189337528173
 30
0.0
 10
81.38303457851963
 20
104.6828729430925
 30
0.0
 10
81.58847591050083
 20
104.7318721427409
 30
0.0
 10
81.83659192887448
 20
105.0504195968441
 30
0.0
 10
81.9114487082454
 20
105.5146929082539
 30
0.0
 10
81.97433891163719
 20
105.8634806806155
 30
0.0
 10
81.99951815255118
 20
106.0031242319875
 30
0.0
  0
SPLINE
  5
14F
330
1F
100
AcDbEntity
  8
0
  6
Continuous
 62
     7
370
    25
100
AcDbSpline
210
0.0
220
0.0
230
1.0
 70
     8
 71
     3
 72
    25
 73
    21
 74
     0
 42
0.00000001
 43
0.00000001
 40
0.0
 40
0.0
 40
0.0
 40
0.0
 40
0.0163161118024132
 40
0.0524861571312652
 40
0.1057389442014994
 40
0.1699808369522277
 40
0.2396042457862494
 40
0.3096294553754678
 40
0.4368049493413282
 40
0.5350763836186355
 40
0.6089972458595181
 40
0.702291270237708
 40
0.7490687509320757
 40
0.7709859079453345
 40
0.7884336234124307
 40
0.8172150085397486
 40
0.8541392688200534
 40
0.9068160480990813
 40
0.9781729085196547
 40
1.0
 40
1.0
 40
1.0
 40
1.0
 10
114.2952741945548
 20
109.4993300154367
 30
0.0
 10
114.3254873545516
 20
109.4775925222621
 30
0.0
 10
114.4226779525463
 20
109.4076667031565
 30
0.0
 10
114.462623485418
 20
109.1560553357908
 30
0.0
 10
114.5462968603272
 20
108.8330358538504
 30
0.0
 10
114.6110707566237
 20
108.417602337264
 30
0.0
 10
114.6795829932473
 20
107.9697166689175
 30
0.0
 10
114.7613141896155
 20
107.3805444625607
 30
0.0
 10
114.8516218528605
 20
106.7290266394744
 30
0.0
 10
114.9456098063138
 20
106.0678161051826
 30
0.0
 10
115.0576989880611
 20
105.489211736609
 30
0.0
 10
115.1357228718171
 20
105.0109547413472
 30
0.0
 10
115.3895402972274
 20
104.7157010308088
 30
0.0
 10
115.5856654037927
 20
104.6773204921354
 30
0.0
 10
115.73656746535
 20
104.7139345717818
 30
0.0
 10
115.8834320811691
 20
104.8401483471355
 30
0.0
 10
115.994562409365
 20
105.0836191884141
 30
0.0
 10
116.0836070188257
 20
105.4309033428593
 30
0.0
 10
116.1465960430982
 20
105.7499881751947
 30
0.0
 10
116.1786098179108
 20
105.9550834203737
 30
0.0
 10
116.1861086154742
 20
106.0031242319875
 30
0.0
  0
SPLINE
  5
150
330
1F
100
AcDbEntity
  8
0
  6
Continuous
 62
     7
370
    25
100
AcDbSpline
210
0.0
220
0.0
230
1.0
 70
     8
 71
     3
 72
    19
 73
    15
 74
     0
 42
0.00000001
 43
0.00000001
 40
0.0
 40
0.0
 40
0.0
 40
0.0
 40
0.0030332806877736
 40
0.0335626702211145
 40
0.0979170053419576
 40
0.1996757329766012
 40
0.3418378486977386
 40
0.5273329753455241
 40
0.630848693314402
 40
0.7350985876625129
 40
0.8327485469351885
 40
0.9151366359573639
 40
0.9723488669811386
 40
1.0
 40
1.0
 40
1.0
 40
1.0
 10
116.450216796474
 20
109.3352342374184
 30
0.0
 10
116.4452509561747
 20
109.3356222068739
 30
0.0
 10
116.390304883756
 20
109.3399150146385
 30
0.0
 10
116.5387341326975
 20
109.1062811574668
 30
0.0
 10
116.5195471460329
 20
108.8755225602402
 30
0.0
 10
116.6428363041405
 20
108.3720358538668
 30
0.0
 10
116.7195991660172
 20
107.7316053421058
 30
0.0
 10
116.8158839685934
 20
107.0673948663794
 30
0.0
 10
116.8996515989531
 20
106.466968113312
 30
0.0
 10
116.9727097597132
 20
106.0024467618184
 30
0.0
 10
117.0444436319285
 20
105.5654891697621
 30
0.0
 10
117.1379286061452
 20
105.2221827141743
 30
0.0
 10
117.1894264928995
 20
104.9455132866278
 30
0.0
 10
117.3044922298271
 20
104.8754585033161
 30
0.0
 10
117.3419842387004
 20
104.8526324681499
 30
0.0
  0
SPLINE
  5
151
330
1F
100
AcDbEntity
  8
0
  6
Continuous
 62
     7
370
    25
100
AcDbSpline
210
0.0
220
0.0
230
1.0
 70
     8
 71
     3
 72
    11
 73
     7
 74
     0
 42
0.00000001
 43
0.00000001
 40
0.0
 40
0.0
 40
0.0
 40
0.0
 40
0.1456056231631292
 40
0.4296118495045068
 40
0.8140474799340013
 40
1.0
 40
1.0
 40
1.0
 40
1.0
 10
114.2930948997302
 20
109.7359308857032
 30
0.0
 10
114.2538907135392
 20
109.692029929075
 30
0.0
 10
114.1382181002711
 20
109.5624994153331
 30
0.0
 10
114.0809221855668
 20
109.2297738006073
 30
0.0
 10
114.0043855095346
 20
108.9019310664865
 30
0.0
 10
113.9693771512169
 20
108.6765883336654
 30
0.0
 10
113.9579640591903
 20
108.6031242390656
 30
0.0
  0
SPLINE
  5
152
330
1F
100
AcDbEntity
  8
0
  6
Continuous
 62
     7
370
    25
100
AcDbSpline
210
0.0
220
0.0
230
1.0
 70
     8
 71
     3
 72
    23
 73
    19
 74
     0
 42
0.00000001
 43
0.00000001
 40
0.0
 40
0.0
 40
0.0
 40
0.0
 40
0.0017714545003491
 40
0.0323469017001327
 40
0.0968032549134687
 40
0.1864647106372759
 40
0.2944523499285562
 40
0.4082671644269804
 40
0.5115126577179062
 40
0.5971490740184364
 40
0.661212404387785
 40
0.710253320942482
 40
0.7506772706560051
 40
0.7684140475567091
 40
0.7910920988489077
 40
0.840244033109844
 40
0.9534372908136304
 40
1.0
 40
1.0
 40
1.0
 40
1.0
 10
113.699566748218
 20
105.2628788981148
 30
0.0
 10
113.703537138651
 20
105.2629352048631
 30
0.0
 10
113.7760367873975
 20
105.2639633706173
 30
0.0
 10
113.5603863864008
 20
105.5824248641379
 30
0.0
 10
113.6030860675221
 20
105.8898598832135
 30
0.0
 10
113.4616822398584
 20
106.487862703921
 30
0.0
 10
113.3869509632433
 20
107.1410215531556
 30
0.0
 10
113.2862015970916
 20
107.8412101289778
 30
0.0
 10
113.1928950045409
 20
108.4875665603026
 30
0.0
 10
113.0990578826416
 20
109.027060982164
 30
0.0
 10
113.0033581409773
 20
109.4450182726808
 30
0.0
 10
112.8831979513656
 20
109.7599673043229
 30
0.0
 10
112.6843070306842
 20
109.9153791105803
 30
0.0
 10
112.5048892872273
 20
109.9240335675344
 30
0.0
 10
112.3201974667883
 20
109.8449334874498
 30
0.0
 10
112.0886107316646
 20
109.4934266510559
 30
0.0
 10
112.0209616685355
 20
109.0426194998902
 30
0.0
 10
111.9643093749817
 20
108.702311042741
 30
0.0
 10
111.9477974141402
 20
108.6031242390656
 30
0.0
  0
SPLINE
  5
153
330
1F
100
AcDbEntity
  8
0
  6
Continuous
 62
     7
370
    25
100
AcDbSpline
210
0.0
220
0.0
230
1.0
 70
     8
 71
     3
 72
    11
 73
     7
 74
     0
 42
0.00000001
 43
0.00000001
 40
0.0
 40
0.0
 40
0.0
 40
0.0
 40
0.1427706452075779
 40
0.423567780840991
 40
0.8052125788417581
 40
1.0
 40
1.0
 40
1.0
 40
1.0
 10
106.2518881524367
 20
109.7361732624033
 30
0.0
 10
106.2125775594966
 20
109.6937358501283
 30
0.0
 10
106.0959520403572
 20
109.5678337746995
 30
0.0
 10
106.0393054430546
 20
109.2372782961858
 30
0.0
 10
105.9617019205512
 20
108.9083189126349
 30
0.0
 10
105.9262016913533
 20
108.6802074463752
 30
0.0
 10
105.9142054880423
 20
108.6031242390656
 30
0.0
  0
SPLINE
  5
154
330
1F
100
AcDbEntity
  8
0
  6
Continuous
 62
     7
370
    25
100
AcDbSpline
210
0.0
220
0.0
230
1.0
 70
     8
 71
     3
 72
    17
 73
    13
 74
     0
 42
0.00000001
 43
0.00000001
 40
0.0
 40
0.0
 40
0.0
 40
0.0
 40
0.0025482066298368
 40
0.0463421207239755
 40
0.1390334251181391
 40
0.2684160731675351
 40
0.4248160021944235
 40
0.5902463494644216
 40
0.740819885906488
 40
0.8661107735995678
 40
0.9600508525628587
 40
1.0
 40
1.0
 40
1.0
 40
1.0
 10
105.6561583543582
 20
105.2636998589643
 30
0.0
 10
105.6600907557584
 20
105.2636591248854
 30
0.0
 10
105.7316060788439
 20
105.2629183279728
 30
0.0
 10
105.5181576926424
 20
105.5804059912678
 30
0.0
 10
105.5603152690317
 20
105.8825307339177
 30
0.0
 10
105.4193240002193
 20
106.4775339282472
 30
0.0
 10
105.3449872137552
 20
107.128123928822
 30
0.0
 10
105.2432874564155
 20
107.8278098457325
 30
0.0
 10
105.1528169514567
 20
108.4774772144489
 30
0.0
 10
105.0503348491953
 20
109.0159561012414
 30
0.0
 10
104.9836969287075
 20
109.4003257698922
 30
0.0
 10
104.8931207082057
 20
109.5783223935796
 30
0.0
 10
104.8660950625701
 20
109.6314320690491
 30
0.0
  0
SPLINE
  5
155
330
1F
100
AcDbEntity
  8
0
  6
Continuous
 62
     7
370
    25
100
AcDbSpline
210
0.0
220
0.0
230
1.0
 70
     8
 71
     3
 72
    25
 73
    21
 74
     0
 42
0.00000001
 43
0.00000001
 40
0.0
 40
0.0
 40
0.0
 40
0.0
 40
0.0152871169777966
 40
0.0481475959455141
 40
0.0966066678135416
 40
0.1556454098426889
 40
0.2204562384836844
 40
0.2867509503858195
 40
0.4107088918188433
 40
0.5106365606194483
 40
0.5863943615240843
 40
0.6861084790985325
 40
0.7233381795023598
 40
0.7465799730633939
 40
0.7680309918950844
 40
0.7984969407136719
 40
0.8269243159450944
 40
0.9179908798951056
 40
0.9877052166331863
 40
1.0
 40
1.0
 40
1.0
 40
1.0
 10
106.2524767483039
 20
109.4995633117416
 30
0.0
 10
106.2809722048819
 20
109.4794831579576
 30
0.0
 10
106.3707201757777
 20
109.4162396351717
 30
0.0
 10
106.4115812749607
 20
109.1877711450367
 30
0.0
 10
106.4899174445133
 20
108.8931140141976
 30
0.0
 10
106.5520151143065
 20
108.5111354140616
 30
0.0
 10
106.6174617575542
 20
108.0937998977816
 30
0.0
 10
106.6968656478332
 20
107.5309948512731
 30
0.0
 10
106.7846275829863
 20
106.8909839261074
 30
0.0
 10
106.8784384052224
 20
106.2300809538709
 30
0.0
 10
106.9824830349281
 20
105.6260317190887
 30
0.0
 10
107.069622201848
 20
105.1589679184537
 30
0.0
 10
107.2319142964046
 20
104.8319373350593
 30
0.0
 10
107.3797839733012
 20
104.7171000810102
 30
0.0
 10
107.5460024040814
 20
104.671395800519
 30
0.0
 10
107.7301618969075
 20
104.7296972513062
 30
0.0
 10
107.9480758270912
 20
104.9947010764316
 30
0.0
 10
108.0333505910785
 20
105.4209186972008
 30
0.0
 10
108.1105055812122
 20
105.7954839041278
 30
0.0
 10
108.1384348436408
 20
105.9760533181095
 30
0.0
 10
108.1426219905181
 20
106.0031242319875
 30
0.0
  0
SPLINE
  5
156
330
1F
100
AcDbEntity
  8
0
  6
Continuous
 62
     7
370
    25
100
AcDbSpline
210
0.0
220
0.0
230
1.0
 70
     8
 71
     3
 72
    25
 73
    21
 74
     0
 42
0.00000001
 43
0.00000001
 40
0.0
 40
0.0
 40
0.0
 40
0.0
 40
0.0008899976283185
 40
0.0078305126325301
 40
0.0396099484091405
 40
0.0973269226061426
 40
0.1848776005364511
 40
0.2931646862807835
 40
0.4069868362709507
 40
0.5161289861308075
 40
0.6097769819816455
 40
0.6734095829696344
 40
0.7293232496771077
 40
0.7516325567907527
 40
0.7763385889898564
 40
0.805696328970878
 40
0.8453758635372929
 40
0.9014058802850636
 40
0.9804893182153671
 40
1.0
 40
1.0
 40
1.0
 40
1.0
 10
108.3986053133769
 20
109.3340700842001
 30
0.0
 10
108.3965568718074
 20
109.3339651018434
 30
0.0
 10
108.3785339613229
 20
109.3330414300887
 30
0.0
 10
108.4501952989494
 20
109.2119151972569
 30
0.0
 10
108.4439995256505
 20
109.0557011525733
 30
0.0
 10
108.552047278743
 20
108.6504689521818
 30
0.0
 10
108.6201667483781
 20
108.1240981266516
 30
0.0
 10
108.7193486063704
 20
107.4571022847685
 30
0.0
 10
108.8147880623776
 20
106.7501634866621
 30
0.0
 10
108.914085351538
 20
106.0746393353753
 30
0.0
 10
109.0176043797407
 20
105.5060184553874
 30
0.0
 10
109.1215937764515
 20
105.0648009445304
 30
0.0
 10
109.2717705397297
 20
104.7699263638704
 30
0.0
 10
109.4834762330972
 20
104.6806331599564
 30
0.0
 10
109.6554632241435
 20
104.6888689836756
 30
0.0
 10
109.8276773673019
 20
104.8138328761964
 30
0.0
 10
109.9529572611613
 20
105.0587831798565
 30
0.0
 10
110.0511909352656
 20
105.4231689251887
 30
0.0
 10
110.1141485567848
 20
105.7512576361197
 30
0.0
 10
110.1467319076296
 20
105.9615163638758
 30
0.0
 10
110.1531797910495
 20
106.0031242319875
 30
0.0
  0
SPLINE
  5
157
330
1F
100
AcDbEntity
  8
0
  6
Continuous
 62
     7
370
    25
100
AcDbSpline
210
0.0
220
0.0
230
1.0
 70
     8
 71
     3
 72
    23
 73
    19
 74
     0
 42
0.00000001
 43
0.00000001
 40
0.0
 40
0.0
 40
0.0
 40
0.0
 40
0.0103921987133485
 40
0.0601491685515215
 40
0.139248248054541
 40
0.2395061951432804
 40
0.3533998172845036
 40
0.4710964330553936
 40
0.5784769527190227
 40
0.6693060786899853
 40
0.7987301467841927
 40
0.8383223807709728
 40
0.8806642201722543
 40
0.899834914506027
 40
0.9227993614577567
 40
0.9556345198061088
 40
0.9766852229234436
 40
1.0
 40
1.0
 40
1.0
 40
1.0
 10
110.4107649887366
 20
109.3410177506068
 30
0.0
 10
110.4125386165898
 20
109.3221438435729
 30
0.0
 10
110.4228042248244
 20
109.2129032635261
 30
0.0
 10
110.5045501265138
 20
108.9703064310396
 30
0.0
 10
110.5644936379698
 20
108.5565572024126
 30
0.0
 10
110.6502926955406
 20
108.0292813379699
 30
0.0
 10
110.7321927729273
 20
107.4299653005271
 30
0.0
 10
110.8171658171183
 20
106.8183342491939
 30
0.0
 10
110.8975316000274
 20
106.2476814117793
 30
0.0
 10
111.0004202408434
 20
105.6613957301236
 30
0.0
 10
111.0748135458747
 20
105.1865202653292
 30
0.0
 10
111.257228618928
 20
104.8428197603367
 30
0.0
 10
111.4068988780321
 20
104.7206797181618
 30
0.0
 10
111.5588253160013
 20
104.6820800417715
 30
0.0
 10
111.6978936814179
 20
104.7061180553252
 30
0.0
 10
111.8148548870549
 20
104.7930268184212
 30
0.0
 10
111.8929796038468
 20
104.9130729826126
 30
0.0
 10
111.909267762824
 20
104.9929775319823
 30
0.0
 10
111.9178274536891
 20
105.0349686644533
 30
0.0
  0
SPLINE
  5
158
330
1F
100
AcDbEntity
  8
0
  6
Continuous
 62
     7
370
    25
100
AcDbSpline
210
0.0
220
0.0
230
1.0
 70
     8
 71
     3
 72
    18
 73
    14
 74
     0
 42
0.00000001
 43
0.00000001
 40
0.0
 40
0.0
 40
0.0
 40
0.0
 40
0.0665578670681995
 40
0.2015556418201133
 40
0.329018541858596
 40
0.4398010417977516
 40
0.5941212644185503
 40
0.6461280434777029
 40
0.6896593669420655
 40
0.741552716125352
 40
0.7995586035303838
 40
0.9253495587234063
 40
1.0
 40
1.0
 40
1.0
 40
1.0
 10
97.36609476454687
 20
106.6482497496092
 30
0.0
 10
97.34986780957729
 20
106.7592254133807
 30
0.0
 10
97.30072809901036
 20
107.0952904365426
 30
0.0
 10
97.22607095038744
 20
107.6445300879174
 30
0.0
 10
97.13914226847677
 20
108.267897142757
 30
0.0
 10
97.02757500187043
 20
108.9184560026471
 30
0.0
 10
96.9421282101574
 20
109.4516434675772
 30
0.0
 10
96.73195333730636
 20
109.828123402056
 30
0.0
 10
96.4918041019672
 20
109.9524943249651
 30
0.0
 10
96.22249242037303
 20
109.8448139992952
 30
0.0
 10
96.01659574324589
 20
109.4909065690469
 30
0.0
 10
95.93742674471622
 20
109.0594772150975
 30
0.0
 10
95.88017284506653
 20
108.7269627044951
 30
0.0
 10
95.85884976036978
 20
108.6031242390656
 30
0.0
  0
SPLINE
  5
159
330
1F
100
AcDbEntity
  8
0
  6
Continuous
 62
     7
370
    25
100
AcDbSpline
210
0.0
220
0.0
230
1.0
 70
     8
 71
     3
 72
    16
 73
    12
 74
     0
 42
0.00000001
 43
0.00000001
 40
0.0
 40
0.0
 40
0.0
 40
0.0
 40
0.0983788026762247
 40
0.1908879108228773
 40
0.3459729433029535
 40
0.4613176862891728
 40
0.5509976571062536
 40
0.6490724591338526
 40
0.7608975577460588
 40
0.8812307228831064
 40
1.0
 40
1.0
 40
1.0
 40
1.0
 10
95.08297609932852
 20
105.0654408406028
 30
0.0
 10
95.08963452112096
 20
105.0287287994329
 30
0.0
 10
95.10255409516294
 20
104.9574951123953
 30
0.0
 10
95.16496275188565
 20
104.841001530521
 30
0.0
 10
95.2661818213045
 20
104.7429499986479
 30
0.0
 10
95.39509004129485
 20
104.6915998123295
 30
0.0
 10
95.51113130708288
 20
104.6870177088815
 30
0.0
 10
95.62136204330187
 20
104.7205224760307
 30
0.0
 10
95.72371054588527
 20
104.7946622000119
 30
0.0
 10
95.80349335990523
 20
104.9051612352707
 30
0.0
 10
95.82146763656529
 20
104.9943783373003
 30
0.0
 10
95.83039599307011
 20
105.038695118905
 30
0.0
  0
SPLINE
  5
15A
330
1F
100
AcDbEntity
  8
0
  6
Continuous
 62
     7
370
    25
100
AcDbSpline
210
0.0
220
0.0
230
1.0
 70
     8
 71
     3
 72
    11
 73
     7
 74
     0
 42
0.00000001
 43
0.00000001
 40
0.0
 40
0.0
 40
0.0
 40
0.0
 40
0.1219548610275431
 40
0.361366017521061
 40
0.6935986027480482
 40
1.0
 40
1.0
 40
1.0
 40
1.0
 10
90.16958641655874
 20
109.7365376423606
 30
0.0
 10
90.13306907978811
 20
109.7027476996325
 30
0.0
 10
90.0248640894491
 20
109.6026242856658
 30
0.0
 10
89.97008597285905
 20
109.3153428944752
 30
0.0
 10
89.88635986408761
 20
108.9788149577199
 30
0.0
 10
89.84557699407492
 20
108.7249314894598
 30
0.0
 10
89.8260103429122
 20
108.6031242390656
 30
0.0
  0
SPLINE
  5
15B
330
1F
100
AcDbEntity
  8
0
  6
Continuous
 62
     7
370
    25
100
AcDbSpline
210
0.0
220
0.0
230
1.0
 70
     8
 71
     3
 72
    17
 73
    13
 74
     0
 42
0.00000001
 43
0.00000001
 40
0.0
 40
0.0
 40
0.0
 40
0.0
 40
0.1241177378048524
 40
0.2634738656602644
 40
0.3661778304557818
 40
0.44556998265401
 40
0.5123963467775349
 40
0.548221646096585
 40
0.595206774404946
 40
0.6861097822771849
 40
0.8807009507665582
 40
1.0
 40
1.0
 40
1.0
 40
1.0
 10
89.06383084900808
 20
108.4389506956124
 30
0.0
 10
89.04295142211802
 20
108.5717435603856
 30
0.0
 10
88.99862912449329
 20
108.853632757149
 30
0.0
 10
88.91949305583384
 20
109.2425630904678
 30
0.0
 10
88.82753907984616
 20
109.5784935650285
 30
0.0
 10
88.69318184672042
 20
109.8201118081313
 30
0.0
 10
88.5066031683861
 20
109.9226815162177
 30
0.0
 10
88.34092184521386
 20
109.9094399424018
 30
0.0
 10
88.16935522992156
 20
109.818497566163
 30
0.0
 10
87.97215686258316
 20
109.4994292406576
 30
0.0
 10
87.89542619791439
 20
109.0648747096371
 30
0.0
 10
87.83711263864804
 20
108.7302889597184
 30
0.0
 10
87.81494962819052
 20
108.6031242390656
 30
0.0
  0
SPLINE
  5
15C
330
1F
100
AcDbEntity
  8
0
  6
Continuous
 62
     7
370
    25
100
AcDbSpline
210
0.0
220
0.0
230
1.0
 70
     8
 71
     3
 72
    12
 73
     8
 74
     0
 42
0.00000001
 43
0.00000001
 40
0.0
 40
0.0
 40
0.0
 40
0.0
 40
0.0819421666486636
 40
0.2498103209529367
 40
0.4960786224023506
 40
0.798856663047105
 40
1.0
 40
1.0
 40
1.0
 40
1.0
 10
90.16698616393042
 20
109.4996315311202
 30
0.0
 10
90.19337426954522
 20
109.4806166166223
 30
0.0
 10
90.27382150938007
 20
109.422647416052
 30
0.0
 10
90.31583125232059
 20
109.2208404453582
 30
0.0
 10
90.38725337862043
 20
108.9582164484156
 30
0.0
 10
90.43840300928521
 20
108.6690389902797
 30
0.0
 10
90.46745675128254
 20
108.4757968674445
 30
0.0
 10
90.47905373223256
 20
108.3986630780184
 30
0.0
  0
SPLINE
  5
15D
330
1F
100
AcDbEntity
  8
0
  6
Continuous
 62
     7
370
    25
100
AcDbSpline
210
0.0
220
0.0
230
1.0
 70
     8
 71
     3
 72
    11
 73
     7
 74
     0
 42
0.00000001
 43
0.00000001
 40
0.0
 40
0.0
 40
0.0
 40
0.0
 40
0.0827568723423398
 40
0.3601819778243682
 40
0.863849601164873
 40
1.0
 40
1.0
 40
1.0
 40
1.0
 10
91.52814763434363
 20
104.7138246591696
 30
0.0
 10
91.56740095405144
 20
104.7254310985817
 30
0.0
 10
91.73824281803647
 20
104.7759456985736
 30
0.0
 10
91.91291426536164
 20
105.2178272433252
 30
0.0
 10
91.99347992606616
 20
105.6310425967769
 30
0.0
 10
92.04315570777933
 20
105.937839277521
 30
0.0
 10
92.05372649081183
 20
106.0031242319875
 30
0.0
  0
SPLINE
  5
15E
330
1F
100
AcDbEntity
  8
0
  6
Continuous
 62
     7
370
    25
100
AcDbSpline
210
0.0
220
0.0
230
1.0
 70
     8
 71
     3
 72
    12
 73
     8
 74
     0
 42
0.00000001
 43
0.00000001
 40
0.0
 40
0.0
 40
0.0
 40
0.0
 40
0.0195515144634013
 40
0.1892074234598898
 40
0.5000755990111425
 40
0.9780516088841379
 40
1.0
 40
1.0
 40
1.0
 40
1.0
 10
92.32204424984884
 20
109.3186261947759
 30
0.0
 10
92.31769412046545
 20
109.3140588998748
 30
0.0
 10
92.27559626794917
 20
109.2698594542486
 30
0.0
 10
92.40148093400634
 20
109.0989335484502
 30
0.0
 10
92.4020901459971
 20
108.8165808338442
 30
0.0
 10
92.46807377888541
 20
108.5608750455423
 30
0.0
 10
92.49112167291636
 20
108.4054852227263
 30
0.0
 10
92.49213355429602
 20
108.3986630780184
 30
0.0
  0
SPLINE
  5
15F
330
1F
100
AcDbEntity
  8
0
  6
Continuous
 62
     7
370
    25
100
AcDbSpline
210
0.0
220
0.0
230
1.0
 70
     8
 71
     3
 72
    16
 73
    12
 74
     0
 42
0.00000001
 43
0.00000001
 40
0.0
 40
0.0
 40
0.0
 40
0.0
 40
0.1044051498217858
 40
0.3367130758436451
 40
0.3950520386491291
 40
0.447994970043999
 40
0.5029602442453562
 40
0.569763703872012
 40
0.7753888423456162
 40
0.9396584766861513
 40
1.0
 40
1.0
 40
1.0
 40
1.0
 10
92.91291254408789
 20
105.6297995034167
 30
0.0
 10
92.92898737178821
 20
105.5469495439852
 30
0.0
 10
92.98082968692184
 20
105.279753292447
 30
0.0
 10
93.05669418534696
 20
104.9510479213243
 30
0.0
 10
93.25362377580105
 20
104.7447546761992
 30
0.0
 10
93.38075822517808
 20
104.6899789536849
 30
0.0
 10
93.52696365063656
 20
104.6853738519958
 30
0.0
 10
93.77538767550547
 20
104.8118570635179
 30
0.0
 10
93.90189684870855
 20
105.1794032717333
 30
0.0
 10
93.98017300319012
 20
105.512460206663
 30
0.0
 10
94.01079829175582
 20
105.6929142520008
 30
0.0
 10
94.0190257395072
 20
105.7413930190288
 30
0.0
  0
SPLINE
  5
160
330
1F
100
AcDbEntity
  8
0
  6
Continuous
 62
     7
370
    25
100
AcDbSpline
210
0.0
220
0.0
230
1.0
 70
     8
 71
     3
 72
    12
 73
     8
 74
     0
 42
0.00000001
 43
0.00000001
 40
0.0
 40
0.0
 40
0.0
 40
0.0
 40
0.0080385067738368
 40
0.1155260082738703
 40
0.3950461353607415
 40
0.9314279874515251
 40
0.9999999999999999
 40
0.9999999999999999
 40
0.9999999999999999
 40
0.9999999999999999
 10
94.321303244905
 20
109.3419523328104
 30
0.0
 10
94.31858142416975
 20
109.3420190259628
 30
0.0
 10
94.27946457154707
 20
109.3429775116486
 30
0.0
 10
94.40328613376796
 20
109.1488677383367
 30
0.0
 10
94.38612179655053
 20
108.9253021836919
 30
0.0
 10
94.47306657090368
 20
108.6133479313168
 30
0.0
 10
94.50040132609111
 20
108.4205202522606
 30
0.0
 10
94.50349974282217
 20
108.3986630780184
 30
0.0
  0
SPLINE
  5
161
330
1F
100
AcDbEntity
  8
0
  6
Continuous
 62
     7
370
    25
100
AcDbSpline
210
0.0
220
0.0
230
1.0
 70
     8
 71
     3
 72
    10
 73
     6
 74
     0
 42
0.00000001
 43
0.00000001
 40
0.0
 40
0.0
 40
0.0
 40
0.0
 40
0.3066461756966982
 40
0.7557694686697127
 40
0.9999999999999999
 40
0.9999999999999999
 40
0.9999999999999999
 40
0.9999999999999999
 10
94.9003921712203
 20
105.7413930190288
 30
0.0
 10
94.91728267070448
 20
105.6514692039542
 30
0.0
 10
94.95891150821315
 20
105.4298402409148
 30
0.0
 10
95.01039911547421
 20
105.1279733255514
 30
0.0
 10
95.12510247644188
 20
104.9531702236178
 30
0.0
 10
95.16550618060063
 20
104.8915966763654
 30
0.0
  0
SPLINE
  5
162
330
1F
100
AcDbEntity
  8
0
  6
Continuous
 62
     7
370
    25
100
AcDbSpline
210
0.0
220
0.0
230
1.0
 70
     8
 71
     3
 72
    16
 73
    12
 74
     0
 42
0.00000001
 43
0.00000001
 40
0.0
 40
0.0
 40
0.0
 40
0.0
 40
0.0980707444938109
 40
0.1903205146533135
 40
0.3450716457288759
 40
0.4603041896268416
 40
0.5500016968552799
 40
0.6481991995340061
 40
0.7602301629772873
 40
0.8808594708441437
 40
1.0
 40
1.0
 40
1.0
 40
1.0
 10
87.04026060946417
 20
105.0646815798738
 30
0.0
 10
87.04687308562566
 20
105.0281359878802
 30
0.0
 10
87.05970555541755
 20
104.9572139620259
 30
0.0
 10
87.12196628339878
 20
104.8412423015399
 30
0.0
 10
87.22306120961629
 20
104.7437315389762
 30
0.0
 10
87.35177080752324
 20
104.6928906438161
 30
0.0
 10
87.46764593389706
 20
104.6886199459314
 30
0.0
 10
87.5777788999745
 20
104.7222525696708
 30
0.0
 10
87.6800996796424
 20
104.7965051552254
 30
0.0
 10
87.75989747292395
 20
104.9071373573164
 30
0.0
 10
87.77792035386226
 20
104.9964585350641
 30
0.0
 10
87.7868758405013
 20
105.0408418174394
 30
0.0
  0
SPLINE
  5
163
330
1F
100
AcDbEntity
  8
0
  6
Continuous
 62
     7
370
    25
100
AcDbSpline
210
0.0
220
0.0
230
1.0
 70
     8
 71
     3
 72
    22
 73
    18
 74
     0
 42
0.00000001
 43
0.00000001
 40
0.0
 40
0.0
 40
0.0
 40
0.0
 40
0.01470883694272
 40
0.0445376296826734
 40
0.088022130981379
 40
0.1413063495557813
 40
0.2619565741459663
 40
0.3806524811824717
 40
0.4813818159607022
 40
0.5591410198725019
 40
0.6662475812414973
 40
0.7354681359006692
 40
0.7730696275595067
 40
0.8002761721701672
 40
0.8610616424287135
 40
0.9717662881909914
 40
1.0
 40
1.0
 40
1.0
 40
1.0
 10
82.12429302580786
 20
109.4994699466535
 30
0.0
 10
82.15074671795814
 20
109.4792206591751
 30
0.0
 10
82.23084718744578
 20
109.4179068197081
 30
0.0
 10
82.2734995614086
 20
109.2144390497978
 30
0.0
 10
82.34510040357381
 20
108.9485944748788
 30
0.0
 10
82.42766573463612
 20
108.4700654477886
 30
0.0
 10
82.5244496850256
 20
107.8297276887888
 30
0.0
 10
82.62639051024003
 20
107.0810748718158
 30
0.0
 10
82.71805268695049
 20
106.4291666544014
 30
0.0
 10
82.81781979234489
 20
105.7998802442923
 30
0.0
 10
82.91846857322757
 20
105.2593516669452
 30
0.0
 10
83.09567613416519
 20
104.7770805200403
 30
0.0
 10
83.40601200644545
 20
104.6651048135981
 30
0.0
 10
83.68043702393332
 20
104.7761495925895
 30
0.0
 10
83.87411901797682
 20
105.209567766619
 30
0.0
 10
83.94995997122973
 20
105.6363844289642
 30
0.0
 10
83.99956071066205
 20
105.9411855005605
 30
0.0
 10
84.00964009411763
 20
106.0031242319875
 30
0.0
  0
SPLINE
  5
164
330
1F
100
AcDbEntity
  8
0
  6
Continuous
 62
     7
370
    25
100
AcDbSpline
210
0.0
220
0.0
230
1.0
 70
     8
 71
     3
 72
    24
 73
    20
 74
     0
 42
0.00000001
 43
0.00000001
 40
0.0
 40
0.0
 40
0.0
 40
0.0
 40
0.0032122912951524
 40
0.0284851973883033
 40
0.0744064525029954
 40
0.1447128312366578
 40
0.238320369517698
 40
0.3410425795707055
 40
0.4439626306486749
 40
0.5393765176118714
 40
0.6197652226427091
 40
0.7082326002843492
 40
0.731050198108867
 40
0.7510562206890863
 40
0.7711417761499209
 40
0.7963262063649957
 40
0.8751277507398036
 40
0.9377592185601494
 40
1.0
 40
1.0
 40
1.0
 40
1.0
 10
84.2778758967681
 20
109.3172150082448
 30
0.0
 10
84.27395474172455
 20
109.3113710787361
 30
0.0
 10
84.2391836499577
 20
109.2595496620956
 30
0.0
 10
84.35321860682126
 20
109.0950839425092
 30
0.0
 10
84.36456104596616
 20
108.803801239509
 30
0.0
 10
84.46407451794929
 20
108.356273440455
 30
0.0
 10
84.53749536884007
 20
107.791048036995
 30
0.0
 10
84.62810578532864
 20
107.1538374348118
 30
0.0
 10
84.71738258530327
 20
106.5144230770911
 30
0.0
 10
84.80741076625054
 20
105.9204373056964
 30
0.0
 10
84.9186887226
 20
105.3704729714807
 30
0.0
 10
85.01317211041776
 20
104.9501525667615
 30
0.0
 10
85.21404206086008
 20
104.7430607352044
 30
0.0
 10
85.34215592910486
 20
104.6906494208141
 30
0.0
 10
85.48622109247783
 20
104.688113142859
 30
0.0
 10
85.73391355786515
 20
104.8162492026414
 30
0.0
 10
85.86027576979617
 20
105.1868313041185
 30
0.0
 10
85.95522204840745
 20
105.6049789591243
 30
0.0
 10
85.99894996135842
 20
105.8706862461515
 30
0.0
 10
86.0207455123229
 20
106.0031242319875
 30
0.0
  0
SPLINE
  5
165
330
1F
100
AcDbEntity
  8
0
  6
Continuous
 62
     7
370
    25
100
AcDbSpline
210
0.0
220
0.0
230
1.0
 70
     8
 71
     3
 72
    18
 73
    14
 74
     0
 42
0.00000001
 43
0.00000001
 40
0.0
 40
0.0
 40
0.0
 40
0.0
 40
0.001734258580165
 40
0.0249289732944971
 40
0.0850186884331409
 40
0.1999638050429104
 40
0.3834073030931768
 40
0.4989354560331667
 40
0.6242167633344675
 40
0.7502735506533555
 40
0.8648507601376165
 40
0.9526702680179947
 40
1.0
 40
1.0
 40
1.0
 40
1.0
 10
86.27776819117499
 20
109.3399609323152
 30
0.0
 10
86.2750126572762
 20
109.339983861375
 30
0.0
 10
86.23540343650576
 20
109.3403134534695
 30
0.0
 10
86.36033541924216
 20
109.145465026252
 30
0.0
 10
86.344969124306
 20
108.9176390121962
 30
0.0
 10
86.48960096603015
 20
108.3376412323181
 30
0.0
 10
86.55558216237438
 20
107.7340044110748
 30
0.0
 10
86.647737838844
 20
107.0919922898567
 30
0.0
 10
86.72475821807885
 20
106.5416504643507
 30
0.0
 10
86.80541492208155
 20
105.9903310360378
 30
0.0
 10
86.90345244966502
 20
105.5047971422092
 30
0.0
 10
86.96792631468263
 20
105.1224297222997
 30
0.0
 10
87.08355594259844
 20
104.9509648639334
 30
0.0
 10
87.12404983885716
 20
104.8909172765472
 30
0.0
  0
SPLINE
  5
166
330
1F
100
AcDbEntity
  8
0
  6
Continuous
 62
     7
370
    25
100
AcDbSpline
210
0.0
220
0.0
230
1.0
 70
     8
 71
     3
 72
    11
 73
     7
 74
     0
 42
0.00000001
 43
0.00000001
 40
0.0
 40
0.0
 40
0.0
 40
0.0
 40
0.1195768820085422
 40
0.3560257809508491
 40
0.6855781299681557
 40
1.0
 40
1.0
 40
1.0
 40
1.0
 10
82.12850260384512
 20
109.7366636037388
 30
0.0
 10
82.09187211492727
 20
109.7042417312367
 30
0.0
 10
81.98280924086221
 20
109.6077095062485
 30
0.0
 10
81.92851570743203
 20
109.3222282257536
 30
0.0
 10
81.84359542150976
 20
108.9848544441169
 30
0.0
 10
81.80229173185529
 20
108.7283588120019
 30
0.0
 10
81.78212511189412
 20
108.6031242390656
 30
0.0
  0
SPLINE
  5
167
330
1F
100
AcDbEntity
  8
0
  6
Continuous
 62
     7
370
    25
100
AcDbSpline
210
0.0
220
0.0
230
1.0
 70
     8
 71
     3
 72
    24
 73
    20
 74
     0
 42
0.00000001
 43
0.00000001
 40
0.0
 40
0.0
 40
0.0
 40
0.0
 40
0.001794663940267
 40
0.0308049758774835
 40
0.0890203819979203
 40
0.1692564022555262
 40
0.2663566856271346
 40
0.3717141891203697
 40
0.4717370019611603
 40
0.5592086618480548
 40
0.6297164359183925
 40
0.6814977483485739
 40
0.7205772929274856
 40
0.753636437437719
 40
0.7718128866473237
 40
0.7955365488178912
 40
0.8414506298736328
 40
0.9385876849167247
 40
1.0
 40
1.0
 40
1.0
 40
1.0
 10
81.52491616852713
 20
105.2683425019988
 30
0.0
 10
81.5289448306489
 20
105.2682222434437
 30
0.0
 10
81.59809584922976
 20
105.2661580342031
 30
0.0
 10
81.39730895152155
 20
105.5632016618217
 30
0.0
 10
81.43312763527551
 20
105.8390776557913
 30
0.0
 10
81.3046860557211
 20
106.3757369510264
 30
0.0
 10
81.23487162846956
 20
106.96692981559
 30
0.0
 10
81.14112420110561
 20
107.6172584302444
 30
0.0
 10
81.05361475661678
 20
108.241830194905
 30
0.0
 10
80.96576160434606
 20
108.7917548404176
 30
0.0
 10
80.87703140601317
 20
109.2357649310947
 30
0.0
 10
80.78513561763296
 20
109.5717631917888
 30
0.0
 10
80.65441730244306
 20
109.8121217591913
 30
0.0
 10
80.4735748477107
 20
109.9179081151661
 30
0.0
 10
80.30780710673446
 20
109.911074870306
 30
0.0
 10
80.13212518237438
 20
109.8244460538468
 30
0.0
 10
79.93003844699162
 20
109.5075736393605
 30
0.0
 10
79.85296705874104
 20
109.070031498945
 30
0.0
 10
79.79390977096642
 20
108.7334826500364
 30
0.0
 10
79.77103459485006
 20
108.6031242390656
 30
0.0
  0
SPLINE
  5
168
330
1F
100
AcDbEntity
  8
0
  6
Continuous
 62
     7
370
    25
100
AcDbSpline
210
0.0
220
0.0
230
1.0
 70
     8
 71
     3
 72
    16
 73
    12
 74
     0
 42
0.00000001
 43
0.00000001
 40
0.0
 40
0.0
 40
0.0
 40
0.0
 40
0.0977524458723615
 40
0.1897361303313437
 40
0.3441374194500695
 40
0.4592476184191932
 40
0.5489549378794915
 40
0.6472688802605417
 40
0.7595175637196412
 40
0.8804601282359804
 40
0.9999999999999999
 40
0.9999999999999999
 40
0.9999999999999999
 40
0.9999999999999999
 10
78.99752276785803
 20
105.0640068366685
 30
0.0
 10
79.00408554277075
 20
105.0276212599227
 30
0.0
 10
79.01682379709331
 20
104.9569973643258
 30
0.0
 10
79.07895065596735
 20
104.8415321591867
 30
0.0
 10
79.17992258155778
 20
104.7445358659549
 30
0.0
 10
79.30844945680789
 20
104.6941885177022
 30
0.0
 10
79.42417754809203
 20
104.6902257899622
 30
0.0
 10
79.53423311098055
 20
104.7240102949066
 30
0.0
 10
79.63655302467082
 20
104.7984032776341
 30
0.0
 10
79.71638545616243
 20
104.9092189867951
 30
0.0
 10
79.73447031137961
 20
104.9986797113581
 30
0.0
 10
79.74345999606084
 20
105.0431491691181
 30
0.0
  0
SPLINE
  5
169
330
1F
100
AcDbEntity
  8
0
  6
Continuous
 62
     7
370
    25
100
AcDbSpline
210
0.0
220
0.0
230
1.0
 70
     8
 71
     3
 72
    13
 73
     9
 74
     0
 42
0.00000001
 43
0.00000001
 40
0.0
 40
0.0
 40
0.0
 40
0.0
 40
0.0554040989942848
 40
0.1276850293594922
 40
0.2228020288463113
 40
0.5251329096833581
 40
0.7679181016151835
 40
0.9999999999999999
 40
0.9999999999999999
 40
0.9999999999999999
 40
0.9999999999999999
 10
77.24602537997198
 20
104.7208773321965
 30
0.0
 10
77.2750703520037
 20
104.7102029105593
 30
0.0
 10
77.34200778396149
 20
104.6856024953397
 30
0.0
 10
77.46957758561788
 20
104.6995498053175
 30
0.0
 10
77.69953676715924
 20
104.8385761037083
 30
0.0
 10
77.8202195880591
 20
105.2031039116189
 30
0.0
 10
77.91296676195222
 20
105.6155001345427
 30
0.0
 10
77.95567469790713
 20
105.8758724248099
 30
0.0
 10
77.97654735691977
 20
106.0031242319875
 30
0.0
  0
SPLINE
  5
16A
330
1F
100
AcDbEntity
  8
0
  6
Continuous
 62
     7
370
    25
100
AcDbSpline
210
0.0
220
0.0
230
1.0
 70
     8
 71
     3
 72
    18
 73
    14
 74
     0
 42
0.00000001
 43
0.00000001
 40
0.0
 40
0.0
 40
0.0
 40
0.0
 40
0.0017637028876534
 40
0.0253241588260058
 40
0.0860327946587129
 40
0.2017311521263491
 40
0.3858114457744707
 40
0.5014812612455867
 40
0.6267102650413519
 40
0.752470812440269
 40
0.866489319316331
 40
0.9535169610823251
 40
1.0
 40
1.0
 40
1.0
 40
1.0
 10
78.23424803860617
 20
109.3379390310057
 30
0.0
 10
78.23144808929497
 20
109.3378995263207
 30
0.0
 10
78.19124496803369
 20
109.3373322976079
 30
0.0
 10
78.3177167685278
 20
109.1418371024567
 30
0.0
 10
78.30194075608338
 20
108.9103009338441
 30
0.0
 10
78.44707314812325
 20
108.3281991258308
 30
0.0
 10
78.51327891072103
 20
107.7218466874195
 30
0.0
 10
78.6055924361956
 20
107.0788819349876
 30
0.0
 10
78.68276338763313
 20
106.5289119975207
 30
0.0
 10
78.7633867070171
 20
105.9789409628299
 30
0.0
 10
78.86182251386477
 20
105.4962900225138
 30
0.0
 10
78.92557639824835
 20
105.116700830327
 30
0.0
 10
79.04206070665192
 20
104.9487614020559
 30
0.0
 10
79.0826158488555
 20
104.8902916606077
 30
0.0
  0
SPLINE
  5
16B
330
1F
100
AcDbEntity
  8
0
  6
Continuous
 62
     7
370
    25
100
AcDbSpline
210
0.0
220
0.0
230
1.0
 70
     8
 71
     3
 72
    10
 73
     6
 74
     0
 42
0.00000001
 43
0.00000001
 40
0.0
 40
0.0
 40
0.0
 40
0.0
 40
0.2793708438432612
 40
0.773889461635514
 40
1.0
 40
1.0
 40
1.0
 40
1.0
 10
122.2030894721313
 20
109.5160744968363
 30
0.0
 10
122.1764528651958
 20
109.4330059746287
 30
0.0
 10
122.10266639157
 20
109.2028965865275
 30
0.0
 10
122.0487894264785
 20
108.8946555066897
 30
0.0
 10
122.0129579567646
 20
108.6727508663783
 30
0.0
 10
122.0017151797576
 20
108.6031242390656
 30
0.0
  0
SPLINE
  5
16C
330
1F
100
AcDbEntity
  8
0
  6
Continuous
 62
     7
370
    25
100
AcDbSpline
210
0.0
220
0.0
230
1.0
 70
     8
 71
     3
 72
    22
 73
    18
 74
     0
 42
0.00000001
 43
0.00000001
 40
0.0
 40
0.0
 40
0.0
 40
0.0
 40
0.0017906468679674
 40
0.0328292605107986
 40
0.0980072811617331
 40
0.1883620798850295
 40
0.2967872699057498
 40
0.4106549471992558
 40
0.5136013144846575
 40
0.5987174025229101
 40
0.6622472764102041
 40
0.7117547453230356
 40
0.7530040321663941
 40
0.7925005394343815
 40
0.8411875772444017
 40
0.9550196043842576
 40
1.0
 40
1.0
 40
1.0
 40
1.0
 10
121.7429900432391
 20
105.2620435017654
 30
0.0
 10
121.7469958629863
 20
105.2621998706104
 30
0.0
 10
121.8204375350392
 20
105.2650666969179
 30
0.0
 10
121.6026495119106
 20
105.5844084164148
 30
0.0
 10
121.6458454937347
 20
105.8972368078055
 30
0.0
 10
121.5040123456458
 20
106.498201142103
 30
0.0
 10
121.429107671203
 20
107.1540433468987
 30
0.0
 10
121.3283938614788
 20
107.8542388551621
 30
0.0
 10
121.2352390957279
 20
108.4988234134725
 30
0.0
 10
121.1415833004452
 20
109.0349381901171
 30
0.0
 10
121.0460544167603
 20
109.4520545834288
 30
0.0
 10
120.9238304877405
 20
109.7665686905556
 30
0.0
 10
120.6771320046793
 20
109.9561351539877
 30
0.0
 10
120.3722480260944
 20
109.8733683413127
 30
0.0
 10
120.1346048037142
 20
109.4822353652831
 30
0.0
 10
120.0629820247312
 20
109.0374441729251
 30
0.0
 10
120.0073324882416
 20
108.6989857252795
 30
0.0
 10
119.9915708864493
 20
108.6031242390656
 30
0.0
  0
SPLINE
  5
16D
330
1F
100
AcDbEntity
  8
0
  6
Continuous
 62
     7
370
    25
100
AcDbSpline
210
0.0
220
0.0
230
1.0
 70
     8
 71
     3
 72
    12
 73
     8
 74
     0
 42
0.00000001
 43
0.00000001
 40
0.0
 40
0.0
 40
0.0
 40
0.0
 40
0.0455993243818975
 40
0.4104195312489778
 40
0.6929257116443321
 40
0.9057596141322387
 40
1.0
 40
1.0
 40
1.0
 40
1.0
 10
122.7709354723258
 20
107.626331818805
 30
0.0
 10
122.7759029234775
 20
107.5912428706369
 30
0.0
 10
122.8206127739151
 20
107.2754226286842
 30
0.0
 10
122.8903302384922
 20
106.7411364085455
 30
0.0
 10
122.9952960716745
 20
106.0816627085363
 30
0.0
 10
123.0579376495593
 20
105.6259894352742
 30
0.0
 10
123.1299193128435
 20
105.3981878988861
 30
0.0
 10
123.1520103181167
 20
105.3282761364737
 30
0.0
  0
SPLINE
  5
16E
330
1F
100
AcDbEntity
  8
0
  6
Continuous
 62
     7
370
    25
100
AcDbSpline
210
0.0
220
0.0
230
1.0
 70
     8
 71
     3
 72
    23
 73
    19
 74
     0
 42
0.00000001
 43
0.00000001
 40
0.0
 40
0.0
 40
0.0
 40
0.0
 40
0.002738687591068
 40
0.0265322957768821
 40
0.0781808302855733
 40
0.1646591597646497
 40
0.2828154292829039
 40
0.4078670311439447
 40
0.5252585707247657
 40
0.622267085415792
 40
0.6855502523449903
 40
0.7225928683542104
 40
0.7488291324673033
 40
0.7712511151773691
 40
0.8019012154090271
 40
0.8480378251384213
 40
0.9145477955191418
 40
1.0
 40
1.0
 40
1.0
 40
1.0
 10
117.7062654758258
 20
105.283567530618
 30
0.0
 10
117.7120693220571
 20
105.2857203261652
 30
0.0
 10
117.7682967520699
 20
105.3065765232699
 30
0.0
 10
117.6167850321862
 20
105.525111856696
 30
0.0
 10
117.6323975635348
 20
105.8241502610602
 30
0.0
 10
117.496751471907
 20
106.3932627648915
 30
0.0
 10
117.4165629946099
 20
107.0875075519169
 30
0.0
 10
117.3053652695629
 20
107.8609380693235
 30
0.0
 10
117.2002361424951
 20
108.5844253222012
 30
0.0
 10
117.0904462700426
 20
109.1736273052172
 30
0.0
 10
116.9831382142222
 20
109.5858432541853
 30
0.0
 10
116.8390342059744
 20
109.8280118206224
 30
0.0
 10
116.670305139544
 20
109.9208538603958
 30
0.0
 10
116.4927825708306
 20
109.9260841377585
 30
0.0
 10
116.2995813940736
 20
109.8066376948618
 30
0.0
 10
116.1580197277135
 20
109.5217707252392
 30
0.0
 10
116.0530948304388
 20
109.1085894891965
 30
0.0
 10
115.9987713271292
 20
108.7850555948318
 30
0.0
 10
115.9682238364978
 20
108.6031242390656
 30
0.0
  0
SPLINE
  5
16F
330
1F
100
AcDbEntity
  8
0
  6
Continuous
 62
     7
370
    25
100
AcDbSpline
210
0.0
220
0.0
230
1.0
 70
     8
 71
     3
 72
    17
 73
    13
 74
     0
 42
0.00000001
 43
0.00000001
 40
0.0
 40
0.0
 40
0.0
 40
0.0
 40
0.0239273085539299
 40
0.106382391373179
 40
0.1791208669931136
 40
0.2779079378937498
 40
0.4031440189631175
 40
0.5506782886325438
 40
0.709509644572886
 40
0.8605744882940337
 40
0.9781431280514551
 40
1.0
 40
1.0
 40
1.0
 40
1.0
 10
115.7166326309009
 20
105.255578493283
 30
0.0
 10
115.7094865801746
 20
105.2901425626795
 30
0.0
 10
115.677714767502
 20
105.443816694047
 30
0.0
 10
115.6120383168682
 20
105.6999676537902
 30
0.0
 10
115.5510111602327
 20
106.0698324910153
 30
0.0
 10
115.4833791516682
 20
106.5022294667924
 30
0.0
 10
115.4076757846266
 20
107.0452291446304
 30
0.0
 10
115.3194149437763
 20
107.6750750458665
 30
0.0
 10
115.2312489094136
 20
108.3466322502115
 30
0.0
 10
115.1050020052174
 20
108.9569942852056
 30
0.0
 10
115.0650415917011
 20
109.4019698081703
 30
0.0
 10
114.9500819295975
 20
109.5735788725522
 30
0.0
 10
114.9320604170127
 20
109.6004809602656
 30
0.0
  0
SPLINE
  5
170
330
1F
100
AcDbEntity
  8
0
  6
Continuous
 62
     7
370
    25
100
AcDbSpline
210
0.0
220
0.0
230
1.0
 70
     8
 71
     3
 72
    16
 73
    12
 74
     0
 42
0.00000001
 43
0.00000001
 40
0.0
 40
0.0
 40
0.0
 40
0.0
 40
0.0665051380784433
 40
0.1244497281387408
 40
0.1719479957227858
 40
0.2097801184890539
 40
0.3031560562101279
 40
0.4005145951646095
 40
0.6291823186659989
 40
0.8066326153229122
 40
1.0
 40
1.0
 40
1.0
 40
1.0
 10
117.2206254566474
 20
105.0337975263157
 30
0.0
 10
117.2297830489437
 20
104.9877748245574
 30
0.0
 10
117.2469194673409
 20
104.9016534678093
 30
0.0
 10
117.3188333445168
 20
104.8016987558786
 30
0.0
 10
117.3972224000396
 20
104.7381929037447
 30
0.0
 10
117.5104438979496
 20
104.6844055219156
 30
0.0
 10
117.6817019087982
 20
104.6763409994111
 30
0.0
 10
117.9337685934545
 20
104.8557539136556
 30
0.0
 10
118.0419032346491
 20
105.20992054081
 30
0.0
 10
118.1332629321917
 20
105.6136066447409
 30
0.0
 10
118.1756359330041
 20
105.8696219440519
 30
0.0
 10
118.197731849031
 20
106.0031242319875
 30
0.0
  0
SPLINE
  5
171
330
1F
100
AcDbEntity
  8
0
  6
Continuous
 62
     7
370
    25
100
AcDbSpline
210
0.0
220
0.0
230
1.0
 70
     8
 71
     3
 72
    25
 73
    21
 74
     0
 42
0.00000001
 43
0.00000001
 40
0.0
 40
0.0
 40
0.0
 40
0.0
 40
0.0011631630741778
 40
0.0179666521331176
 40
0.0619149786397877
 40
0.1255630523412639
 40
0.2046541024686064
 40
0.2951679608212188
 40
0.3923094274454509
 40
0.4892116479560267
 40
0.577710766761233
 40
0.7192522006118388
 40
0.8242863331937921
 40
0.8601265135343128
 40
0.8936878249398951
 40
0.910459724369408
 40
0.9325634306347507
 40
0.9623996174046628
 40
0.9804796421170544
 40
1.0
 40
1.0
 40
1.0
 40
1.0
 10
118.4538418317599
 20
109.3470166321405
 30
0.0
 10
118.4516292345254
 20
109.3472093057374
 30
0.0
 10
118.4174526296222
 20
109.3501854142191
 30
0.0
 10
118.5227172749905
 20
109.1725323524402
 30
0.0
 10
118.5127340318978
 20
109.0087969111242
 30
0.0
 10
118.6043278040831
 20
108.6451885806921
 30
0.0
 10
118.6598333376656
 20
108.2347367127121
 30
0.0
 10
118.733230417718
 20
107.7488772732
 30
0.0
 10
118.8030720035138
 20
107.2347358932488
 30
0.0
 10
118.8743340755988
 20
106.7234203400495
 30
0.0
 10
118.9592967431077
 20
106.1308162077433
 30
0.0
 10
119.0670185306661
 20
105.5350230562975
 30
0.0
 10
119.1746462752849
 20
105.012512873359
 30
0.0
 10
119.3833899503532
 20
104.7639140620006
 30
0.0
 10
119.5301902978245
 20
104.6892814276615
 30
0.0
 10
119.6647952830746
 20
104.6866374089126
 30
0.0
 10
119.7857479926821
 20
104.7308107658131
 30
0.0
 10
119.8819095553593
 20
104.8209693173752
 30
0.0
 10
119.9422863957933
 20
104.9302727650867
 30
0.0
 10
119.9551156609468
 20
104.9981893846966
 30
0.0
 10
119.9617760146422
 20
105.0334485131809
 30
0.0
  0
SPLINE
  5
172
330
1F
100
AcDbEntity
  8
0
  6
Continuous
 62
     7
370
    25
100
AcDbSpline
210
0.0
220
0.0
230
1.0
 70
     8
 71
     3
 72
    12
 73
     8
 74
     0
 42
0.00000001
 43
0.00000001
 40
0.0
 40
0.0
 40
0.0
 40
0.0
 40
0.1027314498029737
 40
0.3156585524167778
 40
0.6227853243912093
 40
0.9871029195998804
 40
1.0
 40
1.0
 40
1.0
 40
1.0
 10
119.8392959202094
 20
104.8517868272522
 30
0.0
 10
119.8768422519866
 20
104.8741472459956
 30
0.0
 10
119.9922092672491
 20
104.9428531527604
 30
0.0
 10
120.0436874562631
 20
105.2193438993697
 30
0.0
 10
120.1369376233195
 20
105.5615085415215
 30
0.0
 10
120.1844009980811
 20
105.8438568800407
 30
0.0
 10
120.2083463927165
 20
105.9978588591513
 30
0.0
 10
120.2091650927825
 20
106.0031242319875
 30
0.0
  0
SPLINE
  5
173
330
1F
100
AcDbEntity
  8
0
  6
Continuous
 62
     7
370
    25
100
AcDbSpline
210
0.0
220
0.0
230
1.0
 70
     8
 71
     3
 72
    25
 73
    21
 74
     0
 42
0.00000001
 43
0.00000001
 40
0.0
 40
0.0
 40
0.0
 40
0.0
 40
0.0011826099030356
 40
0.0083180210525875
 40
0.0255540353340767
 40
0.0792741128464356
 40
0.1551876920071769
 40
0.2494386845739734
 40
0.3542520608606661
 40
0.4554070438763034
 40
0.5452241266222738
 40
0.6188909568531219
 40
0.6732824635739263
 40
0.7113588356143162
 40
0.7410002218847798
 40
0.7589347203502276
 40
0.7814246082729371
 40
0.8293457335020628
 40
0.9252532465917738
 40
1.0
 40
1.0
 40
1.0
 40
1.0
 10
120.4632149899764
 20
109.3442845973679
 30
0.0
 10
120.4604934919965
 20
109.3450906869187
 30
0.0
 10
120.4413515268962
 20
109.3507604093156
 30
0.0
 10
120.4859523515776
 20
109.2611209941189
 30
0.0
 10
120.4999524954985
 20
109.1392691413119
 30
0.0
 10
120.5895501024013
 20
108.7930667515747
 30
0.0
 10
120.656241109301
 20
108.3319201461387
 30
0.0
 10
120.746416621165
 20
107.7367435143019
 30
0.0
 10
120.8330766132859
 20
107.0950178897463
 30
0.0
 10
120.9221661027536
 20
106.4605470535568
 30
0.0
 10
121.00983329978
 20
105.8947384635311
 30
0.0
 10
121.0980316546196
 20
105.4311984768353
 30
0.0
 10
121.187733762743
 20
105.0830336311253
 30
0.0
 10
121.2989177541865
 20
104.8390020881206
 30
0.0
 10
121.4459411841688
 20
104.7127253145365
 30
0.0
 10
121.5966572827148
 20
104.6762246318777
 30
0.0
 10
121.7920832569931
 20
104.714132382086
 30
0.0
 10
122.0458471993226
 20
105.0079546467898
 30
0.0
 10
122.1248242121819
 20
105.4823580093949
 30
0.0
 10
122.1916725811577
 20
105.8445039278081
 30
0.0
 10
122.2209522391124
 20
106.0031242319875
 30
0.0
  0
SPLINE
  5
174
330
1F
100
AcDbEntity
  8
0
  6
Continuous
 62
     7
370
    25
100
AcDbSpline
210
0.0
220
0.0
230
1.0
 70
     8
 71
     3
 72
    23
 73
    19
 74
     0
 42
0.00000001
 43
0.00000001
 40
0.0
 40
0.0
 40
0.0
 40
0.0
 40
0.0253380542026595
 40
0.0755232487890891
 40
0.1438020900415248
 40
0.2215919525864923
 40
0.3015863572389703
 40
0.3779417596669271
 40
0.5058845788846655
 40
0.5968753835416811
 40
0.6621084818472194
 40
0.7067961153466925
 40
0.7489030087542976
 40
0.7706109857152926
 40
0.7887479081078217
 40
0.8207163779097323
 40
0.9209377505937599
 40
1.0
 40
1.0
 40
1.0
 40
1.0
 10
119.855929341392
 20
105.0926934346118
 30
0.0
 10
119.8215795367364
 20
105.1381616581792
 30
0.0
 10
119.7191956353478
 20
105.2736854017553
 30
0.0
 10
119.6661709800373
 20
105.5992655005597
 30
0.0
 10
119.5769188214162
 20
106.023210093063
 30
0.0
 10
119.5037474710949
 20
106.5230010914309
 30
0.0
 10
119.4299759895975
 20
107.0388804222273
 30
0.0
 10
119.3442260495982
 20
107.6664733026858
 30
0.0
 10
119.251783642478
 20
108.3176246018683
 30
0.0
 10
119.1507519145248
 20
108.9427690317102
 30
0.0
 10
119.0514268224003
 20
109.3794455711041
 30
0.0
 10
118.9482463994566
 20
109.7028763037083
 30
0.0
 10
118.7711223873184
 20
109.894828039479
 30
0.0
 10
118.585119213005
 20
109.9293820346761
 30
0.0
 10
118.4250040120311
 20
109.8933337913537
 30
0.0
 10
118.1694086294838
 20
109.6515828468241
 30
0.0
 10
118.0828798744384
 20
109.1648068265907
 30
0.0
 10
118.0136870738682
 20
108.7750174013786
 30
0.0
 10
117.9831737542911
 20
108.6031242390656
 30
0.0
  0
LINE
  5
175
330
1F
100
AcDbEntity
  8
0
  6
Continuous
 62
     7
370
    25
100
AcDbLine
 10
104.3660940493
 20
114.3031244516
 30
0.0
 11
88.86609244
 21
114.3031244516
 31
0.0
  0
LINE
  5
176
330
1F
100
AcDbEntity
  8
0
  6
Continuous
 62
     7
370
    25
100
AcDbLine
 10
88.86609244
 20
100.3031240195
 30
0.0
 11
104.3660940493
 21
100.3031240195
 31
0.0
  0
LINE
  5
177
330
1F
100
AcDbEntity
  8
0
  6
Continuous
 62
     7
370
    25
100
AcDbLine
 10
104.3660940493
 20
100.3031240195
 30
0.0
 11
104.8660950626
 21
100.8031241014
 31
0.0
  0
LINE
  5
178
330
1F
100
AcDbEntity
  8
0
  6
Continuous
 62
     7
370
    25
100
AcDbLine
 10
104.8660950626
 20
113.8031243696
 30
0.0
 11
104.3660940493
 21
114.3031244516
 31
0.0
  0
LINE
  5
179
330
1F
100
AcDbEntity
  8
0
  6
Continuous
 62
     7
370
    25
100
AcDbLine
 10
77.357463714
 20
106.003124232
 30
0.0
 11
78.7650721038
 21
106.003124232
 31
0.0
  0
LINE
  5
17A
330
1F
100
AcDbEntity
  8
0
  6
Continuous
 62
     7
370
    25
100
AcDbLine
 10
79.3666245306
 20
106.003124232
 30
0.0
 11
80.7772876585
 21
106.003124232
 31
0.0
  0
LINE
  5
17B
330
1F
100
AcDbEntity
  8
0
  6
Continuous
 62
     7
370
    25
100
AcDbLine
 10
81.3791157568
 20
106.003124232
 30
0.0
 11
82.7873648966
 21
106.003124232
 31
0.0
  0
LINE
  5
17C
330
1F
100
AcDbEntity
  8
0
  6
Continuous
 62
     7
370
    25
100
AcDbLine
 10
83.3896549309
 20
106.003124232
 30
0.0
 11
84.7995580996
 21
106.003124232
 31
0.0
  0
LINE
  5
17D
330
1F
100
AcDbEntity
  8
0
  6
Continuous
 62
     7
370
    25
100
AcDbLine
 10
85.4012669886
 20
106.003124232
 30
0.0
 11
86.8087338174
 21
106.003124232
 31
0.0
  0
LINE
  5
17E
330
1F
100
AcDbEntity
  8
0
  6
Continuous
 62
     7
370
    25
100
AcDbLine
 10
87.410591718
 20
106.003124232
 30
0.0
 11
88.86609244
 21
106.003124232
 31
0.0
  0
LINE
  5
17F
330
1F
100
AcDbEntity
  8
0
  6
Continuous
 62
     7
370
    25
100
AcDbLine
 10
91.4333687986
 20
106.003124232
 30
0.0
 11
92.8433613742
 21
106.003124232
 31
0.0
  0
LINE
  5
180
330
1F
100
AcDbEntity
  8
0
  6
Continuous
 62
     7
370
    25
100
AcDbLine
 10
95.4546930159
 20
106.003124232
 30
0.0
 11
96.8648420537
 21
106.003124232
 31
0.0
  0
LINE
  5
181
330
1F
100
AcDbEntity
  8
0
  6
Continuous
 62
     7
370
    25
100
AcDbLine
 10
104.8660950626
 20
106.003124232
 30
0.0
 11
104.9086192513
 21
106.003124232
 31
0.0
  0
LINE
  5
182
330
1F
100
AcDbEntity
  8
0
  6
Continuous
 62
     7
370
    25
100
AcDbLine
 10
105.5103691185
 20
106.003124232
 30
0.0
 11
106.9193111623
 21
106.003124232
 31
0.0
  0
LINE
  5
183
330
1F
100
AcDbEntity
  8
0
  6
Continuous
 62
     7
370
    25
100
AcDbLine
 10
107.5210610295
 20
106.003124232
 30
0.0
 11
108.9305283392
 21
106.003124232
 31
0.0
  0
LINE
  5
184
330
1F
100
AcDbEntity
  8
0
  6
Continuous
 62
     7
370
    25
100
AcDbLine
 10
109.5323713387
 20
106.003124232
 30
0.0
 11
110.9413394595
 21
106.003124232
 31
0.0
  0
LINE
  5
185
330
1F
100
AcDbEntity
  8
0
  6
Continuous
 62
     7
370
    25
100
AcDbLine
 10
111.5425566102
 20
106.003124232
 30
0.0
 11
112.9523889983
 21
106.003124232
 31
0.0
  0
LINE
  5
186
330
1F
100
AcDbEntity
  8
0
  6
Continuous
 62
     7
370
    25
100
AcDbLine
 10
113.5540941621
 20
106.003124232
 30
0.0
 11
114.9616056944
 21
106.003124232
 31
0.0
  0
LINE
  5
187
330
1F
100
AcDbEntity
  8
0
  6
Continuous
 62
     7
370
    25
100
AcDbLine
 10
115.5627744163
 20
106.003124232
 30
0.0
 11
116.973191675
 21
106.003124232
 31
0.0
  0
LINE
  5
188
330
1F
100
AcDbEntity
  8
0
  6
Continuous
 62
     7
370
    25
100
AcDbLine
 10
117.5771655405
 20
106.003124232
 30
0.0
 11
118.9876684809
 21
106.003124232
 31
0.0
  0
LINE
  5
189
330
1F
100
AcDbEntity
  8
0
  6
Continuous
 62
     7
370
    25
100
AcDbLine
 10
119.5856520797
 20
106.003124232
 30
0.0
 11
120.9961550201
 21
106.003124232
 31
0.0
  0
LINE
  5
18A
330
1F
100
AcDbEntity
  8
0
  6
Continuous
 62
     7
370
    25
100
AcDbLine
 10
121.5978192056
 20
106.003124232
 30
0.0
 11
123.0056101347
 21
106.003124232
 31
0.0
  0
LINE
  5
18B
330
1F
100
AcDbEntity
  8
0
  6
Continuous
 62
     7
370
    25
100
AcDbLine
 10
122.4114673103
 20
108.6031242391
 30
0.0
 11
121.2141590083
 21
108.6031242391
 31
0.0
  0
LINE
  5
18C
330
1F
100
AcDbEntity
  8
0
  6
Continuous
 62
     7
370
    25
100
AcDbLine
 10
120.6114405657
 20
108.6031242391
 30
0.0
 11
119.2019769812
 21
108.6031242391
 31
0.0
  0
LINE
  5
18D
330
1F
100
AcDbEntity
  8
0
  6
Continuous
 62
     7
370
    25
100
AcDbLine
 10
118.6020525063
 20
108.6031242391
 30
0.0
 11
117.1920971835
 21
108.6031242391
 31
0.0
  0
LINE
  5
18E
330
1F
100
AcDbEntity
  8
0
  6
Continuous
 62
     7
370
    25
100
AcDbLine
 10
116.589278158
 20
108.6031242391
 30
0.0
 11
115.1788497234
 21
108.6031242391
 31
0.0
  0
LINE
  5
18F
330
1F
100
AcDbEntity
  8
0
  6
Continuous
 62
     7
370
    25
100
AcDbLine
 10
114.5789140726
 20
108.6031242391
 30
0.0
 11
113.1698826218
 21
108.6031242391
 31
0.0
  0
LINE
  5
190
330
1F
100
AcDbEntity
  8
0
  6
Continuous
 62
     7
370
    25
100
AcDbLine
 10
112.5673467184
 20
108.6031242391
 30
0.0
 11
111.1587548519
 21
108.6031242391
 31
0.0
  0
LINE
  5
191
330
1F
100
AcDbEntity
  8
0
  6
Continuous
 62
     7
370
    25
100
AcDbLine
 10
110.558536079
 20
108.6031242391
 30
0.0
 11
109.1478021706
 21
108.6031242391
 31
0.0
  0
LINE
  5
192
330
1F
100
AcDbEntity
  8
0
  6
Continuous
 62
     7
370
    25
100
AcDbLine
 10
108.5455195869
 20
108.6031242391
 30
0.0
 11
107.1368420387
 21
108.6031242391
 31
0.0
  0
LINE
  5
193
330
1F
100
AcDbEntity
  8
0
  6
Continuous
 62
     7
370
    25
100
AcDbLine
 10
106.5353566671
 20
108.6031242391
 30
0.0
 11
105.1256174112
 21
108.6031242391
 31
0.0
  0
LINE
  5
194
330
1F
100
AcDbEntity
  8
0
  6
Continuous
 62
     7
370
    25
100
AcDbLine
 10
97.3660947645
 20
108.6031242391
 30
0.0
 11
97.0809237922
 21
108.6031242391
 31
0.0
  0
LINE
  5
195
330
1F
100
AcDbEntity
  8
0
  6
Continuous
 62
     7
370
    25
100
AcDbLine
 10
96.4791776503
 20
108.6031242391
 30
0.0
 11
95.0706379379
 21
108.6031242391
 31
0.0
  0
LINE
  5
196
330
1F
100
AcDbEntity
  8
0
  6
Continuous
 62
     7
370
    25
100
AcDbLine
 10
94.4689812029
 20
108.6031242391
 30
0.0
 11
93.0597485865
 21
108.6031242391
 31
0.0
  0
LINE
  5
197
330
1F
100
AcDbEntity
  8
0
  6
Continuous
 62
     7
370
    25
100
AcDbLine
 10
92.4570860232
 20
108.6031242391
 30
0.0
 11
91.0489709938
 21
108.6031242391
 31
0.0
  0
LINE
  5
198
330
1F
100
AcDbEntity
  8
0
  6
Continuous
 62
     7
370
    25
100
AcDbLine
 10
90.4475899304
 20
108.6031242391
 30
0.0
 11
89.0368373955
 21
108.6031242391
 31
0.0
  0
LINE
  5
199
330
1F
100
AcDbEntity
  8
0
  6
Continuous
 62
     7
370
    25
100
AcDbLine
 10
88.4351061548
 20
108.6031242391
 30
0.0
 11
87.0266931022
 21
108.6031242391
 31
0.0
  0
LINE
  5
19A
330
1F
100
AcDbEntity
  8
0
  6
Continuous
 62
     7
370
    25
100
AcDbLine
 10
86.4248128498
 20
108.6031242391
 30
0.0
 11
85.0143210853
 21
108.6031242391
 31
0.0
  0
LINE
  5
19B
330
1F
100
AcDbEntity
  8
0
  6
Continuous
 62
     7
370
    25
100
AcDbLine
 10
84.4129623736
 20
108.6031242391
 30
0.0
 11
83.0049143995
 21
108.6031242391
 31
0.0
  0
LINE
  5
19C
330
1F
100
AcDbEntity
  8
0
  6
Continuous
 62
     7
370
    25
100
AcDbLine
 10
82.4036525453
 20
108.6031242391
 30
0.0
 11
80.9927509988
 21
108.6031242391
 31
0.0
  0
LINE
  5
19D
330
1F
100
AcDbEntity
  8
0
  6
Continuous
 62
     7
370
    25
100
AcDbLine
 10
80.3910421098
 20
108.6031242391
 30
0.0
 11
78.9826663101
 21
108.6031242391
 31
0.0
  0
LINE
  5
19E
330
1F
100
AcDbEntity
  8
0
  6
Continuous
 62
     7
370
    25
100
AcDbLine
 10
78.3806370462
 20
108.6031242391
 30
0.0
 11
76.9702495898
 21
108.6031242391
 31
0.0
  0
LINE
  5
19F
330
1F
100
AcDbEntity
  8
0
  6
Continuous
 62
     7
370
    25
100
AcDbLine
 10
88.86609244
 20
111.6088203504
 30
0.0
 11
95.6160949434
 21
111.6088203504
 31
0.0
  0
LINE
  5
1A0
330
1F
100
AcDbEntity
  8
0
  6
Continuous
 62
     7
370
    25
100
AcDbLine
 10
88.86609244
 20
111.6088203504
 30
0.0
 11
88.86609244
 21
114.3031244516
 31
0.0
  0
LINE
  5
1A1
330
1F
100
AcDbEntity
  8
0
  6
Continuous
 62
     7
370
    25
100
AcDbLine
 10
88.86609244
 20
100.3031240195
 30
0.0
 11
88.86609244
 21
108.398663078
 31
0.0
  0
LINE
  5
1A2
330
1F
100
AcDbEntity
  8
0
  6
Continuous
 62
     7
370
    25
100
AcDbLine
 10
95.366098162
 20
108.398663078
 30
0.0
 11
88.86609244
 21
108.398663078
 31
0.0
  0
LINE
  5
1A3
330
1F
100
AcDbEntity
  8
0
  6
Continuous
 62
     7
370
    25
100
AcDbLine
 10
95.366098162
 20
108.398663078
 30
0.0
 11
95.366098162
 21
105.741393019
 31
0.0
  0
LINE
  5
1A4
330
1F
100
AcDbEntity
  8
0
  6
Continuous
 62
     7
370
    25
100
AcDbLine
 10
95.366098162
 20
105.741393019
 30
0.0
 11
93.1160973275
 21
105.741393019
 31
0.0
  0
SPLINE
  5
1A5
330
1F
100
AcDbEntity
  8
0
  6
Continuous
 62
     7
370
    25
100
AcDbSpline
210
0.0
220
0.0
230
1.0
 70
     8
 71
     3
 72
    17
 73
    13
 74
     0
 42
0.00000001
 43
0.00000001
 40
0.0
 40
0.0
 40
0.0
 40
0.0
 40
0.1126756624051523
 40
0.2245270311837021
 40
0.3350904369363522
 40
0.4413529462371105
 40
0.5407880468669073
 40
0.6367892487003851
 40
0.7366468116864615
 40
0.8453455678622261
 40
0.9590373109071927
 40
1.0
 40
1.0
 40
1.0
 40
1.0
 10
93.1160973275466
 20
105.7413930190288
 30
0.0
 10
92.92051317365107
 20
105.72252280047
 30
0.0
 10
92.53077568745962
 20
105.6849204109177
 30
0.0
 10
92.01144617565171
 20
105.3956016681856
 30
0.0
 10
91.61418875766493
 20
104.9786038935843
 30
0.0
 10
91.38271204697392
 20
104.470989045537
 30
0.0
 10
91.3423815519111
 20
103.9395543087737
 30
0.0
 10
91.49824325469412
 20
103.4404973980897
 30
0.0
 10
91.83967877638668
 20
103.0236881661376
 30
0.0
 10
92.32846186713365
 20
102.7377313412367
 30
0.0
 10
92.77807083564996
 20
102.6287350551501
 30
0.0
 10
93.04531377851168
 20
102.6207967426151
 30
0.0
 10
93.1160973275466
 20
102.6186941541293
 30
0.0
  0
LINE
  5
1A6
330
1F
100
AcDbEntity
  8
0
  6
Continuous
 62
     7
370
    25
100
AcDbLine
 10
93.1160973275
 20
102.6186941541
 30
0.0
 11
95.6160949434
 21
102.6186941541
 31
0.0
  0
SPLINE
  5
1A7
330
1F
100
AcDbEntity
  8
0
  6
Continuous
 62
     7
370
    25
100
AcDbSpline
210
0.0
220
0.0
230
1.0
 70
     8
 71
     3
 72
    12
 73
     8
 74
     0
 42
0.00000001
 43
0.00000001
 40
0.0
 40
0.0
 40
0.0
 40
0.0
 40
0.2210542409969211
 40
0.4321272025331969
 40
0.6384257454354628
 40
0.8464522385260859
 40
1.0
 40
1.0
 40
1.0
 40
1.0
 10
95.6160949433608
 20
102.6186941541293
 30
0.0
 10
95.80383732536096
 20
102.6323668925001
 30
0.0
 10
96.17084494287948
 20
102.6590950030151
 30
0.0
 10
96.67789418949624
 20
102.8760686786291
 30
0.0
 10
97.08754457695262
 20
103.2228961597747
 30
0.0
 10
97.32977846733979
 20
103.6594449795353
 30
0.0
 10
97.3552695892145
 20
103.9667057715841
 30
0.0
 10
97.36609476454687
 20
104.0971885319361
 30
0.0
  0
LINE
  5
1A8
330
1F
100
AcDbEntity
  8
0
  6
Continuous
 62
     7
370
    25
100
AcDbLine
 10
97.3660947645
 20
104.0971885319
 30
0.0
 11
97.3660947645
 21
110.0923100836
 31
0.0
  0
SPLINE
  5
1A9
330
1F
100
AcDbEntity
  8
0
  6
Continuous
 62
     7
370
    25
100
AcDbSpline
210
0.0
220
0.0
230
1.0
 70
     8
 71
     3
 72
    12
 73
     8
 74
     0
 42
0.00000001
 43
0.00000001
 40
0.0
 40
0.0
 40
0.0
 40
0.0
 40
0.2234640755267595
 40
0.4386568196384728
 40
0.6480321475607744
 40
0.8556741261862396
 40
1.0
 40
1.0
 40
1.0
 40
1.0
 10
95.6160949433608
 20
111.6088203504243
 30
0.0
 10
95.80807038926797
 20
111.5941221133773
 30
0.0
 10
96.18491547433055
 20
111.5652696819422
 30
0.0
 10
96.70169990578725
 20
111.3314191224475
 30
0.0
 10
97.1088235797055
 20
110.9624073590512
 30
0.0
 10
97.33422735127373
 20
110.5184388014084
 30
0.0
 10
97.35682748586989
 20
110.2162314557761
 30
0.0
 10
97.36609476454687
 20
110.0923100836136
 30
0.0
  0
LINE
  5
1AA
330
1F
100
AcDbEntity
  8
0
  6
Continuous
 62
     7
370
    25
100
AcDbLine
 10
104.3660940493
 20
104.7355282004
 30
0.0
 11
104.3660940493
 21
114.3031244516
 31
0.0
  0
LINE
  5
1AB
330
1F
100
AcDbEntity
  8
0
  6
Continuous
 62
     7
370
    25
100
AcDbLine
 10
104.3660940493
 20
100.3031240195
 30
0.0
 11
104.3660940493
 21
104.7355282004
 31
0.0
  0
LINE
  5
1AC
330
1F
100
AcDbEntity
  8
0
  6
Continuous
 62
     7
370
    25
100
AcDbLine
 10
104.8660950626
 20
104.9189279671
 30
0.0
 11
104.8660950626
 21
100.8031241014
 31
0.0
  0
LINE
  5
1AD
330
1F
100
AcDbEntity
  8
0
  6
Continuous
 62
     7
370
    25
100
AcDbLine
 10
104.8660950626
 20
113.8031243696
 30
0.0
 11
104.8660950626
 21
104.9189279671
 31
0.0
  0
SPLINE
  5
1AE
330
1F
100
AcDbEntity
  8
0
  6
Continuous
 62
     7
370
    25
100
AcDbSpline
210
0.0
220
0.0
230
1.0
 70
     8
 71
     3
 72
    12
 73
     8
 74
     0
 42
0.00000001
 43
0.00000001
 40
0.0
 40
0.0
 40
0.0
 40
0.0
 40
0.2200421037868646
 40
0.4293183794418674
 40
0.6344331159838993
 40
0.8427707889784218
 40
1.0
 40
1.0
 40
1.0
 40
1.0
 10
95.6160949433608
 20
102.855192346082
 30
0.0
 10
95.80222089844122
 20
102.8683573537025
 30
0.0
 10
96.16536636938525
 20
102.8940432548991
 30
0.0
 10
96.66905927128123
 20
103.1033632813105
 30
0.0
 10
97.0801855390468
 20
103.4414239029246
 30
0.0
 10
97.32836553812386
 20
103.8757989882022
 30
0.0
 10
97.35474782343682
 20
104.1853463393276
 30
0.0
 10
97.36609476454686
 20
104.3184817187049
 30
0.0
  0
LINE
  5
1AF
330
1F
100
AcDbEntity
  8
0
  6
Continuous
 62
     7
370
    25
100
AcDbLine
 10
93.1160973275
 20
102.8551923461
 30
0.0
 11
95.6160949434
 21
102.8551923461
 31
0.0
  0
SPLINE
  5
1B0
330
1F
100
AcDbEntity
  8
0
  6
Continuous
 62
     7
370
    25
100
AcDbSpline
210
0.0
220
0.0
230
1.0
 70
     8
 71
     3
 72
    13
 73
     9
 74
     0
 42
0.00000001
 43
0.00000001
 40
0.0
 40
0.0
 40
0.0
 40
0.0
 40
0.0619583881363197
 40
0.2559266144922158
 40
0.4582079370573218
 40
0.6804999597263789
 40
0.9141157442397418
 40
1.0
 40
1.0
 40
1.0
 40
1.0
 10
91.38598310597372
 20
104.3193695019492
 30
0.0
 10
91.38024000427396
 20
104.2671283096381
 30
0.0
 10
91.35651742822066
 20
104.0513397475503
 30
0.0
 10
91.50351497061878
 20
103.6717060522787
 30
0.0
 10
91.83120553063847
 20
103.258390396827
 30
0.0
 10
92.32294254336895
 20
102.9741663785049
 30
0.0
 10
92.77389780497961
 20
102.8653984210082
 30
0.0
 10
93.043599326009
 20
102.8573545935046
 30
0.0
 10
93.1160973275466
 20
102.855192346082
 30
0.0
  0
LINE
  5
1B1
330
1F
100
AcDbEntity
  8
0
  6
Continuous
 62
     7
370
    25
100
AcDbLine
 10
88.86609244
 20
111.3611304551
 30
0.0
 11
95.6160949434
 21
111.3611304551
 31
0.0
  0
SPLINE
  5
1B2
330
1F
100
AcDbEntity
  8
0
  6
Continuous
 62
     7
370
    25
100
AcDbSpline
210
0.0
220
0.0
230
1.0
 70
     8
 71
     3
 72
    12
 73
     8
 74
     0
 42
0.00000001
 43
0.00000001
 40
0.0
 40
0.0
 40
0.0
 40
0.0
 40
0.2230491346285524
 40
0.4373241491591542
 40
0.6461735188243943
 40
0.8539945743527622
 40
1.0
 40
1.0
 40
1.0
 40
1.0
 10
95.6160949433608
 20
111.3611304550924
 30
0.0
 10
95.80730640828588
 20
111.3467528690251
 30
0.0
 10
96.18220762163105
 20
111.3185632703327
 30
0.0
 10
96.6976828747407
 20
111.0893082817715
 30
0.0
 10
97.10599671107283
 20
110.724829243962
 30
0.0
 10
97.33378673108203
 20
110.2815840950402
 30
0.0
 10
97.35665729544282
 20
109.978361077315
 30
0.0
 10
97.36609476454687
 20
109.8532370175728
 30
0.0
  0
LINE
  5
1B3
330
1F
100
AcDbEntity
  8
0
  6
Continuous
 62
     7
370
    25
100
AcDbLine
 10
88.86609244
 20
111.3611304551
 30
0.0
 11
88.86609244
 21
108.6031242391
 31
0.0
  0
LINE
  5
1B4
330
1F
100
AcDbEntity
  8
0
  6
Continuous
 62
     7
370
    25
100
AcDbLine
 10
95.6160949434
 20
111.6088203504
 30
0.0
 11
95.6160949434
 21
111.3611304551
 31
0.0
  0
LINE
  5
1B5
330
1F
100
AcDbEntity
  8
0
  6
Continuous
 62
     7
370
    25
100
AcDbLine
 10
93.1160973275
 20
102.6186941541
 30
0.0
 11
93.1160973275
 21
102.8551923461
 31
0.0
  0
LINE
  5
1B6
330
1F
100
AcDbEntity
  8
0
  6
Continuous
 62
     7
370
    25
100
AcDbLine
 10
95.6160949434
 20
102.6186941541
 30
0.0
 11
95.6160949434
 21
102.8551923461
 31
0.0
  0
LINE
  5
1B7
330
1F
100
AcDbEntity
  8
0
  6
Continuous
 62
     7
370
    25
100
AcDbLine
 10
88.86609244
 20
111.6088203504
 30
0.0
 11
88.86609244
 21
111.3611304551
 31
0.0
  0
SPLINE
  5
1B8
330
1F
100
AcDbEntity
  8
0
  6
Continuous
 62
     7
370
    25
100
AcDbSpline
210
0.0
220
0.0
230
1.0
 70
     8
 71
     3
 72
    23
 73
    19
 74
     0
 42
0.00000001
 43
0.00000001
 40
0.0
 40
0.0
 40
0.0
 40
0.0
 40
0.0037779550123656
 40
0.0228079935636065
 40
0.0602142232867985
 40
0.1138868662497349
 40
0.1740663043238218
 40
0.3118736112404975
 40
0.4549182374885942
 40
0.5916348425913233
 40
0.7121761679551611
 40
0.7910253003191827
 40
0.8182836333692564
 40
0.8374614123433597
 40
0.8546528322253375
 40
0.8883112647404545
 40
0.9711667938843533
 40
0.9999999999999999
 40
0.9999999999999999
 40
0.9999999999999999
 40
0.9999999999999999
 10
57.52582412136768
 20
105.2982747438856
 30
0.0
 10
57.52846993004697
 20
105.3051904468729
 30
0.0
 10
57.54444301260886
 20
105.3469414229182
 30
0.0
 10
57.48241513727709
 20
105.4611951905521
 30
0.0
 10
57.45101098512469
 20
105.6658905139134
 30
0.0
 10
57.38370455001832
 20
105.9530226468037
 30
0.0
 10
57.31206058216893
 20
106.432880652491
 30
0.0
 10
57.20756992149965
 20
107.0838442575143
 30
0.0
 10
57.08155994380545
 20
107.8796133725861
 30
0.0
 10
56.96868884006827
 20
108.6467301846074
 30
0.0
 10
56.83923103635731
 20
109.2770993672096
 30
0.0
 10
56.68710295769568
 20
109.7041648556426
 30
0.0
 10
56.49928338656103
 20
109.8677610076774
 30
0.0
 10
56.38019102160491
 20
109.9052862846111
 30
0.0
 10
56.24051774485153
 20
109.9036917774615
 30
0.0
 10
56.02741999129542
 20
109.7277876677405
 30
0.0
 10
55.91676911036109
 20
109.4635704169802
 30
0.0
 10
55.85713463249735
 20
109.2565643028685
 30
0.0
 10
55.84173958672259
 20
109.2031242675641
 30
0.0
  0
SPLINE
  5
1B9
330
1F
100
AcDbEntity
  8
0
  6
Continuous
 62
     7
370
    25
100
AcDbSpline
210
0.0
220
0.0
230
1.0
 70
     8
 71
     3
 72
    23
 73
    19
 74
     0
 42
0.00000001
 43
0.00000001
 40
0.0
 40
0.0
 40
0.0
 40
0.0
 40
0.0037779568891142
 40
0.0228086244067707
 40
0.0602148727119969
 40
0.1138875423375212
 40
0.1740665907407603
 40
0.3118743664161617
 40
0.4549186653622281
 40
0.5916357425042974
 40
0.7121765596001838
 40
0.7910268478097074
 40
0.8182831955531432
 40
0.8374634368635484
 40
0.8546522952905269
 40
0.8883107445259107
 40
0.9711675164862147
 40
1.0
 40
1.0
 40
1.0
 40
1.0
 10
59.69249766243671
 20
105.2982747438856
 30
0.0
 10
59.6951435608018
 20
105.3051904716942
 30
0.0
 10
59.71111761868529
 20
105.3469427316363
 30
0.0
 10
59.649061814276
 20
105.4611910145257
 30
0.0
 10
59.61767645626889
 20
105.6658921498545
 30
0.0
 10
59.55035660282299
 20
105.9530205594869
 30
0.0
 10
59.47875140737974
 20
106.432885237698
 30
0.0
 10
59.37420966013393
 20
107.083839392005
 30
0.0
 10
59.24825021609041
 20
107.8796185039859
 30
0.0
 10
59.13533077847287
 20
108.6467226242065
 30
0.0
 10
59.00591971271829
 20
109.2771124579217
 30
0.0
 10
58.85375631768612
 20
109.7041497940921
 30
0.0
 10
58.66595155589233
 20
109.8677686254352
 30
0.0
 10
58.54685858146131
 20
109.9052835365503
 30
0.0
 10
58.40718705828355
 20
109.903690597719
 30
0.0
 10
58.19409525685327
 20
109.7277825951689
 30
0.0
 10
58.08341570578258
 20
109.463578438706
 30
0.0
 10
58.02380228116384
 20
109.2565646864604
 30
0.0
 10
58.00841312779162
 20
109.2031242675641
 30
0.0
  0
SPLINE
  5
1BA
330
1F
100
AcDbEntity
  8
0
  6
Continuous
 62
     7
370
    25
100
AcDbSpline
210
0.0
220
0.0
230
1.0
 70
     8
 71
     3
 72
    23
 73
    19
 74
     0
 42
0.00000001
 43
0.00000001
 40
0.0
 40
0.0
 40
0.0
 40
0.0
 40
0.0037787557345766
 40
0.0228093866680191
 40
0.060215563064144
 40
0.1138881295102902
 40
0.17406748179137
 40
0.3118745922472007
 40
0.4549190145680255
 40
0.5916354247648358
 40
0.7121765782825563
 40
0.7910255982376823
 40
0.8182838924277326
 40
0.8374616440616118
 40
0.8546530394351587
 40
0.888311423966143
 40
0.9711668349895471
 40
1.0
 40
1.0
 40
1.0
 40
1.0
 10
61.85915630234454
 20
105.2982747438856
 30
0.0
 10
61.86180770922508
 20
105.3051903336856
 30
0.0
 10
61.87781217445128
 20
105.3469343290283
 30
0.0
 10
61.81571885753826
 20
105.4611966785729
 30
0.0
 10
61.78435743103167
 20
105.6658891990146
 30
0.0
 10
61.71703188395364
 20
105.9530230935895
 30
0.0
 10
61.64539614963463
 20
106.4328803403345
 30
0.0
 10
61.54090086001685
 20
107.0838443720406
 30
0.0
 10
61.41489244812075
 20
107.8796133427817
 30
0.0
 10
61.30202094590651
 20
108.6467301915334
 30
0.0
 10
61.17256322969639
 20
109.2770993660701
 30
0.0
 10
61.02043513783302
 20
109.70416485572
 30
0.0
 10
60.83261556762135
 20
109.8677610076697
 30
0.0
 10
60.7135232025654
 20
109.9052862846126
 30
0.0
 10
60.5738499258371
 20
109.9036917774607
 30
0.0
 10
60.36075217226436
 20
109.7277876677413
 30
0.0
 10
60.25010129133877
 20
109.4635704169801
 30
0.0
 10
60.19046681347438
 20
109.2565643028685
 30
0.0
 10
60.17507176769947
 20
109.2031242675641
 30
0.0
  0
SPLINE
  5
1BB
330
1F
100
AcDbEntity
  8
0
  6
Continuous
 62
     7
370
    25
100
AcDbSpline
210
0.0
220
0.0
230
1.0
 70
     8
 71
     3
 72
     9
 73
     5
 74
     0
 42
0.00000001
 43
0.00000001
 40
0.0
 40
0.0
 40
0.0
 40
0.0
 40
0.8556980765960852
 40
1.0
 40
1.0
 40
1.0
 40
1.0
 10
63.94889514816975
 20
106.0031242319875
 30
0.0
 10
63.94107934796011
 20
105.9498868641073
 30
0.0
 10
63.93194551860672
 20
105.8876717331675
 30
0.0
 10
63.91797898027578
 20
105.8264072850181
 30
0.0
 10
63.91596358193134
 20
105.8175667073139
 30
0.0
  0
SPLINE
  5
1BC
330
1F
100
AcDbEntity
  8
0
  6
Continuous
 62
     7
370
    25
100
AcDbSpline
210
0.0
220
0.0
230
1.0
 70
     8
 71
     3
 72
    23
 73
    19
 74
     0
 42
0.00000001
 43
0.00000001
 40
0.0
 40
0.0
 40
0.0
 40
0.0
 40
0.0037779535237319
 40
0.0228079845765362
 40
0.0602148276965654
 40
0.1138874495107841
 40
0.1740664443068727
 40
0.3118740972238995
 40
0.4549182687469264
 40
0.591635224102209
 40
0.7121759338210283
 40
0.7910250351159995
 40
0.8182833574254282
 40
0.8374635816501846
 40
0.8546524247654268
 40
0.8883108440180576
 40
0.9711675421700252
 40
0.9999999999999999
 40
0.9999999999999999
 40
0.9999999999999999
 40
0.9999999999999999
 10
64.02582984341356
 20
105.2982747438856
 30
0.0
 10
64.02847564275733
 20
105.3051904445765
 30
0.0
 10
64.04444866895945
 20
105.3469414067583
 30
0.0
 10
63.98242269264477
 20
105.461196992543
 30
0.0
 10
63.95099470114548
 20
105.6658873919673
 30
0.0
 10
63.88369361900455
 20
105.9530217746518
 30
0.0
 10
63.81208017952057
 20
106.4328843661301
 30
0.0
 10
63.70754340288498
 20
107.0838399412268
 30
0.0
 10
63.58158087189727
 20
107.879617535975
 30
0.0
 10
63.46866707842065
 20
108.6467256255641
 30
0.0
 10
63.33924107238963
 20
109.2771020715632
 30
0.0
 10
63.18710800728508
 20
109.7041635900733
 30
0.0
 10
62.99928584233086
 20
109.8677654595326
 30
0.0
 10
62.88019108321902
 20
109.9052839262335
 30
0.0
 10
62.74051906885975
 20
109.9036903907169
 30
0.0
 10
62.5274275924317
 20
109.7277827829784
 30
0.0
 10
62.41674787127756
 20
109.4635784198986
 30
0.0
 10
62.35713445896411
 20
109.2565646826014
 30
0.0
 10
62.3417453087685
 20
109.2031242675641
 30
0.0
  0
SPLINE
  5
1BD
330
1F
100
AcDbEntity
  8
0
  6
Continuous
 62
     7
370
    25
100
AcDbSpline
210
0.0
220
0.0
230
1.0
 70
     8
 71
     3
 72
     9
 73
     5
 74
     0
 42
0.00000001
 43
0.00000001
 40
0.0
 40
0.0
 40
0.0
 40
0.0
 40
0.8556980765960852
 40
1.0
 40
1.0
 40
1.0
 40
1.0
 10
66.11556868923877
 20
106.0031242319875
 30
0.0
 10
66.10775288902913
 20
105.9498868641073
 30
0.0
 10
66.09861905967574
 20
105.8876717331675
 30
0.0
 10
66.08465252134481
 20
105.8264072850181
 30
0.0
 10
66.08263712300037
 20
105.8175667073139
 30
0.0
  0
SPLINE
  5
1BE
330
1F
100
AcDbEntity
  8
0
  6
Continuous
 62
     7
370
    25
100
AcDbSpline
210
0.0
220
0.0
230
1.0
 70
     8
 71
     3
 72
    24
 73
    20
 74
     0
 42
0.00000001
 43
0.00000001
 40
0.0
 40
0.0
 40
0.0
 40
0.0
 40
0.0034148844397074
 40
0.0206129808548246
 40
0.0544171689782433
 40
0.1029213922914868
 40
0.1573058373657996
 40
0.281842957579889
 40
0.4111127082402296
 40
0.5346645212336957
 40
0.6435982916082869
 40
0.7148546284143764
 40
0.7394881139373558
 40
0.7568191642203516
 40
0.7723528098068085
 40
0.8027720235898123
 40
0.877648960265128
 40
0.9416353847708675
 40
1.0
 40
1.0
 40
1.0
 40
1.0
 10
66.19248848332141
 20
105.2982747438856
 30
0.0
 10
66.19513989021034
 20
105.3051903336869
 30
0.0
 10
66.21114435548715
 20
105.3469343290373
 30
0.0
 10
66.14905103628872
 20
105.4611966782343
 30
0.0
 10
66.1176896318383
 20
105.6658892020298
 30
0.0
 10
66.05036395190078
 20
105.9530230764032
 30
0.0
 10
65.9787290638822
 20
106.4328804518297
 30
0.0
 10
65.87422623925987
 20
107.0838425588694
 30
0.0
 10
65.74825047793375
 20
107.8796165076817
 30
0.0
 10
65.63534636930582
 20
108.6467287892448
 30
0.0
 10
65.50589915417544
 20
109.2770986974842
 30
0.0
 10
65.35376249416926
 20
109.7041662595667
 30
0.0
 10
65.16595267406402
 20
109.8677595466948
 30
0.0
 10
65.0468479848626
 20
109.9052883971458
 30
0.0
 10
64.90724557524199
 20
109.9036763079664
 30
0.0
 10
64.69334313448702
 20
109.7279472630429
 30
0.0
 10
64.55822861492655
 20
109.3859002351216
 30
0.0
 10
64.43375883099222
 20
108.983891416878
 30
0.0
 10
64.38767751114204
 20
108.7260982549544
 30
0.0
 10
64.36569552792285
 20
108.6031242390656
 30
0.0
  0
SPLINE
  5
1BF
330
1F
100
AcDbEntity
  8
0
  6
Continuous
 62
     7
370
    25
100
AcDbSpline
210
0.0
220
0.0
230
1.0
 70
     8
 71
     3
 72
    20
 73
    16
 74
     0
 42
0.00000001
 43
0.00000001
 40
0.0
 40
0.0
 40
0.0
 40
0.0
 40
0.0015147587733758
 40
0.0349824529812026
 40
0.119748271574668
 40
0.2453807279700758
 40
0.3948505490262288
 40
0.5371421350799698
 40
0.6519129286766919
 40
0.7374435946971477
 40
0.7966004822756061
 40
0.8219233565676213
 40
0.8513529446174415
 40
0.892895077791779
 40
1.0
 40
1.0
 40
1.0
 40
1.0
 10
56.19746010674213
 20
109.3162727426299
 30
0.0
 10
56.19675212975972
 20
109.3134077819166
 30
0.0
 10
56.18040182241425
 20
109.2472432181551
 30
0.0
 10
56.32941362701853
 20
109.029995914662
 30
0.0
 10
56.3557676108203
 20
108.5608118669691
 30
0.0
 10
56.49115472547152
 20
107.8720229403694
 30
0.0
 10
56.60864948785627
 20
107.071054683235
 30
0.0
 10
56.72988587565644
 20
106.2914903157845
 30
0.0
 10
56.83981466899336
 20
105.6339689003944
 30
0.0
 10
56.96132150152899
 20
105.1477253087443
 30
0.0
 10
57.11084893638203
 20
104.8398004347614
 30
0.0
 10
57.2973491635049
 20
104.7095929865811
 30
0.0
 10
57.49469544539505
 20
104.6917919808613
 30
0.0
 10
57.80569522647916
 20
104.8955304089178
 30
0.0
 10
57.87397833699023
 20
105.1905518730889
 30
0.0
 10
57.92317848576281
 20
105.4031242034891
 30
0.0
  0
SPLINE
  5
1C0
330
1F
100
AcDbEntity
  8
0
  6
Continuous
 62
     7
370
    25
100
AcDbSpline
210
0.0
220
0.0
230
1.0
 70
     8
 71
     3
 72
    20
 73
    16
 74
     0
 42
0.00000001
 43
0.00000001
 40
0.0
 40
0.0
 40
0.0
 40
0.0
 40
0.0015153417998204
 40
0.034983762025449
 40
0.1197494456321851
 40
0.2453812955274106
 40
0.3948512759234496
 40
0.5371426353826019
 40
0.6519132462106763
 40
0.7374430797663777
 40
0.7965998731394724
 40
0.8219248487968212
 40
0.8513543899810073
 40
0.8928942355618031
 40
1.0
 40
1.0
 40
1.0
 40
1.0
 10
58.36413364781117
 20
109.3162727426299
 30
0.0
 10
58.3634205608129
 20
109.3134078047926
 30
0.0
 10
58.34695796085436
 20
109.2472667509864
 30
0.0
 10
58.49622136235779
 20
109.0299742989906
 30
0.0
 10
58.52237168198187
 20
108.5608259662937
 30
0.0
 10
58.65782987712477
 20
107.8720148135164
 30
0.0
 10
58.77532316087112
 20
107.0710579728738
 30
0.0
 10
58.89655704303213
 20
106.2914894864085
 30
0.0
 10
59.00649449906221
 20
105.6339711743168
 30
0.0
 10
59.12797891621167
 20
105.1477258906933
 30
0.0
 10
59.27750671628577
 20
104.8397912374234
 30
0.0
 10
59.46402007180515
 20
104.7095970160575
 30
0.0
 10
59.66136483115049
 20
104.6917889217919
 30
0.0
 10
59.97235338507848
 20
104.8955430176982
 30
0.0
 10
60.04064493313719
 20
105.1905549806102
 30
0.0
 10
60.08985202683184
 20
105.4031242034891
 30
0.0
  0
SPLINE
  5
1C1
330
1F
100
AcDbEntity
  8
0
  6
Continuous
 62
     7
370
    25
100
AcDbSpline
210
0.0
220
0.0
230
1.0
 70
     8
 71
     3
 72
    20
 73
    16
 74
     0
 42
0.00000001
 43
0.00000001
 40
0.0
 40
0.0
 40
0.0
 40
0.0
 40
0.0015147585555593
 40
0.0349824479508582
 40
0.1197488021382887
 40
0.2453808340329358
 40
0.3948510309620435
 40
0.5371422016371794
 40
0.6519129787302957
 40
0.7374436324517654
 40
0.7966005115236872
 40
0.8219233821743688
 40
0.8513529659923256
 40
0.8928950931930616
 40
1.0
 40
1.0
 40
1.0
 40
1.0
 10
60.53079228771899
 20
109.3162727426299
 30
0.0
 10
60.53008431119478
 20
109.3134077820109
 30
0.0
 10
60.51373401443098
 20
109.2472432204261
 30
0.0
 10
60.66274402732721
 20
109.0299944143676
 30
0.0
 10
60.68912781562459
 20
108.5608163625712
 30
0.0
 10
60.82447114513467
 20
107.8720186511364
 30
0.0
 10
60.9420101869206
 20
107.0710584381087
 30
0.0
 10
61.06321224719562
 20
106.2914886159759
 30
0.0
 10
61.17314790563838
 20
105.6339690678925
 30
0.0
 10
61.29465351393041
 20
105.1477252819971
 30
0.0
 10
61.44418113187439
 20
104.8398004370646
 30
0.0
 10
61.63068134156094
 20
104.7095929861176
 30
0.0
 10
61.82802762755775
 20
104.6917919810495
 30
0.0
 10
62.13902740647006
 20
104.8955304087614
 30
0.0
 10
62.20731051755423
 20
105.1905518730234
 30
0.0
 10
62.25651066673969
 20
105.4031242034891
 30
0.0
  0
SPLINE
  5
1C2
330
1F
100
AcDbEntity
  8
0
  6
Continuous
 62
     7
370
    25
100
AcDbSpline
210
0.0
220
0.0
230
1.0
 70
     8
 71
     3
 72
    22
 73
    18
 74
     0
 42
0.00000001
 43
0.00000001
 40
0.0
 40
0.0
 40
0.0
 40
0.0
 40
0.0013708043487899
 40
0.0316469149911917
 40
0.1083274155423101
 40
0.2219761555185344
 40
0.3571892798213898
 40
0.4859084997128676
 40
0.5897319753505369
 40
0.6671037391356618
 40
0.7206179955403316
 40
0.7435274056603494
 40
0.7701498766058184
 40
0.8077275379472819
 40
0.9097048415352245
 40
0.9806702762317597
 40
1.0
 40
1.0
 40
1.0
 40
1.0
 10
62.69746582878803
 20
109.3162727426299
 30
0.0
 10
62.69675274179
 20
109.3134078047927
 30
0.0
 10
62.68029014183689
 20
109.2472667509884
 30
0.0
 10
62.82955354204652
 20
109.0299742985566
 30
0.0
 10
62.85570387792671
 20
108.5608259713367
 30
0.0
 10
62.99116196803707
 20
107.8720147831721
 30
0.0
 10
63.108655734574
 20
107.0710581051898
 30
0.0
 10
63.22988795788915
 20
106.2914890598315
 30
0.0
 10
63.33983001166213
 20
105.6339722967964
 30
0.0
 10
63.46130321815031
 20
105.1477232361132
 30
0.0
 10
63.61085399793289
 20
104.8397963250923
 30
0.0
 10
63.79732864953584
 20
104.7095890637283
 30
0.0
 10
63.9948232670469
 20
104.6918314591904
 30
0.0
 10
64.3143026491529
 20
104.901572168846
 30
0.0
 10
64.42253372869887
 20
105.3751000154432
 30
0.0
 10
64.51393603659302
 20
105.7703289017812
 30
0.0
 10
64.54386849167857
 20
105.9620763481881
 30
0.0
 10
64.55027621163104
 20
106.0031242319875
 30
0.0
  0
SPLINE
  5
1C3
330
1F
100
AcDbEntity
  8
0
  6
Continuous
 62
     7
370
    25
100
AcDbSpline
210
0.0
220
0.0
230
1.0
 70
     8
 71
     3
 72
    22
 73
    18
 74
     0
 42
0.00000001
 43
0.00000001
 40
0.0
 40
0.0
 40
0.0
 40
0.0
 40
0.0013702754405354
 40
0.0316456963394862
 40
0.1083267310169051
 40
0.2219755281918642
 40
0.3571887205466807
 40
0.485907647972824
 40
0.5897311758642308
 40
0.6671036084392638
 40
0.7206178917773404
 40
0.7435253760157583
 40
0.7701478603601585
 40
0.807727550167388
 40
0.9097049050799008
 40
0.9806698977941354
 40
1.0
 40
1.0
 40
1.0
 40
1.0
 10
64.86412446869586
 20
109.3162727426299
 30
0.0
 10
64.86341649217191
 20
109.313407782011
 30
0.0
 10
64.84706619541343
 20
109.247243220428
 30
0.0
 10
64.99607620701256
 20
109.0299944139344
 30
0.0
 10
65.02246001161052
 20
108.5608163676041
 30
0.0
 10
65.15780323580029
 20
107.8720186208533
 30
0.0
 10
65.27534276169847
 20
107.0710585701577
 30
0.0
 10
65.3965431585895
 20
106.2914881902604
 30
0.0
 10
65.50648342737087
 20
105.6339701881119
 30
0.0
 10
65.62797779422196
 20
105.147722632746
 30
0.0
 10
65.77752845458227
 20
104.839805514377
 30
0.0
 10
65.96398985646935
 20
104.7095850504315
 30
0.0
 10
66.1614864155988
 20
104.6918344348235
 30
0.0
 10
66.48097534063284
 20
104.9015609691002
 30
0.0
 10
66.58922493197852
 20
105.3750973607385
 30
0.0
 10
66.68057778752716
 20
105.7703334340431
 30
0.0
 10
66.71053632018041
 20
105.9620764616316
 30
0.0
 10
66.71694975270007
 20
106.0031242319875
 30
0.0
  0
SPLINE
  5
1C4
330
1F
100
AcDbEntity
  8
0
  6
Continuous
 62
     7
370
    25
100
AcDbSpline
210
0.0
220
0.0
230
1.0
 70
     8
 71
     3
 72
    20
 73
    16
 74
     0
 42
0.00000001
 43
0.00000001
 40
0.0
 40
0.0
 40
0.0
 40
0.0
 40
0.0015153417998204
 40
0.034983762025449
 40
0.1197494456321851
 40
0.2453812955274106
 40
0.3948512759234496
 40
0.5371426353826019
 40
0.6519132462106763
 40
0.7374430797663777
 40
0.7965998731394724
 40
0.8219248487968212
 40
0.8513543899810073
 40
0.8928942355618031
 40
1.0
 40
1.0
 40
1.0
 40
1.0
 10
54.0308014668343
 20
109.3162727426299
 30
0.0
 10
54.03008837983603
 20
109.3134078047926
 30
0.0
 10
54.01362577987749
 20
109.2472667509864
 30
0.0
 10
54.16288918138092
 20
109.0299742989906
 30
0.0
 10
54.189039501005
 20
108.5608259662937
 30
0.0
 10
54.32449769614793
 20
107.8720148135164
 30
0.0
 10
54.44199097989429
 20
107.0710579728738
 30
0.0
 10
54.56322486205524
 20
106.2914894864085
 30
0.0
 10
54.67316231808535
 20
105.6339711743168
 30
0.0
 10
54.79464673523481
 20
105.1477258906933
 30
0.0
 10
54.9441745353089
 20
104.8397912374234
 30
0.0
 10
55.1306878908283
 20
104.7095970160575
 30
0.0
 10
55.32803265017363
 20
104.6917889217919
 30
0.0
 10
55.63902120410162
 20
104.8955430176982
 30
0.0
 10
55.70731275216033
 20
105.1905549806102
 30
0.0
 10
55.75651984585497
 20
105.4031242034891
 30
0.0
  0
SPLINE
  5
1C5
330
1F
100
AcDbEntity
  8
0
  6
Continuous
 62
     7
370
    25
100
AcDbSpline
210
0.0
220
0.0
230
1.0
 70
     8
 71
     3
 72
    22
 73
    18
 74
     0
 42
0.00000001
 43
0.00000001
 40
0.0
 40
0.0
 40
0.0
 40
0.0
 40
0.004013817236745
 40
0.0242325819159372
 40
0.0639741270463486
 40
0.1209976169399987
 40
0.1849336831422966
 40
0.3313448894102184
 40
0.4833195385604489
 40
0.6285719532641273
 40
0.7566388169249799
 40
0.8404105943943277
 40
0.8693685739569186
 40
0.8897462504196808
 40
0.9080082206483437
 40
0.943767989133888
 40
1.0
 40
1.0
 40
1.0
 40
1.0
 10
55.35916548145985
 20
105.2982747438856
 30
0.0
 10
55.36181137982495
 20
105.3051904716935
 30
0.0
 10
55.3777854377085
 20
105.3469427316314
 30
0.0
 10
55.31572963329505
 20
105.4611910147098
 30
0.0
 10
55.28434427532827
 20
105.6658921482151
 30
0.0
 10
55.21702442163951
 20
105.9530205688318
 30
0.0
 10
55.1454192277433
 20
106.4328851770736
 30
0.0
 10
55.04087746650026
 20
107.0838399644465
 30
0.0
 10
54.91491808215039
 20
107.8796163765987
 30
0.0
 10
54.8019982791029
 20
108.6467308647313
 30
0.0
 10
54.67258794571171
 20
109.2770926120767
 30
0.0
 10
54.52038024475129
 20
109.7041729796767
 30
0.0
 10
54.33266460643943
 20
109.8677468975021
 30
0.0
 10
54.21341373788081
 20
109.9053372925829
 30
0.0
 10
54.07438260680404
 20
109.9034389250698
 30
0.0
 10
53.90320439186529
 20
109.7696663658715
 30
0.0
 10
53.84162050488341
 20
109.6125409257241
 30
0.0
 10
53.80397599114155
 20
109.5164945233175
 30
0.0
  0
SPLINE
  5
1C6
330
1F
100
AcDbEntity
  8
0
  6
Continuous
 62
     7
370
    25
100
AcDbSpline
210
0.0
220
0.0
230
1.0
 70
     8
 71
     3
 72
    25
 73
    21
 74
     0
 42
0.00000001
 43
0.00000001
 40
0.0
 40
0.0
 40
0.0
 40
0.0
 40
0.0164988546038783
 40
0.0528441272442106
 40
0.1062417321427452
 40
0.1705966999291406
 40
0.2403015989489788
 40
0.3103790349165899
 40
0.4375881948738547
 40
0.5358323154712079
 40
0.6097166919800292
 40
0.7030140683477876
 40
0.7497410203818715
 40
0.7717118311853721
 40
0.7892523501758953
 40
0.8182641723787953
 40
0.8553940285724781
 40
0.908211585616173
 40
0.9796796348858563
 40
0.9999999999999999
 40
0.9999999999999999
 40
0.9999999999999999
 40
0.9999999999999999
 10
72.4399046219704
 20
105.1229174132952
 30
0.0
 10
72.4096881689895
 20
105.1448777201282
 30
0.0
 10
72.3129079909391
 20
105.2152143147869
 30
0.0
 10
72.27242151422739
 20
105.465695474879
 30
0.0
 10
72.18897365855922
 20
105.787448403647
 30
0.0
 10
72.1240857776063
 20
106.2004997245482
 30
0.0
 10
72.05558721602287
 20
106.6456699074915
 30
0.0
 10
71.97386283418373
 20
107.2308990437216
 30
0.0
 10
71.8835723306294
 20
107.8777737857618
 30
0.0
 10
71.78949008412839
 20
108.534092717197
 30
0.0
 10
71.67745651902013
 20
109.1081687585438
 30
0.0
 10
71.59869989370254
 20
109.5829176368325
 30
0.0
 10
71.34528478492241
 20
109.8746111765233
 30
0.0
 10
71.1504024544569
 20
109.9124339763611
 30
0.0
 10
70.99972303192409
 20
109.8761578805111
 30
0.0
 10
70.85271517690272
 20
109.7503432035052
 30
0.0
 10
70.7413019066455
 20
109.5076943063307
 30
0.0
 10
70.65215959069101
 20
109.1620332300351
 30
0.0
 10
70.58970801895161
 20
108.8480539908914
 30
0.0
 10
70.55815322444482
 20
108.6475191741162
 30
0.0
 10
70.55116753948901
 20
108.6031242390656
 30
0.0
  0
SPLINE
  5
1C7
330
1F
100
AcDbEntity
  8
0
  6
Continuous
 62
     7
370
    25
100
AcDbSpline
210
0.0
220
0.0
230
1.0
 70
     8
 71
     3
 72
    19
 73
    15
 74
     0
 42
0.00000001
 43
0.00000001
 40
0.0
 40
0.0
 40
0.0
 40
0.0
 40
0.0031035180691357
 40
0.0336839579244464
 40
0.0980976868451626
 40
0.1999085373512761
 40
0.3420799547947666
 40
0.5275445362532362
 40
0.6310341539099057
 40
0.735250876459318
 40
0.8328536449872278
 40
0.9151767669865345
 40
0.9723123849719502
 40
1.0
 40
1.0
 40
1.0
 40
1.0
 10
70.28492849243854
 20
105.2878921269932
 30
0.0
 10
70.28998079341345
 20
105.2874808900525
 30
0.0
 10
70.3448158192354
 20
105.2830175399126
 30
0.0
 10
70.19695896958979
 20
105.5154561223048
 30
0.0
 10
70.21559758563151
 20
105.7447924339751
 30
0.0
 10
70.09262277399812
 20
106.2449931643596
 30
0.0
 10
70.0157252093616
 20
106.881086505534
 30
0.0
 10
69.91943811426256
 20
107.5406636541288
 30
0.0
 10
69.83562837583496
 20
108.1368428113318
 30
0.0
 10
69.76248504372197
 20
108.5979608869253
 30
0.0
 10
69.69062993712605
 20
109.0317485801364
 30
0.0
 10
69.59712168831416
 20
109.3720404409058
 30
0.0
 10
69.54516638792636
 20
109.6470277936584
 30
0.0
 10
69.43002294449728
 20
109.715256149336
 30
0.0
 10
69.39243834389423
 20
109.7375269397655
 30
0.0
  0
SPLINE
  5
1C8
330
1F
100
AcDbEntity
  8
0
  6
Continuous
 62
     7
370
    25
100
AcDbSpline
210
0.0
220
0.0
230
1.0
 70
     8
 71
     3
 72
    11
 73
     7
 74
     0
 42
0.00000001
 43
0.00000001
 40
0.0
 40
0.0
 40
0.0
 40
0.0
 40
0.1461509185542404
 40
0.431314196155391
 40
0.8175843710683285
 40
1.0
 40
1.0
 40
1.0
 40
1.0
 10
72.4415884531853
 20
104.8852161854067
 30
0.0
 10
72.48086851968388
 20
104.9284345197556
 30
0.0
 10
72.59679013327592
 20
105.0559785771127
 30
0.0
 10
72.65413408704417
 20
105.3864736831505
 30
0.0
 10
72.73043160499715
 20
105.7099429164222
 30
0.0
 10
72.76521536122436
 20
105.9319209940012
 30
0.0
 10
72.77637284172748
 20
106.0031242319875
 30
0.0
  0
SPLINE
  5
1C9
330
1F
100
AcDbEntity
  8
0
  6
Continuous
 62
     7
370
    25
100
AcDbSpline
210
0.0
220
0.0
230
1.0
 70
     8
 71
     3
 72
    20
 73
    16
 74
     0
 42
0.00000001
 43
0.00000001
 40
0.0
 40
0.0
 40
0.0
 40
0.0
 40
0.002283379387455
 40
0.0416816550082741
 40
0.1245545667941466
 40
0.2399283530014677
 40
0.3790672976788287
 40
0.5258412082834987
 40
0.6590351711982053
 40
0.7695742087757858
 40
0.8523320005343298
 40
0.9155546087528484
 40
0.9676042799936228
 40
0.990627166722665
 40
1.0
 40
1.0
 40
1.0
 40
1.0
 10
73.0364577092049
 20
109.3278374407002
 30
0.0
 10
73.03251409655353
 20
109.3277840414406
 30
0.0
 10
72.96052592720957
 20
109.3268092715327
 30
0.0
 10
73.17502252592442
 20
109.0111543579239
 30
0.0
 10
73.13304757640115
 20
108.7063844838676
 30
0.0
 10
73.27397073751885
 20
108.1134059119712
 30
0.0
 10
73.3487384209487
 20
107.4651172666339
 30
0.0
 10
73.44948419467154
 20
106.7695506712223
 30
0.0
 10
73.5427646802237
 20
106.127302809935
 30
0.0
 10
73.6368051618528
 20
105.5904381111845
 30
0.0
 10
73.73211952762958
 20
105.1759681002076
 30
0.0
 10
73.85298727334747
 20
104.8604134614281
 30
0.0
 10
74.04728138757181
 20
104.7121707399934
 30
0.0
 10
74.19507284466609
 20
104.6933465505489
 30
0.0
 10
74.24467300298404
 20
104.7157704860409
 30
0.0
 10
74.25902347935411
 20
104.722258250744
 30
0.0
  0
SPLINE
  5
1CA
330
1F
100
AcDbEntity
  8
0
  6
Continuous
 62
     7
370
    25
100
AcDbSpline
210
0.0
220
0.0
230
1.0
 70
     8
 71
     3
 72
    15
 73
    11
 74
     0
 42
0.00000001
 43
0.00000001
 40
0.0
 40
0.0
 40
0.0
 40
0.0
 40
0.0668766233889087
 40
0.125202184203679
 40
0.1730637495875117
 40
0.2112335654722715
 40
0.3054618241615361
 40
0.4039212610718204
 40
0.6338775187820085
 40
1.0
 40
1.0
 40
1.0
 40
1.0
 10
69.51573055161212
 20
109.5548591926255
 30
0.0
 10
69.50658854395053
 20
109.6007591133476
 30
0.0
 10
69.48947345546013
 20
109.6866900416446
 30
0.0
 10
69.41784619568008
 20
109.78656939074
 30
0.0
 10
69.33967178660727
 20
109.8502413428093
 30
0.0
 10
69.2265516385928
 20
109.9043815572358
 30
0.0
 10
69.05499818427
 20
109.9131152280709
 30
0.0
 10
68.80259549804647
 20
109.7340737257779
 30
0.0
 10
68.65240165331006
 20
109.2529334473058
 30
0.0
 10
68.58376793138108
 20
108.8503799633964
 30
0.0
 10
68.54161184204791
 20
108.6031242390656
 30
0.0
  0
SPLINE
  5
1CB
330
1F
100
AcDbEntity
  8
0
  6
Continuous
 62
     7
370
    25
100
AcDbSpline
210
0.0
220
0.0
230
1.0
 70
     8
 71
     3
 72
    25
 73
    21
 74
     0
 42
0.00000001
 43
0.00000001
 40
0.0
 40
0.0
 40
0.0
 40
0.0
 40
0.0011697222964492
 40
0.0180112617376184
 40
0.0620222981128945
 40
0.1257238627679066
 40
0.2048436135920828
 40
0.2953541197540532
 40
0.3924512974531273
 40
0.4892392583943627
 40
0.5775224511308751
 40
0.7184794352180437
 40
0.8233050961129033
 40
0.8592832915550452
 40
0.8929998193880868
 40
0.9098850776263091
 40
0.9321445792319997
 40
0.9621769419396028
 40
0.9803665650949429
 40
1.0
 40
1.0
 40
1.0
 40
1.0
 10
68.28143756760333
 20
105.2770338370957
 30
0.0
 10
68.28364924733467
 20
105.2768442031029
 30
0.0
 10
68.31770446081715
 20
105.2739242386893
 30
0.0
 10
68.2127030799339
 20
105.4506197481374
 30
0.0
 10
68.22239375252785
 20
105.6135685859305
 30
0.0
 10
68.13090772198669
 20
105.9750517807706
 30
0.0
 10
68.07529705815766
 20
106.383023978068
 30
0.0
 10
68.0018906194931
 20
106.8657274462685
 30
0.0
 10
67.93200953289033
 20
107.3762876605112
 30
0.0
 10
67.86075763266261
 20
107.8836512590728
 30
0.0
 10
67.77578862078781
 20
108.4707820340749
 30
0.0
 10
67.66841279829578
 20
109.0609518521021
 30
0.0
 10
67.56012564114549
 20
109.5786784571436
 30
0.0
 10
67.35176683190898
 20
109.8251670065755
 30
0.0
 10
67.20500920116191
 20
109.8992657307896
 30
0.0
 10
67.07046225000856
 20
109.9015796198539
 30
0.0
 10
66.94953703945542
 20
109.8572009955753
 30
0.0
 10
66.85343208900524
 20
109.7669448091564
 30
0.0
 10
66.79310077153612
 20
109.6576380860378
 30
0.0
 10
66.78024659395464
 20
109.589755185791
 30
0.0
 10
66.7735741652367
 20
109.5545180957326
 30
0.0
  0
SPLINE
  5
1CC
330
1F
100
AcDbEntity
  8
0
  6
Continuous
 62
     7
370
    25
100
AcDbSpline
210
0.0
220
0.0
230
1.0
 70
     8
 71
     3
 72
    23
 73
    19
 74
     0
 42
0.00000001
 43
0.00000001
 40
0.0
 40
0.0
 40
0.0
 40
0.0
 40
0.0026589444965681
 40
0.026202785283165
 40
0.0776700765725211
 40
0.1640490067356219
 40
0.2822036728053453
 40
0.4073616249603473
 40
0.524956980756674
 40
0.6222256374065044
 40
0.6857610393156659
 40
0.7230562147034578
 40
0.7494984886114205
 40
0.7720743841625267
 40
0.8028018341804303
 40
0.8488594687046871
 40
0.915223539901568
 40
1.0
 40
1.0
 40
1.0
 40
1.0
 10
69.02913313282703
 20
109.3065348337897
 30
0.0
 10
69.02345587376013
 20
109.30467770761
 30
0.0
 10
68.96750886150818
 20
109.28637650629
 30
0.0
 10
69.11901935967376
 20
109.0675126937853
 30
0.0
 10
69.10263182904761
 20
108.7746670882263
 30
0.0
 10
69.23876295550284
 20
108.2089642092906
 30
0.0
 10
69.3187219771479
 20
107.5206689532922
 30
0.0
 10
69.43005975060719
 20
106.7522678731297
 30
0.0
 10
69.53524518741457
 20
106.0331361734207
 30
0.0
 10
69.64511454770593
 20
105.4469472439677
 30
0.0
 10
69.75263311127937
 20
105.0363537323651
 30
0.0
 10
69.89684073443047
 20
104.7949186021009
 30
0.0
 10
70.06553360813913
 20
104.7021765873697
 30
0.0
 10
70.242653087327
 20
104.6970019316038
 30
0.0
 10
70.43501248629813
 20
104.8149594060427
 30
0.0
 10
70.57678957442563
 20
105.0967186430377
 30
0.0
 10
70.68149666468945
 20
105.5047451210341
 30
0.0
 10
70.73561319476345
 20
105.8240323549505
 30
0.0
 10
70.76596777809833
 20
106.0031242319875
 30
0.0
  0
SPLINE
  5
1CD
330
1F
100
AcDbEntity
  8
0
  6
Continuous
 62
     7
370
    25
100
AcDbSpline
210
0.0
220
0.0
230
1.0
 70
     8
 71
     3
 72
    17
 73
    13
 74
     0
 42
0.00000001
 43
0.00000001
 40
0.0
 40
0.0
 40
0.0
 40
0.0
 40
0.0238034685961839
 40
0.1059423534693024
 40
0.1784688999858135
 40
0.2770399778623333
 40
0.4021042209466412
 40
0.549569823209825
 40
0.7084913422267228
 40
0.8598408715757665
 40
0.9778785021033135
 40
1.0
 40
1.0
 40
1.0
 40
1.0
 10
71.01966004742359
 20
109.3339925515958
 30
0.0
 10
71.02674378009208
 20
109.2998675639391
 30
0.0
 10
71.05827142520033
 20
109.1479871146736
 30
0.0
 10
71.12374210469811
 20
108.8947857798352
 30
0.0
 10
71.18459332254776
 20
108.5288070875391
 30
0.0
 10
71.25209957326217
 20
108.1005603055914
 30
0.0
 10
71.32771444393582
 20
107.5623242418967
 30
0.0
 10
71.41586540452741
 20
106.9374308989126
 30
0.0
 10
71.50411883067103
 20
106.2705310088333
 30
0.0
 10
71.62994349430025
 20
105.6634381414637
 30
0.0
 10
71.67066908181638
 20
105.220580515265
 30
0.0
 10
71.78511487540736
 20
105.0491785539137
 30
0.0
 10
71.80317800415729
 20
105.02212595898
 30
0.0
  0
SPLINE
  5
1CE
330
1F
100
AcDbEntity
  8
0
  6
Continuous
 62
     7
370
    25
100
AcDbSpline
210
0.0
220
0.0
230
1.0
 70
     8
 71
     3
 72
    12
 73
     8
 74
     0
 42
0.00000001
 43
0.00000001
 40
0.0
 40
0.0
 40
0.0
 40
0.0
 40
0.0642813839516462
 40
0.1538008621079194
 40
0.3449159439746954
 40
0.7221871161654645
 40
1.0
 40
1.0
 40
1.0
 40
1.0
 10
73.29479914082263
 20
109.8786923918434
 30
0.0
 10
73.26064328803999
 20
109.8894206529411
 30
0.0
 10
73.17892134490391
 20
109.9150892945338
 30
0.0
 10
72.98311668744267
 20
109.8707984903438
 30
0.0
 10
72.73225515634002
 20
109.5754591625054
 30
0.0
 10
72.65373006016914
 20
109.1070369085376
 30
0.0
 10
72.58848306950377
 20
108.7531873660042
 30
0.0
 10
72.56081264389728
 20
108.6031242390656
 30
0.0
  0
SPLINE
  5
1CF
330
1F
100
AcDbEntity
  8
0
  6
Continuous
 62
     7
370
    25
100
AcDbSpline
210
0.0
220
0.0
230
1.0
 70
     8
 71
     3
 72
    16
 73
    12
 74
     0
 42
0.00000001
 43
0.00000001
 40
0.0
 40
0.0
 40
0.0
 40
0.0
 40
0.0957731678387298
 40
0.1860707254462463
 40
0.3382095511883481
 40
0.4524053517402137
 40
0.5420399996110667
 40
0.6409712138832195
 40
0.7545551670962547
 40
0.8776217005344424
 40
1.0
 40
1.0
 40
1.0
 40
1.0
 10
71.79386477841113
 20
105.0618012319812
 30
0.0
 10
71.80016988199638
 20
105.026249490981
 30
0.0
 10
71.81241960939494
 20
104.957178597869
 30
0.0
 10
71.87380154895
 20
104.8442947754687
 30
0.0
 10
71.97419617218708
 20
104.7499512841209
 30
0.0
 10
72.10189190633332
 20
104.7021630614031
 30
0.0
 10
72.21708477351496
 20
104.6999778434909
 30
0.0
 10
72.32703159170761
 20
104.734965695829
 30
0.0
 10
72.4296643721441
 20
104.8107877523831
 30
0.0
 10
72.51001144226146
 20
104.9234681152601
 30
0.0
 10
72.52871707751883
 20
105.0143556526238
 30
0.0
 10
72.53804366959308
 20
105.0596719957449
 30
0.0
  0
SPLINE
  5
1D0
330
1F
100
AcDbEntity
  8
0
  6
Continuous
 62
     7
370
    25
100
AcDbSpline
210
0.0
220
0.0
230
1.0
 70
     8
 71
     3
 72
    11
 73
     7
 74
     0
 42
0.00000001
 43
0.00000001
 40
0.0
 40
0.0
 40
0.0
 40
0.0
 40
0.1027573652993647
 40
0.3258345241400848
 40
0.6719755837565651
 40
0.9999999999999999
 40
0.9999999999999999
 40
0.9999999999999999
 40
0.9999999999999999
 10
66.89573388470386
 20
109.7366792033919
 30
0.0
 10
66.85891074790578
 20
109.7144799572615
 30
0.0
 10
66.74214783537889
 20
109.6440881096493
 30
0.0
 10
66.68688658641317
 20
109.3505302613742
 30
0.0
 10
66.59342321157351
 20
109.0087757177765
 30
0.0
 10
66.55023751448564
 20
108.7358970703932
 30
0.0
 10
66.52922492397998
 20
108.6031242390656
 30
0.0
  0
SPLINE
  5
1D1
330
1F
100
AcDbEntity
  8
0
  6
Continuous
 62
     7
370
    25
100
AcDbSpline
210
0.0
220
0.0
230
1.0
 70
     8
 71
     3
 72
    23
 73
    19
 74
     0
 42
0.00000001
 43
0.00000001
 40
0.0
 40
0.0
 40
0.0
 40
0.0
 40
0.0251724478023054
 40
0.0751807821165397
 40
0.1433376866761537
 40
0.2210668346757109
 40
0.3010532580588562
 40
0.3774388169688217
 40
0.5055029679445626
 40
0.5966567797935264
 40
0.6620633692604982
 40
0.7069209751198487
 40
0.7494542565218555
 40
0.7713930393774338
 40
0.7897036631776942
 40
0.8219327115666619
 40
0.9221902726612247
 40
1.0
 40
1.0
 40
1.0
 40
1.0
 10
66.87964063061449
 20
109.4948447659173
 30
0.0
 10
66.91395753552894
 20
109.4503528158736
 30
0.0
 10
67.016449425533
 20
109.3174718331244
 30
0.0
 10
67.0692076900177
 20
108.995160929106
 30
0.0
 10
67.15850343078947
 20
108.5756545353053
 30
0.0
 10
67.23162026940341
 20
108.0802182108543
 30
0.0
 10
67.30540498991424
 20
107.5685649256234
 30
0.0
 10
67.39114624825677
 20
106.9456505089435
 30
0.0
 10
67.48362948312979
 20
106.2990019565084
 30
0.0
 10
67.58469801907724
 20
105.6778673756547
 30
0.0
 10
67.68397877662316
 20
105.243607604552
 30
0.0
 10
67.78723106409743
 20
104.9212451709505
 30
0.0
 10
67.96414467948932
 20
104.7292599108745
 30
0.0
 10
68.15053562265537
 20
104.6943815975801
 30
0.0
 10
68.31087777497703
 20
104.7304691137239
 30
0.0
 10
68.56545060215993
 20
104.9708208988271
 30
0.0
 10
68.65238590248518
 20
105.4511837081281
 30
0.0
 10
68.72098335580243
 20
105.8352844534161
 30
0.0
 10
68.75095825566027
 20
106.0031242319875
 30
0.0
  0
LINE
  5
1D2
330
1F
100
AcDbEntity
  8
0
  6
Continuous
 62
     7
370
    25
100
AcDbLine
 10
63.8803498067
 20
106.003124232
 30
0.0
 11
65.4491440572
 21
106.003124232
 31
0.0
  0
LINE
  5
1D3
330
1F
100
AcDbEntity
  8
0
  6
Continuous
 62
     7
370
    25
100
AcDbLine
 10
66.0470233477
 20
106.003124232
 30
0.0
 11
67.5355450429
 21
106.003124232
 31
0.0
  0
LINE
  5
1D4
330
1F
100
AcDbEntity
  8
0
  6
Continuous
 62
     7
370
    25
100
AcDbLine
 10
68.1353614844
 20
106.003124232
 30
0.0
 11
69.5451305426
 21
106.003124232
 31
0.0
  0
LINE
  5
1D5
330
1F
100
AcDbEntity
  8
0
  6
Continuous
 62
     7
370
    25
100
AcDbLine
 10
70.148255042
 20
106.003124232
 30
0.0
 11
71.5585009374
 21
106.003124232
 31
0.0
  0
LINE
  5
1D6
330
1F
100
AcDbEntity
  8
0
  6
Continuous
 62
     7
370
    25
100
AcDbLine
 10
72.158511094
 20
106.003124232
 30
0.0
 11
73.5674754895
 21
106.003124232
 31
0.0
  0
LINE
  5
1D7
330
1F
100
AcDbEntity
  8
0
  6
Continuous
 62
     7
370
    25
100
AcDbLine
 10
73.180283717
 20
108.6031242391
 30
0.0
 11
71.7726306237
 21
108.6031242391
 31
0.0
  0
LINE
  5
1D8
330
1F
100
AcDbEntity
  8
0
  6
Continuous
 62
     7
370
    25
100
AcDbLine
 10
71.1713836707
 20
108.6031242391
 30
0.0
 11
69.7610781707
 21
108.6031242391
 31
0.0
  0
LINE
  5
1D9
330
1F
100
AcDbEntity
  8
0
  6
Continuous
 62
     7
370
    25
100
AcDbLine
 10
69.1569850959
 20
108.6031242391
 30
0.0
 11
67.7464411773
 21
108.6031242391
 31
0.0
  0
LINE
  5
1DA
330
1F
100
AcDbEntity
  8
0
  6
Continuous
 62
     7
370
    25
100
AcDbLine
 10
67.1482787646
 20
108.6031242391
 30
0.0
 11
65.6346933164
 21
108.6031242391
 31
0.0
  0
LINE
  5
1DB
330
1F
100
AcDbEntity
  8
0
  6
Continuous
 62
     7
370
    25
100
AcDbLine
 10
65.0330738343
 20
108.6031242391
 30
0.0
 11
63.8039664544
 21
108.6031242391
 31
0.0
  0
LINE
  5
1DC
330
1F
100
AcDbEntity
  8
0
  6
Continuous
 62
     7
370
    25
100
AcDbLine
 10
53.8039759911
 20
109.7031243495
 30
0.0
 11
41.8039665736
 21
109.7031243495
 31
0.0
  0
LINE
  5
1DD
330
1F
100
AcDbEntity
  8
0
  6
Continuous
 62
     7
370
    25
100
AcDbLine
 10
41.8039665736
 20
104.9031241215
 30
0.0
 11
53.8039759911
 21
104.9031241215
 31
0.0
  0
LINE
  5
1DE
330
1F
100
AcDbEntity
  8
0
  6
Continuous
 62
     7
370
    25
100
AcDbLine
 10
39.8039774217
 20
109.7031243495
 30
0.0
 11
38.4183333434
 21
107.3031242355
 31
0.0
  0
LINE
  5
1DF
330
1F
100
AcDbEntity
  8
0
  6
Continuous
 62
     7
370
    25
100
AcDbLine
 10
38.4183333434
 20
107.3031242355
 30
0.0
 11
39.8039774217
 21
104.9031241215
 31
0.0
  0
LINE
  5
1E0
330
1F
100
AcDbEntity
  8
0
  6
Continuous
 62
     7
370
    25
100
AcDbLine
 10
39.8039774217
 20
104.9031241215
 30
0.0
 11
41.8039665736
 21
104.9031241215
 31
0.0
  0
LINE
  5
1E1
330
1F
100
AcDbEntity
  8
0
  6
Continuous
 62
     7
370
    25
100
AcDbLine
 10
41.8039665736
 20
109.7031243495
 30
0.0
 11
39.8039774217
 21
109.7031243495
 31
0.0
  0
LINE
  5
1E2
330
1F
100
AcDbEntity
  8
0
  6
Continuous
 62
     7
370
    25
100
AcDbLine
 10
53.8039759911
 20
105.4031242035
 30
0.0
 11
54.7424809255
 21
105.4031242035
 31
0.0
  0
LINE
  5
1E3
330
1F
100
AcDbEntity
  8
0
  6
Continuous
 62
     7
370
    25
100
AcDbLine
 10
55.3451583899
 20
105.4031242035
 30
0.0
 11
56.9091544665
 21
105.4031242035
 31
0.0
  0
LINE
  5
1E4
330
1F
100
AcDbEntity
  8
0
  6
Continuous
 62
     7
370
    25
100
AcDbLine
 10
57.5118170298
 20
105.4031242035
 30
0.0
 11
59.0758131064
 21
105.4031242035
 31
0.0
  0
LINE
  5
1E5
330
1F
100
AcDbEntity
  8
0
  6
Continuous
 62
     7
370
    25
100
AcDbLine
 10
59.6784905709
 20
105.4031242035
 30
0.0
 11
61.2424866475
 21
105.4031242035
 31
0.0
  0
LINE
  5
1E6
330
1F
100
AcDbEntity
  8
0
  6
Continuous
 62
     7
370
    25
100
AcDbLine
 10
61.8451492108
 20
105.4031242035
 30
0.0
 11
63.4091452874
 21
105.4031242035
 31
0.0
  0
LINE
  5
1E7
330
1F
100
AcDbEntity
  8
0
  6
Continuous
 62
     7
370
    25
100
AcDbLine
 10
63.8039664544
 20
109.2031242676
 30
0.0
 11
63.3369342603
 21
109.2031242676
 31
0.0
  0
LINE
  5
1E8
330
1F
100
AcDbEntity
  8
0
  6
Continuous
 62
     7
370
    25
100
AcDbLine
 10
62.7288774766
 20
109.2031242676
 30
0.0
 11
61.1702756204
 21
109.2031242676
 31
0.0
  0
LINE
  5
1E9
330
1F
100
AcDbEntity
  8
0
  6
Continuous
 62
     7
370
    25
100
AcDbLine
 10
60.5622188367
 20
109.2031242676
 30
0.0
 11
59.0036020793
 21
109.2031242676
 31
0.0
  0
LINE
  5
1EA
330
1F
100
AcDbEntity
  8
0
  6
Continuous
 62
     7
370
    25
100
AcDbLine
 10
58.3955452956
 20
109.2031242676
 30
0.0
 11
56.8369434394
 21
109.2031242676
 31
0.0
  0
LINE
  5
1EB
330
1F
100
AcDbEntity
  8
0
  6
Continuous
 62
     7
370
    25
100
AcDbLine
 10
56.2288866557
 20
109.2031242676
 30
0.0
 11
54.6702698983
 21
109.2031242676
 31
0.0
  0
LINE
  5
1EC
330
1F
100
AcDbEntity
  8
0
  6
Continuous
 62
     7
370
    25
100
AcDbLine
 10
54.0622131146
 20
109.2031242676
 30
0.0
 11
53.8039759911
 21
109.2031242676
 31
0.0
  0
LINE
  5
1ED
330
1F
100
AcDbEntity
  8
0
  6
Continuous
 62
     7
370
    25
100
AcDbLine
 10
53.8039759911
 20
107.3117373677
 30
0.0
 11
53.8039759911
 21
109.7031243495
 31
0.0
  0
LINE
  5
1EE
330
1F
100
AcDbEntity
  8
0
  6
Continuous
 62
     7
370
    25
100
AcDbLine
 10
53.8039759911
 20
104.9031241215
 30
0.0
 11
53.8039759911
 21
107.3117373677
 31
0.0
  0
LINE
  5
1EF
330
1F
100
AcDbEntity
  8
0
  6
Continuous
 62
     7
370
    25
100
AcDbLine
 10
41.8039665736
 20
107.3117373677
 30
0.0
 11
41.8039665736
 21
109.7031243495
 31
0.0
  0
LINE
  5
1F0
330
1F
100
AcDbEntity
  8
0
  6
Continuous
 62
     7
370
    25
100
AcDbLine
 10
41.8039665736
 20
104.9031241215
 30
0.0
 11
41.8039665736
 21
107.3117373677
 31
0.0
  0
LINE
  5
1F1
330
1F
100
AcDbEntity
  8
0
  6
Continuous
 62
     7
370
    25
100
AcDbLine
 10
39.8039774217
 20
107.3031242355
 30
0.0
 11
39.8039774217
 21
109.7031243495
 31
0.0
  0
LINE
  5
1F2
330
1F
100
AcDbEntity
  8
0
  6
Continuous
 62
     7
370
    25
100
AcDbLine
 10
39.8039774217
 20
104.9031241215
 30
0.0
 11
39.8039774217
 21
107.3031242355
 31
0.0
  0
LINE
  5
1F3
330
1F
100
AcDbEntity
  8
0
  6
Continuous
 62
     7
370
    25
100
AcDbLine
 10
63.8039664544
 20
109.2031242676
 30
0.0
 11
63.8039664544
 21
106.4725611592
 31
0.0
  0
DIMENSION
  5
1F4
330
1F
100
AcDbEntity
  8
0
  6
Continuous
 62
     7
370
    18
100
AcDbDimension
  2
_D
 10
85.8320070253
 20
100.9031242355
 30
0.0
 11
85.8320070253
 21
120.3540508145
 31
0.0
 70
   160
  1
%%c<>
 71
     2
 42
-1.0
  3
SLDDIMSTYLE0
100
AcDbAlignedDimension
 13
88.8660953024
 23
113.7031242355
 33
0.0
 14
88.8660953024
 24
100.9031242355
 34
0.0
 50
90.0
100
AcDbRotatedDimension
  0
DIMENSION
  5
207
330
1F
100
AcDbEntity
  8
0
  6
Continuous
 62
     7
370
    18
100
AcDbDimension
  2
_D_1
 10
53.8039710683
 20
133.8954118112
 30
0.0
 11
46.1111507453
 21
133.8954118112
 31
0.0
 70
   160
  1
<>
 71
     2
 42
-1.0
  3
SLDDIMSTYLE1
100
AcDbAlignedDimension
 13
38.4183304223
 23
107.3031242355
 33
0.0
 14
53.8039710683
 24
109.7031242355
 34
0.0
100
AcDbRotatedDimension
  0
DIMENSION
  5
212
330
1F
100
AcDbEntity
  8
0
  6
Continuous
 62
     7
370
    18
100
AcDbDimension
  2
_D_2
 10
46.1111507453
 20
109.7031242355
 30
0.0
 11
46.1111507453
 21
120.3540508145
 31
0.0
 70
   160
  1
%%c<>
 71
     2
 42
-1.0
  3
SLDDIMSTYLE2
100
AcDbAlignedDimension
 13
41.8039710683
 23
104.9031242355
 33
0.0
 14
41.8039710683
 24
109.7031242355
 34
0.0
 50
90.0
100
AcDbRotatedDimension
  0
DIMENSION
  5
21E
330
1F
100
AcDbEntity
  8
0
  6
Continuous
 62
     7
370
    18
100
AcDbDimension
  2
_D_3
 10
258.7112752768
 20
147.913430161
 30
0.0
 11
148.5648028495
 21
147.913430161
 31
0.0
 70
   160
  1
L=500～10000
 71
     2
 42
-1.0
  3
SLDDIMSTYLE0
100
AcDbAlignedDimension
 13
38.4183304223
 23
107.3031242355
 33
0.0
 14
258.7112752768
 24
118.930279167
 34
0.0
100
AcDbRotatedDimension
  0
DIMENSION
  5
228
330
1F
100
AcDbEntity
  8
0
  6
Continuous
 62
     7
370
    18
100
AcDbDimension
  2
_D_4
 10
258.7112752768
 20
133.8954118112
 30
0.0
 11
225.8824059874
 21
133.8954118112
 31
0.0
 70
   160
  1
(80)
 71
     2
 42
-1.0
  3
SLDDIMSTYLE0
100
AcDbAlignedDimension
 13
193.0535366979
 23
108.8031242355
 33
0.0
 14
258.7112752768
 24
118.930279167
 34
0.0
100
AcDbRotatedDimension
  0
DIMENSION
  5
234
330
1F
100
AcDbEntity
  8
0
  6
Continuous
 62
     7
370
    18
100
AcDbDimension
  2
_D_5
 10
80.9018379203
 20
100.3031242355
 30
0.0
 11
80.9018379203
 21
120.3540508145
 31
0.0
 70
   160
  1
%%c<>
 71
     2
 42
-1.0
  3
SLDDIMSTYLE0
100
AcDbAlignedDimension
 13
88.8660953024
 23
114.3031242355
 33
0.0
 14
88.8660953024
 24
100.3031242355
 34
0.0
 50
90.0
100
AcDbRotatedDimension
  0
DIMENSION
  5
240
330
1F
100
AcDbEntity
  8
0
  6
Continuous
 62
     7
370
    18
100
AcDbDimension
  2
_D_6
 10
104.8660953024
 20
120.3540508145
 30
0.0
 11
96.8660953024
 21
120.3540508145
 31
0.0
 70
   160
  1
(<>)
 71
     2
 42
-1.0
  3
SLDDIMSTYLE0
100
AcDbAlignedDimension
 13
88.8660953024
 23
114.3031242355
 33
0.0
 14
104.8660953024
 24
113.8031242355
 34
0.0
100
AcDbRotatedDimension
  0
DIMENSION
  5
24C
330
1F
100
AcDbEntity
  8
0
  6
Continuous
 62
     7
370
    18
100
AcDbDimension
  2
_D_7
 10
153.237419227
 20
133.8954118112
 30
0.0
 11
103.5206951476
 21
133.8954118112
 31
0.0
 70
   160
  1
(200)
 71
     2
 42
-1.0
  3
SLDDIMSTYLE0
100
AcDbAlignedDimension
 13
53.8039710683
 23
109.7031242355
 33
0.0
 14
153.237419227
 24
108.4706909747
 34
0.0
100
AcDbRotatedDimension
  0
INSERT
  5
25D
330
1F
100
AcDbEntity
  8
0
  6
Continuous
 62
     7
370
    18
100
AcDbBlockReference
  2
SW_NOTE_0
 10
40.4243178636
 20
89.329365122
 30
0.0
  0
LEADER
  5
25F
330
1F
100
AcDbEntity
  8
0
  6
Continuous
 62
     7
370
    18
100
AcDbLeader
  3
SLDDIMSTYLE3
 76
     2
 10
38.7740655078
 20
106.6869729933
 30
0.0
 10
40.4243178636
 20
89.329365122
 30
0.0
  0
INSERT
  5
265
330
1F
100
AcDbEntity
  8
0
  6
Continuous
 62
     7
370
    18
100
AcDbBlockReference
  2
SW_NOTE_0_1
 10
55.1689342404
 20
89.329365122
 30
0.0
  0
LEADER
  5
266
330
1F
100
AcDbEntity
  8
0
  6
Continuous
 62
     7
370
    18
100
AcDbLeader
  3
SLDDIMSTYLE3
 76
     2
 10
48.8689717383
 20
104.9031242355
 30
0.0
 10
55.1689342404
 20
89.329365122
 30
0.0
  0
MTEXT
  5
267
330
1F
100
AcDbEntity
  8
0
  6
Continuous
 62
     7
370
    18
100
AcDbMText
 10
55.0386817402
 20
88.4405351989
 30
0.0
 40
2.6458333333
 41
0.0
 71
     1
 72
     1
  1
(SUS304)
  7
SLDTEXTSTYLE0
 73
     1
 44
1.0
  0
INSERT
  5
26D
330
1F
100
AcDbEntity
  8
0
  6
Continuous
 62
     7
370
    18
100
AcDbBlockReference
  2
SW_NOTE_0_2
 10
50.9739229025
 20
77.8781179565
 30
0.0
  0
LEADER
  5
26E
330
1F
100
AcDbEntity
  8
0
  6
Continuous
 62
     7
370
    18
100
AcDbLeader
  3
SLDDIMSTYLE3
 76
     2
 10
41.1140401535
 20
104.9031242355
 30
0.0
 10
50.9739229025
 20
77.8781179565
 30
0.0
  0
MTEXT
  5
26F
330
1F
100
AcDbEntity
  8
0
  6
Continuous
 62
     7
370
    18
100
AcDbMText
 10
50.3300773187
 20
76.7805053606
 30
0.0
 40
2.6458333333
 41
0.0
 71
     1
 72
     1
  1
(黄銅Ni3号ﾒｯｷ)
  7
SLDTEXTSTYLE1
 73
     1
 44
1.0
  0
INSERT
  5
275
330
1F
100
AcDbEntity
  8
0
  6
Continuous
 62
     7
370
    18
100
AcDbBlockReference
  2
SW_NOTE_0_3
 10
63.1054421769
 20
96.35884358
 30
0.0
  0
LEADER
  5
276
330
1F
100
AcDbEntity
  8
0
  6
Continuous
 62
     7
370
    18
100
AcDbLeader
  3
SLDDIMSTYLE3
 76
     2
 10
58.2565204989
 20
105.4031242355
 30
0.0
 10
63.1054421769
 20
96.35884358
 30
0.0
  0
INSERT
  5
27C
330
1F
100
AcDbEntity
  8
0
  6
Continuous
 62
     7
370
    18
100
AcDbBlockReference
  2
SW_NOTE_0_4
 10
105.2823129252
 20
89.329365122
 30
0.0
  0
LEADER
  5
27D
330
1F
100
AcDbEntity
  8
0
  6
Continuous
 62
     7
370
    18
100
AcDbLeader
  3
SLDDIMSTYLE3
 76
     2
 10
101.7667412816
 20
100.3031242355
 30
0.0
 10
105.2823129252
 20
89.329365122
 30
0.0
  0
MTEXT
  5
27E
330
1F
100
AcDbEntity
  8
0
  6
Continuous
 62
     7
370
    18
100
AcDbMText
 10
108.7400626866
 20
88.4405351989
 30
0.0
 40
2.6458333333
 41
0.0
 71
     1
 72
     1
  1
（SUS304）
  7
SLDTEXTSTYLE1
 73
     1
 44
1.0
  0
INSERT
  5
284
330
1F
100
AcDbEntity
  8
0
  6
Continuous
 62
     7
370
    18
100
AcDbBlockReference
  2
SW_NOTE_0_5
 10
141.9036281179
 20
89.329365122
 30
0.0
  0
LEADER
  5
285
330
1F
100
AcDbEntity
  8
0
  6
Continuous
 62
     7
370
    18
100
AcDbLeader
  3
SLDDIMSTYLE3
 76
     2
 10
136.5401065546
 20
104.5646319398
 30
0.0
 10
141.9036281179
 20
89.329365122
 30
0.0
  0
MTEXT
  5
286
330
1F
100
AcDbEntity
  8
0
  6
Continuous
 62
     7
370
    18
100
AcDbMText
 10
142.2811163909
 20
88.4405351989
 30
0.0
 40
2.6458333333
 41
0.0
 71
     1
 72
     1
  1
(SUS304)
  7
SLDTEXTSTYLE0
 73
     1
 44
1.0
  0
INSERT
  5
28C
330
1F
100
AcDbEntity
  8
0
  6
Continuous
 62
     7
370
    18
100
AcDbBlockReference
  2
SW_NOTE_0_6
 10
177.0510204082
 20
89.329365122
 30
0.0
  0
LEADER
  5
28D
330
1F
100
AcDbEntity
  8
0
  6
Continuous
 62
     7
370
    18
100
AcDbLeader
  3
SLDDIMSTYLE3
 76
     2
 10
169.7054994421
 20
106.0031242355
 30
0.0
 10
177.0510204082
 20
89.329365122
 30
0.0
  0
INSERT
  5
293
330
1F
100
AcDbEntity
  8
0
  6
Continuous
 62
     7
370
    18
100
AcDbBlockReference
  2
SW_NOTE_0_7
 10
201.0873015873
 20
89.329365122
 30
0.0
  0
LEADER
  5
294
330
1F
100
AcDbEntity
  8
0
  6
Continuous
 62
     7
370
    18
100
AcDbLeader
  3
SLDDIMSTYLE3
 76
     2
 10
193.0535366979
 20
106.0086639373
 30
0.0
 10
201.0873015873
 20
89.329365122
 30
0.0
  0
INSERT
  5
29A
330
1F
100
AcDbEntity
  8
0
  6
Continuous
 62
     7
370
    18
100
AcDbBlockReference
  2
SW_NOTE_0_8
 10
253.8841344036
 20
89.329365122
 30
0.0
  0
LEADER
  5
29B
330
1F
100
AcDbEntity
  8
0
  6
Continuous
 62
     7
370
    18
100
AcDbLeader
  3
SLDDIMSTYLE3
 76
     2
 10
256.7197333165
 20
96.8760825004
 30
0.0
 10
253.8841344036
 20
89.329365122
 30
0.0
  0
MTEXT
  5
29C
330
1F
100
AcDbEntity
  8
0
  6
Continuous
 62
     7
370
    18
100
AcDbMText
 10
267.0307712788
 20
116.4062151324
 30
0.0
 40
2.6458333333
 41
0.0
 71
     1
 72
     1
  1
赤（+）
  7
SLDTEXTSTYLE1
 73
     1
 44
1.0
  0
MTEXT
  5
29D
330
1F
100
AcDbEntity
  8
0
  6
Continuous
 62
     7
370
    18
100
AcDbMText
 10
267.0307712788
 20
101.2807323575
 30
0.0
 40
2.6458333333
 41
0.0
 71
     1
 72
     1
  1
黒（-）
  7
SLDTEXTSTYLE1
 73
     1
 44
1.0
  0
INSERT
  5
2A9
330
1F
100
AcDbEntity
  8
0
  6
Continuous
 62
     7
370
    18
100
AcDbBlockReference
  2
SW_CENTERMARKSYMBOL_0
 10
258.7112711535
 20
114.8301659502
 30
0.0
  0
INSERT
  5
2B5
330
1F
100
AcDbEntity
  8
0
  6
Continuous
 62
     7
370
    18
100
AcDbBlockReference
  2
SW_CENTERMARKSYMBOL_1
 10
258.7112711535
 20
99.7760825209
 30
0.0
  0
ARC
  5
2B6
330
1F
100
AcDbEntity
  8
0
  6
HIDDEN
 62
     7
370
    18
100
AcDbCircle
 10
79.7227787227
 20
109.3689022304
 30
0.0
 40
6.44816289060608
100
AcDbArc
 50
157.380135052
 51
202.619864948
  0
ARC
  5
2B7
330
1F
100
AcDbEntity
  8
0
  6
HIDDEN
 62
     7
370
    18
100
AcDbCircle
 10
67.8184780015
 20
104.40877693
 30
0.0
 40
6.448162890606093
100
AcDbArc
 50
337.380135052
 51
22.619864948
  0
ARC
  5
2B8
330
1F
100
AcDbEntity
  8
0
  6
HIDDEN
 62
     7
370
    18
100
AcDbCircle
 10
82.695535435
 20
110.1432420634
 30
0.0
 40
6.418649328957679
100
AcDbArc
 50
157.380135052
 51
202.619864948
  0
ARC
  5
2B9
330
1F
100
AcDbEntity
  8
0
  6
HIDDEN
 62
     7
370
    18
100
AcDbCircle
 10
70.8457212892
 20
105.2058195027
 30
0.0
 40
6.418649328957679
100
AcDbArc
 50
337.380135052
 51
22.619864948
  0
ARC
  5
2BA
330
1F
100
AcDbEntity
  8
0
  6
HIDDEN
 62
     7
370
    18
100
AcDbCircle
 10
128.810693241
 20
110.5439827585
 30
0.0
 40
6.687077386571952
100
AcDbArc
 50
157.380135052
 51
202.619864948
  0
ARC
  5
2BB
330
1F
100
AcDbEntity
  8
0
  6
HIDDEN
 62
     7
370
    18
100
AcDbCircle
 10
116.4653196043
 20
105.4000770765
 30
0.0
 40
6.687077386571964
100
AcDbArc
 50
337.380135052
 51
22.619864948
  0
ARC
  5
2BC
330
1F
100
AcDbEntity
  8
0
  6
HIDDEN
 62
     7
370
    18
100
AcDbCircle
 10
131.7627117516
 20
110.4840058967
 30
0.0
 40
6.635097439722331
100
AcDbArc
 50
157.380135052
 51
202.619864948
  0
ARC
  5
2BD
330
1F
100
AcDbEntity
  8
0
  6
HIDDEN
 62
     7
370
    18
100
AcDbCircle
 10
119.5133010937
 20
105.3800847893
 30
0.0
 40
6.635097439722336
100
AcDbArc
 50
337.380135052
 51
22.619864948
  0
ARC
  5
2BE
330
1F
100
AcDbEntity
  8
0
  6
HIDDEN
 62
     7
370
    18
100
AcDbCircle
 10
164.7867201274
 20
109.5406242355
 30
0.0
 40
5.817500000000009
100
AcDbArc
 50
157.380135052
 51
202.619864948
  0
ARC
  5
2BF
330
1F
100
AcDbEntity
  8
0
  6
HIDDEN
 62
     7
370
    18
100
AcDbCircle
 10
154.0467201274
 20
105.0656242355
 30
0.0
 40
5.817500000000035
100
AcDbArc
 50
337.380135052
 51
22.619864948
  0
ARC
  5
2C0
330
1F
100
AcDbEntity
  8
0
  6
HIDDEN
 62
     7
370
    18
100
AcDbCircle
 10
167.7867201274
 20
109.5406242355
 30
0.0
 40
5.817500000000009
100
AcDbArc
 50
157.380135052
 51
202.619864948
  0
ARC
  5
2C1
330
1F
100
AcDbEntity
  8
0
  6
HIDDEN
 62
     7
370
    18
100
AcDbCircle
 10
157.0467201274
 20
105.0656242355
 30
0.0
 40
5.817500000000009
100
AcDbArc
 50
337.380135052
 51
22.619864948
  0
ARC
  5
2C2
330
1F
100
AcDbEntity
  8
0
  6
HIDDEN
 62
     7
370
    18
100
AcDbCircle
 10
231.4508064594
 20
110.8035408785
 30
0.0
 40
9.101083271688221
100
AcDbArc
 50
157.380135052
 51
202.619864948
  0
ARC
  5
2C3
330
1F
100
AcDbEntity
  8
0
  6
HIDDEN
 62
     7
370
    18
100
AcDbCircle
 10
214.6488065732
 20
103.8027075926
 30
0.0
 40
9.101083271688196
100
AcDbArc
 50
337.380135052
 51
22.619864948
  0
ARC
  5
2C4
330
1F
100
AcDbEntity
  8
0
  6
HIDDEN
 62
     7
370
    18
100
AcDbCircle
 10
236.4110523901
 20
111.6203100162
 30
0.0
 40
11.22468302985756
100
AcDbArc
 50
157.380135052
 51
202.619864948
  0
ARC
  5
2C5
330
1F
100
AcDbEntity
  8
0
  6
HIDDEN
 62
     7
370
    18
100
AcDbCircle
 10
215.6885606426
 20
102.9859384548
 30
0.0
 40
11.22468302985758
100
AcDbArc
 50
337.380135052
 51
22.619864948
  0
LINE
  5
2C6
330
1F
100
AcDbEntity
  8
0
  6
CENTERX2
 62
     7
370
    18
100
AcDbLine
 10
73.6144737519
 20
107.3031242355
 30
0.0
 11
35.3846953429
 21
107.3031242355
 31
0.0
  0
LINE
  5
2C7
330
1F
100
AcDbEntity
  8
0
  6
CENTERX2
 62
     7
370
    18
100
AcDbLine
 10
122.8758918012
 20
107.3031242355
 30
0.0
 11
76.9120531047
 21
107.3031242355
 31
0.0
  0
LINE
  5
2C8
330
1F
100
AcDbEntity
  8
0
  6
CENTERX2
 62
     7
370
    18
100
AcDbLine
 10
159.416718885
 20
107.3031242355
 30
0.0
 11
125.863610312
 21
107.3031242355
 31
0.0
  0
LINE
  5
2C9
330
1F
100
AcDbEntity
  8
0
  6
CENTERX2
 62
     7
370
    18
100
AcDbLine
 10
223.0498060427
 20
107.3031242355
 30
0.0
 11
162.4167203746
 21
107.3031242355
 31
0.0
  0
LINE
  5
2CA
330
1F
100
AcDbEntity
  8
0
  6
CENTERX2
 62
     7
370
    18
100
AcDbLine
 10
266.0711185799
 20
107.3031242355
 30
0.0
 11
226.0498033629
 21
107.3031242355
 31
0.0
  0
ENDSEC
  0
SECTION
  2
OBJECTS
  0
DICTIONARY
  5
C
330
0
100
AcDbDictionary
281
     1
  3
ACAD_GROUP
350
D
  3
ACAD_LAYOUT
350
1A
  3
ACAD_MLINESTYLE
350
17
  3
ACAD_PLOTSETTINGS
350
19
  3
ACAD_PLOTSTYLENAME
350
E
  3
ACAD_SCALELIST
350
47
  3
DWGPROPS
350
2CB
  0
DICTIONARY
  5
D
102
{ACAD_REACTORS
330
C
102
}
330
C
100
AcDbDictionary
281
     1
  0
DICTIONARY
  5
1A
102
{ACAD_REACTORS
330
C
102
}
330
C
100
AcDbDictionary
281
     1
  3
Layout1
350
1E
  3
Layout2
350
26
  3
Model
350
22
  0
DICTIONARY
  5
17
102
{ACAD_REACTORS
330
C
102
}
330
C
100
AcDbDictionary
281
     1
  3
Standard
350
18
  0
DICTIONARY
  5
19
102
{ACAD_REACTORS
330
C
102
}
330
C
100
AcDbDictionary
281
     1
  0
ACDBDICTIONARYWDFLT
  5
E
102
{ACAD_REACTORS
330
C
102
}
330
C
100
AcDbDictionary
281
     1
  3
Normal
350
F
100
AcDbDictionaryWithDefault
340
F
  0
DICTIONARY
  5
47
102
{ACAD_REACTORS
330
C
102
}
330
C
100
AcDbDictionary
281
     1
  3
A0
350
48
  3
A1
350
49
  3
A2
350
4A
  3
A3
350
4B
  3
A4
350
4C
  3
A5
350
4D
  3
A6
350
4E
  3
A7
350
4F
  3
A8
350
50
  3
A9
350
51
  3
B0
350
52
  3
B1
350
53
  3
B2
350
54
  3
B3
350
55
  3
B4
350
56
  3
B5
350
57
  3
B6
350
58
  3
B7
350
59
  3
B8
350
5A
  3
B9
350
5B
  3
C0
350
5C
  3
C1
350
5D
  3
C2
350
5E
  3
C3
350
5F
  3
C4
350
60
  3
C5
350
61
  3
C6
350
62
  3
C7
350
63
  3
C8
350
64
  3
C9
350
65
  3
D0
350
66
  3
D1
350
67
  3
D2
350
68
  0
XRECORD
  5
2CB
102
{ACAD_REACTORS
330
C
102
}
330
C
100
AcDbXrecord
280
     1
  1
DWGPROPS COOKIE
  2

  3

  4

  6

  7

  8
p870382
  9

300
=
301
=
302
=
303
=
304
=
305
=
306
=
307
=
308
=
309
=
 40
0.0
 41
2460257.288496042
 42
2460257.288498391
  1

 90
        0
  0
LAYOUT
  5
1E
102
{ACAD_REACTORS
330
1A
102
}
330
1A
100
AcDbPlotSettings
  1

  2
none_device
  4

  6

 40
0.0
 41
0.0
 42
0.0
 43
0.0
 44
0.0
 45
0.0
 46
0.0
 47
0.0
 48
0.0
 49
0.0
140
0.0
141
0.0
142
1.0
143
1.0
 70
   688
 72
     1
 73
     0
 74
     5
  7

 75
    16
147
1.0
148
0.0
149
0.0
100
AcDbLayout
  1
Layout1
 70
     1
 71
     1
 10
0.0
 20
0.0
 11
420.0
 21
297.0
 12
0.0
 22
0.0
 32
0.0
 14
1.0000000000E+20
 24
1.0000000000E+20
 34
1.0000000000E+20
 15
-1.0000000000E+20
 25
-1.0000000000E+20
 35
-1.0000000000E+20
146
0.0
 13
0.0
 23
0.0
 33
0.0
 16
1.0
 26
0.0
 36
0.0
 17
0.0
 27
1.0
 37
0.0
 76
     0
330
1B
  0
LAYOUT
  5
26
102
{ACAD_REACTORS
330
1A
102
}
330
1A
100
AcDbPlotSettings
  1

  2
none_device
  4

  6

 40
0.0
 41
0.0
 42
0.0
 43
0.0
 44
0.0
 45
0.0
 46
0.0
 47
0.0
 48
0.0
 49
0.0
140
0.0
141
0.0
142
1.0
143
1.0
 70
   688
 72
     1
 73
     0
 74
     5
  7

 75
    16
147
1.0
148
0.0
149
0.0
100
AcDbLayout
  1
Layout2
 70
     1
 71
     2
 10
0.0
 20
0.0
 11
0.0
 21
0.0
 12
0.0
 22
0.0
 32
0.0
 14
0.0
 24
0.0
 34
0.0
 15
0.0
 25
0.0
 35
0.0
146
0.0
 13
0.0
 23
0.0
 33
0.0
 16
1.0
 26
0.0
 36
0.0
 17
0.0
 27
1.0
 37
0.0
 76
     0
330
23
  0
LAYOUT
  5
22
102
{ACAD_REACTORS
330
1A
102
}
330
1A
100
AcDbPlotSettings
  1

  2
none_device
  4
Letter_(8.50_x_11.00_Inches)
  6

 40
6.35
 41
6.35
 42
6.35000508
 43
6.35000508
 44
215.9
 45
279.4
 46
0.0
 47
0.0
 48
0.0
 49
0.0
140
0.0
141
0.0
142
1.0
143
1.0
 70
  1712
 72
     1
 73
     0
 74
     0
  7

 75
     0
147
1.0
148
0.0
149
0.0
100
AcDbLayout
  1
Model
 70
     1
 71
     0
 10
0.0
 20
0.0
 11
297.0
 21
210.0
 12
0.0
 22
0.0
 32
0.0
 14
0.0
 24
0.0
 34
0.0
 15
297.0
 25
210.0
 35
0.0
146
0.0
 13
0.0
 23
0.0
 33
0.0
 16
1.0
 26
0.0
 36
0.0
 17
0.0
 27
1.0
 37
0.0
 76
     0
330
1F
331
29
  0
MLINESTYLE
  5
18
102
{ACAD_REACTORS
330
17
102
}
330
17
100
AcDbMlineStyle
  2
Standard
 70
     0
  3

 62
   256
 51
90.0
 52
90.0
 71
     2
 49
0.5
 62
   256
  6
BYLAYER
 49
-0.5
 62
   256
  6
BYLAYER
  0
ACDBPLACEHOLDER
  5
F
102
{ACAD_REACTORS
330
E
102
}
330
E
  0
SCALE
  5
48
102
{ACAD_REACTORS
330
47
102
}
330
47
100
AcDbScale
 70
     0
300
1:1
140
1.0
141
1.0
290
     1
  0
SCALE
  5
49
102
{ACAD_REACTORS
330
47
102
}
330
47
100
AcDbScale
 70
     0
300
1:2
140
1.0
141
2.0
290
     0
  0
SCALE
  5
4A
102
{ACAD_REACTORS
330
47
102
}
330
47
100
AcDbScale
 70
     0
300
1:4
140
1.0
141
4.0
290
     0
  0
SCALE
  5
4B
102
{ACAD_REACTORS
330
47
102
}
330
47
100
AcDbScale
 70
     0
300
1:5
140
1.0
141
5.0
290
     0
  0
SCALE
  5
4C
102
{ACAD_REACTORS
330
47
102
}
330
47
100
AcDbScale
 70
     0
300
1:8
140
1.0
141
8.0
290
     0
  0
SCALE
  5
4D
102
{ACAD_REACTORS
330
47
102
}
330
47
100
AcDbScale
 70
     0
300
1:10
140
1.0
141
10.0
290
     0
  0
SCALE
  5
4E
102
{ACAD_REACTORS
330
47
102
}
330
47
100
AcDbScale
 70
     0
300
1:16
140
1.0
141
16.0
290
     0
  0
SCALE
  5
4F
102
{ACAD_REACTORS
330
47
102
}
330
47
100
AcDbScale
 70
     0
300
1:20
140
1.0
141
20.0
290
     0
  0
SCALE
  5
50
102
{ACAD_REACTORS
330
47
102
}
330
47
100
AcDbScale
 70
     0
300
1:30
140
1.0
141
30.0
290
     0
  0
SCALE
  5
51
102
{ACAD_REACTORS
330
47
102
}
330
47
100
AcDbScale
 70
     0
300
1:40
140
1.0
141
40.0
290
     0
  0
SCALE
  5
52
102
{ACAD_REACTORS
330
47
102
}
330
47
100
AcDbScale
 70
     0
300
1:50
140
1.0
141
50.0
290
     0
  0
SCALE
  5
53
102
{ACAD_REACTORS
330
47
102
}
330
47
100
AcDbScale
 70
     0
300
1:100
140
1.0
141
100.0
290
     0
  0
SCALE
  5
54
102
{ACAD_REACTORS
330
47
102
}
330
47
100
AcDbScale
 70
     0
300
2:1
140
2.0
141
1.0
290
     0
  0
SCALE
  5
55
102
{ACAD_REACTORS
330
47
102
}
330
47
100
AcDbScale
 70
     0
300
4:1
140
4.0
141
1.0
290
     0
  0
SCALE
  5
56
102
{ACAD_REACTORS
330
47
102
}
330
47
100
AcDbScale
 70
     0
300
8:1
140
8.0
141
1.0
290
     0
  0
SCALE
  5
57
102
{ACAD_REACTORS
330
47
102
}
330
47
100
AcDbScale
 70
     0
300
10:1
140
10.0
141
1.0
290
     0
  0
SCALE
  5
58
102
{ACAD_REACTORS
330
47
102
}
330
47
100
AcDbScale
 70
     0
300
100:1
140
100.0
141
1.0
290
     0
  0
SCALE
  5
59
102
{ACAD_REACTORS
330
47
102
}
330
47
100
AcDbScale
 70
     0
300
1/128" = 1'-0"
140
0.0078125
141
12.0
290
     0
  0
SCALE
  5
5A
102
{ACAD_REACTORS
330
47
102
}
330
47
100
AcDbScale
 70
     0
300
1/64" = 1'-0"
140
0.015625
141
12.0
290
     0
  0
SCALE
  5
5B
102
{ACAD_REACTORS
330
47
102
}
330
47
100
AcDbScale
 70
     0
300
1/32" = 1'-0"
140
0.03125
141
12.0
290
     0
  0
SCALE
  5
5C
102
{ACAD_REACTORS
330
47
102
}
330
47
100
AcDbScale
 70
     0
300
1/16" = 1'-0"
140
0.0625
141
12.0
290
     0
  0
SCALE
  5
5D
102
{ACAD_REACTORS
330
47
102
}
330
47
100
AcDbScale
 70
     0
300
3/32" = 1'-0"
140
0.09375
141
12.0
290
     0
  0
SCALE
  5
5E
102
{ACAD_REACTORS
330
47
102
}
330
47
100
AcDbScale
 70
     0
300
1/8" = 1'-0"
140
0.125
141
12.0
290
     0
  0
SCALE
  5
5F
102
{ACAD_REACTORS
330
47
102
}
330
47
100
AcDbScale
 70
     0
300
3/16" = 1'-0"
140
0.1875
141
12.0
290
     0
  0
SCALE
  5
60
102
{ACAD_REACTORS
330
47
102
}
330
47
100
AcDbScale
 70
     0
300
1/4" = 1'-0"
140
0.25
141
12.0
290
     0
  0
SCALE
  5
61
102
{ACAD_REACTORS
330
47
102
}
330
47
100
AcDbScale
 70
     0
300
3/8" = 1'-0"
140
0.375
141
12.0
290
     0
  0
SCALE
  5
62
102
{ACAD_REACTORS
330
47
102
}
330
47
100
AcDbScale
 70
     0
300
1/2" = 1'-0"
140
0.5
141
12.0
290
     0
  0
SCALE
  5
63
102
{ACAD_REACTORS
330
47
102
}
330
47
100
AcDbScale
 70
     0
300
3/4" = 1'-0"
140
0.75
141
12.0
290
     0
  0
SCALE
  5
64
102
{ACAD_REACTORS
330
47
102
}
330
47
100
AcDbScale
 70
     0
300
1" = 1'-0"
140
1.0
141
12.0
290
     0
  0
SCALE
  5
65
102
{ACAD_REACTORS
330
47
102
}
330
47
100
AcDbScale
 70
     0
300
1-1/2" = 1'-0"
140
1.5
141
12.0
290
     0
  0
SCALE
  5
66
102
{ACAD_REACTORS
330
47
102
}
330
47
100
AcDbScale
 70
     0
300
3" = 1'-0"
140
3.0
141
12.0
290
     0
  0
SCALE
  5
67
102
{ACAD_REACTORS
330
47
102
}
330
47
100
AcDbScale
 70
     0
300
6" = 1'-0"
140
6.0
141
12.0
290
     0
  0
SCALE
  5
68
102
{ACAD_REACTORS
330
47
102
}
330
47
100
AcDbScale
 70
     0
300
1'-0" = 1'-0"
140
12.0
141
12.0
290
     0
  0
ENDSEC
  0
EOF
