  0
SECTION
  2
HEADER
  9
$ACADVER
  1
AC1015
  9
$ACADMAINTVER
 70
     6
  9
$DWGCODEPAGE
  3
DOS932
  9
$INSBASE
 10
0.0
 20
0.0
 30
0.0
  9
$EXTMIN
 10
0.0
 20
0.0
 30
0.0
  9
$EXTMAX
 10
297.0
 20
210.0
 30
0.0
  9
$LIMMIN
 10
0.0
 20
0.0
  9
$LIMMAX
 10
297.0
 20
210.0
  9
$ORTHOMODE
 70
     0
  9
$REGENMODE
 70
     1
  9
$FILLMODE
 70
     1
  9
$QTEXTMODE
 70
     0
  9
$MIRRTEXT
 70
     1
  9
$LTSCALE
 40
1.0
  9
$ATTMODE
 70
     1
  9
$TEXTSIZE
 40
3.5277777778
  9
$TRACEWID
 40
1.0
  9
$TEXTSTYLE
  7
STANDARD
  9
$CLAYER
  8
0
  9
$CELTYPE
  6
ByLayer
  9
$CECOLOR
 62
   256
  9
$CELTSCALE
 40
1.0
  9
$DISPSILH
 70
     0
  9
$DIMSCALE
 40
1.0
  9
$DIMASZ
 40
3.0
  9
$DIMEXO
 40
1.0
  9
$DIMDLI
 40
3.75
  9
$DIMRND
 40
0.0
  9
$DIMDLE
 40
0.0
  9
$DIMEXE
 40
1.0
  9
$DIMTP
 40
0.0
  9
$DIMTM
 40
0.0
  9
$DIMTXT
 40
3.5277777778
  9
$DIMCEN
 40
2.5
  9
$DIMTSZ
 40
0.0
  9
$DIMTOL
 70
     0
  9
$DIMLIM
 70
     0
  9
$DIMTIH
 70
     1
  9
$DIMTOH
 70
     1
  9
$DIMSE1
 70
     0
  9
$DIMSE2
 70
     0
  9
$DIMTAD
 70
     1
  9
$DIMZIN
 70
     0
  9
$DIMBLK
  1

  9
$DIMASO
 70
     1
  9
$DIMSHO
 70
     1
  9
$DIMPOST
  1

  9
$DIMAPOST
  1

  9
$DIMALT
 70
     0
  9
$DIMALTD
 70
     3
  9
$DIMALTF
 40
0.0393700787
  9
$DIMLFAC
 40
5.0
  9
$DIMTOFL
 70
     1
  9
$DIMTVP
 40
0.0
  9
$DIMTIX
 70
     0
  9
$DIMSOXD
 70
     0
  9
$DIMSAH
 70
     0
  9
$DIMBLK1
  1

  9
$DIMBLK2
  1

  9
$DIMSTYLE
  2
ISO-25
  9
$DIMCLRD
 70
     0
  9
$DIMCLRE
 70
     0
  9
$DIMCLRT
 70
     0
  9
$DIMTFAC
 40
1.0
  9
$DIMGAP
 40
1.524
  9
$DIMJUST
 70
     0
  9
$DIMSD1
 70
     0
  9
$DIMSD2
 70
     0
  9
$DIMTOLJ
 70
     0
  9
$DIMTZIN
 70
     0
  9
$DIMALTZ
 70
     0
  9
$DIMALTTZ
 70
     0
  9
$DIMUPT
 70
     0
  9
$DIMDEC
 70
     2
  9
$DIMTDEC
 70
     2
  9
$DIMALTU
 70
     2
  9
$DIMALTTD
 70
     3
  9
$DIMTXSTY
  7
STANDARD
  9
$DIMAUNIT
 70
     0
  9
$DIMADEC
 70
     2
  9
$DIMALTRND
 40
0.0
  9
$DIMAZIN
 70
     0
  9
$DIMDSEP
 70
    44
  9
$DIMATFIT
 70
     3
  9
$DIMFRAC
 70
     0
  9
$DIMLDRBLK
  1

  9
$DIMLUNIT
 70
     2
  9
$DIMLWD
 70
    -2
  9
$DIMLWE
 70
    -2
  9
$DIMTMOVE
 70
     0
  9
$LUNITS
 70
     2
  9
$LUPREC
 70
     2
  9
$SKETCHINC
 40
1.0
  9
$FILLETRAD
 40
10.0
  9
$AUNITS
 70
     0
  9
$AUPREC
 70
     2
  9
$MENU
  1
.
  9
$ELEVATION
 40
0.0
  9
$PELEVATION
 40
0.0
  9
$THICKNESS
 40
0.0
  9
$LIMCHECK
 70
     0
  9
$CHAMFERA
 40
0.0
  9
$CHAMFERB
 40
0.0
  9
$CHAMFERC
 40
0.0
  9
$CHAMFERD
 40
0.0
  9
$SKPOLY
 70
     0
  9
$TDCREATE
 40
2460340.676276875
  9
$TDUCREATE
 40
2460340.301276875
  9
$TDUPDATE
 40
2460340.676280498
  9
$TDUUPDATE
 40
2460340.301280498
  9
$TDINDWG
 40
0.0000000116
  9
$TDUSRTIMER
 40
0.0000000116
  9
$USRTIMER
 70
     1
  9
$ANGBASE
 50
0.0
  9
$ANGDIR
 70
     0
  9
$PDMODE
 70
     0
  9
$PDSIZE
 40
-1.0
  9
$PLINEWID
 40
0.0
  9
$SPLFRAME
 70
     0
  9
$SPLINETYPE
 70
     6
  9
$SPLINESEGS
 70
     8
  9
$HANDSEED
  5
293
  9
$SURFTAB1
 70
     6
  9
$SURFTAB2
 70
     6
  9
$SURFTYPE
 70
     6
  9
$SURFU
 70
     6
  9
$SURFV
 70
     6
  9
$UCSBASE
  2

  9
$UCSNAME
  2

  9
$UCSORG
 10
0.0
 20
0.0
 30
0.0
  9
$UCSXDIR
 10
1.0
 20
0.0
 30
0.0
  9
$UCSYDIR
 10
0.0
 20
1.0
 30
0.0
  9
$UCSORTHOREF
  2

  9
$UCSORTHOVIEW
 70
     0
  9
$UCSORGTOP
 10
0.0
 20
0.0
 30
0.0
  9
$UCSORGBOTTOM
 10
0.0
 20
0.0
 30
0.0
  9
$UCSORGLEFT
 10
0.0
 20
0.0
 30
0.0
  9
$UCSORGRIGHT
 10
0.0
 20
0.0
 30
0.0
  9
$UCSORGFRONT
 10
0.0
 20
0.0
 30
0.0
  9
$UCSORGBACK
 10
0.0
 20
0.0
 30
0.0
  9
$PUCSBASE
  2

  9
$PUCSNAME
  2

  9
$PUCSORG
 10
0.0
 20
0.0
 30
0.0
  9
$PUCSXDIR
 10
1.0
 20
0.0
 30
0.0
  9
$PUCSYDIR
 10
0.0
 20
1.0
 30
0.0
  9
$PUCSORTHOREF
  2

  9
$PUCSORTHOVIEW
 70
     0
  9
$PUCSORGTOP
 10
0.0
 20
0.0
 30
0.0
  9
$PUCSORGBOTTOM
 10
0.0
 20
0.0
 30
0.0
  9
$PUCSORGLEFT
 10
0.0
 20
0.0
 30
0.0
  9
$PUCSORGRIGHT
 10
0.0
 20
0.0
 30
0.0
  9
$PUCSORGFRONT
 10
0.0
 20
0.0
 30
0.0
  9
$PUCSORGBACK
 10
0.0
 20
0.0
 30
0.0
  9
$USERI1
 70
     0
  9
$USERI2
 70
     0
  9
$USERI3
 70
     0
  9
$USERI4
 70
     0
  9
$USERI5
 70
     0
  9
$USERR1
 40
0.0
  9
$USERR2
 40
0.0
  9
$USERR3
 40
0.0
  9
$USERR4
 40
0.0
  9
$USERR5
 40
0.0
  9
$WORLDVIEW
 70
     1
  9
$SHADEDGE
 70
     3
  9
$SHADEDIF
 70
    70
  9
$TILEMODE
 70
     1
  9
$MAXACTVP
 70
    64
  9
$PINSBASE
 10
0.0
 20
0.0
 30
0.0
  9
$PLIMCHECK
 70
     0
  9
$PEXTMIN
 10
1.0000000000E+20
 20
1.0000000000E+20
 30
1.0000000000E+20
  9
$PEXTMAX
 10
-1.0000000000E+20
 20
-1.0000000000E+20
 30
-1.0000000000E+20
  9
$PLIMMIN
 10
0.0
 20
0.0
  9
$PLIMMAX
 10
420.0
 20
297.0
  9
$UNITMODE
 70
     0
  9
$VISRETAIN
 70
     1
  9
$PLINEGEN
 70
     0
  9
$PSLTSCALE
 70
     1
  9
$TREEDEPTH
 70
  3020
  9
$CMLSTYLE
  2
Standard
  9
$CMLJUST
 70
     0
  9
$CMLSCALE
 40
20.0
  9
$PROXYGRAPHICS
 70
     1
  9
$MEASUREMENT
 70
     1
  9
$CELWEIGHT
370
    -1
  9
$ENDCAPS
280
     0
  9
$JOINSTYLE
280
     0
  9
$LWDISPLAY
290
     1
  9
$INSUNITS
 70
     4
  9
$HYPERLINKBASE
  1

  9
$STYLESHEET
  1

  9
$XEDIT
290
     1
  9
$CEPSNTYPE
380
     0
  9
$PSTYLEMODE
290
     1
  9
$FINGERPRINTGUID
  2
{be4857b5-a7e1-4b0f-a516-d199750c08f0}
  9
$VERSIONGUID
  2
{FAEB1C32-E019-11D5-929B-00C0DF256EC4}
  9
$EXTNAMES
290
     1
  9
$PSVPSCALE
 40
0.0
  9
$OLESTARTUP
290
     0
  0
ENDSEC
  0
SECTION
  2
CLASSES
  0
CLASS
  1
ACDBDICTIONARYWDFLT
  2
AcDbDictionaryWithDefault
  3
ObjectDBX Classes
 90
        0
280
     0
281
     0
  0
CLASS
  1
VISUALSTYLE
  2
AcDbVisualStyle
  3
ObjectDBX Classes
 90
     4095
280
     0
281
     0
  0
CLASS
  1
MATERIAL
  2
AcDbMaterial
  3
ObjectDBX Classes
 90
     1153
280
     0
281
     0
  0
CLASS
  1
SCALE
  2
AcDbScale
  3
ObjectDBX Classes
 90
     1153
280
     0
281
     0
  0
CLASS
  1
TABLESTYLE
  2
AcDbTableStyle
  3
ObjectDBX Classes
 90
     4095
280
     0
281
     0
  0
CLASS
  1
MLEADERSTYLE
  2
AcDbMLeaderStyle
  3
ACDB_MLEADERSTYLE_CLASS
 90
     4095
280
     0
281
     0
  0
CLASS
  1
SUN
  2
AcDbSun
  3
SCENEOE
 90
     1153
280
     0
281
     0
  0
CLASS
  1
ACDBPLACEHOLDER
  2
AcDbPlaceHolder
  3
ObjectDBX Classes
 90
        0
280
     0
281
     0
  0
CLASS
  1
LAYOUT
  2
AcDbLayout
  3
ObjectDBX Classes
 90
        0
280
     0
281
     0
  0
ENDSEC
  0
SECTION
  2
TABLES
  0
TABLE
  2
VPORT
  5
8
330
0
100
AcDbSymbolTable
 70
     1
  0
VPORT
  5
29
330
8
100
AcDbSymbolTableRecord
100
AcDbViewportTableRecord
  2
*Active
 70
     0
 10
0.0
 20
0.0
 11
1.0
 21
1.0
 12
148.5
 22
105.0
 13
0.0
 23
0.0
 14
10.0
 24
10.0
 15
10.0
 25
10.0
 16
0.0
 26
0.0
 36
1.0
 17
0.0
 27
0.0
 37
0.0
 40
210.0
 41
1.4142857143
 42
50.0
 43
0.0
 44
0.0
 50
0.0
 51
0.0
 71
     0
 72
  2000
 73
     1
 74
     3
 75
     0
 76
     0
 77
     0
 78
     0
281
     0
 65
     1
110
0.0
120
0.0
130
0.0
111
1.0
121
0.0
131
0.0
112
0.0
122
1.0
132
0.0
 79
     0
146
0.0
  0
ENDTAB
  0
TABLE
  2
LTYPE
  5
5
330
0
100
AcDbSymbolTable
 70
     6
  0
LTYPE
  5
14
330
5
100
AcDbSymbolTableRecord
100
AcDbLinetypeTableRecord
  2
ByBlock
 70
     0
  3

 72
    65
 73
     0
 40
0.0
  0
LTYPE
  5
15
330
5
100
AcDbSymbolTableRecord
100
AcDbLinetypeTableRecord
  2
ByLayer
 70
     0
  3

 72
    65
 73
     0
 40
0.0
  0
LTYPE
  5
16
330
5
100
AcDbSymbolTableRecord
100
AcDbLinetypeTableRecord
  2
Continuous
 70
     0
  3
Solid line
 72
    65
 73
     0
 40
0.0
  0
LTYPE
  5
6E
330
5
100
AcDbSymbolTableRecord
100
AcDbLinetypeTableRecord
  2
HIDDEN
 70
     0
  3
Hidden __ __ __ __ __ __ __ __ __ __ __ __ __ __
 72
    65
 73
     2
 40
1.905
 49
1.27
 74
     0
 49
-0.635
 74
     0
  0
LTYPE
  5
6F
330
5
100
AcDbSymbolTableRecord
100
AcDbLinetypeTableRecord
  2
PHANTOM
 70
     0
  3
Phantom ______  __  __  ______  __  __  ______
 72
    65
 73
     6
 40
12.7
 49
6.35
 74
     0
 49
-1.27
 74
     0
 49
1.27
 74
     0
 49
-1.27
 74
     0
 49
1.27
 74
     0
 49
-1.27
 74
     0
  0
LTYPE
  5
70
330
5
100
AcDbSymbolTableRecord
100
AcDbLinetypeTableRecord
  2
CENTER
 70
     0
  3
Center ____ _ ____ _ ____ _ ____ _ ____ _ ____
 72
    65
 73
     4
 40
10.16
 49
6.35
 74
     0
 49
-1.27
 74
     0
 49
1.27
 74
     0
 49
-1.27
 74
     0
  0
LTYPE
  5
71
330
5
100
AcDbSymbolTableRecord
100
AcDbLinetypeTableRecord
  2
CENTERX2
 70
     0
  3
Center (2x) ________  __  ________  __  _____
 72
    65
 73
     4
 40
20.32
 49
12.7
 74
     0
 49
-2.54
 74
     0
 49
2.54
 74
     0
 49
-2.54
 74
     0
  0
LTYPE
  5
72
330
5
100
AcDbSymbolTableRecord
100
AcDbLinetypeTableRecord
  2
DOT2
 70
     0
  3
Dot (.5x) ........................................
 72
    65
 73
     2
 40
0.635
 49
0.0
 74
     0
 49
-0.635
 74
     0
  0
ENDTAB
  0
TABLE
  2
LAYER
  5
2
330
0
100
AcDbSymbolTable
 70
     1
  0
LAYER
  5
10
330
2
100
AcDbSymbolTableRecord
100
AcDbLayerTableRecord
  2
0
 70
     0
 62
     7
  6
Continuous
370
    -3
390
F
  0
ENDTAB
  0
TABLE
  2
STYLE
  5
3
330
0
100
AcDbSymbolTable
 70
     3
  0
STYLE
  5
11
330
3
100
AcDbSymbolTableRecord
100
AcDbTextStyleTableRecord
  2
STANDARD
 70
     0
 40
0.0
 41
1.0
 50
0.0
 71
     0
 42
3.5277777778
  3
MSGOTHIC.TTC
  4

1001
ACAD
1000
MS UI GOTHIC
1071
    32818
  0
STYLE
  5
77
330
3
100
AcDbSymbolTableRecord
100
AcDbTextStyleTableRecord
  2
SLDTEXTSTYLE0
 70
     0
 40
0.0
 41
1.0
 50
0.0
 71
     0
 42
3.5277777778
  3
MSGOTHIC.TTC
  4

1001
ACAD
1000
MS UI Gothic
1071
      306
  0
STYLE
  5
7C
330
3
100
AcDbSymbolTableRecord
100
AcDbTextStyleTableRecord
  2
SLDTEXTSTYLE1
 70
     0
 40
0.0
 41
1.0
 50
0.0
 71
     0
 42
3.5277777778
  3
MSGOTHIC.TTC
  4
bigfont
1001
ACAD
1000
MS UI Gothic
1071
      306
  0
ENDTAB
  0
TABLE
  2
VIEW
  5
6
330
0
100
AcDbSymbolTable
 70
     0
  0
ENDTAB
  0
TABLE
  2
UCS
  5
7
330
0
100
AcDbSymbolTable
 70
     0
  0
ENDTAB
  0
TABLE
  2
APPID
  5
9
330
0
100
AcDbSymbolTable
 70
     1
  0
APPID
  5
12
330
9
100
AcDbSymbolTableRecord
100
AcDbRegAppTableRecord
  2
ACAD
 70
     0
  0
ENDTAB
  0
TABLE
  2
DIMSTYLE
  5
A
330
0
100
AcDbSymbolTable
 70
     6
100
AcDbDimStyleTable
  0
DIMSTYLE
105
27
330
A
100
AcDbSymbolTableRecord
100
AcDbDimStyleTableRecord
  2
ISO-25
 70
     0
 41
2.5
 42
0.625
 43
3.75
 44
1.25
 73
     0
 74
     0
 77
     1
 78
     8
140
2.5
141
2.5
143
0.0393700787
147
0.625
171
     3
172
     1
178
     0
271
     2
272
     2
274
     3
278
    44
283
     0
284
     8
340
11
  0
DIMSTYLE
105
161
102
{ACAD_REACTORS
330
160
102
}
330
A
100
AcDbSymbolTableRecord
100
AcDbDimStyleTableRecord
  2
SLDDIMSTYLE0
 70
     0
 41
3.0
 44
0.0
 45
0.000000001
 73
     0
 74
     0
 77
     1
 78
    12
 79
     3
140
3.0316840278
147
0.7579210069
173
     1
178
     0
271
     1
272
     1
276
     2
284
    12
340
77
341
162
343
162
344
162
  0
DIMSTYLE
105
174
102
{ACAD_REACTORS
330
173
330
17E
330
1A0
330
1AA
330
1B4
330
1CB
330
1D6
330
1E0
330
1EC
330
1F8
102
}
330
A
100
AcDbSymbolTableRecord
100
AcDbDimStyleTableRecord
  2
SLDDIMSTYLE1
 70
     0
 41
3.0
 44
0.0
 45
0.000000001
 73
     0
 74
     0
 77
     1
 78
    12
 79
     3
140
3.0316840278
147
0.7579210069
173
     1
178
     0
271
     2
272
     2
276
     2
284
    12
340
77
341
162
343
162
344
162
  0
DIMSTYLE
105
189
102
{ACAD_REACTORS
330
188
330
1BF
102
}
330
A
100
AcDbSymbolTableRecord
100
AcDbDimStyleTableRecord
  2
SLDDIMSTYLE2
 70
     0
 41
3.0
 44
0.0
 45
0.000000001
 73
     0
 74
     0
 77
     1
 78
    12
 79
     3
140
3.0316840278
147
0.7579210069
172
     1
173
     1
178
     0
271
     2
272
     2
276
     2
284
    12
289
     0
340
77
341
162
343
162
344
162
  0
DIMSTYLE
105
196
102
{ACAD_REACTORS
330
195
102
}
330
A
100
AcDbSymbolTableRecord
100
AcDbDimStyleTableRecord
  2
SLDDIMSTYLE3
 70
     0
 41
3.0
 44
0.0
 45
0.000000001
 73
     0
 74
     0
 77
     1
 78
    12
 79
     3
140
3.0316840278
147
0.7579210069
173
     1
178
     0
271
     0
272
     0
276
     2
284
    12
340
77
341
162
343
162
344
162
  0
DIMSTYLE
105
20A
330
A
100
AcDbSymbolTableRecord
100
AcDbDimStyleTableRecord
  2
SLDDIMSTYLE4
 70
     0
 41
3.0
 44
0.0
 45
0.000000001
146
3.0
147
0.0
173
     1
178
     0
271
     0
272
     0
276
     2
340
11
341
162
343
162
344
162
  0
ENDTAB
  0
TABLE
  2
BLOCK_RECORD
  5
1
330
0
100
AcDbSymbolTable
 70
    32
  0
BLOCK_RECORD
  5
1F
330
1
100
AcDbSymbolTableRecord
100
AcDbBlockTableRecord
  2
*Model_Space
340
22
  0
BLOCK_RECORD
  5
1B
330
1
100
AcDbSymbolTableRecord
100
AcDbBlockTableRecord
  2
*Paper_Space
340
1E
  0
BLOCK_RECORD
  5
23
330
1
100
AcDbSymbolTableRecord
100
AcDbBlockTableRecord
  2
*Paper_Space0
340
26
  0
BLOCK_RECORD
  5
79
330
1
100
AcDbSymbolTableRecord
100
AcDbBlockTableRecord
  2
SW_NOTE_0
340
0
102
{BLKREFS
331
7F
102
}
  0
BLOCK_RECORD
  5
80
330
1
100
AcDbSymbolTableRecord
100
AcDbBlockTableRecord
  2
SW_BROKEN_VIEW_0
340
0
102
{BLKREFS
331
87
102
}
  0
BLOCK_RECORD
  5
162
330
1
100
AcDbSymbolTableRecord
100
AcDbBlockTableRecord
  2
_Open30
340
0
102
{BLKREFS
331
16B
331
16C
331
178
331
179
331
182
331
183
331
18D
331
18E
331
19A
331
19B
331
1A4
331
1A5
331
1AE
331
1AF
331
1B8
331
1B9
331
1C3
331
1C4
331
1CF
331
1D0
331
1DA
331
1DB
331
1E6
331
1E7
331
1F2
331
1F3
331
1FC
331
1FD
102
}
  0
BLOCK_RECORD
  5
168
330
1
100
AcDbSymbolTableRecord
100
AcDbBlockTableRecord
  2
_D
340
0
  0
BLOCK_RECORD
  5
175
330
1
100
AcDbSymbolTableRecord
100
AcDbBlockTableRecord
  2
_D_1
340
0
  0
BLOCK_RECORD
  5
17F
330
1
100
AcDbSymbolTableRecord
100
AcDbBlockTableRecord
  2
_D_2
340
0
  0
BLOCK_RECORD
  5
18A
330
1
100
AcDbSymbolTableRecord
100
AcDbBlockTableRecord
  2
_D_3
340
0
  0
BLOCK_RECORD
  5
197
330
1
100
AcDbSymbolTableRecord
100
AcDbBlockTableRecord
  2
_D_4
340
0
  0
BLOCK_RECORD
  5
1A1
330
1
100
AcDbSymbolTableRecord
100
AcDbBlockTableRecord
  2
_D_5
340
0
  0
BLOCK_RECORD
  5
1AB
330
1
100
AcDbSymbolTableRecord
100
AcDbBlockTableRecord
  2
_D_6
340
0
  0
BLOCK_RECORD
  5
1B5
330
1
100
AcDbSymbolTableRecord
100
AcDbBlockTableRecord
  2
_D_7
340
0
  0
BLOCK_RECORD
  5
1C0
330
1
100
AcDbSymbolTableRecord
100
AcDbBlockTableRecord
  2
_D_8
340
0
  0
BLOCK_RECORD
  5
1CC
330
1
100
AcDbSymbolTableRecord
100
AcDbBlockTableRecord
  2
_D_9
340
0
  0
BLOCK_RECORD
  5
1D7
330
1
100
AcDbSymbolTableRecord
100
AcDbBlockTableRecord
  2
_D_10
340
0
  0
BLOCK_RECORD
  5
1E1
330
1
100
AcDbSymbolTableRecord
100
AcDbBlockTableRecord
  2
_D_11
340
0
  0
BLOCK_RECORD
  5
1ED
330
1
100
AcDbSymbolTableRecord
100
AcDbBlockTableRecord
  2
_D_12
340
0
  0
BLOCK_RECORD
  5
1F9
330
1
100
AcDbSymbolTableRecord
100
AcDbBlockTableRecord
  2
_D_13
340
0
  0
BLOCK_RECORD
  5
204
330
1
100
AcDbSymbolTableRecord
100
AcDbBlockTableRecord
  2
SW_NOTE_0_1
340
0
102
{BLKREFS
331
209
102
}
  0
BLOCK_RECORD
  5
20C
330
1
100
AcDbSymbolTableRecord
100
AcDbBlockTableRecord
  2
SW_NOTE_0_2
340
0
102
{BLKREFS
331
211
102
}
  0
BLOCK_RECORD
  5
213
330
1
100
AcDbSymbolTableRecord
100
AcDbBlockTableRecord
  2
SW_NOTE_0_3
340
0
102
{BLKREFS
331
218
102
}
  0
BLOCK_RECORD
  5
21A
330
1
100
AcDbSymbolTableRecord
100
AcDbBlockTableRecord
  2
SW_NOTE_0_4
340
0
102
{BLKREFS
331
21F
102
}
  0
BLOCK_RECORD
  5
221
330
1
100
AcDbSymbolTableRecord
100
AcDbBlockTableRecord
  2
SW_NOTE_0_5
340
0
102
{BLKREFS
331
226
102
}
  0
BLOCK_RECORD
  5
228
330
1
100
AcDbSymbolTableRecord
100
AcDbBlockTableRecord
  2
SW_NOTE_0_6
340
0
102
{BLKREFS
331
22D
102
}
  0
BLOCK_RECORD
  5
22F
330
1
100
AcDbSymbolTableRecord
100
AcDbBlockTableRecord
  2
SW_NOTE_0_7
340
0
102
{BLKREFS
331
235
102
}
  0
BLOCK_RECORD
  5
237
330
1
100
AcDbSymbolTableRecord
100
AcDbBlockTableRecord
  2
SW_NOTE_0_8
340
0
102
{BLKREFS
331
23C
102
}
  0
BLOCK_RECORD
  5
23E
330
1
100
AcDbSymbolTableRecord
100
AcDbBlockTableRecord
  2
SW_NOTE_0_9
340
0
102
{BLKREFS
331
243
102
}
  0
BLOCK_RECORD
  5
245
330
1
100
AcDbSymbolTableRecord
100
AcDbBlockTableRecord
  2
SW_NOTE_0_10
340
0
102
{BLKREFS
331
24A
102
}
  0
BLOCK_RECORD
  5
24C
330
1
100
AcDbSymbolTableRecord
100
AcDbBlockTableRecord
  2
SW_NOTE_0_11
340
0
102
{BLKREFS
331
252
102
}
  0
BLOCK_RECORD
  5
25B
330
1
100
AcDbSymbolTableRecord
100
AcDbBlockTableRecord
  2
SW_NOTE_0_12
340
0
102
{BLKREFS
331
260
102
}
  0
BLOCK_RECORD
  5
263
330
1
100
AcDbSymbolTableRecord
100
AcDbBlockTableRecord
  2
SW_CENTERMARKSYMBOL_0
340
0
102
{BLKREFS
331
26E
102
}
  0
BLOCK_RECORD
  5
26F
330
1
100
AcDbSymbolTableRecord
100
AcDbBlockTableRecord
  2
SW_CENTERMARKSYMBOL_1
340
0
102
{BLKREFS
331
27A
102
}
  0
ENDTAB
  0
ENDSEC
  0
SECTION
  2
BLOCKS
  0
BLOCK
  5
20
330
1F
100
AcDbEntity
  8
0
100
AcDbBlockBegin
  2
*Model_Space
 70
     0
 10
0.0
 20
0.0
 30
0.0
  3
*Model_Space
  1

  0
ENDBLK
  5
21
330
1F
100
AcDbEntity
  8
0
100
AcDbBlockEnd
  0
BLOCK
  5
1C
330
1B
100
AcDbEntity
 67
     1
  8
0
100
AcDbBlockBegin
  2
*Paper_Space
 70
     0
 10
0.0
 20
0.0
 30
0.0
  3
*Paper_Space
  1

  0
ENDBLK
  5
1D
330
1B
100
AcDbEntity
 67
     1
  8
0
100
AcDbBlockEnd
  0
BLOCK
  5
24
330
23
100
AcDbEntity
  8
0
100
AcDbBlockBegin
  2
*Paper_Space0
 70
     0
 10
0.0
 20
0.0
 30
0.0
  3
*Paper_Space0
  1

  0
ENDBLK
  5
25
330
23
100
AcDbEntity
  8
0
100
AcDbBlockEnd
  0
BLOCK
  5
7A
330
79
100
AcDbEntity
  8
0
100
AcDbBlockBegin
  2
SW_NOTE_0
 70
     0
 10
0.0
 20
0.0
 30
0.0
  3
SW_NOTE_0
  1

  0
MTEXT
  5
7D
330
79
100
AcDbEntity
  8
0
  6
Continuous
 62
     0
370
    18
100
AcDbMText
 10
0.0
 20
5.5418181818
 30
0.0
 40
4.7625
 41
0.0
 71
     1
 72
     1
  1
MODEL：T-211S-ﾛ-ﾛ-ﾛ-ﾛ-Y-ﾛ-ﾛ-ﾛ
  7
SLDTEXTSTYLE1
 73
     1
 44
1.0
  0
MTEXT
  5
7E
330
79
100
AcDbEntity
  8
0
  6
Continuous
 62
     0
370
    18
100
AcDbMText
 10
23.1775008142
 20
-2.8417495077
 30
0.0
 40
3.7041666667
 41
0.0
 71
     1
 72
     1
  1
（保護管径φ3.2、φ4.8の時）
  7
SLDTEXTSTYLE1
 73
     1
 44
1.0
  0
ENDBLK
  5
7B
330
79
100
AcDbEntity
  8
0
100
AcDbBlockEnd
  0
BLOCK
  5
81
330
80
100
AcDbEntity
  8
0
100
AcDbBlockBegin
  2
SW_BROKEN_VIEW_0
 70
     0
 10
0.0
 20
0.0
 30
0.0
  3
SW_BROKEN_VIEW_0
  1

  0
LINE
  5
83
330
80
100
AcDbEntity
  8
0
  6
Continuous
 62
     0
100
AcDbLine
 10
0.0
 20
0.0
 30
0.0
 11
12.7999931574
 21
0.0
 31
0.0
  0
LINE
  5
84
330
80
100
AcDbEntity
  8
0
  6
HIDDEN
 62
     0
100
AcDbLine
 10
0.0
 20
24.0000006743
 30
0.0
 11
12.7999931574
 21
24.0000006743
 31
0.0
  0
LINE
  5
85
330
80
100
AcDbEntity
  8
0
  6
HIDDEN
 62
     0
100
AcDbLine
 10
0.0
 20
24.0000006743
 30
0.0
 11
0.0
 21
12.00000057
 31
0.0
  0
LINE
  5
86
330
80
100
AcDbEntity
  8
0
  6
HIDDEN
 62
     0
100
AcDbLine
 10
12.7999931574
 20
24.0000006743
 30
0.0
 11
12.7999931574
 21
12.00000057
 31
0.0
  0
ENDBLK
  5
82
330
80
100
AcDbEntity
  8
0
100
AcDbBlockEnd
  0
BLOCK
  5
163
330
162
100
AcDbEntity
  8
0
100
AcDbBlockBegin
  2
_Open30
 70
     0
 10
0.0
 20
0.0
 30
0.0
  3
_Open30
  1

  0
LINE
  5
165
330
162
100
AcDbEntity
  8
0
  6
ByBlock
 62
     0
370
    -2
100
AcDbLine
 10
-1.0
 20
0.267949
 30
0.0
 11
0.0
 21
0.0
 31
0.0
  0
LINE
  5
166
330
162
100
AcDbEntity
  8
0
  6
ByBlock
 62
     0
370
    -2
100
AcDbLine
 10
0.0
 20
0.0
 30
0.0
 11
-1.0
 21
-0.267949
 31
0.0
  0
LINE
  5
167
330
162
100
AcDbEntity
  8
0
  6
ByBlock
 62
     0
370
    -2
100
AcDbLine
 10
0.0
 20
0.0
 30
0.0
 11
-1.0
 21
0.0
 31
0.0
  0
ENDBLK
  5
164
330
162
100
AcDbEntity
  8
0
100
AcDbBlockEnd
  0
BLOCK
  5
169
330
168
100
AcDbEntity
  8
0
100
AcDbBlockBegin
  2
_D
 70
     0
 10
0.0
 20
0.0
 30
0.0
  3
_D
  1

  0
INSERT
  5
16B
330
168
100
AcDbEntity
  8
0
  6
Continuous
 62
     7
370
    18
100
AcDbBlockReference
  2
_Open30
 10
46.3360588845
 20
101.9396781341
 30
0.0
 41
3.0
 42
3.0
 50
180.0
  0
INSERT
  5
16C
330
168
100
AcDbEntity
  8
0
  6
Continuous
 62
     7
370
    18
100
AcDbBlockReference
  2
_Open30
 10
59.1360588845
 20
101.9396781341
 30
0.0
 41
3.0
 42
3.0
 50
0.0
  0
LINE
  5
16D
330
168
100
AcDbEntity
  8
0
  6
Continuous
 62
     7
370
    18
100
AcDbLine
 10
46.3360588845
 20
106.6263006089
 30
0.0
 11
46.3360588845
 21
100.9396781341
 31
0.0
  0
LINE
  5
16E
330
168
100
AcDbEntity
  8
0
  6
Continuous
 62
     7
370
    18
100
AcDbLine
 10
59.1360588845
 20
106.6263006089
 30
0.0
 11
59.1360588845
 21
100.9396781341
 31
0.0
  0
LINE
  5
16F
330
168
100
AcDbEntity
  8
0
  6
Continuous
 62
     7
370
    18
100
AcDbLine
 10
46.3360588845
 20
101.9396781341
 30
0.0
 11
34.681198706
 21
101.9396781341
 31
0.0
  0
LINE
  5
170
330
168
100
AcDbEntity
  8
0
  6
Continuous
 62
     7
370
    18
100
AcDbLine
 10
46.3360588845
 20
101.9396781341
 30
0.0
 11
59.1360588845
 21
101.9396781341
 31
0.0
  0
MTEXT
  5
171
330
168
100
AcDbEntity
  8
0
  6
Continuous
 62
     7
370
    18
100
AcDbMText
 10
34.681198706
 20
105.0184661293
 30
0.0
 40
2.6458333333
 41
0.0
 71
     1
 72
     1
  1
%%c
  7
SLDTEXTSTYLE0
 73
     1
 44
1.0
  0
MTEXT
  5
172
330
168
100
AcDbEntity
  8
0
  6
Continuous
 62
     7
370
    18
100
AcDbMText
 10
38.0325876708
 20
105.0184661293
 30
0.0
 40
2.6458333333
 41
0.0
 71
     1
 72
     1
  1
12.8
  7
SLDTEXTSTYLE0
 73
     1
 44
1.0
  0
ENDBLK
  5
16A
330
168
100
AcDbEntity
  8
0
100
AcDbBlockEnd
  0
BLOCK
  5
176
330
175
100
AcDbEntity
  8
0
100
AcDbBlockBegin
  2
_D_1
 70
     0
 10
0.0
 20
0.0
 30
0.0
  3
_D_1
  1

  0
INSERT
  5
178
330
175
100
AcDbEntity
  8
0
  6
Continuous
 62
     7
370
    18
100
AcDbBlockReference
  2
_Open30
 10
27.5000077876
 20
36.1160636327
 30
0.0
 41
3.0
 42
3.0
 50
270.0
  0
INSERT
  5
179
330
175
100
AcDbEntity
  8
0
  6
Continuous
 62
     7
370
    18
100
AcDbBlockReference
  2
_Open30
 10
27.5000077876
 20
73.8759260832
 30
0.0
 41
3.0
 42
3.0
 50
90.0
  0
LINE
  5
17A
330
175
100
AcDbEntity
  8
0
  6
Continuous
 62
     7
370
    18
100
AcDbLine
 10
51.7360588845
 20
36.1160636327
 30
0.0
 11
26.5000077876
 21
36.1160636327
 31
0.0
  0
LINE
  5
17B
330
175
100
AcDbEntity
  8
0
  6
Continuous
 62
     7
370
    18
100
AcDbLine
 10
48.2360588845
 20
73.8759260832
 30
0.0
 11
26.5000077876
 21
73.8759260832
 31
0.0
  0
LINE
  5
17C
330
175
100
AcDbEntity
  8
0
  6
Continuous
 62
     7
370
    18
100
AcDbLine
 10
27.5000077876
 20
36.1160636327
 30
0.0
 11
27.5000077876
 21
73.8759260832
 31
0.0
  0
MTEXT
  5
17D
330
175
100
AcDbEntity
  8
0
  6
Continuous
 62
     7
370
    18
100
AcDbMText
 10
24.4212200252
 20
45.226010337
 30
0.0
 40
2.6458333333
 41
0.0
 71
     1
 72
     1
  1
L1=50～1000
  7
SLDTEXTSTYLE1
 11
6.123233995736766E-17
 21
1.0
 31
0.0
 73
     1
 44
1.0
  0
ENDBLK
  5
177
330
175
100
AcDbEntity
  8
0
100
AcDbBlockEnd
  0
BLOCK
  5
180
330
17F
100
AcDbEntity
  8
0
100
AcDbBlockBegin
  2
_D_2
 70
     0
 10
0.0
 20
0.0
 30
0.0
  3
_D_2
  1

  0
INSERT
  5
182
330
17F
100
AcDbEntity
  8
0
  6
Continuous
 62
     7
370
    18
100
AcDbBlockReference
  2
_Open30
 10
27.5000077876
 20
125.6263006089
 30
0.0
 41
3.0
 42
3.0
 50
90.0
  0
INSERT
  5
183
330
17F
100
AcDbEntity
  8
0
  6
Continuous
 62
     7
370
    18
100
AcDbBlockReference
  2
_Open30
 10
27.5000077876
 20
73.8759260832
 30
0.0
 41
3.0
 42
3.0
 50
270.0
  0
LINE
  5
184
330
17F
100
AcDbEntity
  8
0
  6
Continuous
 62
     7
370
    18
100
AcDbLine
 10
48.2360588845
 20
125.6263006089
 30
0.0
 11
26.5000077876
 21
125.6263006089
 31
0.0
  0
LINE
  5
185
330
17F
100
AcDbEntity
  8
0
  6
Continuous
 62
     7
370
    18
100
AcDbLine
 10
48.2360588845
 20
73.8759260832
 30
0.0
 11
26.5000077876
 21
73.8759260832
 31
0.0
  0
LINE
  5
186
330
17F
100
AcDbEntity
  8
0
  6
Continuous
 62
     7
370
    18
100
AcDbLine
 10
27.5000077876
 20
125.6263006089
 30
0.0
 11
27.5000077876
 21
73.8759260832
 31
0.0
  0
MTEXT
  5
187
330
17F
100
AcDbEntity
  8
0
  6
Continuous
 62
     7
370
    18
100
AcDbMText
 10
24.4212200252
 20
97.9872244785
 30
0.0
 40
2.6458333333
 41
0.0
 71
     1
 72
     1
  1
50
  7
SLDTEXTSTYLE0
 11
-7.044195017643634E-15
 21
1.0
 31
0.0
 73
     1
 44
1.0
  0
ENDBLK
  5
181
330
17F
100
AcDbEntity
  8
0
100
AcDbBlockEnd
  0
BLOCK
  5
18B
330
18A
100
AcDbEntity
  8
0
100
AcDbBlockBegin
  2
_D_3
 70
     0
 10
0.0
 20
0.0
 30
0.0
  3
_D_3
  1

  0
INSERT
  5
18D
330
18A
100
AcDbEntity
  8
0
  6
Continuous
 62
     7
370
    18
100
AcDbBlockReference
  2
_Open30
 10
43.5717191513
 20
75.8759260832
 30
0.0
 41
3.0
 42
3.0
 50
270.0
  0
INSERT
  5
18E
330
18A
100
AcDbEntity
  8
0
  6
Continuous
 62
     7
370
    18
100
AcDbBlockReference
  2
_Open30
 10
43.5717191513
 20
73.8759260832
 30
0.0
 41
3.0
 42
3.0
 50
90.0
  0
LINE
  5
18F
330
18A
100
AcDbEntity
  8
0
  6
Continuous
 62
     7
370
    18
100
AcDbLine
 10
48.2360588845
 20
75.8759260832
 30
0.0
 11
42.5717191513
 21
75.8759260832
 31
0.0
  0
LINE
  5
190
330
18A
100
AcDbEntity
  8
0
  6
Continuous
 62
     7
370
    18
100
AcDbLine
 10
48.2360588845
 20
73.8759260832
 30
0.0
 11
42.5717191513
 21
73.8759260832
 31
0.0
  0
LINE
  5
191
330
18A
100
AcDbEntity
  8
0
  6
Continuous
 62
     7
370
    18
100
AcDbLine
 10
43.5717191513
 20
75.8759260832
 30
0.0
 11
43.5717191513
 21
79.3759260832
 31
0.0
  0
LINE
  5
192
330
18A
100
AcDbEntity
  8
0
  6
Continuous
 62
     7
370
    18
100
AcDbLine
 10
43.5717191513
 20
75.8759260832
 30
0.0
 11
43.5717191513
 21
73.8759260832
 31
0.0
  0
LINE
  5
193
330
18A
100
AcDbEntity
  8
0
  6
Continuous
 62
     7
370
    18
100
AcDbLine
 10
43.5717191513
 20
73.8759260832
 30
0.0
 11
43.5717191513
 21
66.8629974494
 31
0.0
  0
MTEXT
  5
194
330
18A
100
AcDbEntity
  8
0
  6
Continuous
 62
     7
370
    18
100
AcDbMText
 10
40.4929313889
 20
66.8629974494
 30
0.0
 40
2.6458333333
 41
0.0
 71
     1
 72
     1
  1
2
  7
SLDTEXTSTYLE0
 11
-7.044195017643634E-15
 21
1.0
 31
0.0
 73
     1
 44
1.0
  0
ENDBLK
  5
18C
330
18A
100
AcDbEntity
  8
0
100
AcDbBlockEnd
  0
BLOCK
  5
198
330
197
100
AcDbEntity
  8
0
100
AcDbBlockBegin
  2
_D_4
 70
     0
 10
0.0
 20
0.0
 30
0.0
  3
_D_4
  1

  0
INSERT
  5
19A
330
197
100
AcDbEntity
  8
0
  6
Continuous
 62
     7
370
    18
100
AcDbBlockReference
  2
_Open30
 10
27.5000077876
 20
125.6263006089
 30
0.0
 41
3.0
 42
3.0
 50
270.0
  0
INSERT
  5
19B
330
197
100
AcDbEntity
  8
0
  6
Continuous
 62
     7
370
    18
100
AcDbBlockReference
  2
_Open30
 10
27.5000077876
 20
142.6263006089
 30
0.0
 41
3.0
 42
3.0
 50
90.0
  0
LINE
  5
19C
330
197
100
AcDbEntity
  8
0
  6
Continuous
 62
     7
370
    18
100
AcDbLine
 10
48.2360588845
 20
125.6263006089
 30
0.0
 11
26.5000077876
 21
125.6263006089
 31
0.0
  0
LINE
  5
19D
330
197
100
AcDbEntity
  8
0
  6
Continuous
 62
     7
370
    18
100
AcDbLine
 10
61.7360588845
 20
142.6263006089
 30
0.0
 11
26.5000077876
 21
142.6263006089
 31
0.0
  0
LINE
  5
19E
330
197
100
AcDbEntity
  8
0
  6
Continuous
 62
     7
370
    18
100
AcDbLine
 10
27.5000077876
 20
125.6263006089
 30
0.0
 11
27.5000077876
 21
142.6263006089
 31
0.0
  0
MTEXT
  5
19F
330
197
100
AcDbEntity
  8
0
  6
Continuous
 62
     7
370
    18
100
AcDbMText
 10
24.4212200252
 20
132.3624117414
 30
0.0
 40
2.6458333333
 41
0.0
 71
     1
 72
     1
  1
17
  7
SLDTEXTSTYLE0
 11
6.123233995736766E-17
 21
1.0
 31
0.0
 73
     1
 44
1.0
  0
ENDBLK
  5
199
330
197
100
AcDbEntity
  8
0
100
AcDbBlockEnd
  0
BLOCK
  5
1A2
330
1A1
100
AcDbEntity
  8
0
100
AcDbBlockBegin
  2
_D_5
 70
     0
 10
0.0
 20
0.0
 30
0.0
  3
_D_5
  1

  0
INSERT
  5
1A4
330
1A1
100
AcDbEntity
  8
0
  6
Continuous
 62
     7
370
    18
100
AcDbBlockReference
  2
_Open30
 10
52.7360588845
 20
175.0533423441
 30
0.0
 41
3.0
 42
3.0
 50
180.0
  0
INSERT
  5
1A5
330
1A1
100
AcDbEntity
  8
0
  6
Continuous
 62
     7
370
    18
100
AcDbBlockReference
  2
_Open30
 10
77.7360588845
 20
175.0533423441
 30
0.0
 41
3.0
 42
3.0
 50
0.0
  0
LINE
  5
1A6
330
1A1
100
AcDbEntity
  8
0
  6
Continuous
 62
     7
370
    18
100
AcDbLine
 10
52.7360588845
 20
133.6263006089
 30
0.0
 11
52.7360588845
 21
176.0533423441
 31
0.0
  0
LINE
  5
1A7
330
1A1
100
AcDbEntity
  8
0
  6
Continuous
 62
     7
370
    18
100
AcDbLine
 10
77.7360588845
 20
146.0263006089
 30
0.0
 11
77.7360588845
 21
176.0533423441
 31
0.0
  0
LINE
  5
1A8
330
1A1
100
AcDbEntity
  8
0
  6
Continuous
 62
     7
370
    18
100
AcDbLine
 10
52.7360588845
 20
175.0533423441
 30
0.0
 11
77.7360588845
 21
175.0533423441
 31
0.0
  0
MTEXT
  5
1A9
330
1A1
100
AcDbEntity
  8
0
  6
Continuous
 62
     7
370
    18
100
AcDbMText
 10
63.4721700169
 20
178.1321301064
 30
0.0
 40
2.6458333333
 41
0.0
 71
     1
 72
     1
  1
25
  7
SLDTEXTSTYLE0
 73
     1
 44
1.0
  0
ENDBLK
  5
1A3
330
1A1
100
AcDbEntity
  8
0
100
AcDbBlockEnd
  0
BLOCK
  5
1AC
330
1AB
100
AcDbEntity
  8
0
100
AcDbBlockBegin
  2
_D_6
 70
     0
 10
0.0
 20
0.0
 30
0.0
  3
_D_6
  1

  0
INSERT
  5
1AE
330
1AB
100
AcDbEntity
  8
0
  6
Continuous
 62
     7
370
    18
100
AcDbBlockReference
  2
_Open30
 10
77.7360588845
 20
175.0533423441
 30
0.0
 41
3.0
 42
3.0
 50
180.0
  0
INSERT
  5
1AF
330
1AB
100
AcDbEntity
  8
0
  6
Continuous
 62
     7
370
    18
100
AcDbBlockReference
  2
_Open30
 10
117.7360588845
 20
175.0533423441
 30
0.0
 41
3.0
 42
3.0
 50
0.0
  0
LINE
  5
1B0
330
1AB
100
AcDbEntity
  8
0
  6
Continuous
 62
     7
370
    18
100
AcDbLine
 10
77.7360588845
 20
146.0263006089
 30
0.0
 11
77.7360588845
 21
176.0533423441
 31
0.0
  0
LINE
  5
1B1
330
1AB
100
AcDbEntity
  8
0
  6
Continuous
 62
     7
370
    18
100
AcDbLine
 10
117.7360588845
 20
147.6263006089
 30
0.0
 11
117.7360588845
 21
176.0533423441
 31
0.0
  0
LINE
  5
1B2
330
1AB
100
AcDbEntity
  8
0
  6
Continuous
 62
     7
370
    18
100
AcDbLine
 10
77.7360588845
 20
175.0533423441
 30
0.0
 11
117.7360588845
 21
175.0533423441
 31
0.0
  0
MTEXT
  5
1B3
330
1AB
100
AcDbEntity
  8
0
  6
Continuous
 62
     7
370
    18
100
AcDbMText
 10
95.9721700169
 20
178.1321301064
 30
0.0
 40
2.6458333333
 41
0.0
 71
     1
 72
     1
  1
40
  7
SLDTEXTSTYLE0
 73
     1
 44
1.0
  0
ENDBLK
  5
1AD
330
1AB
100
AcDbEntity
  8
0
100
AcDbBlockEnd
  0
BLOCK
  5
1B6
330
1B5
100
AcDbEntity
  8
0
100
AcDbBlockBegin
  2
_D_7
 70
     0
 10
0.0
 20
0.0
 30
0.0
  3
_D_7
  1

  0
INSERT
  5
1B8
330
1B5
100
AcDbEntity
  8
0
  6
Continuous
 62
     7
370
    18
100
AcDbBlockReference
  2
_Open30
 10
109.8285853426
 20
138.6263006089
 30
0.0
 41
3.0
 42
3.0
 50
270.0
  0
INSERT
  5
1B9
330
1B5
100
AcDbEntity
  8
0
  6
Continuous
 62
     7
370
    18
100
AcDbBlockReference
  2
_Open30
 10
109.8285853426
 20
146.6263006089
 30
0.0
 41
3.0
 42
3.0
 50
90.0
  0
LINE
  5
1BA
330
1B5
100
AcDbEntity
  8
0
  6
Continuous
 62
     7
370
    18
100
AcDbLine
 10
109.8285853426
 20
138.6263006089
 30
0.0
 11
109.8285853426
 21
146.6263006089
 31
0.0
  0
LINE
  5
1BB
330
1B5
100
AcDbEntity
  8
0
  6
Continuous
 62
     7
370
    18
100
AcDbLine
 10
109.8285853426
 20
146.6263006089
 30
0.0
 11
109.8285853426
 21
167.9773845345
 31
0.0
  0
MTEXT
  5
1BC
330
1B5
100
AcDbEntity
  8
0
  6
Continuous
 62
     7
370
    18
100
AcDbMText
 10
106.7494051934
 20
155.1671412409
 30
0.0
 40
2.6458333333
 41
0.0
 71
     1
 72
     1
  1
%%c
  7
SLDTEXTSTYLE0
 11
6.123233995736766E-17
 21
1.0
 31
0.0
 73
     1
 44
1.0
  0
MTEXT
  5
1BD
330
1B5
100
AcDbEntity
  8
0
  6
Continuous
 62
     7
370
    18
100
AcDbMText
 10
106.7494051934
 20
158.5185302057
 30
0.0
 40
2.6458333333
 41
0.0
 71
     1
 72
     1
  1
D1
  7
SLDTEXTSTYLE0
 11
6.123233995736766E-17
 21
1.0
 31
0.0
 73
     1
 44
1.0
  0
MTEXT
  5
1BE
330
1B5
100
AcDbEntity
  8
0
  6
Continuous
 62
     7
370
    18
100
AcDbMText
 10
110.2771831613
 20
149.7603312701
 30
0.0
 40
2.6458333333
 41
0.0
 71
     1
 72
     1
  1
（φ8、φ10）
  7
SLDTEXTSTYLE1
 11
6.123233995736766E-17
 21
1.0
 31
0.0
 73
     1
 44
1.0
  0
ENDBLK
  5
1B7
330
1B5
100
AcDbEntity
  8
0
100
AcDbBlockEnd
  0
BLOCK
  5
1C1
330
1C0
100
AcDbEntity
  8
0
100
AcDbBlockBegin
  2
_D_8
 70
     0
 10
0.0
 20
0.0
 30
0.0
  3
_D_8
  1

  0
INSERT
  5
1C3
330
1C0
100
AcDbEntity
  8
0
  6
Continuous
 62
     7
370
    18
100
AcDbBlockReference
  2
_Open30
 10
50.3360588845
 20
44.4770159475
 30
0.0
 41
3.0
 42
3.0
 50
0.0
  0
INSERT
  5
1C4
330
1C0
100
AcDbEntity
  8
0
  6
Continuous
 62
     7
370
    18
100
AcDbBlockReference
  2
_Open30
 10
55.1360588845
 20
44.4770159475
 30
0.0
 41
3.0
 42
3.0
 50
180.0
  0
LINE
  5
1C5
330
1C0
100
AcDbEntity
  8
0
  6
Continuous
 62
     7
370
    18
100
AcDbLine
 10
50.3360588845
 20
44.4770159475
 30
0.0
 11
46.8360588845
 21
44.4770159475
 31
0.0
  0
LINE
  5
1C6
330
1C0
100
AcDbEntity
  8
0
  6
Continuous
 62
     7
370
    18
100
AcDbLine
 10
50.3360588845
 20
44.4770159475
 30
0.0
 11
55.1360588845
 21
44.4770159475
 31
0.0
  0
LINE
  5
1C7
330
1C0
100
AcDbEntity
  8
0
  6
Continuous
 62
     7
370
    18
100
AcDbLine
 10
55.1360588845
 20
44.4770159475
 30
0.0
 11
88.8853485193
 21
44.4770159475
 31
0.0
  0
MTEXT
  5
1C8
330
1C0
100
AcDbEntity
  8
0
  6
Continuous
 62
     7
370
    18
100
AcDbMText
 10
75.6292322148
 20
47.5561960967
 30
0.0
 40
2.6458333333
 41
0.0
 71
     1
 72
     1
  1
%%c
  7
SLDTEXTSTYLE0
 73
     1
 44
1.0
  0
MTEXT
  5
1C9
330
1C0
100
AcDbEntity
  8
0
  6
Continuous
 62
     7
370
    18
100
AcDbMText
 10
78.9806211796
 20
47.5561960967
 30
0.0
 40
2.6458333333
 41
0.0
 71
     1
 72
     1
  1
d
  7
SLDTEXTSTYLE0
 73
     1
 44
1.0
  0
MTEXT
  5
1CA
330
1C0
100
AcDbEntity
  8
0
  6
Continuous
 62
     7
370
    18
100
AcDbMText
 10
67.4736949112
 20
44.0284181288
 30
0.0
 40
2.6458333333
 41
0.0
 71
     1
 72
     1
  1
（φ3.2、φ4.8）
  7
SLDTEXTSTYLE1
 73
     1
 44
1.0
  0
ENDBLK
  5
1C2
330
1C0
100
AcDbEntity
  8
0
100
AcDbBlockEnd
  0
BLOCK
  5
1CD
330
1CC
100
AcDbEntity
  8
0
100
AcDbBlockBegin
  2
_D_9
 70
     0
 10
0.0
 20
0.0
 30
0.0
  3
_D_9
  1

  0
INSERT
  5
1CF
330
1CC
100
AcDbEntity
  8
0
  6
Continuous
 62
     7
370
    18
100
AcDbBlockReference
  2
_Open30
 10
49.2360588845
 20
67.7449418832
 30
0.0
 41
3.0
 42
3.0
 50
180.0
  0
INSERT
  5
1D0
330
1CC
100
AcDbEntity
  8
0
  6
Continuous
 62
     7
370
    18
100
AcDbBlockReference
  2
_Open30
 10
56.2360588845
 20
67.7449418832
 30
0.0
 41
3.0
 42
3.0
 50
0.0
  0
LINE
  5
1D1
330
1CC
100
AcDbEntity
  8
0
  6
Continuous
 62
     7
370
    18
100
AcDbLine
 10
49.2360588845
 20
72.8759260832
 30
0.0
 11
49.2360588845
 21
66.7449418832
 31
0.0
  0
LINE
  5
1D2
330
1CC
100
AcDbEntity
  8
0
  6
Continuous
 62
     7
370
    18
100
AcDbLine
 10
56.2360588845
 20
72.8759260832
 30
0.0
 11
56.2360588845
 21
66.7449418832
 31
0.0
  0
LINE
  5
1D3
330
1CC
100
AcDbEntity
  8
0
  6
Continuous
 62
     7
370
    18
100
AcDbLine
 10
49.2360588845
 20
67.7449418832
 30
0.0
 11
56.2360588845
 21
67.7449418832
 31
0.0
  0
LINE
  5
1D4
330
1CC
100
AcDbEntity
  8
0
  6
Continuous
 62
     7
370
    18
100
AcDbLine
 10
56.2360588845
 20
67.7449418832
 30
0.0
 11
64.9223881497
 21
67.7449418832
 31
0.0
  0
MTEXT
  5
1D5
330
1CC
100
AcDbEntity
  8
0
  6
Continuous
 62
     7
370
    18
100
AcDbMText
 10
59.6307213142
 20
70.8237296456
 30
0.0
 40
2.6458333333
 41
0.0
 71
     1
 72
     1
  1
※1
  7
SLDTEXTSTYLE1
 73
     1
 44
1.0
  0
ENDBLK
  5
1CE
330
1CC
100
AcDbEntity
  8
0
100
AcDbBlockEnd
  0
BLOCK
  5
1D8
330
1D7
100
AcDbEntity
  8
0
100
AcDbBlockBegin
  2
_D_10
 70
     0
 10
0.0
 20
0.0
 30
0.0
  3
_D_10
  1

  0
INSERT
  5
1DA
330
1D7
100
AcDbEntity
  8
0
  6
Continuous
 62
     7
370
    18
100
AcDbBlockReference
  2
_Open30
 10
117.7360588845
 20
175.0533423441
 30
0.0
 41
3.0
 42
3.0
 50
180.0
  0
INSERT
  5
1DB
330
1D7
100
AcDbEntity
  8
0
  6
Continuous
 62
     7
370
    18
100
AcDbBlockReference
  2
_Open30
 10
258.2646426811
 20
175.0533423441
 30
0.0
 41
3.0
 42
3.0
 50
0.0
  0
LINE
  5
1DC
330
1D7
100
AcDbEntity
  8
0
  6
Continuous
 62
     7
370
    18
100
AcDbLine
 10
117.7360588845
 20
147.6263006089
 30
0.0
 11
117.7360588845
 21
176.0533423441
 31
0.0
  0
LINE
  5
1DD
330
1D7
100
AcDbEntity
  8
0
  6
Continuous
 62
     7
370
    18
100
AcDbLine
 10
258.2646426811
 20
155.2534555404
 30
0.0
 11
258.2646426811
 21
176.0533423441
 31
0.0
  0
LINE
  5
1DE
330
1D7
100
AcDbEntity
  8
0
  6
Continuous
 62
     7
370
    18
100
AcDbLine
 10
117.7360588845
 20
175.0533423441
 30
0.0
 11
258.2646426811
 21
175.0533423441
 31
0.0
  0
MTEXT
  5
1DF
330
1D7
100
AcDbEntity
  8
0
  6
Continuous
 62
     7
370
    18
100
AcDbMText
 10
177.3484214788
 20
178.1321301064
 30
0.0
 40
2.6458333333
 41
0.0
 71
     1
 72
     1
  1
L=100～10000
  7
SLDTEXTSTYLE1
 73
     1
 44
1.0
  0
ENDBLK
  5
1D9
330
1D7
100
AcDbEntity
  8
0
100
AcDbBlockEnd
  0
BLOCK
  5
1E2
330
1E1
100
AcDbEntity
  8
0
100
AcDbBlockBegin
  2
_D_11
 70
     0
 10
0.0
 20
0.0
 30
0.0
  3
_D_11
  1

  0
ARC
  5
1E4
330
1E1
100
AcDbEntity
  8
0
  6
Continuous
 62
     7
370
    18
100
AcDbCircle
 10
227.4391871272
 20
160.6327465371
 30
0.0
 40
3.944175412646004
100
AcDbArc
 50
153.4349488229
 51
206.5650511771
  0
ARC
  5
1E5
330
1E1
100
AcDbEntity
  8
0
  6
Continuous
 62
     7
370
    18
100
AcDbCircle
 10
223.911409392
 20
160.6327465371
 30
0.0
 40
3.944175412646004
100
AcDbArc
 50
333.4349488229
 51
26.5650511771
  0
INSERT
  5
1E6
330
1E1
100
AcDbEntity
  8
0
  6
Continuous
 62
     7
370
    18
100
AcDbBlockReference
  2
_Open30
 10
193.0859536635
 20
158.8688579023
 30
0.0
 41
3.0
 42
3.0
 50
180.0
  0
INSERT
  5
1E7
330
1E1
100
AcDbEntity
  8
0
  6
Continuous
 62
     7
370
    18
100
AcDbBlockReference
  2
_Open30
 10
258.2646426811
 20
158.8688579023
 30
0.0
 41
3.0
 42
3.0
 50
0.0
  0
LINE
  5
1E8
330
1E1
100
AcDbEntity
  8
0
  6
Continuous
 62
     7
370
    18
100
AcDbLine
 10
193.0859536635
 20
146.1263006089
 30
0.0
 11
193.0859536635
 21
159.8688579023
 31
0.0
  0
LINE
  5
1E9
330
1E1
100
AcDbEntity
  8
0
  6
Continuous
 62
     7
370
    18
100
AcDbLine
 10
258.2646426811
 20
155.2534555404
 30
0.0
 11
258.2646426811
 21
159.8688579023
 31
0.0
  0
LINE
  5
1EA
330
1E1
100
AcDbEntity
  8
0
  6
Continuous
 62
     7
370
    18
100
AcDbLine
 10
193.0859536635
 20
158.8688579023
 30
0.0
 11
258.2646426811
 21
158.8688579023
 31
0.0
  0
MTEXT
  5
1EB
330
1E1
100
AcDbEntity
  8
0
  6
Continuous
 62
     7
370
    18
100
AcDbMText
 10
223.911409392
 20
161.9476454319
 30
0.0
 40
2.6458333333
 41
0.0
 71
     1
 72
     1
  1
80
  7
SLDTEXTSTYLE0
 73
     1
 44
1.0
  0
ENDBLK
  5
1E3
330
1E1
100
AcDbEntity
  8
0
100
AcDbBlockEnd
  0
BLOCK
  5
1EE
330
1ED
100
AcDbEntity
  8
0
100
AcDbBlockBegin
  2
_D_12
 70
     0
 10
0.0
 20
0.0
 30
0.0
  3
_D_12
  1

  0
ARC
  5
1F0
330
1ED
100
AcDbEntity
  8
0
  6
Continuous
 62
     7
370
    18
100
AcDbCircle
 10
36.3077218231
 20
117.3901895638
 30
0.0
 40
3.944175412646004
100
AcDbArc
 50
243.4349488229
 51
296.5650511771
  0
ARC
  5
1F1
330
1ED
100
AcDbEntity
  8
0
  6
Continuous
 62
     7
370
    18
100
AcDbCircle
 10
36.3077218231
 20
113.8624118287
 30
0.0
 40
3.944175412646004
100
AcDbArc
 50
63.4349488229
 51
116.5650511771
  0
INSERT
  5
1F2
330
1ED
100
AcDbEntity
  8
0
  6
Continuous
 62
     7
370
    18
100
AcDbBlockReference
  2
_Open30
 10
38.0716104578
 20
107.6263006089
 30
0.0
 41
3.0
 42
3.0
 50
270.0
  0
INSERT
  5
1F3
330
1ED
100
AcDbEntity
  8
0
  6
Continuous
 62
     7
370
    18
100
AcDbBlockReference
  2
_Open30
 10
38.0716104578
 20
123.6263006089
 30
0.0
 41
3.0
 42
3.0
 50
90.0
  0
LINE
  5
1F4
330
1ED
100
AcDbEntity
  8
0
  6
Continuous
 62
     7
370
    18
100
AcDbLine
 10
44.7360588845
 20
107.6263006089
 30
0.0
 11
37.0716104578
 21
107.6263006089
 31
0.0
  0
LINE
  5
1F5
330
1ED
100
AcDbEntity
  8
0
  6
Continuous
 62
     7
370
    18
100
AcDbLine
 10
46.7360588845
 20
123.6263006089
 30
0.0
 11
37.0716104578
 21
123.6263006089
 31
0.0
  0
LINE
  5
1F6
330
1ED
100
AcDbEntity
  8
0
  6
Continuous
 62
     7
370
    18
100
AcDbLine
 10
38.0716104578
 20
107.6263006089
 30
0.0
 11
38.0716104578
 21
123.6263006089
 31
0.0
  0
MTEXT
  5
1F7
330
1ED
100
AcDbEntity
  8
0
  6
Continuous
 62
     7
370
    18
100
AcDbMText
 10
34.9928229283
 20
113.8624118287
 30
0.0
 40
2.6458333333
 41
0.0
 71
     1
 72
     1
  1
16
  7
SLDTEXTSTYLE0
 11
6.123233995736766E-17
 21
1.0
 31
0.0
 73
     1
 44
1.0
  0
ENDBLK
  5
1EF
330
1ED
100
AcDbEntity
  8
0
100
AcDbBlockEnd
  0
BLOCK
  5
1FA
330
1F9
100
AcDbEntity
  8
0
100
AcDbBlockBegin
  2
_D_13
 70
     0
 10
0.0
 20
0.0
 30
0.0
  3
_D_13
  1

  0
INSERT
  5
1FC
330
1F9
100
AcDbEntity
  8
0
  6
Continuous
 62
     7
370
    18
100
AcDbBlockReference
  2
_Open30
 10
45.7360588845
 20
97.812749737
 30
0.0
 41
3.0
 42
3.0
 50
180.0
  0
INSERT
  5
1FD
330
1F9
100
AcDbEntity
  8
0
  6
Continuous
 62
     7
370
    18
100
AcDbBlockReference
  2
_Open30
 10
59.7360588845
 20
97.812749737
 30
0.0
 41
3.0
 42
3.0
 50
0.0
  0
LINE
  5
1FE
330
1F9
100
AcDbEntity
  8
0
  6
Continuous
 62
     7
370
    18
100
AcDbLine
 10
45.7360588845
 20
106.6263006089
 30
0.0
 11
45.7360588845
 21
96.812749737
 31
0.0
  0
LINE
  5
1FF
330
1F9
100
AcDbEntity
  8
0
  6
Continuous
 62
     7
370
    18
100
AcDbLine
 10
59.7360588845
 20
106.6263006089
 30
0.0
 11
59.7360588845
 21
96.812749737
 31
0.0
  0
LINE
  5
200
330
1F9
100
AcDbEntity
  8
0
  6
Continuous
 62
     7
370
    18
100
AcDbLine
 10
45.7360588845
 20
97.812749737
 30
0.0
 11
34.6320271079
 21
97.812749737
 31
0.0
  0
LINE
  5
201
330
1F9
100
AcDbEntity
  8
0
  6
Continuous
 62
     7
370
    18
100
AcDbLine
 10
45.7360588845
 20
97.812749737
 30
0.0
 11
59.7360588845
 21
97.812749737
 31
0.0
  0
MTEXT
  5
202
330
1F9
100
AcDbEntity
  8
0
  6
Continuous
 62
     7
370
    18
100
AcDbMText
 10
34.6320271079
 20
100.8915377322
 30
0.0
 40
2.6458333333
 41
0.0
 71
     1
 72
     1
  1
%%c
  7
SLDTEXTSTYLE0
 73
     1
 44
1.0
  0
MTEXT
  5
203
330
1F9
100
AcDbEntity
  8
0
  6
Continuous
 62
     7
370
    18
100
AcDbMText
 10
37.9834160727
 20
100.8915377322
 30
0.0
 40
2.6458333333
 41
0.0
 71
     1
 72
     1
  1
14
  7
SLDTEXTSTYLE0
 73
     1
 44
1.0
  0
ENDBLK
  5
1FB
330
1F9
100
AcDbEntity
  8
0
100
AcDbBlockEnd
  0
BLOCK
  5
205
330
204
100
AcDbEntity
  8
0
100
AcDbBlockBegin
  2
SW_NOTE_0_1
 70
     0
 10
0.0
 20
0.0
 30
0.0
  3
SW_NOTE_0_1
  1

  0
LINE
  5
207
330
204
100
AcDbEntity
  8
0
  6
Continuous
 62
     0
370
    18
100
AcDbLine
 10
19.2933667231
 20
0.0
 30
0.0
 11
0.0
 21
0.0
 31
0.0
  0
MTEXT
  5
208
330
204
100
AcDbEntity
  8
0
  6
Continuous
 62
     0
370
    18
100
AcDbMText
 10
0.4879805857
 20
3.0757927915
 30
0.0
 40
2.6458333333
 41
0.0
 71
     1
 72
     1
  1
先端120°形
  7
SLDTEXTSTYLE1
 73
     1
 44
1.0
  0
ENDBLK
  5
206
330
204
100
AcDbEntity
  8
0
100
AcDbBlockEnd
  0
BLOCK
  5
20D
330
20C
100
AcDbEntity
  8
0
100
AcDbBlockBegin
  2
SW_NOTE_0_2
 70
     0
 10
0.0
 20
0.0
 30
0.0
  3
SW_NOTE_0_2
  1

  0
LINE
  5
20F
330
20C
100
AcDbEntity
  8
0
  6
Continuous
 62
     0
370
    18
100
AcDbLine
 10
12.6199878532
 20
0.0
 30
0.0
 11
0.0
 21
0.0
 31
0.0
  0
MTEXT
  5
210
330
20C
100
AcDbEntity
  8
0
  6
Continuous
 62
     0
370
    18
100
AcDbMText
 10
0.4879805857
 20
3.028922989
 30
0.0
 40
2.6458333333
 41
0.0
 71
     1
 72
     1
  1
 保護管 
  7
SLDTEXTSTYLE1
 73
     1
 44
1.0
  0
ENDBLK
  5
20E
330
20C
100
AcDbEntity
  8
0
100
AcDbBlockEnd
  0
BLOCK
  5
214
330
213
100
AcDbEntity
  8
0
100
AcDbBlockBegin
  2
SW_NOTE_0_3
 70
     0
 10
0.0
 20
0.0
 30
0.0
  3
SW_NOTE_0_3
  1

  0
LINE
  5
216
330
213
100
AcDbEntity
  8
0
  6
Continuous
 62
     0
370
    18
100
AcDbLine
 10
11.448963337
 20
0.0
 30
0.0
 11
0.0
 21
0.0
 31
0.0
  0
MTEXT
  5
217
330
213
100
AcDbEntity
  8
0
  6
Continuous
 62
     0
370
    18
100
AcDbMText
 10
0.4879805857
 20
3.0359926523
 30
0.0
 40
2.6458333333
 41
0.0
 71
     1
 72
     1
  1
ｽﾌﾟﾘﾝｸﾞ
  7
SLDTEXTSTYLE1
 73
     1
 44
1.0
  0
ENDBLK
  5
215
330
213
100
AcDbEntity
  8
0
100
AcDbBlockEnd
  0
BLOCK
  5
21B
330
21A
100
AcDbEntity
  8
0
100
AcDbBlockBegin
  2
SW_NOTE_0_4
 70
     0
 10
0.0
 20
0.0
 30
0.0
  3
SW_NOTE_0_4
  1

  0
LINE
  5
21D
330
21A
100
AcDbEntity
  8
0
  6
Continuous
 62
     0
370
    18
100
AcDbLine
 10
21.1846500415
 20
0.0
 30
0.0
 11
0.0
 21
0.0
 31
0.0
  0
MTEXT
  5
21E
330
21A
100
AcDbEntity
  8
0
  6
Continuous
 62
     0
370
    18
100
AcDbMText
 10
0.4879805857
 20
3.1801484714
 30
0.0
 40
2.6458333333
 41
0.0
 71
     1
 72
     1
  1
ﾊﾞｲﾖﾈｯﾄｷｬｯﾌﾟ
  7
SLDTEXTSTYLE1
 73
     1
 44
1.0
  0
ENDBLK
  5
21C
330
21A
100
AcDbEntity
  8
0
100
AcDbBlockEnd
  0
BLOCK
  5
222
330
221
100
AcDbEntity
  8
0
100
AcDbBlockBegin
  2
SW_NOTE_0_5
 70
     0
 10
0.0
 20
0.0
 30
0.0
  3
SW_NOTE_0_5
  1

  0
LINE
  5
224
330
221
100
AcDbEntity
  8
0
  6
Continuous
 62
     0
370
    18
100
AcDbLine
 10
12.806176931
 20
0.0
 30
0.0
 11
0.0
 21
0.0
 31
0.0
  0
MTEXT
  5
225
330
221
100
AcDbEntity
  8
0
  6
Continuous
 62
     0
370
    18
100
AcDbMText
 10
0.4878926905
 20
3.0832527689
 30
0.0
 40
2.6458333333
 41
0.0
 71
     1
 72
     1
  1
六角ｶｼﾒ
  7
SLDTEXTSTYLE1
 73
     1
 44
1.0
  0
ENDBLK
  5
223
330
221
100
AcDbEntity
  8
0
100
AcDbBlockEnd
  0
BLOCK
  5
229
330
228
100
AcDbEntity
  8
0
100
AcDbBlockBegin
  2
SW_NOTE_0_6
 70
     0
 10
0.0
 20
0.0
 30
0.0
  3
SW_NOTE_0_6
  1

  0
LINE
  5
22B
330
228
100
AcDbEntity
  8
0
  6
Continuous
 62
     0
370
    18
100
AcDbLine
 10
9.0089168179
 20
0.0
 30
0.0
 11
0.0
 21
0.0
 31
0.0
  0
MTEXT
  5
22C
330
228
100
AcDbEntity
  8
0
  6
Continuous
 62
     0
370
    18
100
AcDbMText
 10
0.4642974388
 20
3.0832527689
 30
0.0
 40
2.6458333333
 41
0.0
 71
     1
 72
     1
  1
ｽﾘｰﾌﾞ
  7
SLDTEXTSTYLE1
 73
     1
 44
1.0
  0
ENDBLK
  5
22A
330
228
100
AcDbEntity
  8
0
100
AcDbBlockEnd
  0
BLOCK
  5
230
330
22F
100
AcDbEntity
  8
0
100
AcDbBlockBegin
  2
SW_NOTE_0_7
 70
     0
 10
0.0
 20
0.0
 30
0.0
  3
SW_NOTE_0_7
  1

  0
LINE
  5
232
330
22F
100
AcDbEntity
  8
0
  6
Continuous
 62
     0
370
    18
100
AcDbLine
 10
24.638929196
 20
0.0
 30
0.0
 11
0.0
 21
0.0
 31
0.0
  0
MTEXT
  5
233
330
22F
100
AcDbEntity
  8
0
  6
Continuous
 62
     0
370
    18
100
AcDbMText
 10
0.3987000381
 20
6.6377143801
 30
0.0
 40
2.6458333333
 41
0.0
 71
     1
 72
     1
  1
ｽﾘｰﾌﾞ内
  7
SLDTEXTSTYLE1
 73
     1
 44
1.0
  0
MTEXT
  5
234
330
22F
100
AcDbEntity
  8
0
  6
Continuous
 62
     0
370
    18
100
AcDbMText
 10
0.3987000381
 20
3.109936645
 30
0.0
 40
2.6458333333
 41
0.0
 71
     1
 72
     1
  1
 ｴﾎﾟｷｼ樹脂充填
  7
SLDTEXTSTYLE1
 73
     1
 44
1.0
  0
ENDBLK
  5
231
330
22F
100
AcDbEntity
  8
0
100
AcDbBlockEnd
  0
BLOCK
  5
238
330
237
100
AcDbEntity
  8
0
100
AcDbBlockBegin
  2
SW_NOTE_0_8
 70
     0
 10
0.0
 20
0.0
 30
0.0
  3
SW_NOTE_0_8
  1

  0
LINE
  5
23A
330
237
100
AcDbEntity
  8
0
  6
Continuous
 62
     0
370
    18
100
AcDbLine
 10
14.2809849012
 20
0.0
 30
0.0
 11
0.0
 21
0.0
 31
0.0
  0
MTEXT
  5
23B
330
237
100
AcDbEntity
  8
0
  6
Continuous
 62
     0
370
    18
100
AcDbMText
 10
0.3995320085
 20
3.0832527689
 30
0.0
 40
2.6458333333
 41
0.0
 71
     1
 72
     1
  1
  ﾘｰﾄﾞ線  
  7
SLDTEXTSTYLE1
 73
     1
 44
1.0
  0
ENDBLK
  5
239
330
237
100
AcDbEntity
  8
0
100
AcDbBlockEnd
  0
BLOCK
  5
23F
330
23E
100
AcDbEntity
  8
0
100
AcDbBlockBegin
  2
SW_NOTE_0_9
 70
     0
 10
0.0
 20
0.0
 30
0.0
  3
SW_NOTE_0_9
  1

  0
LINE
  5
241
330
23E
100
AcDbEntity
  8
0
  6
Continuous
 62
     0
370
    18
100
AcDbLine
 10
19.4452579844
 20
0.0
 30
0.0
 11
0.0
 21
0.0
 31
0.0
  0
MTEXT
  5
242
330
23E
100
AcDbEntity
  8
0
  6
Continuous
 62
     0
370
    18
100
AcDbMText
 10
0.4795046762
 20
3.0832527689
 30
0.0
 40
2.6458333333
 41
0.0
 71
     1
 72
     1
  1
熱収縮ﾁｭｰﾌﾞ
  7
SLDTEXTSTYLE1
 73
     1
 44
1.0
  0
ENDBLK
  5
240
330
23E
100
AcDbEntity
  8
0
100
AcDbBlockEnd
  0
BLOCK
  5
246
330
245
100
AcDbEntity
  8
0
100
AcDbBlockBegin
  2
SW_NOTE_0_10
 70
     0
 10
0.0
 20
0.0
 30
0.0
  3
SW_NOTE_0_10
  1

  0
LINE
  5
248
330
245
100
AcDbEntity
  8
0
  6
Continuous
 62
     0
370
    18
100
AcDbLine
 10
-13.470867857
 20
0.0
 30
0.0
 11
0.0
 21
0.0
 31
0.0
  0
MTEXT
  5
249
330
245
100
AcDbEntity
  8
0
  6
Continuous
 62
     0
370
    18
100
AcDbMText
 10
-13.9270266723
 20
3.1576923166
 30
0.0
 40
2.6458333333
 41
0.0
 71
     1
 72
     1
  1
Yﾗｸﾞ(M3)
  7
SLDTEXTSTYLE1
 73
     1
 44
1.0
  0
ENDBLK
  5
247
330
245
100
AcDbEntity
  8
0
100
AcDbBlockEnd
  0
BLOCK
  5
24D
330
24C
100
AcDbEntity
  8
0
100
AcDbBlockBegin
  2
SW_NOTE_0_11
 70
     0
 10
0.0
 20
0.0
 30
0.0
  3
SW_NOTE_0_11
  1

  0
MTEXT
  5
24F
330
24C
100
AcDbEntity
  8
0
  6
Continuous
 62
     0
370
    18
100
AcDbMText
 10
0.0
 20
3.0787878788
 30
0.0
 40
2.6458333333
 41
0.0
 71
     1
 72
     1
  1
※1 φ5（φd=3.2）
  7
SLDTEXTSTYLE1
 73
     1
 44
1.0
  0
MTEXT
  5
250
330
24C
100
AcDbEntity
  8
0
  6
Continuous
 62
     0
370
    18
100
AcDbMText
 10
0.0
 20
-0.4489898564
 30
0.0
 40
2.6458333333
 41
0.0
 71
     1
 72
     1
  1
      φ7（φd=4.8）
  7
SLDTEXTSTYLE1
 73
     1
 44
1.0
  0
MTEXT
  5
251
330
24C
100
AcDbEntity
  8
0
  6
Continuous
 62
     0
370
    18
100
AcDbMText
 10
0.0
 20
-3.9767675915
 30
0.0
 40
2.6458333333
 41
0.0
 71
     1
 72
     1
  1
※2 保護管曲げ半径Rは、保護管径の3～5倍Rとする　
  7
SLDTEXTSTYLE1
 73
     1
 44
1.0
  0
ENDBLK
  5
24E
330
24C
100
AcDbEntity
  8
0
100
AcDbBlockEnd
  0
BLOCK
  5
25C
330
25B
100
AcDbEntity
  8
0
100
AcDbBlockBegin
  2
SW_NOTE_0_12
 70
     0
 10
0.0
 20
0.0
 30
0.0
  3
SW_NOTE_0_12
  1

  0
LINE
  5
25E
330
25B
100
AcDbEntity
  8
0
  6
Continuous
 62
     0
370
    18
100
AcDbLine
 10
-8.7769629654
 20
0.0
 30
0.0
 11
0.0
 21
0.0
 31
0.0
  0
MTEXT
  5
25F
330
25B
100
AcDbEntity
  8
0
  6
Continuous
 62
     0
370
    18
100
AcDbMText
 10
-9.2371600296
 20
3.1406818874
 30
0.0
 40
2.6458333333
 41
0.0
 71
     1
 72
     1
  1
曲げR
  7
SLDTEXTSTYLE1
 73
     1
 44
1.0
  0
ENDBLK
  5
25D
330
25B
100
AcDbEntity
  8
0
100
AcDbBlockEnd
  0
BLOCK
  5
264
330
263
100
AcDbEntity
  8
0
100
AcDbBlockBegin
  2
SW_CENTERMARKSYMBOL_0
 70
     0
 10
0.0
 20
0.0
 30
0.0
  3
SW_CENTERMARKSYMBOL_0
  1

  0
LINE
  5
266
330
263
100
AcDbEntity
  8
0
  6
Continuous
 62
     0
370
    18
100
AcDbLine
 10
0.0
 20
0.0
 30
0.0
 11
0.0
 21
2.5000013411
 31
0.0
  0
LINE
  5
267
330
263
100
AcDbEntity
  8
0
  6
Continuous
 62
     0
370
    18
100
AcDbLine
 10
0.0
 20
0.0
 30
0.0
 11
-2.4999976158
 21
0.0
 31
0.0
  0
LINE
  5
268
330
263
100
AcDbEntity
  8
0
  6
Continuous
 62
     0
370
    18
100
AcDbLine
 10
0.0
 20
0.0
 30
0.0
 11
0.0
 21
-2.5000013411
 31
0.0
  0
LINE
  5
269
330
263
100
AcDbEntity
  8
0
  6
Continuous
 62
     0
370
    18
100
AcDbLine
 10
0.0
 20
0.0
 30
0.0
 11
2.500012517
 21
0.0
 31
0.0
  0
LINE
  5
26A
330
263
100
AcDbEntity
  8
0
  6
Continuous
 62
     0
370
    18
100
AcDbLine
 10
0.0
 20
2.5000013411
 30
0.0
 11
0.0
 21
4.1001103818
 31
0.0
  0
LINE
  5
26B
330
263
100
AcDbEntity
  8
0
  6
Continuous
 62
     0
370
    18
100
AcDbLine
 10
-2.4999976158
 20
0.0
 30
0.0
 11
-15.2212381363
 21
0.0
 31
0.0
  0
LINE
  5
26C
330
263
100
AcDbEntity
  8
0
  6
Continuous
 62
     0
370
    18
100
AcDbLine
 10
0.0
 20
-2.5000013411
 30
0.0
 11
0.0
 21
-4.1001141071
 31
0.0
  0
LINE
  5
26D
330
263
100
AcDbEntity
  8
0
  6
Continuous
 62
     0
370
    18
100
AcDbLine
 10
2.500012517
 20
0.0
 30
0.0
 11
4.1001141071
 21
0.0
 31
0.0
  0
ENDBLK
  5
265
330
263
100
AcDbEntity
  8
0
100
AcDbBlockEnd
  0
BLOCK
  5
270
330
26F
100
AcDbEntity
  8
0
100
AcDbBlockBegin
  2
SW_CENTERMARKSYMBOL_1
 70
     0
 10
0.0
 20
0.0
 30
0.0
  3
SW_CENTERMARKSYMBOL_1
  1

  0
LINE
  5
272
330
26F
100
AcDbEntity
  8
0
  6
Continuous
 62
     0
370
    18
100
AcDbLine
 10
0.0
 20
0.0
 30
0.0
 11
0.0
 21
2.5000013411
 31
0.0
  0
LINE
  5
273
330
26F
100
AcDbEntity
  8
0
  6
Continuous
 62
     0
370
    18
100
AcDbLine
 10
0.0
 20
0.0
 30
0.0
 11
-2.4999976158
 21
0.0
 31
0.0
  0
LINE
  5
274
330
26F
100
AcDbEntity
  8
0
  6
Continuous
 62
     0
370
    18
100
AcDbLine
 10
0.0
 20
0.0
 30
0.0
 11
0.0
 21
-2.5000013411
 31
0.0
  0
LINE
  5
275
330
26F
100
AcDbEntity
  8
0
  6
Continuous
 62
     0
370
    18
100
AcDbLine
 10
0.0
 20
0.0
 30
0.0
 11
2.500012517
 21
0.0
 31
0.0
  0
LINE
  5
276
330
26F
100
AcDbEntity
  8
0
  6
Continuous
 62
     0
370
    18
100
AcDbLine
 10
0.0
 20
2.5000013411
 30
0.0
 11
0.0
 21
4.1001141071
 31
0.0
  0
LINE
  5
277
330
26F
100
AcDbEntity
  8
0
  6
Continuous
 62
     0
370
    18
100
AcDbLine
 10
-2.4999976158
 20
0.0
 30
0.0
 11
-15.2700692415
 21
0.0
 31
0.0
  0
LINE
  5
278
330
26F
100
AcDbEntity
  8
0
  6
Continuous
 62
     0
370
    18
100
AcDbLine
 10
0.0
 20
-2.5000013411
 30
0.0
 11
0.0
 21
-4.1001141071
 31
0.0
  0
LINE
  5
279
330
26F
100
AcDbEntity
  8
0
  6
Continuous
 62
     0
370
    18
100
AcDbLine
 10
2.500012517
 20
0.0
 30
0.0
 11
4.1001141071
 21
0.0
 31
0.0
  0
ENDBLK
  5
271
330
26F
100
AcDbEntity
  8
0
100
AcDbBlockEnd
  0
ENDSEC
  0
SECTION
  2
ENTITIES
  0
LINE
  5
73
330
1F
100
AcDbEntity
  8
0
  6
Continuous
 62
     7
370
    25
100
AcDbLine
 10
12.8700158558
 20
190.0085404097
 30
0.0
 11
12.8700749558
 21
18.0082352097
 31
0.0
  0
LINE
  5
74
330
1F
100
AcDbEntity
  8
0
  6
Continuous
 62
     7
370
    25
100
AcDbLine
 10
12.8700749558
 20
18.0082352097
 30
0.0
 11
282.5707921135
 21
18.0082352097
 31
0.0
  0
LINE
  5
75
330
1F
100
AcDbEntity
  8
0
  6
Continuous
 62
     7
370
    25
100
AcDbLine
 10
12.8700158558
 20
190.0085404097
 30
0.0
 11
282.5707921135
 21
190.0085404097
 31
0.0
  0
LINE
  5
76
330
1F
100
AcDbEntity
  8
0
  6
Continuous
 62
     7
370
    25
100
AcDbLine
 10
282.5707921135
 20
18.0082352097
 30
0.0
 11
282.5707921135
 21
190.0085404097
 31
0.0
  0
MTEXT
  5
78
330
1F
100
AcDbEntity
  8
0
  6
Continuous
 62
     7
370
    18
100
AcDbMText
 10
161.3643284109
 20
31.5478065774
 30
0.0
 40
4.7625
 41
0.0
 71
     1
 72
     1
  1
RKC INSTRUMENT INC.
  7
SLDTEXTSTYLE0
 73
     1
 44
1.0
  0
INSERT
  5
7F
330
1F
100
AcDbEntity
  8
0
  6
Continuous
 62
     7
370
    18
100
AcDbBlockReference
  2
SW_NOTE_0
 10
161.3643284109
 20
41.704906709
 30
0.0
  0
INSERT
  5
87
330
1F
100
AcDbEntity
  8
0
  6
Continuous
 62
     7
100
AcDbBlockReference
  2
SW_BROKEN_VIEW_0
 10
46.3360620006
 20
95.626300397
 30
0.0
  0
LINE
  5
88
330
1F
100
AcDbEntity
  8
0
  6
Continuous
 62
     7
370
    25
100
AcDbLine
 10
251.9836772165
 20
152.4033404055
 30
0.0
 11
242.9836738786
 21
152.4033404055
 31
0.0
  0
LINE
  5
89
330
1F
100
AcDbEntity
  8
0
  6
Continuous
 62
     7
370
    25
100
AcDbLine
 10
242.9836738786
 20
147.9033424618
 30
0.0
 11
251.9836772165
 21
147.9033424618
 31
0.0
  0
LINE
  5
8A
330
1F
100
AcDbEntity
  8
0
  6
Continuous
 62
     7
370
    25
100
AcDbLine
 10
251.9836772165
 20
137.3492597702
 30
0.0
 11
242.9836738786
 21
137.3492597702
 31
0.0
  0
LINE
  5
8B
330
1F
100
AcDbEntity
  8
0
  6
Continuous
 62
     7
370
    25
100
AcDbLine
 10
242.9836738786
 20
132.8492581012
 30
0.0
 11
251.9836772165
 21
132.8492581012
 31
0.0
  0
LINE
  5
8C
330
1F
100
AcDbEntity
  8
0
  6
Continuous
 62
     7
370
    25
100
AcDbLine
 10
242.9836738786
 20
135.474257833
 30
0.0
 11
230.1948714933
 21
137.2716060939
 31
0.0
  0
LINE
  5
8D
330
1F
100
AcDbEntity
  8
0
  6
Continuous
 62
     7
370
    25
100
AcDbLine
 10
230.1231671056
 20
136.5316852095
 30
0.0
 11
242.9833758554
 21
134.7243010166
 31
0.0
  0
LINE
  5
8E
330
1F
100
AcDbEntity
  8
0
  6
Continuous
 62
     7
370
    25
100
AcDbLine
 10
228.4009654006
 20
147.7288759413
 30
0.0
 11
242.9836738786
 21
149.7783406737
 31
0.0
  0
LINE
  5
8F
330
1F
100
AcDbEntity
  8
0
  6
Continuous
 62
     7
370
    25
100
AcDbLine
 10
242.9833758554
 20
150.5283012154
 30
0.0
 11
228.4587670049
 21
148.4870023194
 31
0.0
  0
LINE
  5
90
330
1F
100
AcDbEntity
  8
0
  6
Continuous
 62
     7
370
    25
100
AcDbLine
 10
242.9836738786
 20
147.9033424618
 30
0.0
 11
242.9836738786
 21
152.4033404055
 31
0.0
  0
LINE
  5
91
330
1F
100
AcDbEntity
  8
0
  6
Continuous
 62
     7
370
    25
100
AcDbLine
 10
251.9836772165
 20
147.9033424618
 30
0.0
 11
251.9836772165
 21
152.4033404055
 31
0.0
  0
LINE
  5
92
330
1F
100
AcDbEntity
  8
0
  6
Continuous
 62
     7
370
    25
100
AcDbLine
 10
251.9836772165
 20
132.8492581012
 30
0.0
 11
251.9836772165
 21
137.3492597702
 31
0.0
  0
LINE
  5
93
330
1F
100
AcDbEntity
  8
0
  6
Continuous
 62
     7
370
    25
100
AcDbLine
 10
242.9836738786
 20
132.8492581012
 30
0.0
 11
242.9836738786
 21
137.3492597702
 31
0.0
  0
ARC
  5
94
330
1F
100
AcDbEntity
  8
0
  6
Continuous
 62
     7
370
    25
100
AcDbCircle
 10
262.6836872255
 20
136.9992424241
 30
0.0
 40
0.2999824811829999
100
AcDbArc
 50
269.9985300188
 51
0.0028929662
  0
LINE
  5
95
330
1F
100
AcDbEntity
  8
0
  6
Continuous
 62
     7
370
    25
100
AcDbLine
 10
262.6836795291
 20
136.699259943
 30
0.0
 11
258.283679553
 21
136.699259943
 31
0.0
  0
ARC
  5
96
330
1F
100
AcDbEntity
  8
0
  6
Continuous
 62
     7
370
    25
100
AcDbCircle
 10
258.264648464
 20
135.0992589357
 30
0.0
 40
1.600114185227494
100
AcDbArc
 50
89.3185318931
 51
270.6814681069
  0
ARC
  5
97
330
1F
100
AcDbEntity
  8
0
  6
Continuous
 62
     7
370
    25
100
AcDbCircle
 10
262.6836872255
 20
133.1992754473
 30
0.0
 40
0.2999824811829999
100
AcDbArc
 50
359.9971070338
 51
90.0014699812
  0
LINE
  5
98
330
1F
100
AcDbEntity
  8
0
  6
Continuous
 62
     7
370
    25
100
AcDbLine
 10
262.9836697063
 20
132.4992596271
 30
0.0
 11
262.9836697063
 21
133.1992603007
 31
0.0
  0
ARC
  5
99
330
1F
100
AcDbEntity
  8
0
  6
Continuous
 62
     7
370
    25
100
AcDbCircle
 10
262.6836872253
 20
132.4992407555
 30
0.0
 40
0.2999824815435539
100
AcDbArc
 50
269.9985300473
 51
0.0036044169
  0
LINE
  5
9A
330
1F
100
AcDbEntity
  8
0
  6
Continuous
 62
     7
370
    25
100
AcDbLine
 10
254.57655377
 20
132.1992582741
 30
0.0
 11
262.6836795291
 21
132.1992582741
 31
0.0
  0
ARC
  5
9B
330
1F
100
AcDbEntity
  8
0
  6
Continuous
 62
     7
370
    25
100
AcDbCircle
 10
254.5765368006
 20
134.1991946061
 30
0.0
 40
1.999936332087422
100
AcDbArc
 50
236.9755766672
 51
270.0004861546
  0
ARC
  5
9C
330
1F
100
AcDbEntity
  8
0
  6
Continuous
 62
     7
370
    25
100
AcDbCircle
 10
254.5765368006
 20
135.9993232653
 30
0.0
 40
1.999936332087345
100
AcDbArc
 50
89.9995138454
 51
123.0244233328
  0
LINE
  5
9D
330
1F
100
AcDbEntity
  8
0
  6
Continuous
 62
     7
370
    25
100
AcDbLine
 10
262.6836795291
 20
137.9992595973
 30
0.0
 11
254.57655377
 21
137.9992595973
 31
0.0
  0
ARC
  5
9E
330
1F
100
AcDbEntity
  8
0
  6
Continuous
 62
     7
370
    25
100
AcDbCircle
 10
262.6836872253
 20
137.6992771159
 30
0.0
 40
0.2999824815435539
100
AcDbArc
 50
359.9963955831
 51
90.0014699527
  0
LINE
  5
9F
330
1F
100
AcDbEntity
  8
0
  6
Continuous
 62
     7
370
    25
100
AcDbLine
 10
262.9836697063
 20
136.9992575708
 30
0.0
 11
262.9836697063
 21
137.6992582443
 31
0.0
  0
LINE
  5
A0
330
1F
100
AcDbEntity
  8
0
  6
Continuous
 62
     7
370
    25
100
AcDbLine
 10
258.283679553
 20
133.4992579284
 30
0.0
 11
262.6836795291
 21
133.4992579284
 31
0.0
  0
LINE
  5
A1
330
1F
100
AcDbEntity
  8
0
  6
Continuous
 62
     7
370
    25
100
AcDbLine
 10
253.4865785322
 20
137.6761465433
 30
0.0
 11
251.9836772165
 21
136.699259943
 31
0.0
  0
LINE
  5
A2
330
1F
100
AcDbEntity
  8
0
  6
Continuous
 62
     7
370
    25
100
AcDbLine
 10
251.9836772165
 20
133.4992579284
 30
0.0
 11
253.4865785322
 21
132.5223713281
 31
0.0
  0
ARC
  5
A3
330
1F
100
AcDbEntity
  8
0
  6
Continuous
 62
     7
370
    25
100
AcDbCircle
 10
262.6836935842
 20
152.0533204262
 30
0.0
 40
0.2999761229110047
100
AcDbArc
 50
269.9973154763
 51
0.0041075087
  0
LINE
  5
A4
330
1F
100
AcDbEntity
  8
0
  6
Continuous
 62
     7
370
    25
100
AcDbLine
 10
262.6836795291
 20
151.7533443036
 30
0.0
 11
258.283679553
 21
151.7533443036
 31
0.0
  0
ARC
  5
A5
330
1F
100
AcDbEntity
  8
0
  6
Continuous
 62
     7
370
    25
100
AcDbCircle
 10
258.264648464
 20
150.1533432963
 30
0.0
 40
1.600114185227494
100
AcDbArc
 50
89.3185318931
 51
270.6814681069
  0
LINE
  5
A6
330
1F
100
AcDbEntity
  8
0
  6
Continuous
 62
     7
370
    25
100
AcDbLine
 10
258.283679553
 20
148.553342289
 30
0.0
 11
262.6836795291
 21
148.553342289
 31
0.0
  0
ARC
  5
A7
330
1F
100
AcDbEntity
  8
0
  6
Continuous
 62
     7
370
    25
100
AcDbCircle
 10
254.5765368006
 20
149.2532789667
 30
0.0
 40
1.99993633208747
100
AcDbArc
 50
236.9755766672
 51
270.0004861546
  0
LINE
  5
A8
330
1F
100
AcDbEntity
  8
0
  6
Continuous
 62
     7
370
    25
100
AcDbLine
 10
251.9836772165
 20
148.553342289
 30
0.0
 11
253.4865785322
 21
147.5764556887
 31
0.0
  0
LINE
  5
A9
330
1F
100
AcDbEntity
  8
0
  6
Continuous
 62
     7
370
    25
100
AcDbLine
 10
253.4865785322
 20
152.7302271786
 30
0.0
 11
251.9836772165
 21
151.7533443036
 31
0.0
  0
ARC
  5
AA
330
1F
100
AcDbEntity
  8
0
  6
Continuous
 62
     7
370
    25
100
AcDbCircle
 10
254.5765313063
 20
151.0534454924
 30
0.0
 40
1.999898465663163
100
AcDbArc
 50
89.9993564282
 51
123.0249407611
  0
LINE
  5
AB
330
1F
100
AcDbEntity
  8
0
  6
Continuous
 62
     7
370
    25
100
AcDbLine
 10
262.6836795291
 20
153.0533439579
 30
0.0
 11
254.57655377
 21
153.0533439579
 31
0.0
  0
ARC
  5
AC
330
1F
100
AcDbEntity
  8
0
  6
Continuous
 62
     7
370
    25
100
AcDbCircle
 10
262.6836808663
 20
152.7533551175
 30
0.0
 40
0.2999888403898825
100
AcDbArc
 50
359.9968986687
 51
90.0002553967
  0
LINE
  5
AD
330
1F
100
AcDbEntity
  8
0
  6
Continuous
 62
     7
370
    25
100
AcDbLine
 10
262.9836697063
 20
152.0533419314
 30
0.0
 11
262.9836697063
 21
152.7533388796
 31
0.0
  0
ARC
  5
AE
330
1F
100
AcDbEntity
  8
0
  6
Continuous
 62
     7
370
    25
100
AcDbCircle
 10
262.6836872253
 20
148.2533598075
 30
0.0
 40
0.2999824815435539
100
AcDbArc
 50
359.9963955831
 51
90.0014699527
  0
ARC
  5
AF
330
1F
100
AcDbEntity
  8
0
  6
Continuous
 62
     7
370
    25
100
AcDbCircle
 10
262.6836872253
 20
147.5533251161
 30
0.0
 40
0.2999824815435823
100
AcDbArc
 50
269.9985300474
 51
0.0036044169
  0
LINE
  5
B0
330
1F
100
AcDbEntity
  8
0
  6
Continuous
 62
     7
370
    25
100
AcDbLine
 10
254.57655377
 20
147.2533426347
 30
0.0
 11
262.6836795291
 21
147.2533426347
 31
0.0
  0
LINE
  5
B1
330
1F
100
AcDbEntity
  8
0
  6
Continuous
 62
     7
370
    25
100
AcDbLine
 10
262.9836697063
 20
147.5533439877
 30
0.0
 11
262.9836697063
 21
148.253340936
 31
0.0
  0
LINE
  5
B2
330
1F
100
AcDbEntity
  8
0
  6
Continuous
 62
     7
370
    25
100
AcDbLine
 10
183.0859539544
 20
140.1262997749
 30
0.0
 11
193.0859518682
 21
140.1262997749
 31
0.0
  0
LINE
  5
B3
330
1F
100
AcDbEntity
  8
0
  6
Continuous
 62
     7
370
    25
100
AcDbLine
 10
193.0859518682
 20
145.1263024571
 30
0.0
 11
183.0859539544
 21
145.1263024571
 31
0.0
  0
LINE
  5
B4
330
1F
100
AcDbEntity
  8
0
  6
Continuous
 62
     7
370
    25
100
AcDbLine
 10
193.0859518682
 20
140.1262997749
 30
0.0
 11
194.0859538948
 21
141.0463011923
 31
0.0
  0
LINE
  5
B5
330
1F
100
AcDbEntity
  8
0
  6
Continuous
 62
     7
370
    25
100
AcDbLine
 10
194.0859538948
 20
144.2063010397
 30
0.0
 11
193.0859518682
 21
145.1263024571
 31
0.0
  0
LINE
  5
B6
330
1F
100
AcDbEntity
  8
0
  6
Continuous
 62
     7
370
    25
100
AcDbLine
 10
194.0859538948
 20
141.0463011923
 30
0.0
 11
202.0859552061
 21
141.0463011923
 31
0.0
  0
LINE
  5
B7
330
1F
100
AcDbEntity
  8
0
  6
Continuous
 62
     7
370
    25
100
AcDbLine
 10
202.0859552061
 20
144.2063010397
 30
0.0
 11
194.0859538948
 21
144.2063010397
 31
0.0
  0
LINE
  5
B8
330
1F
100
AcDbEntity
  8
0
  6
Continuous
 62
     7
370
    25
100
AcDbLine
 10
227.0497513449
 20
138.9928653004
 30
0.0
 11
202.0867002642
 21
142.5011946919
 31
0.0
  0
LINE
  5
B9
330
1F
100
AcDbEntity
  8
0
  6
Continuous
 62
     7
370
    25
100
AcDbLine
 10
202.0859552061
 20
141.7513012054
 30
0.0
 11
227.0281446611
 21
138.2459036174
 31
0.0
  0
LINE
  5
BA
330
1F
100
AcDbEntity
  8
0
  6
Continuous
 62
     7
370
    25
100
AcDbLine
 10
202.0867002642
 20
142.7514038148
 30
0.0
 11
225.5641651785
 21
146.0509455862
 31
0.0
  0
LINE
  5
BB
330
1F
100
AcDbEntity
  8
0
  6
Continuous
 62
     7
370
    25
100
AcDbLine
 10
225.5698425209
 20
146.8017480436
 30
0.0
 11
202.0859552061
 21
143.5013010266
 31
0.0
  0
LINE
  5
BC
330
1F
100
AcDbEntity
  8
0
  6
Continuous
 62
     7
370
    25
100
AcDbLine
 10
183.0859539544
 20
145.0263007643
 30
0.0
 11
148.0484699344
 21
145.0263007643
 31
0.0
  0
LINE
  5
BD
330
1F
100
AcDbEntity
  8
0
  6
Continuous
 62
     7
370
    25
100
AcDbLine
 10
149.1427367067
 20
140.2263014677
 30
0.0
 11
183.0859539544
 21
140.2263014677
 31
0.0
  0
LINE
  5
BE
330
1F
100
AcDbEntity
  8
0
  6
Continuous
 62
     7
370
    25
100
AcDbLine
 10
183.0859539544
 20
140.1262997749
 30
0.0
 11
183.0859539544
 21
145.1263024571
 31
0.0
  0
LINE
  5
BF
330
1F
100
AcDbEntity
  8
0
  6
Continuous
 62
     7
370
    25
100
AcDbLine
 10
202.0859552061
 20
141.0463011923
 30
0.0
 11
202.0859552061
 21
144.2063010397
 31
0.0
  0
LINE
  5
C0
330
1F
100
AcDbEntity
  8
0
  6
Continuous
 62
     7
370
    25
100
AcDbLine
 10
145.0484690531
 20
145.0263007643
 30
0.0
 11
117.7360561951
 21
145.0263007643
 31
0.0
  0
LINE
  5
C1
330
1F
100
AcDbEntity
  8
0
  6
Continuous
 62
     7
370
    25
100
AcDbLine
 10
117.7360561951
 20
140.2263014677
 30
0.0
 11
146.1427358254
 21
140.2263014677
 31
0.0
  0
SPLINE
  5
C2
330
1F
100
AcDbEntity
  8
0
  6
Continuous
 62
     7
370
    25
100
AcDbSpline
210
0.0
220
0.0
230
1.0
 70
     8
 71
     3
 72
    18
 73
    14
 74
     0
 42
0.00000001
 43
0.00000001
 40
0.0
 40
0.0
 40
0.0
 40
0.0
 40
0.1069404973212189
 40
0.2343644662158473
 40
0.363127310770955
 40
0.4852121693324199
 40
0.5910148608609366
 40
0.7312354855994108
 40
0.7742908117284173
 40
0.8127223973651667
 40
0.8477553169181133
 40
0.8908023641279632
 40
1.0
 40
1.0
 40
1.0
 40
1.0
 10
51.59699146590067
 20
89.19644229875537
 30
0.0
 10
51.79583417738535
 20
89.22494602177328
 30
0.0
 10
52.23160609826991
 20
89.28741309456228
 30
0.0
 10
52.90786949965
 20
89.37676708339653
 30
0.0
 10
53.61178492361167
 20
89.47246385649058
 30
0.0
 10
54.27550980020834
 20
89.56720600893172
 30
0.0
 10
54.95487208858942
 20
89.6875693439108
 30
0.0
 10
55.49398626656416
 20
89.78961788897335
 30
0.0
 10
55.86038650356423
 20
90.01086778644864
 30
0.0
 10
55.95896679273117
 20
90.22386663142866
 30
0.0
 10
55.91020255049595
 20
90.45264349668493
 30
0.0
 10
55.62839773465782
 20
90.69208252458081
 30
0.0
 10
55.34169776443117
 20
90.74315398168062
 30
0.0
 10
55.13606195292306
 20
90.77978503022001
 30
0.0
  0
SPLINE
  5
C3
330
1F
100
AcDbEntity
  8
0
  6
Continuous
 62
     7
370
    25
100
AcDbSpline
210
0.0
220
0.0
230
1.0
 70
     8
 71
     3
 72
    24
 73
    20
 74
     0
 42
0.00000001
 43
0.00000001
 40
0.0
 40
0.0
 40
0.0
 40
0.0
 40
0.0033969655421948
 40
0.0280554885962452
 40
0.0722862045513963
 40
0.1357402066617648
 40
0.2185278728094837
 40
0.3143684883375917
 40
0.4160601611117854
 40
0.5175266924678809
 40
0.6119484008742425
 40
0.6887684227431695
 40
0.7459484421899143
 40
0.824200590171934
 40
0.857734307526245
 40
0.8828904387097647
 40
0.9081127530098184
 40
0.9476055056765157
 40
0.9999999999999999
 40
0.9999999999999999
 40
0.9999999999999999
 40
0.9999999999999999
 10
50.13827209315133
 20
91.38321360636161
 30
0.0
 10
50.13837855775015
 20
91.37445242305908
 30
0.0
 10
50.1392578473104
 20
91.30209393864686
 30
0.0
 10
50.39179625690885
 20
91.47800142620744
 30
0.0
 10
50.64390278992423
 20
91.461998520776
 30
0.0
 10
51.11675421163134
 20
91.57938572297884
 30
0.0
 10
51.67700038847644
 20
91.650899067096
 30
0.0
 10
52.34217027200688
 20
91.7472755050406
 30
0.0
 10
53.04731632602041
 20
91.83973946979602
 30
0.0
 10
53.75065920958641
 20
91.93586486862675
 30
0.0
 10
54.39199982583786
 20
92.03128332498764
 30
0.0
 10
54.9322764297908
 20
92.12492455475503
 30
0.0
 10
55.41408127210808
 20
92.2369510741184
 30
0.0
 10
55.83960082255644
 20
92.37362565604543
 30
0.0
 10
55.96396390205891
 20
92.70809441809001
 30
0.0
 10
55.89391310237198
 20
92.90731156570827
 30
0.0
 10
55.73218843062286
 20
93.05544579330595
 30
0.0
 10
55.47108208035463
 20
93.163872339609
 30
0.0
 10
55.25772121489999
 20
93.21274232228495
 30
0.0
 10
55.13606195292307
 20
93.24060819174754
 30
0.0
  0
SPLINE
  5
C4
330
1F
100
AcDbEntity
  8
0
  6
Continuous
 62
     7
370
    25
100
AcDbSpline
210
0.0
220
0.0
230
1.0
 70
     8
 71
     3
 72
    24
 73
    20
 74
     0
 42
0.00000001
 43
0.00000001
 40
0.0
 40
0.0
 40
0.0
 40
0.0
 40
0.0003766051118174
 40
0.0069123954717795
 40
0.0400317820670384
 40
0.0964868840743777
 40
0.1773659631560337
 40
0.2734348304357443
 40
0.3750087810700579
 40
0.4754799673751176
 40
0.5687431343096064
 40
0.6478369659218906
 40
0.7106206691913549
 40
0.7987315535386788
 40
0.8437989233103931
 40
0.8751348260001878
 40
0.9326249477536084
 40
0.9844107130178037
 40
1.0
 40
1.0
 40
1.0
 40
1.0
 10
50.10216657957865
 20
93.79300261910664
 30
0.0
 10
50.10183567593418
 20
93.79212288248462
 30
0.0
 10
50.09576210767461
 20
93.7759757637876
 30
0.0
 10
50.25303901891544
 20
93.86839922198907
 30
0.0
 10
50.3940941584622
 20
93.85524764721151
 30
0.0
 10
50.8426415543144
 20
93.97926376048937
 30
0.0
 10
51.37048136774128
 20
94.04967793426889
 30
0.0
 10
52.03629777247996
 20
94.15062056242701
 30
0.0
 10
52.73913349879937
 20
94.24319000818089
 30
0.0
 10
53.4384283617125
 20
94.33701994680337
 30
0.0
 10
54.08260175617976
 20
94.42895535635311
 30
0.0
 10
54.63809549521216
 20
94.51475324114159
 30
0.0
 10
55.17350531406478
 20
94.62559323628446
 30
0.0
 10
55.64177959503905
 20
94.71535965244965
 30
0.0
 10
55.94820101150254
 20
95.01467996253604
 30
0.0
 10
55.93414542432042
 20
95.3682632062005
 30
0.0
 10
55.6099198189422
 20
95.56770140755596
 30
0.0
 10
55.33053157250693
 20
95.64721610638462
 30
0.0
 10
55.17260346867793
 20
95.67939725296424
 30
0.0
 10
55.13606195292307
 20
95.68684334929692
 30
0.0
  0
SPLINE
  5
C5
330
1F
100
AcDbEntity
  8
0
  6
Continuous
 62
     7
370
    25
100
AcDbSpline
210
0.0
220
0.0
230
1.0
 70
     8
 71
     3
 72
    21
 73
    17
 74
     0
 42
0.00000001
 43
0.00000001
 40
0.0
 40
0.0
 40
0.0
 40
0.0
 40
0.0127962763163776
 40
0.0498281168313496
 40
0.1142001422629778
 40
0.2014318381324389
 40
0.2991728005319339
 40
0.400549628385193
 40
0.4991468983705292
 40
0.5894610610538119
 40
0.6676294740420928
 40
0.7806441483536863
 40
0.8289996187183876
 40
0.8655446200678981
 40
0.9185645941571482
 40
1.0
 40
1.0
 40
1.0
 40
1.0
 10
50.11338715395762
 20
96.25544558342206
 30
0.0
 10
50.14325967427376
 20
96.26132474005527
 30
0.0
 10
50.25958190705121
 20
96.2842179080635
 30
0.0
 10
50.52248509872936
 20
96.35349701027688
 30
0.0
 10
50.96459886048984
 20
96.43239610970357
 30
0.0
 10
51.55031220656138
 20
96.5257635322488
 30
0.0
 10
52.22515611055989
 20
96.6192487403833
 30
0.0
 10
52.927212588579
 20
96.71281452795344
 30
0.0
 10
53.61146089848832
 20
96.80586034953923
 30
0.0
 10
54.24077069078066
 20
96.89487432758365
 30
0.0
 10
54.89975592197006
 20
97.01229356259631
 30
0.0
 10
55.46382639496917
 20
97.10376999739685
 30
0.0
 10
55.88777817725853
 20
97.35727919190401
 30
0.0
 10
55.98594390099237
 20
97.71657237507821
 30
0.0
 10
55.64000131742115
 20
98.03713093312237
 30
0.0
 10
55.32615115251897
 20
98.09253919690147
 30
0.0
 10
55.13606195292307
 20
98.12609824414956
 30
0.0
  0
SPLINE
  5
C6
330
1F
100
AcDbEntity
  8
0
  6
Continuous
 62
     7
370
    25
100
AcDbSpline
210
0.0
220
0.0
230
1.0
 70
     8
 71
     3
 72
    23
 73
    19
 74
     0
 42
0.00000001
 43
0.00000001
 40
0.0
 40
0.0
 40
0.0
 40
0.0
 40
0.0097593533700323
 40
0.0507483151774053
 40
0.1269545693578978
 40
0.2212131360761321
 40
0.32339671222958
 40
0.4257121694575631
 40
0.5220747874663637
 40
0.6092543153848436
 40
0.683995476879789
 40
0.7435978514904978
 40
0.8156652200892504
 40
0.841037274366295
 40
0.8745459235614107
 40
0.9221772354657574
 40
0.971261743230874
 40
0.9999999999999999
 40
0.9999999999999999
 40
0.9999999999999999
 40
0.9999999999999999
 10
50.14414315066172
 20
98.72797011460769
 30
0.0
 10
50.1672898140096
 20
98.72572505230735
 30
0.0
 10
50.28765169889543
 20
98.71405080249899
 30
0.0
 10
50.57762828149394
 20
98.82633048672966
 30
0.0
 10
51.07325249995433
 20
98.88893456991018
 30
0.0
 10
51.71184248762754
 20
98.99562786916569
 30
0.0
 10
52.41405897700754
 20
99.08845093464035
 30
0.0
 10
53.12116211368085
 20
99.18342403682662
 30
0.0
 10
53.79306148962686
 20
99.27504709113728
 30
0.0
 10
54.39807302741481
 20
99.36590135844074
 30
0.0
 10
54.91791225029318
 20
99.45593195458143
 30
0.0
 10
55.38887760808671
 20
99.56419613811877
 30
0.0
 10
55.76536792581735
 20
99.68254597191168
 30
0.0
 10
55.95309024974869
 20
99.94736855047172
 30
0.0
 10
55.92793831523032
 20
100.2263701469725
 30
0.0
 10
55.66655055837875
 20
100.4347036150428
 30
0.0
 10
55.38324069079916
 20
100.5224120338305
 30
0.0
 10
55.20272315746172
 20
100.5615772148092
 30
0.0
 10
55.13606195292307
 20
100.5760400655459
 30
0.0
  0
SPLINE
  5
C7
330
1F
100
AcDbEntity
  8
0
  6
Continuous
 62
     7
370
    25
100
AcDbSpline
210
0.0
220
0.0
230
1.0
 70
     8
 71
     3
 72
    23
 73
    19
 74
     0
 42
0.00000001
 43
0.00000001
 40
0.0
 40
0.0
 40
0.0
 40
0.0
 40
0.0010722086198027
 40
0.0199275924377744
 40
0.074552493295562
 40
0.156289756134735
 40
0.2516973206836502
 40
0.352674880780371
 40
0.4521630218448205
 40
0.5483566089406181
 40
0.6374496841825374
 40
0.7139764276703082
 40
0.8066412100653034
 40
0.8322740098513169
 40
0.8613541894414637
 40
0.9046971770035477
 40
0.9479556504315173
 40
1.0
 40
1.0
 40
1.0
 40
1.0
 10
50.12670879206492
 20
101.1572253989767
 30
0.0
 10
50.1267745206371
 20
101.1545896262519
 30
0.0
 10
50.12799612264008
 20
101.1056023269072
 30
0.0
 10
50.39767303900455
 20
101.2598255830027
 30
0.0
 10
50.67040006819233
 20
101.2422915152134
 30
0.0
 10
51.25841835818218
 20
101.3817953785941
 30
0.0
 10
51.89818971009977
 20
101.4601763345639
 30
0.0
 10
52.60065031289261
 20
101.5594413088907
 30
0.0
 10
53.29961358906915
 20
101.6511883620323
 30
0.0
 10
53.9705791157776
 20
101.7456215555705
 30
0.0
 10
54.58881316490767
 20
101.839291898391
 30
0.0
 10
55.18473221957948
 20
101.9610121492729
 30
0.0
 10
55.65960775258155
 20
102.0628257364372
 30
0.0
 10
55.91671410848222
 20
102.3159296943142
 30
0.0
 10
55.96840611964353
 20
102.5642361019379
 30
0.0
 10
55.7866770974383
 20
102.8115196384416
 30
0.0
 10
55.48104974272744
 20
102.9453256361931
 30
0.0
 10
55.25791475007481
 20
102.9887192354673
 30
0.0
 10
55.13606195292307
 20
103.0124162423204
 30
0.0
  0
SPLINE
  5
C8
330
1F
100
AcDbEntity
  8
0
  6
Continuous
 62
     7
370
    25
100
AcDbSpline
210
0.0
220
0.0
230
1.0
 70
     8
 71
     3
 72
    22
 73
    18
 74
     0
 42
0.00000001
 43
0.00000001
 40
0.0
 40
0.0
 40
0.0
 40
0.0
 40
0.0022677493104628
 40
0.0229085091253284
 40
0.0829920861132807
 40
0.1699308845175539
 40
0.2711173896041935
 40
0.3768819465008039
 40
0.4832419485887831
 40
0.5869605545064337
 40
0.6803922817583803
 40
0.7532456061921933
 40
0.7974005738461991
 40
0.8477321348896906
 40
0.8785119493692761
 40
0.91777198256081
 40
0.9999999999999999
 40
0.9999999999999999
 40
0.9999999999999999
 40
0.9999999999999999
 10
50.11651639780833
 20
103.5974637704681
 30
0.0
 10
50.11548723556709
 20
103.5917357141509
 30
0.0
 10
50.10509077221649
 20
103.5338716328752
 30
0.0
 10
50.41557572499349
 20
103.7216962502279
 30
0.0
 10
50.70252473220251
 20
103.6883131446656
 30
0.0
 10
51.3385193029343
 20
103.8404989319541
 30
0.0
 10
52.01589033914843
 20
103.9204407441869
 30
0.0
 10
52.76286963298289
 20
104.025572206893
 30
0.0
 10
53.50923770895768
 20
104.1239314808252
 30
0.0
 10
54.22742308386637
 20
104.2277746967596
 30
0.0
 10
54.86309282198494
 20
104.3331529372882
 30
0.0
 10
55.35538843518994
 20
104.4454983415865
 30
0.0
 10
55.7323356547175
 20
104.5683261365881
 30
0.0
 10
55.9735706880559
 20
104.8142911610123
 30
0.0
 10
55.9147759980905
 20
105.1241524973897
 30
0.0
 10
55.62056125537036
 20
105.3695481363163
 30
0.0
 10
55.33162540291681
 20
105.4254671901194
 30
0.0
 10
55.13606195292307
 20
105.4633154633235
 30
0.0
  0
SPLINE
  5
C9
330
1F
100
AcDbEntity
  8
0
  6
Continuous
 62
     7
370
    25
100
AcDbSpline
210
0.0
220
0.0
230
1.0
 70
     8
 71
     3
 72
    22
 73
    18
 74
     0
 42
0.00000001
 43
0.00000001
 40
0.0
 40
0.0
 40
0.0
 40
0.0
 40
0.0028426961408137
 40
0.0357525606442012
 40
0.104212553792279
 40
0.1937987262741176
 40
0.2969793994761935
 40
0.4066633896218243
 40
0.5204577103626697
 40
0.6325191270433114
 40
0.7349630863833082
 40
0.8183203590492574
 40
0.8767057252773199
 40
0.9173253405780689
 40
0.949065218688856
 40
0.9819704498792602
 40
1.0
 40
1.0
 40
1.0
 40
1.0
 10
50.11951153120829
 20
106.0353132995557
 30
0.0
 10
50.12525308817414
 20
106.0331219403937
 30
0.0
 10
50.19746459212833
 20
106.0055612383519
 30
0.0
 10
50.41531316250084
 20
106.1454516941546
 30
0.0
 10
50.81563144706499
 20
106.1686461887965
 30
0.0
 10
51.36921735317083
 20
106.2823035811594
 30
0.0
 10
52.01103144400003
 20
106.3661403709347
 30
0.0
 10
52.70532304189475
 20
106.4618014382396
 30
0.0
 10
53.41843484088285
 20
106.5563614829381
 30
0.0
 10
54.1156348825335
 20
106.6550587858167
 30
0.0
 10
54.74577435760165
 20
106.7571667301138
 30
0.0
 10
55.26029845079398
 20
106.8614658639534
 30
0.0
 10
55.63243991778653
 20
106.9775952930774
 30
0.0
 10
55.87761345136734
 20
107.1400536919679
 30
0.0
 10
55.96114962101552
 20
107.3569802545551
 30
0.0
 10
55.92504663332186
 20
107.5614925035433
 30
0.0
 10
55.82150830866643
 20
107.6077937402043
 30
0.0
 10
55.7848585113032
 20
107.6241831394623
 30
0.0
  0
SPLINE
  5
CA
330
1F
100
AcDbEntity
  8
0
  6
Continuous
 62
     7
370
    25
100
AcDbSpline
210
0.0
220
0.0
230
1.0
 70
     8
 71
     3
 72
    13
 73
     9
 74
     0
 42
0.00000001
 43
0.00000001
 40
0.0
 40
0.0
 40
0.0
 40
0.0
 40
0.001976399085903
 40
0.0518245243514765
 40
0.2047435643912577
 40
0.4407993038258776
 40
0.7429720148115662
 40
1.0
 40
1.0
 40
1.0
 40
1.0
 10
50.10797803244425
 20
108.4719772550057
 30
0.0
 10
50.10771555335297
 20
108.4707463165931
 30
0.0
 10
50.10083290796247
 20
108.4384690310008
 30
0.0
 10
50.31019442777703
 20
108.5566765941466
 30
0.0
 10
50.49130275445818
 20
108.5457132276394
 30
0.0
 10
50.95559297590115
 20
108.6636156029784
 30
0.0
 10
51.42608476397553
 20
108.7266830509774
 30
0.0
 10
51.77085077650514
 20
108.776463687764
 30
0.0
 10
51.92931716284586
 20
108.7993445905636
 30
0.0
  0
SPLINE
  5
CB
330
1F
100
AcDbEntity
  8
0
  6
Continuous
 62
     7
370
    25
100
AcDbSpline
210
0.0
220
0.0
230
1.0
 70
     8
 71
     3
 72
    14
 73
    10
 74
     0
 42
0.00000001
 43
0.00000001
 40
0.0
 40
0.0
 40
0.0
 40
0.0
 40
0.0060165264672785
 40
0.0340324606939713
 40
0.0964088070217563
 40
0.2832123578450964
 40
0.5431141220798634
 40
0.8693194922793613
 40
1.0
 40
1.0
 40
1.0
 40
1.0
 10
50.1393449767573
 20
110.9349100949954
 30
0.0
 10
50.13931514122033
 20
110.9308600619258
 30
0.0
 10
50.13914637661092
 20
110.9079510641845
 30
0.0
 10
50.22511806529646
 20
110.9495906864518
 30
0.0
 10
50.35772000752381
 20
110.9701816524332
 30
0.0
 10
50.68605618552628
 20
111.0556049936076
 30
0.0
 10
51.13865398697389
 20
111.12648254801
 30
0.0
 10
51.57461161373776
 20
111.1952787158769
 30
0.0
 10
51.85042718142151
 20
111.2330228686018
 30
0.0
 10
51.92931716284586
 20
111.2438186171244
 30
0.0
  0
SPLINE
  5
CC
330
1F
100
AcDbEntity
  8
0
  6
Continuous
 62
     7
370
    25
100
AcDbSpline
210
0.0
220
0.0
230
1.0
 70
     8
 71
     3
 72
    16
 73
    12
 74
     0
 42
0.00000001
 43
0.00000001
 40
0.0
 40
0.0
 40
0.0
 40
0.0
 40
0.1131079836295511
 40
0.2947809700554977
 40
0.4321052607296025
 40
0.6033470433420615
 40
0.6705357272980914
 40
0.7361727992894301
 40
0.8210116543520999
 40
0.9426899191155022
 40
1.0
 40
1.0
 40
1.0
 40
1.0
 10
54.11983256182505
 20
111.5483760001849
 30
0.0
 10
54.23518279901395
 20
111.5655034455615
 30
0.0
 10
54.53580750934417
 20
111.6101408336633
 30
0.0
 10
54.97913893756452
 20
111.6890794791292
 30
0.0
 10
55.45806739409127
 20
111.8049189259735
 30
0.0
 10
55.86795931154968
 20
111.9558149983703
 30
0.0
 10
55.9663706290363
 20
112.2795277841275
 30
0.0
 10
55.87765735581313
 20
112.5028099760761
 30
0.0
 10
55.63403891189905
 20
112.6624052471705
 30
0.0
 10
55.37523555875914
 20
112.748468120179
 30
0.0
 10
55.19406935863056
 20
112.7854158062873
 30
0.0
 10
55.13606195292307
 20
112.7972460451316
 30
0.0
  0
SPLINE
  5
CD
330
1F
100
AcDbEntity
  8
0
  6
Continuous
 62
     7
370
    25
100
AcDbSpline
210
0.0
220
0.0
230
1.0
 70
     8
 71
     3
 72
    23
 73
    19
 74
     0
 42
0.00000001
 43
0.00000001
 40
0.0
 40
0.0
 40
0.0
 40
0.0
 40
0.0029935510296415
 40
0.0329213776492013
 40
0.0814031837486863
 40
0.1493306393933952
 40
0.2359702990392418
 40
0.3337673896798928
 40
0.4361749747049546
 40
0.5369747434356282
 40
0.6287491932325319
 40
0.701457303592323
 40
0.793474745577116
 40
0.8325126410357363
 40
0.8634956707347952
 40
0.9138074967263726
 40
0.9577132599546897
 40
1.0
 40
1.0
 40
1.0
 40
1.0
 10
50.14305536589455
 20
113.3805538627099
 30
0.0
 10
50.14751172748009
 20
113.3747224685219
 30
0.0
 10
50.19652026658535
 20
113.3105921001462
 30
0.0
 10
50.41937404382528
 20
113.4879726959987
 30
0.0
 10
50.73854364106825
 20
113.4813129159417
 30
0.0
 10
51.2240644270959
 20
113.5961702747756
 30
0.0
 10
51.81407819442957
 20
113.6709378887141
 30
0.0
 10
52.4910187858161
 20
113.7671312287856
 30
0.0
 10
53.20025232575344
 20
113.8599157201022
 30
0.0
 10
53.89467782693852
 20
113.9568853711551
 30
0.0
 10
54.51971372703524
 20
114.0490791800551
 30
0.0
 10
55.11515496235385
 20
114.1674415571641
 30
0.0
 10
55.60143651289087
 20
114.2584951731707
 30
0.0
 10
55.91437844511424
 20
114.5141164612388
 30
0.0
 10
55.9769838529717
 20
114.8219886284974
 30
0.0
 10
55.74012254845726
 20
115.0694680367277
 30
0.0
 10
55.43497296074078
 20
115.1732278522777
 30
0.0
 10
55.23444338604602
 20
115.21774625442
 30
0.0
 10
55.13606195292307
 20
115.2395873429965
 30
0.0
  0
SPLINE
  5
CE
330
1F
100
AcDbEntity
  8
0
  6
Continuous
 62
     7
370
    25
100
AcDbSpline
210
0.0
220
0.0
230
1.0
 70
     8
 71
     3
 72
    18
 73
    14
 74
     0
 42
0.00000001
 43
0.00000001
 40
0.0
 40
0.0
 40
0.0
 40
0.0
 40
0.0011258912369325
 40
0.0149123388378746
 40
0.0670684708384371
 40
0.1525253040406657
 40
0.2713713381496199
 40
0.4083097444274486
 40
0.551300210251139
 40
0.6912042758150247
 40
0.819373800436453
 40
0.9265294818345736
 40
1.0
 40
1.0
 40
1.0
 40
1.0
 10
50.10268812022044
 20
115.7964735391329
 30
0.0
 10
50.10357176934217
 20
115.7947022353791
 30
0.0
 10
50.11527563085634
 20
115.7712414596879
 30
0.0
 10
50.25136335079211
 20
115.884527901434
 30
0.0
 10
50.4719673403419
 20
115.8664287930182
 30
0.0
 10
50.9170630276893
 20
115.9951131989
 30
0.0
 10
51.48285378448738
 20
116.0662423123332
 30
0.0
 10
52.15660310068593
 20
116.1671820494357
 30
0.0
 10
52.86325104128722
 20
116.2597686809549
 30
0.0
 10
53.55616780081748
 20
116.3524861456242
 30
0.0
 10
54.18687592165249
 20
116.4459373068317
 30
0.0
 10
54.70680317172003
 20
116.5222422543494
 30
0.0
 10
55.00495328746667
 20
116.5962127486752
 30
0.0
 10
55.12622718653512
 20
116.6263005795668
 30
0.0
  0
SPLINE
  5
CF
330
1F
100
AcDbEntity
  8
0
  6
Continuous
 62
     7
370
    25
100
AcDbSpline
210
0.0
220
0.0
230
1.0
 70
     8
 71
     3
 72
    14
 73
    10
 74
     0
 42
0.00000001
 43
0.00000001
 40
0.0
 40
0.0
 40
0.0
 40
0.0
 40
0.0434394892844568
 40
0.2509537725282506
 40
0.5111565669217598
 40
0.6326763417503553
 40
0.7144372426978781
 40
0.8205917930425773
 40
1.0
 40
1.0
 40
1.0
 40
1.0
 10
51.20258753142191
 20
116.6263005795668
 30
0.0
 10
51.16046559194064
 20
116.6201172596148
 30
0.0
 10
50.91712342118414
 20
116.5843956732362
 30
0.0
 10
50.42883138825209
 20
116.4807318784678
 30
0.0
 10
49.84680129812756
 20
116.4066628999941
 30
0.0
 10
49.48572143347977
 20
116.0324469434752
 30
0.0
 10
49.57640360519931
 20
115.7065917840085
 30
0.0
 10
49.8856289455655
 20
115.4907150988713
 30
0.0
 10
50.16225904655177
 20
115.4380647293468
 30
0.0
 10
50.33605520567728
 20
115.4049865069579
 30
0.0
  0
SPLINE
  5
D0
330
1F
100
AcDbEntity
  8
0
  6
Continuous
 62
     7
370
    25
100
AcDbSpline
210
0.0
220
0.0
230
1.0
 70
     8
 71
     3
 72
    24
 73
    20
 74
     0
 42
0.00000001
 43
0.00000001
 40
0.0
 40
0.0
 40
0.0
 40
0.0
 40
0.0018710108329475
 40
0.0184494328049587
 40
0.0699996754372028
 40
0.1469496992760892
 40
0.2381886916805369
 40
0.3357064648631717
 40
0.4356267279141611
 40
0.5361414004795505
 40
0.6309128718834238
 40
0.7127258171695391
 40
0.7717629685601751
 40
0.8109167012173586
 40
0.8397109324657651
 40
0.8704559766110208
 40
0.907011715740484
 40
0.9933101608310521
 40
1.0
 40
1.0
 40
1.0
 40
1.0
 10
55.36427323660683
 20
114.8258566024493
 30
0.0
 10
55.36452789960429
 20
114.8306378927174
 30
0.0
 10
55.36703904907328
 20
114.877784649951
 30
0.0
 10
55.11670866627182
 20
114.7221526114652
 30
0.0
 10
54.85982513816837
 20
114.7446310619587
 30
0.0
 10
54.30002606231881
 20
114.6061631463709
 30
0.0
 10
53.68548405250802
 20
114.5306514520626
 30
0.0
 10
52.99626753909079
 20
114.4320922491912
 30
0.0
 10
52.29045813852476
 20
114.3396446394644
 30
0.0
 10
51.5899838022022
 20
114.2429055461222
 30
0.0
 10
50.93437547045573
 20
114.1425814610188
 30
0.0
 10
50.37938198938573
 20
114.0396923012346
 30
0.0
 10
49.96191706806151
 20
113.9321427845865
 30
0.0
 10
49.6824790279691
 20
113.8009373018479
 30
0.0
 10
49.5251777214507
 20
113.6093609105368
 30
0.0
 10
49.52259987020416
 20
113.3576745843798
 30
0.0
 10
49.78338640394675
 20
113.0650597791391
 30
0.0
 10
50.10247395065029
 20
112.9988956518348
 30
0.0
 10
50.32037853585984
 20
112.9547548480543
 30
0.0
 10
50.33605520567728
 20
112.9515792342614
 30
0.0
  0
SPLINE
  5
D1
330
1F
100
AcDbEntity
  8
0
  6
Continuous
 62
     7
370
    25
100
AcDbSpline
210
0.0
220
0.0
230
1.0
 70
     8
 71
     3
 72
    12
 73
     8
 74
     0
 42
0.00000001
 43
0.00000001
 40
0.0
 40
0.0
 40
0.0
 40
0.0
 40
0.0078148481660811
 40
0.1226924301334683
 40
0.3805917625845289
 40
0.7338639378800981
 40
0.9999999999999999
 40
0.9999999999999999
 40
0.9999999999999999
 40
0.9999999999999999
 10
55.35588388285471
 20
112.3854599061202
 30
0.0
 10
55.35335881555281
 20
112.3884056393306
 30
0.0
 10
55.31371548059175
 20
112.4346533921249
 30
0.0
 10
55.10373215829732
 20
112.2727182993161
 30
0.0
 10
54.78172521822619
 20
112.2825216373723
 30
0.0
 10
54.3511355237699
 20
112.176898533431
 30
0.0
 10
54.05383936830463
 20
112.1370813084968
 30
0.0
 10
53.92610256514384
 20
112.11997336771
 30
0.0
  0
SPLINE
  5
D2
330
1F
100
AcDbEntity
  8
0
  6
Continuous
 62
     7
370
    25
100
AcDbSpline
210
0.0
220
0.0
230
1.0
 70
     8
 71
     3
 72
    16
 73
    12
 74
     0
 42
0.00000001
 43
0.00000001
 40
0.0
 40
0.0
 40
0.0
 40
0.0
 40
0.0974298511578464
 40
0.2839899937212813
 40
0.4428277929250656
 40
0.6455288947101733
 40
0.7016860274504639
 40
0.7412070589139269
 40
0.7930329696224158
 40
0.8717566687374022
 40
1.0
 40
1.0
 40
1.0
 40
1.0
 10
51.92931716284586
 20
111.8439721974324
 30
0.0
 10
51.81132840101045
 20
111.8276798675257
 30
0.0
 10
51.46741298561545
 20
111.7801907395745
 30
0.0
 10
50.9278413627611
 20
111.6995922662955
 30
0.0
 10
50.2840529017251
 20
111.5694622744843
 30
0.0
 10
49.73682248058335
 20
111.4582114408557
 30
0.0
 10
49.5247662130153
 20
111.1359644222477
 30
0.0
 10
49.52804027940165
 20
110.9471420600663
 30
0.0
 10
49.64613104241586
 20
110.7637691151552
 30
0.0
 10
49.93180533564338
 20
110.6067198959533
 30
0.0
 10
50.18139903770575
 20
110.5597726015037
 30
0.0
 10
50.33605520567728
 20
110.5306825699996
 30
0.0
  0
SPLINE
  5
D3
330
1F
100
AcDbEntity
  8
0
  6
Continuous
 62
     7
370
    25
100
AcDbSpline
210
0.0
220
0.0
230
1.0
 70
     8
 71
     3
 72
    15
 73
    11
 74
     0
 42
0.00000001
 43
0.00000001
 40
0.0
 40
0.0
 40
0.0
 40
0.0
 40
0.1619618139338045
 40
0.3324343836826921
 40
0.5748580138160919
 40
0.6506112244095644
 40
0.7015371023478997
 40
0.7426271060237853
 40
0.8012453211649199
 40
1.0
 40
1.0
 40
1.0
 40
1.0
 10
51.92931716284585
 20
109.3999098154496
 30
0.0
 10
51.73272825963495
 20
109.3725945929403
 30
0.0
 10
51.32922011601487
 20
109.3165287899003
 30
0.0
 10
50.63542907500448
 20
109.2004341299969
 30
0.0
 10
50.0428706215211
 20
109.0926655477918
 30
0.0
 10
49.63499690540929
 20
108.8702064858831
 30
0.0
 10
49.52550752403488
 20
108.6840197044602
 30
0.0
 10
49.52816083043516
 20
108.4906662329326
 30
0.0
 10
49.75866060033993
 20
108.1788448629458
 30
0.0
 10
50.0844591913482
 20
108.1155155074141
 30
0.0
 10
50.33605520567728
 20
108.0666097911786
 30
0.0
  0
SPLINE
  5
D4
330
1F
100
AcDbEntity
  8
0
  6
Continuous
 62
     7
370
    25
100
AcDbSpline
210
0.0
220
0.0
230
1.0
 70
     8
 71
     3
 72
    23
 73
    19
 74
     0
 42
0.00000001
 43
0.00000001
 40
0.0
 40
0.0
 40
0.0
 40
0.0
 40
0.0012719435430177
 40
0.0102423115215064
 40
0.0479283898608762
 40
0.1042756646840862
 40
0.179086746529483
 40
0.2697229598257035
 40
0.3688909842291314
 40
0.4706198536860076
 40
0.5686996738792972
 40
0.65550068329376
 40
0.7227821936452328
 40
0.8077573041608904
 40
0.8449259789697833
 40
0.8753952518517761
 40
0.9437354736772336
 40
0.9999999999999999
 40
0.9999999999999999
 40
0.9999999999999999
 40
0.9999999999999999
 10
55.33862833819224
 20
107.4947125377845
 30
0.0
 10
55.33731100902222
 20
107.4976094005296
 30
0.0
 10
55.32670323023384
 20
107.5209363562214
 30
0.0
 10
55.18760100594991
 20
107.426220391128
 30
0.0
 10
54.98149858490033
 20
107.4299262480281
 30
0.0
 10
54.56998398284853
 20
107.3212538084941
 30
0.0
 10
54.0561629746698
 20
107.2509788646853
 30
0.0
 10
53.43072633521808
 20
107.1573532668377
 30
0.0
 10
52.74446303230165
 20
107.0665960933469
 30
0.0
 10
52.03930723664551
 20
106.9722960182713
 30
0.0
 10
51.36540313627649
 20
106.8759095099571
 30
0.0
 10
50.77057000738895
 20
106.7840821251394
 30
0.0
 10
50.22094600715732
 20
106.6643812006006
 30
0.0
 10
49.75902774693861
 20
106.5666521390217
 30
0.0
 10
49.51489929900487
 20
106.2614315280247
 30
0.0
 10
49.54757417694988
 20
105.908021872158
 30
0.0
 10
49.92614943818869
 20
105.7142890215526
 30
0.0
 10
50.20854237127149
 20
105.6492807585437
 30
0.0
 10
50.33605520567728
 20
105.6199266674708
 30
0.0
  0
SPLINE
  5
D5
330
1F
100
AcDbEntity
  8
0
  6
Continuous
 62
     7
370
    25
100
AcDbSpline
210
0.0
220
0.0
230
1.0
 70
     8
 71
     3
 72
    23
 73
    19
 74
     0
 42
0.00000001
 43
0.00000001
 40
0.0
 40
0.0
 40
0.0
 40
0.0
 40
0.0000412431787385
 40
0.0058928481829413
 40
0.0205030090900078
 40
0.0658926923821369
 40
0.1343915448765332
 40
0.224616232375775
 40
0.3260856344284339
 40
0.431332824001967
 40
0.5335037954092109
 40
0.6248664244795052
 40
0.6970057038374101
 40
0.7909692933778792
 40
0.8350511173184411
 40
0.867043060896921
 40
0.9178221153729603
 40
1.0
 40
1.0
 40
1.0
 40
1.0
 10
55.36190395197703
 20
105.0674735667895
 30
0.0
 10
55.36192425829961
 20
105.0675702476684
 30
0.0
 10
55.36482563689898
 20
105.0813840651087
 30
0.0
 10
55.28156474461623
 20
105.0347899094187
 30
0.0
 10
55.17573288079399
 20
105.0241753634799
 30
0.0
 10
54.83847173489949
 20
104.9270325114894
 30
0.0
 10
54.37968751300351
 20
104.8569513726316
 30
0.0
 10
53.7586932052761
 20
104.7582949850774
 30
0.0
 10
53.06037317360299
 20
104.6642122598304
 30
0.0
 10
52.32997629372385
 20
104.5669758437794
 30
0.0
 10
51.62525978446563
 20
104.4694462632005
 30
0.0
 10
50.99817430496607
 20
104.3775092565422
 30
0.0
 10
50.39782195502725
 20
104.2605433141444
 30
0.0
 10
49.89799827951402
 20
104.1708918517587
 30
0.0
 10
49.55912856013656
 20
103.9083694364065
 30
0.0
 10
49.499877560276
 20
103.5788502886132
 30
0.0
 10
49.82874337899496
 20
103.2723700972999
 30
0.0
 10
50.14227061962006
 20
103.2223411030843
 30
0.0
 10
50.33605520567728
 20
103.1914192351292
 30
0.0
  0
SPLINE
  5
D6
330
1F
100
AcDbEntity
  8
0
  6
Continuous
 62
     7
370
    25
100
AcDbSpline
210
0.0
220
0.0
230
1.0
 70
     8
 71
     3
 72
    24
 73
    20
 74
     0
 42
0.00000001
 43
0.00000001
 40
0.0
 40
0.0
 40
0.0
 40
0.0
 40
0.0002521054645646
 40
0.0060799376817749
 40
0.0356008627520221
 40
0.0893220027758074
 40
0.1682654437265773
 40
0.2622291635684387
 40
0.3623469245019063
 40
0.4621178832237978
 40
0.5555439294265558
 40
0.6369037601192821
 40
0.7551192316957608
 40
0.7999336269163535
 40
0.845041902185552
 40
0.8755679872376686
 40
0.9004116508553797
 40
0.9804089283858998
 40
0.9999999999999999
 40
0.9999999999999999
 40
0.9999999999999999
 40
0.9999999999999999
 10
55.37290100893809
 20
102.6240547287058
 30
0.0
 10
55.37311650424198
 20
102.6246394937175
 30
0.0
 10
55.37831352772059
 20
102.6387420631962
 30
0.0
 10
55.23696728764027
 20
102.5574681075038
 30
0.0
 10
55.1064368691147
 20
102.5695992381879
 30
0.0
 10
54.67787102327804
 20
102.4486848881605
 30
0.0
 10
54.16594747688115
 20
102.3795473413309
 30
0.0
 10
53.5122366400263
 20
102.2792653038799
 30
0.0
 10
52.81869106257252
 20
102.1877670473458
 30
0.0
 10
52.12336889788767
 20
102.0943295340421
 30
0.0
 10
51.47352966746746
 20
102.0040454724078
 30
0.0
 10
50.78247848329575
 20
101.8944520058109
 30
0.0
 10
50.20570633981349
 20
101.7890009179606
 30
0.0
 10
49.73604871065772
 20
101.6224601787722
 30
0.0
 10
49.51820351251873
 20
101.3911162696453
 30
0.0
 10
49.53677688178156
 20
101.1288358269194
 30
0.0
 10
49.75407039295755
 20
100.8745968555967
 30
0.0
 10
50.0586050865186
 20
100.7911678740318
 30
0.0
 10
50.29044712066415
 20
100.7421287674296
 30
0.0
 10
50.33605520567728
 20
100.7324817689847
 30
0.0
  0
SPLINE
  5
D7
330
1F
100
AcDbEntity
  8
0
  6
Continuous
 62
     7
370
    25
100
AcDbSpline
210
0.0
220
0.0
230
1.0
 70
     8
 71
     3
 72
    23
 73
    19
 74
     0
 42
0.00000001
 43
0.00000001
 40
0.0
 40
0.0
 40
0.0
 40
0.0
 40
0.0016757997256426
 40
0.0244251303502392
 40
0.080450925499439
 40
0.1664427919835722
 40
0.265255643034583
 40
0.3684860290490832
 40
0.4688652669395739
 40
0.5616020777877894
 40
0.6439741212416635
 40
0.7128538154123137
 40
0.809268384819714
 40
0.8447262598357721
 40
0.8742441034867156
 40
0.9128399732884273
 40
0.9588514797076841
 40
1.0
 40
1.0
 40
1.0
 40
1.0
 10
55.32524709544016
 20
100.1276529493521
 30
0.0
 10
55.32346677620667
 20
100.1313147500198
 30
0.0
 10
55.29751825224086
 20
100.1846862581158
 30
0.0
 10
55.0496611974675
 20
100.0506231759677
 30
0.0
 10
54.71816219357792
 20
100.0463515988613
 30
0.0
 10
54.12919727145925
 20
99.91581105697956
 30
0.0
 10
53.46162425804077
 20
99.83196441283484
 30
0.0
 10
52.74816579200048
 20
99.7327650928792
 30
0.0
 10
52.05185889581837
 20
99.64075720135955
 30
0.0
 10
51.40546110247117
 20
99.54848885640506
 30
0.0
 10
50.83130340199295
 20
99.46015960671345
 30
0.0
 10
50.26306810434683
 20
99.34103302005862
 30
0.0
 10
49.76937921042063
 20
99.24309687016785
 30
0.0
 10
49.51522946791737
 20
98.91873888767513
 30
0.0
 10
49.54606084504742
 20
98.65262288968007
 30
0.0
 10
49.75751028491522
 20
98.45791349004183
 30
0.0
 10
50.03909961932172
 20
98.35459829307986
 30
0.0
 10
50.24082162025839
 20
98.30903813517872
 30
0.0
 10
50.33605520567728
 20
98.28752904262053
 30
0.0
  0
SPLINE
  5
D8
330
1F
100
AcDbEntity
  8
0
  6
Continuous
 62
     7
370
    25
100
AcDbSpline
210
0.0
220
0.0
230
1.0
 70
     8
 71
     3
 72
    21
 73
    17
 74
     0
 42
0.00000001
 43
0.00000001
 40
0.0
 40
0.0
 40
0.0
 40
0.0
 40
0.0083635720759264
 40
0.0491108882054949
 40
0.1243205011616595
 40
0.2166685076003381
 40
0.3172395179416329
 40
0.418407838571301
 40
0.5149781125459615
 40
0.6047003798581208
 40
0.6833564853637614
 40
0.7899921587302676
 40
0.8440698791791554
 40
0.8787932826206872
 40
0.9255622512739257
 40
1.0
 40
1.0
 40
1.0
 40
1.0
 10
55.33214633307291
 20
97.69707704957234
 30
0.0
 10
55.31234324130813
 20
97.69916391703374
 30
0.0
 10
55.19605950309737
 20
97.71141800101445
 30
0.0
 10
54.91325736601943
 20
97.59454979991835
 30
0.0
 10
54.42514789476835
 20
97.5356053661941
 30
0.0
 10
53.79787228428122
 20
97.42901678583372
 30
0.0
 10
53.10722949441371
 20
97.33762061508865
 30
0.0
 10
52.40662715083769
 20
97.24370473080842
 30
0.0
 10
51.7317494966907
 20
97.15097071403501
 30
0.0
 10
51.1105495158658
 20
97.06227180015888
 30
0.0
 10
50.46898665013281
 20
96.9385250323757
 30
0.0
 10
49.91397462644539
 20
96.85759584993217
 30
0.0
 10
49.50089334421146
 20
96.52693672879286
 30
0.0
 10
49.56032605850413
 20
96.17035895976407
 30
0.0
 10
49.87849207741994
 20
95.93804741364143
 30
0.0
 10
50.16196406041998
 20
95.88497477909057
 30
0.0
 10
50.33605520567728
 20
95.85238081466066
 30
0.0
  0
SPLINE
  5
D9
330
1F
100
AcDbEntity
  8
0
  6
Continuous
 62
     7
370
    25
100
AcDbSpline
210
0.0
220
0.0
230
1.0
 70
     8
 71
     3
 72
    23
 73
    19
 74
     0
 42
0.00000001
 43
0.00000001
 40
0.0
 40
0.0
 40
0.0
 40
0.0
 40
0.0001755386317992
 40
0.0142267122162861
 40
0.062553700888545
 40
0.1390966390583234
 40
0.2308260082074513
 40
0.3297873985993593
 40
0.4288772147038377
 40
0.5273477889494176
 40
0.6214863158292858
 40
0.7046110990940118
 40
0.7666186228346452
 40
0.8286485952482848
 40
0.8544986499363666
 40
0.890935267095071
 40
0.9755175074255643
 40
0.9999999999999999
 40
0.9999999999999999
 40
0.9999999999999999
 40
0.9999999999999999
 10
55.35674815020394
 20
95.27394055451857
 30
0.0
 10
55.3567658501477
 20
95.27436132501549
 30
0.0
 10
55.35820036062389
 20
95.30846311051754
 30
0.0
 10
55.12201291869728
 20
95.17876197812826
 30
0.0
 10
54.89361240275949
 20
95.19294996462004
 30
0.0
 10
54.33565723356054
 20
95.05698095393359
 30
0.0
 10
53.72480725636363
 20
94.98056844225943
 30
0.0
 10
53.03583190117887
 20
94.88193825137209
 30
0.0
 10
52.33784876551538
 20
94.79033360715256
 30
0.0
 10
51.64927036229592
 20
94.69551759376193
 30
0.0
 10
51.00147088997159
 20
94.59811392833235
 30
0.0
 10
50.43777967079506
 20
94.4945062264352
 30
0.0
 10
49.96730474506092
 20
94.38098843792719
 30
0.0
 10
49.61328560348669
 20
94.22027653799935
 30
0.0
 10
49.50374694558851
 20
93.92417968012414
 30
0.0
 10
49.65957745841375
 20
93.57122856637204
 30
0.0
 10
50.02815373706185
 20
93.46552990613493
 30
0.0
 10
50.27960929006971
 20
93.41060375948223
 30
0.0
 10
50.33605520567728
 20
93.39827411871063
 30
0.0
  0
SPLINE
  5
DA
330
1F
100
AcDbEntity
  8
0
  6
Continuous
 62
     7
370
    25
100
AcDbSpline
210
0.0
220
0.0
230
1.0
 70
     8
 71
     3
 72
    23
 73
    19
 74
     0
 42
0.00000001
 43
0.00000001
 40
0.0
 40
0.0
 40
0.0
 40
0.0
 40
0.001294231712791
 40
0.0236912753793212
 40
0.0819446578813864
 40
0.1626488941651105
 40
0.2561223280813997
 40
0.3544794601969885
 40
0.4554100537860923
 40
0.555751783509212
 40
0.6489018270946997
 40
0.7272593205216715
 40
0.8172733626461965
 40
0.8457723298222545
 40
0.8781726243830736
 40
0.9148272955965169
 40
0.9531626365096961
 40
1.0
 40
1.0
 40
1.0
 40
1.0
 10
55.35408084235026
 20
92.82984976719725
 30
0.0
 10
55.35329898731768
 20
92.83292859084783
 30
0.0
 10
55.33898691112588
 20
92.8892873233913
 30
0.0
 10
55.07201690061772
 20
92.69554556778381
 30
0.0
 10
54.76068836003063
 20
92.73107608160781
 30
0.0
 10
54.1841321130901
 20
92.5875286707085
 30
0.0
 10
53.55146003114913
 20
92.51231082827304
 30
0.0
 10
52.85698869003086
 20
92.41351043717803
 30
0.0
 10
52.14956750169077
 20
92.32078017706074
 30
0.0
 10
51.45561484462657
 20
92.22259679373086
 30
0.0
 10
50.81137716685155
 20
92.12324413958596
 30
0.0
 10
50.21320084860228
 20
91.99725656404291
 30
0.0
 10
49.71932761640844
 20
91.87900465453231
 30
0.0
 10
49.51293391270404
 20
91.5596915269834
 30
0.0
 10
49.5515881185543
 20
91.30682024082817
 30
0.0
 10
49.753175898503
 20
91.12803510491821
 30
0.0
 10
50.0263541122068
 20
91.02447221328816
 30
0.0
 10
50.22617280867789
 20
90.98691634696429
 30
0.0
 10
50.33605520567727
 20
90.96626398216591
 30
0.0
  0
SPLINE
  5
DB
330
1F
100
AcDbEntity
  8
0
  6
Continuous
 62
     7
370
    25
100
AcDbSpline
210
0.0
220
0.0
230
1.0
 70
     8
 71
     3
 72
    17
 73
    13
 74
     0
 42
0.00000001
 43
0.00000001
 40
0.0
 40
0.0
 40
0.0
 40
0.0
 40
0.0048877776122255
 40
0.0458483821968734
 40
0.123510742805813
 40
0.2255176497524746
 40
0.3454486024285824
 40
0.4763061526281642
 40
0.6135421281550071
 40
0.749426955007218
 40
0.8743930247892634
 40
1.0
 40
1.0
 40
1.0
 40
1.0
 10
55.33035819372965
 20
90.36346183687108
 30
0.0
 10
55.32844223532111
 20
90.37246524892657
 30
0.0
 10
55.31047014240753
 20
90.45691914796728
 30
0.0
 10
55.01033842509173
 20
90.24035301316813
 30
0.0
 10
54.68387899654428
 20
90.26802368243199
 30
0.0
 10
54.13445724318544
 20
90.13798432603834
 30
0.0
 10
53.52265654429591
 20
90.0634965080674
 30
0.0
 10
52.83718163249534
 20
89.9663188528751
 30
0.0
 10
52.12645082738211
 20
89.87402363685628
 30
0.0
 10
51.42712674938722
 20
89.77097990454166
 30
0.0
 10
50.74559979063655
 20
89.6787922189319
 30
0.0
 10
50.31803206804508
 20
89.55291706842044
 30
0.0
 10
50.10370139918162
 20
89.4898185140233
 30
0.0
  0
LINE
  5
DC
330
1F
100
AcDbEntity
  8
0
  6
Continuous
 62
     7
370
    25
100
AcDbLine
 10
49.2360514863
 20
125.6263001921
 30
0.0
 11
49.2360514863
 21
123.6262998643
 31
0.0
  0
LINE
  5
DD
330
1F
100
AcDbEntity
  8
0
  6
Continuous
 62
     7
370
    25
100
AcDbLine
 10
56.2360656723
 20
123.6262998643
 30
0.0
 11
56.2360656723
 21
125.6263001921
 31
0.0
  0
LINE
  5
DE
330
1F
100
AcDbEntity
  8
0
  6
Continuous
 62
     7
370
    25
100
AcDbLine
 10
45.736051844
 20
121.6262995365
 30
0.0
 11
45.736051844
 21
107.626300967
 31
0.0
  0
LINE
  5
DF
330
1F
100
AcDbEntity
  8
0
  6
Continuous
 62
     7
370
    25
100
AcDbLine
 10
59.7360653146
 20
107.626300967
 30
0.0
 11
59.7360653146
 21
121.6262995365
 31
0.0
  0
LINE
  5
E0
330
1F
100
AcDbEntity
  8
0
  6
Continuous
 62
     7
370
    25
100
AcDbLine
 10
59.7360653146
 20
121.6262995365
 30
0.0
 11
59.2360568508
 21
122.1263005498
 31
0.0
  0
LINE
  5
E1
330
1F
100
AcDbEntity
  8
0
  6
Continuous
 62
     7
370
    25
100
AcDbLine
 10
46.2360603078
 20
122.1263005498
 30
0.0
 11
45.736051844
 21
121.6262995365
 31
0.0
  0
LINE
  5
E2
330
1F
100
AcDbEntity
  8
0
  6
Continuous
 62
     7
370
    25
100
AcDbLine
 10
57.7360612615
 20
122.1263005498
 30
0.0
 11
57.7360612615
 21
123.6262998643
 31
0.0
  0
LINE
  5
E3
330
1F
100
AcDbEntity
  8
0
  6
Continuous
 62
     7
370
    25
100
AcDbLine
 10
47.7360558971
 20
123.6262998643
 30
0.0
 11
47.7360558971
 21
122.1263005498
 31
0.0
  0
LINE
  5
E4
330
1F
100
AcDbEntity
  8
0
  6
Continuous
 62
     7
370
    25
100
AcDbLine
 10
55.1360619529
 20
88.3345576801
 30
0.0
 11
55.1360619529
 21
89.7466537642
 31
0.0
  0
LINE
  5
E5
330
1F
100
AcDbEntity
  8
0
  6
Continuous
 62
     7
370
    25
100
AcDbLine
 10
55.1360619529
 20
90.3375664127
 30
0.0
 11
55.1360619529
 21
92.1765255841
 31
0.0
  0
LINE
  5
E6
330
1F
100
AcDbEntity
  8
0
  6
Continuous
 62
     7
370
    25
100
AcDbLine
 10
55.1360619529
 20
92.782774205
 30
0.0
 11
55.1360619529
 21
94.6194782953
 31
0.0
  0
LINE
  5
E7
330
1F
100
AcDbEntity
  8
0
  6
Continuous
 62
     7
370
    25
100
AcDbLine
 10
55.1360619529
 20
95.2274987574
 30
0.0
 11
55.1360619529
 21
97.0791761863
 31
0.0
  0
LINE
  5
E8
330
1F
100
AcDbEntity
  8
0
  6
Continuous
 62
     7
370
    25
100
AcDbLine
 10
55.1360619529
 20
97.6699913951
 30
0.0
 11
55.1360619529
 21
99.5104692044
 31
0.0
  0
LINE
  5
E9
330
1F
100
AcDbEntity
  8
0
  6
Continuous
 62
     7
370
    25
100
AcDbLine
 10
55.1360619529
 20
100.112041189
 30
0.0
 11
55.1360619529
 21
101.9520309853
 31
0.0
  0
LINE
  5
EA
330
1F
100
AcDbEntity
  8
0
  6
Continuous
 62
     7
370
    25
100
AcDbLine
 10
55.1360619529
 20
102.5588770496
 30
0.0
 11
55.1360619529
 21
104.4024813088
 31
0.0
  0
LINE
  5
EB
330
1F
100
AcDbEntity
  8
0
  6
Continuous
 62
     7
370
    25
100
AcDbLine
 10
55.1360619529
 20
105.0066861423
 30
0.0
 11
55.1360619529
 21
106.8446605566
 31
0.0
  0
LINE
  5
EC
330
1F
100
AcDbEntity
  8
0
  6
Continuous
 62
     7
370
    25
100
AcDbLine
 10
55.1360619529
 20
107.4510763499
 30
0.0
 11
55.1360619529
 21
107.626300967
 31
0.0
  0
LINE
  5
ED
330
1F
100
AcDbEntity
  8
0
  6
Continuous
 62
     7
370
    25
100
AcDbLine
 10
55.1360619529
 20
110.7012282225
 30
0.0
 11
55.1360619529
 21
111.7321892741
 31
0.0
  0
LINE
  5
EE
330
1F
100
AcDbEntity
  8
0
  6
Continuous
 62
     7
370
    25
100
AcDbLine
 10
55.1360619529
 20
112.33780413
 30
0.0
 11
55.1360619529
 21
114.1781031254
 31
0.0
  0
LINE
  5
EF
330
1F
100
AcDbEntity
  8
0
  6
Continuous
 62
     7
370
    25
100
AcDbLine
 10
55.1360619529
 20
114.7828313621
 30
0.0
 11
55.1360619529
 21
116.6263005796
 31
0.0
  0
LINE
  5
F0
330
1F
100
AcDbEntity
  8
0
  6
Continuous
 62
     7
370
    25
100
AcDbLine
 10
55.1360619529
 20
125.6263001921
 30
0.0
 11
55.1360619529
 21
132.6262994769
 31
0.0
  0
LINE
  5
F1
330
1F
100
AcDbEntity
  8
0
  6
Continuous
 62
     7
370
    25
100
AcDbLine
 10
50.3360552057
 20
132.6262994769
 30
0.0
 11
50.3360552057
 21
125.6263001921
 31
0.0
  0
LINE
  5
F2
330
1F
100
AcDbEntity
  8
0
  6
Continuous
 62
     7
370
    25
100
AcDbLine
 10
50.3360552057
 20
116.6263005796
 30
0.0
 11
50.3360552057
 21
116.4542927506
 31
0.0
  0
LINE
  5
F3
330
1F
100
AcDbEntity
  8
0
  6
Continuous
 62
     7
370
    25
100
AcDbLine
 10
50.3360552057
 20
115.8580544504
 30
0.0
 11
50.3360552057
 21
114.0237736615
 31
0.0
  0
LINE
  5
F4
330
1F
100
AcDbEntity
  8
0
  6
Continuous
 62
     7
370
    25
100
AcDbLine
 10
50.3360552057
 20
113.414750165
 30
0.0
 11
50.3360552057
 21
111.579787648
 31
0.0
  0
LINE
  5
F5
330
1F
100
AcDbEntity
  8
0
  6
Continuous
 62
     7
370
    25
100
AcDbLine
 10
50.3360552057
 20
110.9703282925
 30
0.0
 11
50.3360552057
 21
109.111369318
 31
0.0
  0
LINE
  5
F6
330
1F
100
AcDbEntity
  8
0
  6
Continuous
 62
     7
370
    25
100
AcDbLine
 10
50.3360552057
 20
108.5249490204
 30
0.0
 11
50.3360552057
 21
106.6890924337
 31
0.0
  0
LINE
  5
F7
330
1F
100
AcDbEntity
  8
0
  6
Continuous
 62
     7
370
    25
100
AcDbLine
 10
50.3360552057
 20
106.0833285662
 30
0.0
 11
50.3360552057
 21
104.2379315111
 31
0.0
  0
LINE
  5
F8
330
1F
100
AcDbEntity
  8
0
  6
Continuous
 62
     7
370
    25
100
AcDbLine
 10
50.3360552057
 20
103.6370878207
 30
0.0
 11
50.3360552057
 21
101.790008797
 31
0.0
  0
LINE
  5
F9
330
1F
100
AcDbEntity
  8
0
  6
Continuous
 62
     7
370
    25
100
AcDbLine
 10
50.3360552057
 20
101.1925690907
 30
0.0
 11
50.3360552057
 21
99.3569825875
 31
0.0
  0
LINE
  5
FA
330
1F
100
AcDbEntity
  8
0
  6
Continuous
 62
     7
370
    25
100
AcDbLine
 10
50.3360552057
 20
98.7506543386
 30
0.0
 11
50.3360552057
 21
96.8973289343
 31
0.0
  0
LINE
  5
FB
330
1F
100
AcDbEntity
  8
0
  6
Continuous
 62
     7
370
    25
100
AcDbLine
 10
50.3360552057
 20
96.3050417701
 30
0.0
 11
50.3360552057
 21
94.4648042421
 31
0.0
  0
LINE
  5
FC
330
1F
100
AcDbEntity
  8
0
  6
Continuous
 62
     7
370
    25
100
AcDbLine
 10
50.3360552057
 20
93.8582510787
 30
0.0
 11
50.3360552057
 21
92.0200871403
 31
0.0
  0
LINE
  5
FD
330
1F
100
AcDbEntity
  8
0
  6
Continuous
 62
     7
370
    25
100
AcDbLine
 10
50.3360552057
 20
91.4138704172
 30
0.0
 11
50.3360552057
 21
89.5518745162
 31
0.0
  0
ARC
  5
FE
330
1F
100
AcDbEntity
  8
0
  6
Continuous
 62
     7
370
    25
100
AcDbCircle
 10
62.7360463327
 20
132.6263170879
 30
0.0
 40
7.599984379771227
100
AcDbArc
 50
89.9999234009
 51
180.0001327684
  0
ARC
  5
FF
330
1F
100
AcDbEntity
  8
0
  6
Continuous
 62
     7
370
    25
100
AcDbCircle
 10
62.7360698561
 20
132.626286114
 30
0.0
 40
12.40001465039389
100
AcDbArc
 50
90.000061745
 51
179.999938255
  0
LINE
  5
100
330
1F
100
AcDbEntity
  8
0
  6
Continuous
 62
     7
370
    25
100
AcDbLine
 10
77.7360570892
 20
145.0263007643
 30
0.0
 11
62.7360564931
 21
145.0263007643
 31
0.0
  0
LINE
  5
101
330
1F
100
AcDbEntity
  8
0
  6
Continuous
 62
     7
370
    25
100
AcDbLine
 10
62.7360564931
 20
140.2263014677
 30
0.0
 11
77.7360570892
 21
140.2263014677
 31
0.0
  0
LINE
  5
102
330
1F
100
AcDbEntity
  8
0
  6
Continuous
 62
     7
370
    25
100
AcDbLine
 10
83.9360577329
 20
138.6263004604
 30
0.0
 11
117.7360561951
 21
138.6263004604
 31
0.0
  0
LINE
  5
103
330
1F
100
AcDbEntity
  8
0
  6
Continuous
 62
     7
370
    25
100
AcDbLine
 10
117.7360561951
 20
146.6263017717
 30
0.0
 11
83.9360577329
 21
146.6263017717
 31
0.0
  0
LINE
  5
104
330
1F
100
AcDbEntity
  8
0
  6
Continuous
 62
     7
370
    25
100
AcDbLine
 10
83.9360577329
 20
146.6263017717
 30
0.0
 11
83.7360543474
 21
146.4263021114
 31
0.0
  0
LINE
  5
105
330
1F
100
AcDbEntity
  8
0
  6
Continuous
 62
     7
370
    25
100
AcDbLine
 10
83.7360543474
 20
138.8263001206
 30
0.0
 11
83.9360577329
 21
138.6263004604
 31
0.0
  0
ARC
  5
106
330
1F
100
AcDbEntity
  8
0
  6
Continuous
 62
     7
370
    25
100
AcDbCircle
 10
82.2726448487
 20
138.5970404188
 30
0.0
 40
1.499993475546105
100
AcDbArc
 50
12.6801694902
 51
90.0001428538
  0
ARC
  5
107
330
1F
100
AcDbEntity
  8
0
  6
Continuous
 62
     7
370
    25
100
AcDbCircle
 10
82.2726448487
 20
146.6555618132
 30
0.0
 40
1.499993475546121
100
AcDbArc
 50
269.9998571462
 51
347.3198305098
  0
LINE
  5
108
330
1F
100
AcDbEntity
  8
0
  6
Continuous
 62
     7
370
    25
100
AcDbLine
 10
53.5174233182
 20
125.6263001921
 30
0.0
 11
49.2360514863
 21
125.6263001921
 31
0.0
  0
LINE
  5
109
330
1F
100
AcDbEntity
  8
0
  6
Continuous
 62
     7
370
    25
100
AcDbLine
 10
56.2360656723
 20
125.6263001921
 30
0.0
 11
53.5174233182
 21
125.6263001921
 31
0.0
  0
LINE
  5
10A
330
1F
100
AcDbEntity
  8
0
  6
Continuous
 62
     7
370
    25
100
AcDbLine
 10
48.6638766988
 20
107.626300967
 30
0.0
 11
48.6638766988
 21
114.8763007584
 31
0.0
  0
LINE
  5
10B
330
1F
100
AcDbEntity
  8
0
  6
Continuous
 62
     7
370
    25
100
AcDbLine
 10
48.6638766988
 20
107.626300967
 30
0.0
 11
45.736051844
 21
107.626300967
 31
0.0
  0
LINE
  5
10C
330
1F
100
AcDbEntity
  8
0
  6
Continuous
 62
     7
370
    25
100
AcDbLine
 10
59.7360653146
 20
107.626300967
 30
0.0
 11
51.9293171628
 21
107.626300967
 31
0.0
  0
LINE
  5
10D
330
1F
100
AcDbEntity
  8
0
  6
Continuous
 62
     7
370
    25
100
AcDbLine
 10
51.9293171628
 20
113.1263009372
 30
0.0
 11
51.9293171628
 21
107.626300967
 31
0.0
  0
LINE
  5
10E
330
1F
100
AcDbEntity
  8
0
  6
Continuous
 62
     7
370
    25
100
AcDbLine
 10
51.9293171628
 20
113.1263009372
 30
0.0
 11
53.8825911745
 21
113.1263009372
 31
0.0
  0
LINE
  5
10F
330
1F
100
AcDbEntity
  8
0
  6
Continuous
 62
     7
370
    25
100
AcDbLine
 10
53.8825911745
 20
113.1263009372
 30
0.0
 11
53.8825911745
 21
112.3763012799
 31
0.0
  0
SPLINE
  5
110
330
1F
100
AcDbEntity
  8
0
  6
Continuous
 62
     7
370
    25
100
AcDbSpline
210
0.0
220
0.0
230
1.0
 70
     8
 71
     3
 72
    17
 73
    13
 74
     0
 42
0.00000001
 43
0.00000001
 40
0.0
 40
0.0
 40
0.0
 40
0.0
 40
0.1100656091774543
 40
0.2195882432483448
 40
0.3299032765296776
 40
0.4387823482613002
 40
0.5414150054057262
 40
0.6388747717971216
 40
0.7377089458785367
 40
0.8434589183028058
 40
0.9549015356573295
 40
1.0
 40
1.0
 40
1.0
 40
1.0
 10
53.8825911744578
 20
112.3763012799214
 30
0.0
 10
53.90168745685334
 20
112.1830827014824
 30
0.0
 10
53.9397858159607
 20
111.7975987295185
 30
0.0
 10
54.23194675643867
 20
111.2826968117824
 30
0.0
 10
54.65540070871591
 20
110.8833020285784
 30
0.0
 10
55.17756167881813
 20
110.6452271828674
 30
0.0
 10
55.72756665622281
 20
110.6011213882559
 30
0.0
 10
56.23945332005255
 20
110.7564142600688
 30
0.0
 10
56.66176738138692
 20
111.0929654696185
 30
0.0
 10
56.95347604931908
 20
111.5725955900502
 30
0.0
 10
57.07056595322178
 20
112.0239267688119
 30
0.0
 10
57.07973545004553
 20
112.2974896101044
 30
0.0
 10
57.08237712225748
 20
112.3763012799214
 30
0.0
  0
LINE
  5
111
330
1F
100
AcDbEntity
  8
0
  6
Continuous
 62
     7
370
    25
100
AcDbLine
 10
57.0823771223
 20
112.3763012799
 30
0.0
 11
57.0823771223
 21
114.8763007584
 31
0.0
  0
SPLINE
  5
112
330
1F
100
AcDbEntity
  8
0
  6
Continuous
 62
     7
370
    25
100
AcDbSpline
210
0.0
220
0.0
230
1.0
 70
     8
 71
     3
 72
    12
 73
     8
 74
     0
 42
0.00000001
 43
0.00000001
 40
0.0
 40
0.0
 40
0.0
 40
0.0
 40
0.2238612953712246
 40
0.4392637455591485
 40
0.6485638072960147
 40
0.8559026499596323
 40
1.0
 40
1.0
 40
1.0
 40
1.0
 10
57.08237712225748
 20
114.8763007583808
 30
0.0
 10
57.06777372880942
 20
115.0682507368919
 30
0.0
 10
57.03911874719128
 20
115.4448976529252
 30
0.0
 10
56.80672298155898
 20
115.9615751604818
 30
0.0
 10
56.43960550330709
 20
116.3688467439164
 30
0.0
 10
55.99725373235391
 20
116.5944373934977
 30
0.0
 10
55.69605885981145
 20
116.6170350096702
 30
0.0
 10
55.57256166777445
 20
116.6263005795668
 30
0.0
  0
LINE
  5
113
330
1F
100
AcDbEntity
  8
0
  6
Continuous
 62
     7
370
    25
100
AcDbLine
 10
55.5725616678
 20
116.6263005796
 30
0.0
 11
50.2165925964
 21
116.6263005796
 31
0.0
  0
SPLINE
  5
114
330
1F
100
AcDbEntity
  8
0
  6
Continuous
 62
     7
370
    25
100
AcDbSpline
210
0.0
220
0.0
230
1.0
 70
     8
 71
     3
 72
    12
 73
     8
 74
     0
 42
0.00000001
 43
0.00000001
 40
0.0
 40
0.0
 40
0.0
 40
0.0
 40
0.221348795524952
 40
0.4354403409016528
 40
0.6452422698010003
 40
0.8545025672433273
 40
1.0
 40
1.0
 40
1.0
 40
1.0
 10
48.66387669882609
 20
114.8763007583808
 30
0.0
 10
48.67909927394493
 20
115.0684239495585
 30
0.0
 10
48.70904532937037
 20
115.4463712867605
 30
0.0
 10
48.95092202218353
 20
115.9636613487944
 30
0.0
 10
49.33012551087594
 20
116.3699625832496
 30
0.0
 10
49.78278118730299
 20
116.5943759210956
 30
0.0
 10
50.09042009283974
 20
116.6170154063329
 30
0.0
 10
50.21659259638621
 20
116.6263005795668
 30
0.0
  0
LINE
  5
115
330
1F
100
AcDbEntity
  8
0
  6
Continuous
 62
     7
370
    25
100
AcDbLine
 10
55.5725616678
 20
121.6262995365
 30
0.0
 11
45.736051844
 21
121.6262995365
 31
0.0
  0
LINE
  5
116
330
1F
100
AcDbEntity
  8
0
  6
Continuous
 62
     7
370
    25
100
AcDbLine
 10
59.7360653146
 20
121.6262995365
 30
0.0
 11
55.5725616678
 21
121.6262995365
 31
0.0
  0
LINE
  5
117
330
1F
100
AcDbEntity
  8
0
  6
Continuous
 62
     7
370
    25
100
AcDbLine
 10
55.369950579
 20
122.1263005498
 30
0.0
 11
59.2360568508
 21
122.1263005498
 31
0.0
  0
LINE
  5
118
330
1F
100
AcDbEntity
  8
0
  6
Continuous
 62
     7
370
    25
100
AcDbLine
 10
46.2360603078
 20
122.1263005498
 30
0.0
 11
55.369950579
 21
122.1263005498
 31
0.0
  0
SPLINE
  5
119
330
1F
100
AcDbEntity
  8
0
  6
Continuous
 62
     7
370
    25
100
AcDbSpline
210
0.0
220
0.0
230
1.0
 70
     8
 71
     3
 72
    12
 73
     8
 74
     0
 42
0.00000001
 43
0.00000001
 40
0.0
 40
0.0
 40
0.0
 40
0.0
 40
0.2234510220487936
 40
0.4379406914652398
 40
0.6467139912557915
 40
0.8542222954306598
 40
1.0
 40
1.0
 40
1.0
 40
1.0
 10
56.83048789343668
 20
114.8763007583808
 30
0.0
 10
56.81620465560934
 20
115.0674839125621
 30
0.0
 10
56.78821099958074
 20
115.4421829493846
 30
0.0
 10
56.56046145944657
 20
115.9575552063878
 30
0.0
 10
56.19791415234278
 20
116.366011113276
 30
0.0
 10
55.75632195503828
 20
116.5939990430848
 30
0.0
 10
55.45412922066694
 20
116.6168652234854
 30
0.0
 10
55.32943432173563
 20
116.6263005795668
 30
0.0
  0
LINE
  5
11A
330
1F
100
AcDbEntity
  8
0
  6
Continuous
 62
     7
370
    25
100
AcDbLine
 10
56.8304878934
 20
112.3763012799
 30
0.0
 11
56.8304878934
 21
114.8763007584
 31
0.0
  0
SPLINE
  5
11B
330
1F
100
AcDbEntity
  8
0
  6
Continuous
 62
     7
370
    25
100
AcDbSpline
210
0.0
220
0.0
230
1.0
 70
     8
 71
     3
 72
    13
 73
     9
 74
     0
 42
0.00000001
 43
0.00000001
 40
0.0
 40
0.0
 40
0.0
 40
0.0
 40
0.0614760935093153
 40
0.2594081856814496
 40
0.4597985548025017
 40
0.6753873091660194
 40
0.9037233098478491
 40
1.0
 40
1.0
 40
1.0
 40
1.0
 10
55.32849554858042
 20
110.6465577247332
 30
0.0
 10
55.38088738664325
 20
110.6406085205301
 30
0.0
 10
55.60196310698548
 20
110.6155049041404
 30
0.0
 10
55.9882353789716
 20
110.7615242089431
 30
0.0
 10
56.40819493449771
 20
111.0833966872948
 30
0.0
 10
56.69950035751081
 20
111.5639920839503
 30
0.0
 10
56.81812122283125
 20
112.0169305897636
 30
0.0
 10
56.8276590691235
 20
112.2940967336698
 30
0.0
 10
56.83048789343668
 20
112.3763012799214
 30
0.0
  0
LINE
  5
11C
330
1F
100
AcDbEntity
  8
0
  6
Continuous
 62
     7
370
    25
100
AcDbLine
 10
48.8876176342
 20
107.626300967
 30
0.0
 11
48.8876176342
 21
114.8763007584
 31
0.0
  0
SPLINE
  5
11D
330
1F
100
AcDbEntity
  8
0
  6
Continuous
 62
     7
370
    25
100
AcDbSpline
210
0.0
220
0.0
230
1.0
 70
     8
 71
     3
 72
    12
 73
     8
 74
     0
 42
0.00000001
 43
0.00000001
 40
0.0
 40
0.0
 40
0.0
 40
0.0
 40
0.2236717183109057
 40
0.4395088603803844
 40
0.6514309932414666
 40
0.8635350960865034
 40
1.0
 40
1.0
 40
1.0
 40
1.0
 10
48.88761763415171
 20
114.8763007583808
 30
0.0
 10
48.90253948152931
 20
115.067661340574
 30
0.0
 10
48.93186050693753
 20
115.4436796947791
 30
0.0
 10
49.16931159867362
 20
115.959670369196
 30
0.0
 10
49.54429527682011
 20
116.3672337477431
 30
0.0
 10
49.98641483332321
 20
116.5886759432586
 30
0.0
 10
50.2837415664415
 20
116.6154672018764
 30
0.0
 10
50.40014509997202
 20
116.6259559902142
 30
0.0
  0
LINE
  5
11E
330
1F
100
AcDbEntity
  8
0
  6
Continuous
 62
     7
370
    25
100
AcDbLine
 10
48.8876176342
 20
107.626300967
 30
0.0
 11
50.3360552057
 21
107.626300967
 31
0.0
  0
LINE
  5
11F
330
1F
100
AcDbEntity
  8
0
  6
Continuous
 62
     7
370
    25
100
AcDbLine
 10
50.4001451
 20
116.6259559902
 30
0.0
 11
50.4200679525
 21
116.6263005796
 31
0.0
  0
LINE
  5
120
330
1F
100
AcDbEntity
  8
0
  6
Continuous
 62
     7
370
    25
100
AcDbLine
 10
47.7360558971
 20
123.6262998643
 30
0.0
 11
57.7360612615
 21
123.6262998643
 31
0.0
  0
LINE
  5
121
330
1F
100
AcDbEntity
  8
0
  6
Continuous
 62
     7
370
    25
100
AcDbLine
 10
48.6638766988
 20
107.626300967
 30
0.0
 11
48.8876176342
 21
107.626300967
 31
0.0
  0
LINE
  5
122
330
1F
100
AcDbEntity
  8
0
  6
Continuous
 62
     7
370
    25
100
AcDbLine
 10
77.7360570892
 20
140.233491278
 30
0.0
 11
77.7360570892
 21
141.2691070798
 31
0.0
  0
LINE
  5
123
330
1F
100
AcDbEntity
  8
0
  6
Continuous
 62
     7
370
    25
100
AcDbLine
 10
77.7360570892
 20
141.5906853142
 30
0.0
 11
77.7360570892
 21
143.6619169178
 31
0.0
  0
LINE
  5
124
330
1F
100
AcDbEntity
  8
0
  6
Continuous
 62
     7
370
    25
100
AcDbLine
 10
77.7360570892
 20
143.983491427
 30
0.0
 11
77.7360570892
 21
145.0191072288
 31
0.0
  0
LINE
  5
125
330
1F
100
AcDbEntity
  8
0
  6
Continuous
 62
     7
370
    25
100
AcDbLine
 10
117.7360561951
 20
142.626301116
 30
0.0
 11
117.7360561951
 21
146.6263017717
 31
0.0
  0
LINE
  5
126
330
1F
100
AcDbEntity
  8
0
  6
Continuous
 62
     7
370
    25
100
AcDbLine
 10
117.7360561951
 20
138.6263004604
 30
0.0
 11
117.7360561951
 21
142.626301116
 31
0.0
  0
LINE
  5
127
330
1F
100
AcDbEntity
  8
0
  6
Continuous
 62
     7
370
    25
100
AcDbLine
 10
83.9360577329
 20
146.6263017717
 30
0.0
 11
83.9360577329
 21
138.6263004604
 31
0.0
  0
LINE
  5
128
330
1F
100
AcDbEntity
  8
0
  6
Continuous
 62
     7
370
    25
100
AcDbLine
 10
82.2726411088
 20
142.626301116
 30
0.0
 11
82.2726411088
 21
145.1555683377
 31
0.0
  0
LINE
  5
129
330
1F
100
AcDbEntity
  8
0
  6
Continuous
 62
     7
370
    25
100
AcDbLine
 10
82.2726411088
 20
140.0970338943
 30
0.0
 11
82.2726411088
 21
142.626301116
 31
0.0
  0
LINE
  5
12A
330
1F
100
AcDbEntity
  8
0
  6
Continuous
 62
     7
370
    25
100
AcDbLine
 10
82.2726411088
 20
141.3763023081
 30
0.0
 11
81.7360651954
 21
141.3763023081
 31
0.0
  0
LINE
  5
12B
330
1F
100
AcDbEntity
  8
0
  6
Continuous
 62
     7
370
    25
100
AcDbLine
 10
82.2726411088
 20
143.8762999239
 30
0.0
 11
81.7360651954
 21
143.8762999239
 31
0.0
  0
LINE
  5
12C
330
1F
100
AcDbEntity
  8
0
  6
Continuous
 62
     7
370
    25
100
AcDbLine
 10
82.2726411088
 20
140.1262997749
 30
0.0
 11
81.7360651954
 21
140.1262997749
 31
0.0
  0
LINE
  5
12D
330
1F
100
AcDbEntity
  8
0
  6
Continuous
 62
     7
370
    25
100
AcDbLine
 10
77.7360570892
 20
140.1262997749
 30
0.0
 11
81.7360651954
 21
140.1262997749
 31
0.0
  0
LINE
  5
12E
330
1F
100
AcDbEntity
  8
0
  6
Continuous
 62
     7
370
    25
100
AcDbLine
 10
77.7360570892
 20
140.1262997749
 30
0.0
 11
77.7360570892
 21
140.233491278
 31
0.0
  0
LINE
  5
12F
330
1F
100
AcDbEntity
  8
0
  6
Continuous
 62
     7
370
    25
100
AcDbLine
 10
77.7360570892
 20
141.2691070798
 30
0.0
 11
77.7360570892
 21
141.3763023081
 31
0.0
  0
LINE
  5
130
330
1F
100
AcDbEntity
  8
0
  6
Continuous
 62
     7
370
    25
100
AcDbLine
 10
77.7360570892
 20
141.3763023081
 30
0.0
 11
81.7360651954
 21
141.3763023081
 31
0.0
  0
LINE
  5
131
330
1F
100
AcDbEntity
  8
0
  6
Continuous
 62
     7
370
    25
100
AcDbLine
 10
77.7360570892
 20
141.3763023081
 30
0.0
 11
77.7360570892
 21
141.5906853142
 31
0.0
  0
LINE
  5
132
330
1F
100
AcDbEntity
  8
0
  6
Continuous
 62
     7
370
    25
100
AcDbLine
 10
77.7360570892
 20
143.6619169178
 30
0.0
 11
77.7360570892
 21
143.8762999239
 31
0.0
  0
LINE
  5
133
330
1F
100
AcDbEntity
  8
0
  6
Continuous
 62
     7
370
    25
100
AcDbLine
 10
77.7360570892
 20
143.8762999239
 30
0.0
 11
81.7360651954
 21
143.8762999239
 31
0.0
  0
LINE
  5
134
330
1F
100
AcDbEntity
  8
0
  6
Continuous
 62
     7
370
    25
100
AcDbLine
 10
77.7360570892
 20
143.8762999239
 30
0.0
 11
77.7360570892
 21
143.983491427
 31
0.0
  0
LINE
  5
135
330
1F
100
AcDbEntity
  8
0
  6
Continuous
 62
     7
370
    25
100
AcDbLine
 10
77.7360570892
 20
145.0191072288
 30
0.0
 11
77.7360570892
 21
145.1263024571
 31
0.0
  0
LINE
  5
136
330
1F
100
AcDbEntity
  8
0
  6
Continuous
 62
     7
370
    25
100
AcDbLine
 10
77.7360570892
 20
145.1263024571
 30
0.0
 11
81.7360651954
 21
145.1263024571
 31
0.0
  0
LINE
  5
137
330
1F
100
AcDbEntity
  8
0
  6
Continuous
 62
     7
370
    25
100
AcDbLine
 10
81.7360651954
 20
145.1263024571
 30
0.0
 11
82.2726411088
 21
145.1263024571
 31
0.0
  0
SPLINE
  5
138
330
1F
100
AcDbEntity
  8
0
  6
Continuous
 62
     7
370
    25
100
AcDbSpline
210
0.0
220
0.0
230
1.0
 70
     8
 71
     3
 72
    23
 73
    19
 74
     0
 42
0.00000001
 43
0.00000001
 40
0.0
 40
0.0
 40
0.0
 40
0.0
 40
0.0063264628766649
 40
0.0448920050016809
 40
0.1183788698863401
 40
0.2094736258055054
 40
0.3095116177668321
 40
0.4107106916178802
 40
0.5087692159799952
 40
0.6017902934485581
 40
0.6844696954530224
 40
0.7505775180689891
 40
0.7942608538924404
 40
0.8233624414275941
 40
0.8498210008043253
 40
0.887196994923319
 40
0.9731544136099908
 40
1.0
 40
1.0
 40
1.0
 40
1.0
 10
50.13874893030955
 20
77.40982098016136
 30
0.0
 10
50.15368795395595
 20
77.40784385227623
 30
0.0
 10
50.25969390662298
 20
77.39381433267903
 30
0.0
 10
50.52810373739107
 20
77.51618591077447
 30
0.0
 10
51.00434089466999
 20
77.5689745063416
 30
0.0
 10
51.62327374649558
 20
77.67765732053314
 30
0.0
 10
52.3099334573689
 20
77.76825460534535
 30
0.0
 10
53.01297702803787
 20
77.86315786617561
 30
0.0
 10
53.69943169091011
 20
77.9561325021057
 30
0.0
 10
54.34130851597647
 20
78.0508405207078
 30
0.0
 10
54.9062043969837
 20
78.14887620885277
 30
0.0
 10
55.35137552260884
 20
78.2482718035509
 30
0.0
 10
55.66455852120171
 20
78.35656705747618
 30
0.0
 10
55.85972154192541
 20
78.49576349484605
 30
0.0
 10
55.96627682803339
 20
78.70441479072026
 30
0.0
 10
55.84070985151783
 20
79.08004234873165
 30
0.0
 10
55.45775728686898
 20
79.20405601743796
 30
0.0
 10
55.19790360694913
 20
79.25353461184346
 30
0.0
 10
55.13606195292307
 20
79.26530984672897
 30
0.0
  0
SPLINE
  5
139
330
1F
100
AcDbEntity
  8
0
  6
Continuous
 62
     7
370
    25
100
AcDbSpline
210
0.0
220
0.0
230
1.0
 70
     8
 71
     3
 72
    23
 73
    19
 74
     0
 42
0.00000001
 43
0.00000001
 40
0.0
 40
0.0
 40
0.0
 40
0.0
 40
0.0086793536865567
 40
0.0534405273806495
 40
0.1327213626664986
 40
0.2300271565735278
 40
0.3354794681369924
 40
0.4418434916996372
 40
0.5476964302079946
 40
0.6461967249655628
 40
0.7288049501161679
 40
0.7826360532231568
 40
0.8149084683883804
 40
0.8386667040563682
 40
0.8656207938296265
 40
0.9040774320770596
 40
0.9420612042828709
 40
1.0
 40
1.0
 40
1.0
 40
1.0
 10
50.11937742075754
 20
79.83707904326909
 30
0.0
 10
50.13983429015713
 20
79.84008395705541
 30
0.0
 10
50.26579135202496
 20
79.8585858159811
 30
0.0
 10
50.56807095238926
 20
79.95587632774607
 30
0.0
 10
51.09033572369298
 20
80.03408904565728
 30
0.0
 10
51.75334320071119
 20
80.13867906656951
 30
0.0
 10
52.48303376467779
 20
80.23652671358356
 30
0.0
 10
53.23273184169921
 20
80.33674281926515
 30
0.0
 10
53.96562173363432
 20
80.43826956102377
 30
0.0
 10
54.64069005305188
 20
80.54428510297434
 30
0.0
 10
55.1899110419764
 20
80.65222668120732
 30
0.0
 10
55.57690450397253
 20
80.76303693703414
 30
0.0
 10
55.80988338898325
 20
80.89229775709966
 30
0.0
 10
55.93157585563755
 20
81.05666064712409
 30
0.0
 10
55.94994103682491
 20
81.28243549985267
 30
0.0
 10
55.7918086024092
 20
81.49843516491202
 30
0.0
 10
55.49656750243646
 20
81.63350532918228
 30
0.0
 10
55.27181570483319
 20
81.67679685158303
 30
0.0
 10
55.13606195292307
 20
81.70294563728564
 30
0.0
  0
SPLINE
  5
13A
330
1F
100
AcDbEntity
  8
0
  6
Continuous
 62
     7
370
    25
100
AcDbSpline
210
0.0
220
0.0
230
1.0
 70
     8
 71
     3
 72
    24
 73
    20
 74
     0
 42
0.00000001
 43
0.00000001
 40
0.0
 40
0.0
 40
0.0
 40
0.0
 40
0.0021833752549088
 40
0.0210485163853828
 40
0.0731883803925414
 40
0.1479714522179046
 40
0.2372844339743459
 40
0.3342656578940745
 40
0.4355964083850599
 40
0.5374825290043522
 40
0.6331766229662636
 40
0.7149288744910824
 40
0.7741063466253343
 40
0.8151230075865269
 40
0.8452722382891351
 40
0.8735599978785684
 40
0.9055262977726654
 40
0.9967836494098438
 40
1.0
 40
1.0
 40
1.0
 40
1.0
 10
50.12028639159037
 20
82.29005604493611
 30
0.0
 10
50.11917885477248
 20
82.28454163013866
 30
0.0
 10
50.10850180472958
 20
82.23138070420121
 30
0.0
 10
50.38426083192352
 20
82.39629964126694
 30
0.0
 10
50.63258247398913
 20
82.37368465334912
 30
0.0
 10
51.18558210427592
 20
82.50794206439485
 30
0.0
 10
51.78646751160952
 20
82.58277432348005
 30
0.0
 10
52.47176414843377
 20
82.68081312777572
 30
0.0
 10
53.18083607759758
 20
82.77391882252616
 30
0.0
 10
53.88828002468254
 20
82.87172580320669
 30
0.0
 10
54.54722824216424
 20
82.97311779801507
 30
0.0
 10
55.10343268601652
 20
83.07601481868954
 30
0.0
 10
55.52297516615678
 20
83.18747545765596
 30
0.0
 10
55.80810372434415
 20
83.32820588126745
 30
0.0
 10
55.95047619321262
 20
83.5359146062824
 30
0.0
 10
55.93273064643438
 20
83.76838078463976
 30
0.0
 10
55.67824898538394
 20
84.04987233017216
 30
0.0
 10
55.36461566703758
 20
84.1155998600194
 30
0.0
 10
55.14358686310659
 20
84.15981032029065
 30
0.0
 10
55.13606195292306
 20
84.16131546232097
 30
0.0
  0
SPLINE
  5
13B
330
1F
100
AcDbEntity
  8
0
  6
Continuous
 62
     7
370
    25
100
AcDbSpline
210
0.0
220
0.0
230
1.0
 70
     8
 71
     3
 72
    17
 73
    13
 74
     0
 42
0.00000001
 43
0.00000001
 40
0.0
 40
0.0
 40
0.0
 40
0.0
 40
0.0083025784133198
 40
0.0562919699141844
 40
0.1411901318151298
 40
0.2537513768827525
 40
0.388537029620522
 40
0.5384312376266263
 40
0.6963300728970455
 40
0.8526964654266627
 40
0.9961779546050892
 40
1.0
 40
1.0
 40
1.0
 40
1.0
 10
50.11915390333964
 20
84.72473279084258
 30
0.0
 10
50.13213056559296
 20
84.72520155599686
 30
0.0
 10
50.22011309882356
 20
84.72837981131069
 30
0.0
 10
50.42782200336474
 20
84.81503459597316
 30
0.0
 10
50.80694946715894
 20
84.87176536086996
 30
0.0
 10
51.31720588970528
 20
84.96391349155468
 30
0.0
 10
51.93128551932006
 20
85.05017684453472
 30
0.0
 10
52.61558329335033
 20
85.14385352255056
 30
0.0
 10
53.3339142951043
 20
85.23823028807062
 30
0.0
 10
54.04059514648148
 20
85.3415180466508
 30
0.0
 10
54.51066257714139
 20
85.40609569949015
 30
0.0
 10
54.73556910910155
 20
85.4537541566065
 30
0.0
 10
54.74140469870402
 20
85.45499073784046
 30
0.0
  0
SPLINE
  5
13C
330
1F
100
AcDbEntity
  8
0
  6
Continuous
 62
     7
370
    25
100
AcDbSpline
210
0.0
220
0.0
230
1.0
 70
     8
 71
     3
 72
    20
 73
    16
 74
     0
 42
0.00000001
 43
0.00000001
 40
0.0
 40
0.0
 40
0.0
 40
0.0
 40
0.0192024135146751
 40
0.1587890444084128
 40
0.2996099051128775
 40
0.4331056325911111
 40
0.549921044121123
 40
0.6420501789911629
 40
0.7115444816985992
 40
0.760285429006577
 40
0.7935854537892533
 40
0.8248210768684057
 40
0.8727594747096576
 40
0.9422005952746618
 40
1.0
 40
1.0
 40
1.0
 40
1.0
 10
53.34985976061655
 20
85.84280277113609
 30
0.0
 10
53.31749142553681
 20
85.83821813618273
 30
0.0
 10
53.04983043633491
 20
85.80030676620561
 30
0.0
 10
52.54403996433041
 20
85.73421344101675
 30
0.0
 10
51.84582067572347
 20
85.63939805986388
 30
0.0
 10
51.18678928205796
 20
85.5432831306756
 30
0.0
 10
50.61204441325771
 20
85.44680293579438
 30
0.0
 10
50.14803427637791
 20
85.34420292709225
 30
0.0
 10
49.81055446808475
 20
85.22505978682359
 30
0.0
 10
49.59161402314133
 20
85.06873070576847
 30
0.0
 10
49.52131839563982
 20
84.87898967758817
 30
0.0
 10
49.55481911533897
 20
84.68094010236038
 30
0.0
 10
49.74855265013588
 20
84.49615155631182
 30
0.0
 10
50.02834555903083
 20
84.3863333691393
 30
0.0
 10
50.23993846804719
 20
84.33946849925051
 30
0.0
 10
50.33605520567728
 20
84.3181799862086
 30
0.0
  0
SPLINE
  5
13D
330
1F
100
AcDbEntity
  8
0
  6
Continuous
 62
     7
370
    25
100
AcDbSpline
210
0.0
220
0.0
230
1.0
 70
     8
 71
     3
 72
    24
 73
    20
 74
     0
 42
0.00000001
 43
0.00000001
 40
0.0
 40
0.0
 40
0.0
 40
0.0
 40
0.0002365019885144
 40
0.0058250208755227
 40
0.0200852228927279
 40
0.0635602649827311
 40
0.1258165306137897
 40
0.2061883250803715
 40
0.3004069374099682
 40
0.4011236611032167
 40
0.5024904406102159
 40
0.5981407202063951
 40
0.6790969278666105
 40
0.7836934329789593
 40
0.8199721758805413
 40
0.8557761477530639
 40
0.8846422716846661
 40
0.9162660839291288
 40
1.0
 40
1.0
 40
1.0
 40
1.0
 10
55.33855383238625
 20
83.74817192065709
 30
0.0
 10
55.33859654693438
 20
83.74874632134157
 30
0.0
 10
55.33964860208246
 20
83.76289375409291
 30
0.0
 10
55.26224971882475
 20
83.72786142737986
 30
0.0
 10
55.15564071064737
 20
83.7089825317228
 30
0.0
 10
54.84568143562832
 20
83.62669128478473
 30
0.0
 10
54.42626817064457
 20
83.55790491356099
 30
0.0
 10
53.86400807165396
 20
83.46843415824236
 30
0.0
 10
53.21833080650843
 20
83.37947898514713
 30
0.0
 10
52.51992550127267
 20
83.28620682307633
 30
0.0
 10
51.81939357619682
 20
83.19093050853338
 30
0.0
 10
51.16523484539448
 20
83.09703179029087
 30
0.0
 10
50.50891970259933
 20
82.97927662297897
 30
0.0
 10
49.98654275764727
 20
82.88081253149653
 30
0.0
 10
49.61373779392785
 20
82.6656002562878
 30
0.0
 10
49.50586300159983
 20
82.42468754664924
 30
0.0
 10
49.58203253735576
 20
82.19156314234108
 30
0.0
 10
49.86258102185155
 20
81.97392999289836
 30
0.0
 10
50.1369215469423
 20
81.92460335711097
 30
0.0
 10
50.33605520567728
 20
81.88879897329204
 30
0.0
  0
SPLINE
  5
13E
330
1F
100
AcDbEntity
  8
0
  6
Continuous
 62
     7
370
    25
100
AcDbSpline
210
0.0
220
0.0
230
1.0
 70
     8
 71
     3
 72
    23
 73
    19
 74
     0
 42
0.00000001
 43
0.00000001
 40
0.0
 40
0.0
 40
0.0
 40
0.0
 40
0.002114699685773
 40
0.0330112116023894
 40
0.0864310748829793
 40
0.1633058669991547
 40
0.258846502055582
 40
0.3625573222554824
 40
0.4676017225622798
 40
0.5671512229753365
 40
0.652089394104207
 40
0.7641963289923452
 40
0.8060409619619182
 40
0.8480873206739327
 40
0.8757140657729997
 40
0.8994763478604665
 40
0.9834352111066377
 40
1.0
 40
1.0
 40
1.0
 40
1.0
 10
55.35172645888163
 20
81.31256455066793
 30
0.0
 10
55.34672304077744
 20
81.31324052300441
 30
0.0
 10
55.26861791082268
 20
81.32379269075983
 30
0.0
 10
55.07668055734821
 20
81.21032193922346
 30
0.0
 10
54.69653118182427
 20
81.17083950466436
 30
0.0
 10
54.16826691594861
 20
81.06496604811365
 30
0.0
 10
53.51714176754987
 20
80.9770571238871
 30
0.0
 10
52.7995890891474
 20
80.87848463866723
 30
0.0
 10
52.07231602772872
 20
80.78158049766226
 30
0.0
 10
51.38967725571548
 20
80.68598844069898
 30
0.0
 10
50.69363630424502
 20
80.57163409914357
 30
0.0
 10
50.1323687265774
 20
80.46810702055295
 30
0.0
 10
49.69693611923098
 20
80.28969807802613
 30
0.0
 10
49.51825150854766
 20
80.05782865147556
 30
0.0
 10
49.54551961759517
 20
79.82020438984328
 30
0.0
 10
49.75724229005882
 20
79.56447856225068
 30
0.0
 10
50.06428379143519
 20
79.48390524869262
 30
0.0
 10
50.29760703722908
 20
79.43570178757506
 30
0.0
 10
50.33605520567728
 20
79.427758580774
 30
0.0
  0
SPLINE
  5
13F
330
1F
100
AcDbEntity
  8
0
  6
Continuous
 62
     7
370
    25
100
AcDbSpline
210
0.0
220
0.0
230
1.0
 70
     8
 71
     3
 72
    23
 73
    19
 74
     0
 42
0.00000001
 43
0.00000001
 40
0.0
 40
0.0
 40
0.0
 40
0.0
 40
0.0135613703310291
 40
0.0523385386650363
 40
0.1164375644042421
 40
0.2033800249026056
 40
0.3010212180219319
 40
0.4022196345880473
 40
0.5006282739372716
 40
0.5902129842435303
 40
0.6662303175950354
 40
0.7271893440699152
 40
0.8194872851391987
 40
0.8589102134959621
 40
0.8822401785019608
 40
0.908626013279459
 40
0.9757320956976762
 40
1.0
 40
1.0
 40
1.0
 40
1.0
 10
55.36199335894419
 20
78.87058367463939
 30
0.0
 10
55.33095300938729
 20
78.86181397499519
 30
0.0
 10
55.211156374106
 20
78.82796833456904
 30
0.0
 10
54.94229824531338
 20
78.7609790429806
 30
0.0
 10
54.49809356382737
 20
78.67906424002938
 30
0.0
 10
53.91380676814442
 20
78.58713700184094
 30
0.0
 10
53.24050748544258
 20
78.4934547010773
 30
0.0
 10
52.53983211897047
 20
78.39985936097494
 30
0.0
 10
51.85784081252385
 20
78.30781170641174
 30
0.0
 10
51.23753780266663
 20
78.21711343544274
 30
0.0
 10
50.70249050727163
 20
78.13043326203417
 30
0.0
 10
50.17945541111909
 20
78.01581570827412
 30
0.0
 10
49.69093382028137
 20
77.90456503967688
 30
0.0
 10
49.50823196836208
 20
77.53775528923317
 30
0.0
 10
49.57507893383635
 20
77.32252482663016
 30
0.0
 10
49.79498512615837
 20
77.13883466797616
 30
0.0
 10
50.0684103875579
 20
77.05650392294258
 30
0.0
 10
50.27988889106859
 20
77.00802431239326
 30
0.0
 10
50.33605520567728
 20
76.99514867249124
 30
0.0
  0
SPLINE
  5
140
330
1F
100
AcDbEntity
  8
0
  6
Continuous
 62
     7
370
    25
100
AcDbSpline
210
0.0
220
0.0
230
1.0
 70
     8
 71
     3
 72
     9
 73
     5
 74
     0
 42
0.00000001
 43
0.00000001
 40
0.0
 40
0.0
 40
0.0
 40
0.0
 40
0.2947660761722616
 40
1.0
 40
1.0
 40
1.0
 40
1.0
 10
55.74626450381113
 20
76.90160663309686
 30
0.0
 10
55.69019215073811
 20
76.92836242565947
 30
0.0
 10
55.49996553510728
 20
77.01913200440485
 30
0.0
 10
55.28656162781968
 20
77.02221728682763
 30
0.0
 10
55.13606195292307
 20
77.02439313265674
 30
0.0
  0
SPLINE
  5
141
330
1F
100
AcDbEntity
  8
0
  6
Continuous
 62
     7
370
    25
100
AcDbSpline
210
0.0
220
0.0
230
1.0
 70
     8
 71
     3
 72
    18
 73
    14
 74
     0
 42
0.00000001
 43
0.00000001
 40
0.0
 40
0.0
 40
0.0
 40
0.0
 40
0.0238894359871642
 40
0.0707253326218087
 40
0.2000511476383991
 40
0.3355531157859202
 40
0.4433568299640184
 40
0.5782870980876693
 40
0.7569012513801934
 40
0.8486319399531026
 40
0.9267553037072839
 40
0.9810130858117385
 40
1.0
 40
1.0
 40
1.0
 40
1.0
 10
55.5586439832194
 20
76.91761048021905
 30
0.0
 10
55.51406812089862
 20
76.90299120484443
 30
0.0
 10
55.38210005387378
 20
76.85971043780928
 30
0.0
 10
54.98824539673405
 20
76.83416887551687
 30
0.0
 10
54.38213888406243
 20
76.78081511840395
 30
0.0
 10
53.6528824348222
 20
76.73739248314438
 30
0.0
 10
52.91357227198411
 20
76.69457842950902
 30
0.0
 10
52.08887815537615
 20
76.65543156149744
 30
0.0
 10
51.29825836328946
 20
76.60327966772324
 30
0.0
 10
50.6141555389575
 20
76.559911900925
 30
0.0
 10
50.18549150844416
 20
76.49983715271873
 30
0.0
 10
49.87368454057007
 20
76.50354627121851
 30
0.0
 10
49.753599286051
 20
76.42211642647793
 30
0.0
 10
49.72247009119822
 20
76.401007710725
 30
0.0
  0
SPLINE
  5
142
330
1F
100
AcDbEntity
  8
0
  6
Continuous
 62
     7
370
    25
100
AcDbSpline
210
0.0
220
0.0
230
1.0
 70
     8
 71
     3
 72
    16
 73
    12
 74
     0
 42
0.00000001
 43
0.00000001
 40
0.0
 40
0.0
 40
0.0
 40
0.0
 40
0.1014007310244542
 40
0.1956477941906738
 40
0.3516549874775482
 40
0.4661383820046277
 40
0.5536035850306071
 40
0.6502980568058497
 40
0.7611863138034015
 40
0.8809350370878005
 40
1.0
 40
1.0
 40
1.0
 40
1.0
 10
55.59075598559212
 20
76.30840258184068
 30
0.0
 10
55.62487514545254
 20
76.31245325585213
 30
0.0
 10
55.69070641016725
 20
76.32026883496404
 30
0.0
 10
55.79865171766987
 20
76.37303969106512
 30
0.0
 10
55.88819712893384
 20
76.46299124253838
 30
0.0
 10
55.93327288887423
 20
76.57757947481757
 30
0.0
 10
55.9379498134247
 20
76.67944481808581
 30
0.0
 10
55.90985800834338
 20
76.77678060314187
 30
0.0
 10
55.84444348593741
 20
76.86768179597911
 30
0.0
 10
55.74411124917372
 20
76.93693036637855
 30
0.0
 10
55.66354327518128
 20
76.94788039898398
 30
0.0
 10
55.62337462744547
 20
76.9533397394716
 30
0.0
  0
SPLINE
  5
143
330
1F
100
AcDbEntity
  8
0
  6
Continuous
 62
     7
370
    25
100
AcDbSpline
210
0.0
220
0.0
230
1.0
 70
     8
 71
     3
 72
    19
 73
    15
 74
     0
 42
0.00000001
 43
0.00000001
 40
0.0
 40
0.0
 40
0.0
 40
0.0
 40
0.0022190474586499
 40
0.0323256297808057
 40
0.0796362877173636
 40
0.1390442648937583
 40
0.2646325876648014
 40
0.3703375380318082
 40
0.5075394883100788
 40
0.6968887168355034
 40
0.7987779516154248
 40
0.8903105479180929
 40
0.961096426695677
 40
1.0
 40
1.0
 40
1.0
 40
1.0
 10
49.98400037131142
 20
75.87592618051164
 30
0.0
 10
49.98579014751819
 20
75.87985286019835
 30
0.0
 10
50.01186243489775
 20
75.93705415768558
 30
0.0
 10
50.21374842815194
 20
75.8945542552546
 30
0.0
 10
50.44546493336203
 20
75.95312824520565
 30
0.0
 10
50.90250733541546
 20
75.97206170390494
 30
0.0
 10
51.45056270942543
 20
76.01803242539651
 30
0.0
 10
52.15671893562238
 20
76.05712793000171
 30
0.0
 10
52.98238899070689
 20
76.09813271566871
 30
0.0
 10
53.80112142819801
 20
76.14614828512963
 30
0.0
 10
54.53254761706049
 20
76.19297153625388
 30
0.0
 10
55.0355853649767
 20
76.2367701187719
 30
0.0
 10
55.4221305021438
 20
76.2588245950948
 30
0.0
 10
55.62504754877076
 20
76.31422253416983
 30
0.0
 10
55.69701616606547
 20
76.33387052896612
 30
0.0
  0
SPLINE
  5
144
330
1F
100
AcDbEntity
  8
0
  6
Continuous
 62
     7
370
    25
100
AcDbSpline
210
0.0
220
0.0
230
1.0
 70
     8
 71
     3
 72
    16
 73
    12
 74
     0
 42
0.00000001
 43
0.00000001
 40
0.0
 40
0.0
 40
0.0
 40
0.0
 40
0.1177342429703583
 40
0.2279851831978182
 40
0.3273012017784377
 40
0.4143490614122843
 40
0.5533024815259415
 40
0.6620788168199351
 40
0.7852875254116108
 40
0.9298532615860856
 40
1.0
 40
1.0
 40
1.0
 40
1.0
 10
49.84874253115488
 20
76.45333965751522
 30
0.0
 10
49.81702392113505
 20
76.44986226271241
 30
0.0
 10
49.75560276673077
 20
76.44312849969525
 30
0.0
 10
49.67567135357287
 20
76.40218392781186
 30
0.0
 10
49.6151080101716
 20
76.34924630148643
 30
0.0
 10
49.56425916275201
 20
76.27718062503425
 30
0.0
 10
49.53468050696929
 20
76.18986137864384
 30
0.0
 10
49.5356837323403
 20
76.08836364355024
 30
0.0
 10
49.56933568249313
 20
75.9919223207531
 30
0.0
 10
49.62305227478153
 20
75.9138951002081
 30
0.0
 10
49.67364921406718
 20
75.88527604794172
 30
0.0
 10
49.69017927489115
 20
75.87592618051164
 30
0.0
  0
SPLINE
  5
145
330
1F
100
AcDbEntity
  8
0
  6
Continuous
 62
     7
370
    25
100
AcDbSpline
210
0.0
220
0.0
230
1.0
 70
     8
 71
     3
 72
     9
 73
     5
 74
     0
 42
0.00000001
 43
0.00000001
 40
0.0
 40
0.0
 40
0.0
 40
0.0
 40
0.4385598811310263
 40
1.0
 40
1.0
 40
1.0
 40
1.0
 10
55.81908647856547
 20
75.87592618051164
 30
0.0
 10
55.79401273186385
 20
75.89561041846193
 30
0.0
 10
55.73683981710262
 20
75.94049422748597
 30
0.0
 10
55.66417280394855
 20
75.94872083055428
 30
0.0
 10
55.62337462744547
 20
75.95333957555883
 30
0.0
  0
SPLINE
  5
146
330
1F
100
AcDbEntity
  8
0
  6
Continuous
 62
     7
370
    25
100
AcDbSpline
210
0.0
220
0.0
230
1.0
 70
     8
 71
     3
 72
     9
 73
     5
 74
     0
 42
0.00000001
 43
0.00000001
 40
0.0
 40
0.0
 40
0.0
 40
0.0
 40
0.9078511298703549
 40
1.0
 40
1.0
 40
1.0
 40
1.0
 10
55.5586439832194
 20
75.91761031630628
 30
0.0
 10
55.51451197488117
 20
75.90083391110151
 30
0.0
 10
55.46590047142405
 20
75.88235466417127
 30
0.0
 10
55.41466645261174
 20
75.87646857681135
 30
0.0
 10
55.40994529566599
 20
75.87592618051164
 30
0.0
  0
SPLINE
  5
147
330
1F
100
AcDbEntity
  8
0
  6
Continuous
 62
     7
370
    25
100
AcDbSpline
210
0.0
220
0.0
230
1.0
 70
     8
 71
     3
 72
     9
 73
     5
 74
     0
 42
0.00000001
 43
0.00000001
 40
0.0
 40
0.0
 40
0.0
 40
0.0
 40
0.29476602666982
 40
1.0
 40
1.0
 40
1.0
 40
1.0
 10
55.74626450381113
 20
75.90160646918409
 30
0.0
 10
55.69019214847403
 20
75.92836224244174
 30
0.0
 10
55.49996549321604
 20
76.0191317709383
 30
0.0
 10
55.28656161668975
 20
76.02221764021522
 30
0.0
 10
55.13606195292307
 20
76.02439390006654
 30
0.0
  0
LINE
  5
148
330
1F
100
AcDbEntity
  8
0
  6
Continuous
 62
     7
370
    25
100
AcDbLine
 10
49.2360514863
 20
75.8759261805
 30
0.0
 11
49.2360514863
 21
73.8759258527
 31
0.0
  0
LINE
  5
149
330
1F
100
AcDbEntity
  8
0
  6
Continuous
 62
     7
370
    25
100
AcDbLine
 10
56.2360656723
 20
73.8759258527
 30
0.0
 11
56.2360656723
 21
75.8759261805
 31
0.0
  0
LINE
  5
14A
330
1F
100
AcDbEntity
  8
0
  6
Continuous
 62
     7
370
    25
100
AcDbLine
 10
55.1360619529
 20
54.7681063178
 30
0.0
 11
55.1360619529
 21
73.8759258527
 31
0.0
  0
LINE
  5
14B
330
1F
100
AcDbEntity
  8
0
  6
Continuous
 62
     7
370
    25
100
AcDbLine
 10
55.1360619529
 20
75.8759261805
 30
0.0
 11
55.1360619529
 21
76.2437147785
 31
0.0
  0
LINE
  5
14C
330
1F
100
AcDbEntity
  8
0
  6
Continuous
 62
     7
370
    25
100
AcDbLine
 10
55.1360619529
 20
76.8430022288
 30
0.0
 11
55.1360619529
 21
78.2067974794
 31
0.0
  0
LINE
  5
14D
330
1F
100
AcDbEntity
  8
0
  6
Continuous
 62
     7
370
    25
100
AcDbLine
 10
55.1360619529
 20
78.8114605236
 30
0.0
 11
55.1360619529
 21
80.65054554
 31
0.0
  0
LINE
  5
14E
330
1F
100
AcDbEntity
  8
0
  6
Continuous
 62
     7
370
    25
100
AcDbLine
 10
55.1360619529
 20
81.2552002023
 30
0.0
 11
55.1360619529
 21
83.0906782064
 31
0.0
  0
LINE
  5
14F
330
1F
100
AcDbEntity
  8
0
  6
Continuous
 62
     7
370
    25
100
AcDbLine
 10
55.1360619529
 20
83.7008595697
 30
0.0
 11
55.1360619529
 21
85.3941575622
 31
0.0
  0
LINE
  5
150
330
1F
100
AcDbEntity
  8
0
  6
Continuous
 62
     7
370
    25
100
AcDbLine
 10
50.3360552057
 20
86.5238221302
 30
0.0
 11
50.3360552057
 21
85.3783015625
 31
0.0
  0
LINE
  5
151
330
1F
100
AcDbEntity
  8
0
  6
Continuous
 62
     7
370
    25
100
AcDbLine
 10
50.3360552057
 20
84.7752223487
 30
0.0
 11
50.3360552057
 21
82.9256897557
 31
0.0
  0
LINE
  5
152
330
1F
100
AcDbEntity
  8
0
  6
Continuous
 62
     7
370
    25
100
AcDbLine
 10
50.3360552057
 20
82.3295939479
 30
0.0
 11
50.3360552057
 21
80.4822150383
 31
0.0
  0
LINE
  5
153
330
1F
100
AcDbEntity
  8
0
  6
Continuous
 62
     7
370
    25
100
AcDbLine
 10
50.3360552057
 20
79.8856265608
 30
0.0
 11
50.3360552057
 21
78.0489336464
 31
0.0
  0
LINE
  5
154
330
1F
100
AcDbEntity
  8
0
  6
Continuous
 62
     7
370
    25
100
AcDbLine
 10
50.3360552057
 20
77.4421499807
 30
0.0
 11
50.3360552057
 21
76.5265555817
 31
0.0
  0
LINE
  5
155
330
1F
100
AcDbEntity
  8
0
  6
Continuous
 62
     7
370
    25
100
AcDbLine
 10
50.3360552057
 20
75.931690051
 30
0.0
 11
50.3360552057
 21
75.8759261805
 31
0.0
  0
LINE
  5
156
330
1F
100
AcDbEntity
  8
0
  6
Continuous
 62
     7
370
    25
100
AcDbLine
 10
50.3360552057
 20
73.8759258527
 30
0.0
 11
50.3360552057
 21
55.8623730901
 31
0.0
  0
LINE
  5
157
330
1F
100
AcDbEntity
  8
0
  6
Continuous
 62
     7
370
    25
100
AcDbLine
 10
53.0551147922
 20
75.8759261805
 30
0.0
 11
49.2360514863
 21
75.8759261805
 31
0.0
  0
LINE
  5
158
330
1F
100
AcDbEntity
  8
0
  6
Continuous
 62
     7
370
    25
100
AcDbLine
 10
56.2360656723
 20
75.8759261805
 30
0.0
 11
53.0551147922
 21
75.8759261805
 31
0.0
  0
LINE
  5
159
330
1F
100
AcDbEntity
  8
0
  6
Continuous
 62
     7
370
    25
100
AcDbLine
 10
53.0551147922
 20
73.8759258527
 30
0.0
 11
49.2360514863
 21
73.8759258527
 31
0.0
  0
LINE
  5
15A
330
1F
100
AcDbEntity
  8
0
  6
Continuous
 62
     7
370
    25
100
AcDbLine
 10
56.2360656723
 20
73.8759258527
 30
0.0
 11
53.0551147922
 21
73.8759258527
 31
0.0
  0
LINE
  5
15B
330
1F
100
AcDbEntity
  8
0
  6
Continuous
 62
     7
370
    25
100
AcDbLine
 10
50.3360552057
 20
37.5017060971
 30
0.0
 11
52.7360660299
 21
36.1160620189
 31
0.0
  0
LINE
  5
15C
330
1F
100
AcDbEntity
  8
0
  6
Continuous
 62
     7
370
    25
100
AcDbLine
 10
52.7360660299
 20
36.1160620189
 30
0.0
 11
55.1360619529
 21
37.5017060971
 31
0.0
  0
LINE
  5
15D
330
1F
100
AcDbEntity
  8
0
  6
Continuous
 62
     7
370
    25
100
AcDbLine
 10
55.1360619529
 20
37.5017060971
 30
0.0
 11
55.1360619529
 21
51.7681039012
 31
0.0
  0
LINE
  5
15E
330
1F
100
AcDbEntity
  8
0
  6
Continuous
 62
     7
370
    25
100
AcDbLine
 10
50.3360552057
 20
52.8623743987
 30
0.0
 11
50.3360552057
 21
37.5017060971
 31
0.0
  0
LINE
  5
15F
330
1F
100
AcDbEntity
  8
0
  6
Continuous
 62
     7
370
    25
100
AcDbLine
 10
55.1360619529
 20
37.5017060971
 30
0.0
 11
50.3360552057
 21
37.5017060971
 31
0.0
  0
DIMENSION
  5
160
330
1F
100
AcDbEntity
  8
0
  6
Continuous
 62
     7
370
    18
100
AcDbDimension
  2
_D
 10
59.1360588845
 20
101.9396781341
 30
0.0
 11
39.3604040678
 21
101.9396781341
 31
0.0
 70
   160
  1
%%c<>
 71
     2
 42
-1.0
  3
SLDDIMSTYLE0
100
AcDbAlignedDimension
 13
46.3360588845
 23
107.6263006089
 33
0.0
 14
59.1360588845
 24
107.6263006089
 34
0.0
100
AcDbRotatedDimension
  0
DIMENSION
  5
173
330
1F
100
AcDbEntity
  8
0
  6
Continuous
 62
     7
370
    18
100
AcDbDimension
  2
_D_1
 10
27.5000077876
 20
73.8759260832
 30
0.0
 11
27.5000077876
 21
54.995994858
 31
0.0
 70
   160
  1
L1=50～1000
 71
     2
 42
-1.0
  3
SLDDIMSTYLE1
100
AcDbAlignedDimension
 13
52.7360588845
 23
36.1160636327
 33
0.0
 14
49.2360588845
 24
73.8759260832
 34
0.0
 50
90.0
100
AcDbRotatedDimension
  0
DIMENSION
  5
17E
330
1F
100
AcDbEntity
  8
0
  6
Continuous
 62
     7
370
    18
100
AcDbDimension
  2
_D_2
 10
27.5000077876
 20
73.8759260832
 30
0.0
 11
27.5000077876
 21
99.7511133461
 31
0.0
 70
   160
  1
50
 71
     2
 42
-1.0
  3
SLDDIMSTYLE1
100
AcDbAlignedDimension
 13
49.2360588845
 23
125.6263006089
 33
0.0
 14
49.2360588845
 24
73.8759260832
 34
0.0
 50
90.0
100
AcDbRotatedDimension
  0
DIMENSION
  5
188
330
1F
100
AcDbEntity
  8
0
  6
Continuous
 62
     7
370
    18
100
AcDbDimension
  2
_D_3
 10
43.5717191513
 20
73.8759260832
 30
0.0
 11
43.5717191513
 21
67.7449418832
 31
0.0
 70
   160
  1
<>
 71
     2
 42
-1.0
  3
SLDDIMSTYLE2
100
AcDbAlignedDimension
 13
49.2360588845
 23
75.8759260832
 33
0.0
 14
49.2360588845
 24
73.8759260832
 34
0.0
 50
90.0
100
AcDbRotatedDimension
  0
DIMENSION
  5
195
330
1F
100
AcDbEntity
  8
0
  6
Continuous
 62
     7
370
    18
100
AcDbDimension
  2
_D_4
 10
27.5000077876
 20
142.6263006089
 30
0.0
 11
27.5000077876
 21
134.1263006089
 31
0.0
 70
   160
  1
<>
 71
     2
 42
-1.0
  3
SLDDIMSTYLE3
100
AcDbAlignedDimension
 13
49.2360588845
 23
125.6263006089
 33
0.0
 14
62.7360588845
 24
142.6263006089
 34
0.0
 50
90.0
100
AcDbRotatedDimension
  0
DIMENSION
  5
1A0
330
1F
100
AcDbEntity
  8
0
  6
Continuous
 62
     7
370
    18
100
AcDbDimension
  2
_D_5
 10
77.7360588845
 20
175.0533423441
 30
0.0
 11
65.2360588845
 21
175.0533423441
 31
0.0
 70
   160
  1
<>
 71
     2
 42
-1.0
  3
SLDDIMSTYLE1
100
AcDbAlignedDimension
 13
52.7360588845
 23
132.6263006089
 33
0.0
 14
77.7360588845
 24
145.0263006089
 34
0.0
100
AcDbRotatedDimension
  0
DIMENSION
  5
1AA
330
1F
100
AcDbEntity
  8
0
  6
Continuous
 62
     7
370
    18
100
AcDbDimension
  2
_D_6
 10
117.7360588845
 20
175.0533423441
 30
0.0
 11
97.7360588845
 21
175.0533423441
 31
0.0
 70
   160
  1
<>
 71
     2
 42
-1.0
  3
SLDDIMSTYLE1
100
AcDbAlignedDimension
 13
77.7360588845
 23
145.0263006089
 33
0.0
 14
117.7360588845
 24
146.6263006089
 34
0.0
100
AcDbRotatedDimension
  0
DIMENSION
  5
1B4
330
1F
100
AcDbEntity
  8
0
  6
Continuous
 62
     7
370
    18
100
AcDbDimension
  2
_D_7
 10
113.3559709237
 20
146.6263006089
 30
0.0
 11
113.3559709237
 21
158.8688579023
 31
0.0
 70
   160
  1
%%c<>
 71
     2
 42
-1.0
  3
SLDDIMSTYLE1
100
AcDbAlignedDimension
 13
117.7360588845
 23
138.6263006089
 33
0.0
 14
117.7360588845
 24
146.6263006089
 34
0.0
 50
90.0
100
AcDbRotatedDimension
  0
DIMENSION
  5
1BF
330
1F
100
AcDbEntity
  8
0
  6
Continuous
 62
     7
370
    18
100
AcDbDimension
  2
_D_8
 10
55.1360588845
 20
40.9496303664
 30
0.0
 11
78.1795217153
 21
40.9496303664
 31
0.0
 70
   160
  1
%%c<>
 71
     2
 42
-1.0
  3
SLDDIMSTYLE2
100
AcDbAlignedDimension
 13
50.3360588845
 23
37.5017042788
 33
0.0
 14
55.1360588845
 24
37.5017042788
 34
0.0
100
AcDbRotatedDimension
  0
DIMENSION
  5
1CB
330
1F
100
AcDbEntity
  8
0
  6
Continuous
 62
     7
370
    18
100
AcDbDimension
  2
_D_9
 10
56.2360588845
 20
67.7449418832
 30
0.0
 11
62.276554732
 21
67.7449418832
 31
0.0
 70
   160
  1
<>
 71
     2
 42
-1.0
  3
SLDDIMSTYLE1
100
AcDbAlignedDimension
 13
49.2360588845
 23
73.8759260832
 33
0.0
 14
56.2360588845
 24
73.8759260832
 34
0.0
100
AcDbRotatedDimension
  0
DIMENSION
  5
1D6
330
1F
100
AcDbEntity
  8
0
  6
Continuous
 62
     7
370
    18
100
AcDbDimension
  2
_D_10
 10
258.2646426811
 20
175.0533423441
 30
0.0
 11
188.0003507828
 21
175.0533423441
 31
0.0
 70
   160
  1
L=100～10000
 71
     2
 42
-1.0
  3
SLDDIMSTYLE1
100
AcDbAlignedDimension
 13
117.7360588845
 23
146.6263006089
 33
0.0
 14
258.2646426811
 24
154.2534555404
 34
0.0
100
AcDbRotatedDimension
  0
DIMENSION
  5
1E0
330
1F
100
AcDbEntity
  8
0
  6
Continuous
 62
     7
370
    18
100
AcDbDimension
  2
_D_11
 10
258.2646426811
 20
158.8688579023
 30
0.0
 11
225.6752981723
 21
158.8688579023
 31
0.0
 70
   160
  1
(80)
 71
     2
 42
-1.0
  3
SLDDIMSTYLE1
100
AcDbAlignedDimension
 13
193.0859536635
 23
145.1263006089
 33
0.0
 14
258.2646426811
 24
154.2534555404
 34
0.0
100
AcDbRotatedDimension
  0
DIMENSION
  5
1EC
330
1F
100
AcDbEntity
  8
0
  6
Continuous
 62
     7
370
    18
100
AcDbDimension
  2
_D_12
 10
38.0716104578
 20
123.6263006089
 30
0.0
 11
38.0716104578
 21
115.6263006089
 31
0.0
 70
   160
  1
(<>)
 71
     2
 42
-1.0
  3
SLDDIMSTYLE1
100
AcDbAlignedDimension
 13
45.7360588845
 23
107.6263006089
 33
0.0
 14
47.7360588845
 24
123.6263006089
 34
0.0
 50
90.0
100
AcDbRotatedDimension
  0
DIMENSION
  5
1F8
330
1F
100
AcDbEntity
  8
0
  6
Continuous
 62
     7
370
    18
100
AcDbDimension
  2
_D_13
 10
59.7360588845
 20
97.812749737
 30
0.0
 11
38.0716104578
 21
97.812749737
 31
0.0
 70
   160
  1
%%c<>
 71
     2
 42
-1.0
  3
SLDDIMSTYLE1
100
AcDbAlignedDimension
 13
45.7360588845
 23
107.6263006089
 33
0.0
 14
59.7360588845
 24
107.6263006089
 34
0.0
100
AcDbRotatedDimension
  0
INSERT
  5
209
330
1F
100
AcDbEntity
  8
0
  6
Continuous
 62
     7
370
    18
100
AcDbBlockReference
  2
SW_NOTE_0_1
 10
67.9901531729
 20
29.5137977572
 30
0.0
  0
LEADER
  5
20B
330
1F
100
AcDbEntity
  8
0
  6
Continuous
 62
     7
370
    18
100
AcDbLeader
  3
SLDDIMSTYLE4
 76
     2
 10
55.1360588845
 20
37.5017042788
 30
0.0
 10
67.9901531729
 20
29.5137977572
 30
0.0
  0
INSERT
  5
211
330
1F
100
AcDbEntity
  8
0
  6
Continuous
 62
     7
370
    18
100
AcDbBlockReference
  2
SW_NOTE_0_2
 10
67.9901531729
 20
56.4284585887
 30
0.0
  0
LEADER
  5
212
330
1F
100
AcDbEntity
  8
0
  6
Continuous
 62
     7
370
    18
100
AcDbLeader
  3
SLDDIMSTYLE4
 76
     2
 10
55.1360588845
 20
62.7749672199
 30
0.0
 10
67.9901531729
 20
56.4284585887
 30
0.0
  0
INSERT
  5
218
330
1F
100
AcDbEntity
  8
0
  6
Continuous
 62
     7
370
    18
100
AcDbBlockReference
  2
SW_NOTE_0_3
 10
67.9901531729
 20
84.3278021336
 30
0.0
  0
LEADER
  5
219
330
1F
100
AcDbEntity
  8
0
  6
Continuous
 62
     7
370
    18
100
AcDbLeader
  3
SLDDIMSTYLE4
 76
     2
 10
55.8063058232
 20
92.3278941357
 30
0.0
 10
67.9901531729
 20
84.3278021336
 30
0.0
  0
INSERT
  5
21F
330
1F
100
AcDbEntity
  8
0
  6
Continuous
 62
     7
370
    18
100
AcDbBlockReference
  2
SW_NOTE_0_4
 10
67.9901531729
 20
107.4131413021
 30
0.0
  0
LEADER
  5
220
330
1F
100
AcDbEntity
  8
0
  6
Continuous
 62
     7
370
    18
100
AcDbLeader
  3
SLDDIMSTYLE4
 76
     2
 10
59.7360588845
 20
113.8530879411
 30
0.0
 10
67.9901531729
 20
107.4131413021
 30
0.0
  0
INSERT
  5
226
330
1F
100
AcDbEntity
  8
0
  6
Continuous
 62
     7
370
    18
100
AcDbBlockReference
  2
SW_NOTE_0_5
 10
84.510940919
 20
125.0280209519
 30
0.0
  0
LEADER
  5
227
330
1F
100
AcDbEntity
  8
0
  6
Continuous
 62
     7
370
    18
100
AcDbLeader
  3
SLDDIMSTYLE4
 76
     2
 10
80.0380327816
 20
140.1263006089
 30
0.0
 10
84.510940919
 20
125.0280209519
 30
0.0
  0
INSERT
  5
22D
330
1F
100
AcDbEntity
  8
0
  6
Continuous
 62
     7
370
    18
100
AcDbBlockReference
  2
SW_NOTE_0_6
 10
106.2833698031
 20
125.0280209519
 30
0.0
  0
LEADER
  5
22E
330
1F
100
AcDbEntity
  8
0
  6
Continuous
 62
     7
370
    18
100
AcDbLeader
  3
SLDDIMSTYLE4
 76
     2
 10
102.4545186011
 20
138.6263006089
 30
0.0
 10
106.2833698031
 20
125.0280209519
 30
0.0
  0
INSERT
  5
235
330
1F
100
AcDbEntity
  8
0
  6
Continuous
 62
     7
370
    18
100
AcDbBlockReference
  2
SW_NOTE_0_7
 10
122.3665207877
 20
125.0013373087
 30
0.0
  0
LEADER
  5
236
330
1F
100
AcDbEntity
  8
0
  6
Continuous
 62
     7
370
    18
100
AcDbLeader
  3
SLDDIMSTYLE4
 76
     2
 10
117.7360588845
 20
140.2539924755
 30
0.0
 10
122.3665207877
 20
125.0013373087
 30
0.0
  0
INSERT
  5
23C
330
1F
100
AcDbEntity
  8
0
  6
Continuous
 62
     7
370
    18
100
AcDbBlockReference
  2
SW_NOTE_0_8
 10
162.1914660832
 20
125.0280209519
 30
0.0
  0
LEADER
  5
23D
330
1F
100
AcDbEntity
  8
0
  6
Continuous
 62
     7
370
    18
100
AcDbLeader
  3
SLDDIMSTYLE4
 76
     2
 10
157.5448595648
 20
140.2263006089
 30
0.0
 10
162.1914660832
 20
125.0280209519
 30
0.0
  0
INSERT
  5
243
330
1F
100
AcDbEntity
  8
0
  6
Continuous
 62
     7
370
    18
100
AcDbBlockReference
  2
SW_NOTE_0_9
 10
194.795404814
 20
125.0280209519
 30
0.0
  0
LEADER
  5
244
330
1F
100
AcDbEntity
  8
0
  6
Continuous
 62
     7
370
    18
100
AcDbLeader
  3
SLDDIMSTYLE4
 76
     2
 10
191.0212029528
 20
140.1263006089
 30
0.0
 10
194.795404814
 20
125.0280209519
 30
0.0
  0
INSERT
  5
24A
330
1F
100
AcDbEntity
  8
0
  6
Continuous
 62
     7
370
    18
100
AcDbBlockReference
  2
SW_NOTE_0_10
 10
253.0299488198
 20
121.0892900986
 30
0.0
  0
LEADER
  5
24B
330
1F
100
AcDbEntity
  8
0
  6
Continuous
 62
     7
370
    18
100
AcDbLeader
  3
SLDDIMSTYLE4
 76
     2
 10
256.1062323631
 20
132.1992588738
 30
0.0
 10
253.0299488198
 20
121.0892900986
 30
0.0
  0
INSERT
  5
252
330
1F
100
AcDbEntity
  8
0
  6
Continuous
 62
     7
370
    18
100
AcDbBlockReference
  2
SW_NOTE_0_11
 10
106.7476672418
 20
74.3056282768
 30
0.0
  0
MTEXT
  5
253
330
1F
100
AcDbEntity
  8
0
  6
Continuous
 62
     7
370
    18
100
AcDbMText
 10
68.9754516315
 20
28.1605050205
 30
0.0
 40
2.6458333333
 41
0.0
 71
     1
 72
     1
  1
(ｱﾙｺﾞﾝ溶接)
  7
SLDTEXTSTYLE1
 73
     1
 44
1.0
  0
MTEXT
  5
254
330
1F
100
AcDbEntity
  8
0
  6
Continuous
 62
     7
370
    18
100
AcDbMText
 10
67.8730213512
 20
55.5644744217
 30
0.0
 40
2.6458333333
 41
0.0
 71
     1
 72
     1
  1
(SUS316)
  7
SLDTEXTSTYLE0
 73
     1
 44
1.0
  0
MTEXT
  5
255
330
1F
100
AcDbEntity
  8
0
  6
Continuous
 62
     7
370
    18
100
AcDbMText
 10
67.2875090931
 20
83.5470639171
 30
0.0
 40
2.6458333333
 41
0.0
 71
     1
 72
     1
  1
(SUS304)
  7
SLDTEXTSTYLE0
 73
     1
 44
1.0
  0
MTEXT
  5
256
330
1F
100
AcDbEntity
  8
0
  6
Continuous
 62
     7
370
    18
100
AcDbMText
 10
72.1553524453
 20
106.6898792122
 30
0.0
 40
2.6458333333
 41
0.0
 71
     1
 72
     1
  1
(SUS304)
  7
SLDTEXTSTYLE0
 73
     1
 44
1.0
  0
MTEXT
  5
257
330
1F
100
AcDbEntity
  8
0
  6
Continuous
 62
     7
370
    18
100
AcDbMText
 10
122.6010798787
 20
124.2469824152
 30
0.0
 40
2.6458333333
 41
0.0
 71
     1
 72
     1
  1
(耐熱温度120℃)
  7
SLDTEXTSTYLE1
 73
     1
 44
1.0
  0
MTEXT
  5
258
330
1F
100
AcDbEntity
  8
0
  6
Continuous
 62
     7
370
    18
100
AcDbMText
 10
161.657607981
 20
124.2469824152
 30
0.0
 40
2.6458333333
 41
0.0
 71
     1
 72
     1
  1
(補償導線)
  7
SLDTEXTSTYLE1
 73
     1
 44
1.0
  0
MTEXT
  5
259
330
1F
100
AcDbEntity
  8
0
  6
Continuous
 62
     7
370
    18
100
AcDbMText
 10
266.6793720236
 20
151.6835641036
 30
0.0
 40
2.6458333333
 41
0.0
 71
     1
 72
     1
  1
赤（+）
  7
SLDTEXTSTYLE1
 73
     1
 44
1.0
  0
MTEXT
  5
25A
330
1F
100
AcDbEntity
  8
0
  6
Continuous
 62
     7
370
    18
100
AcDbMText
 10
266.6793720236
 20
136.5766635545
 30
0.0
 40
2.6458333333
 41
0.0
 71
     1
 72
     1
  1
黒（-）
  7
SLDTEXTSTYLE1
 73
     1
 44
1.0
  0
INSERT
  5
260
330
1F
100
AcDbEntity
  8
0
  6
Continuous
 62
     7
370
    18
100
AcDbBlockReference
  2
SW_NOTE_0_12
 10
42.9749936
 20
152.8179553064
 30
0.0
  0
LEADER
  5
261
330
1F
100
AcDbEntity
  8
0
  6
Continuous
 62
     7
370
    18
100
AcDbLeader
  3
SLDDIMSTYLE4
 76
     2
 10
55.7035243015
 20
139.7356928009
 30
0.0
 10
42.9749936
 20
152.8179553064
 30
0.0
  0
MTEXT
  5
262
330
1F
100
AcDbEntity
  8
0
  6
Continuous
 62
     7
370
    18
100
AcDbMText
 10
35.4257770401
 20
152.015638044
 30
0.0
 40
2.6458333333
 41
0.0
 71
     1
 72
     1
  1
※2
  7
SLDTEXTSTYLE1
 73
     1
 44
1.0
  0
INSERT
  5
26E
330
1F
100
AcDbEntity
  8
0
  6
Continuous
 62
     7
370
    18
100
AcDbBlockReference
  2
SW_CENTERMARKSYMBOL_0
 10
258.264635869
 20
150.1533432963
 30
0.0
  0
INSERT
  5
27A
330
1F
100
AcDbEntity
  8
0
  6
Continuous
 62
     7
370
    18
100
AcDbBlockReference
  2
SW_CENTERMARKSYMBOL_1
 10
258.264635869
 20
135.0992589357
 30
0.0
  0
ARC
  5
27B
330
1F
100
AcDbEntity
  8
0
  6
HIDDEN
 62
     7
370
    18
100
AcDbCircle
 10
55.5235588845
 20
59.0052392293
 30
0.0
 40
7.247500000000035
100
AcDbArc
 50
247.380135052
 51
292.619864948
  0
ARC
  5
27C
330
1F
100
AcDbEntity
  8
0
  6
HIDDEN
 62
     7
370
    18
100
AcDbCircle
 10
49.9485588845
 20
45.6252392293
 30
0.0
 40
7.247500000000031
100
AcDbArc
 50
67.380135052
 51
112.619864948
  0
ARC
  5
27D
330
1F
100
AcDbEntity
  8
0
  6
HIDDEN
 62
     7
370
    18
100
AcDbCircle
 10
55.5235588845
 20
62.0052392293
 30
0.0
 40
7.247500000000035
100
AcDbArc
 50
247.380135052
 51
292.619864948
  0
ARC
  5
27E
330
1F
100
AcDbEntity
  8
0
  6
HIDDEN
 62
     7
370
    18
100
AcDbCircle
 10
49.9485588845
 20
48.6252392293
 30
0.0
 40
7.247500000000024
100
AcDbArc
 50
67.380135052
 51
112.619864948
  0
ARC
  5
27F
330
1F
100
AcDbEntity
  8
0
  6
HIDDEN
 62
     7
370
    18
100
AcDbCircle
 10
152.2856045534
 20
145.4138006089
 30
0.0
 40
7.247499999999969
100
AcDbArc
 50
157.380135052
 51
202.619864948
  0
ARC
  5
280
330
1F
100
AcDbEntity
  8
0
  6
HIDDEN
 62
     7
370
    18
100
AcDbCircle
 10
138.9056045534
 20
139.8388006089
 30
0.0
 40
7.247500000000033
100
AcDbArc
 50
337.380135052
 51
22.619864948
  0
ARC
  5
281
330
1F
100
AcDbEntity
  8
0
  6
HIDDEN
 62
     7
370
    18
100
AcDbCircle
 10
155.2856045534
 20
145.4138006089
 30
0.0
 40
7.247500000000023
100
AcDbArc
 50
157.380135052
 51
202.619864948
  0
ARC
  5
282
330
1F
100
AcDbEntity
  8
0
  6
HIDDEN
 62
     7
370
    18
100
AcDbCircle
 10
141.9056045534
 20
139.8388006089
 30
0.0
 40
7.247500000000007
100
AcDbArc
 50
337.380135052
 51
22.619864948
  0
ARC
  5
283
330
1F
100
AcDbEntity
  8
0
  6
HIDDEN
 62
     7
370
    18
100
AcDbCircle
 10
56.1213722322
 20
93.0970000442
 30
0.0
 40
7.765604901352178
100
AcDbArc
 50
247.380135052
 51
292.619864948
  0
ARC
  5
284
330
1F
100
AcDbEntity
  8
0
  6
HIDDEN
 62
     7
370
    18
100
AcDbCircle
 10
50.1478300004
 20
78.7604986879
 30
0.0
 40
7.765604901352204
100
AcDbArc
 50
67.380135052
 51
112.619864948
  0
ARC
  5
285
330
1F
100
AcDbEntity
  8
0
  6
HIDDEN
 62
     7
370
    18
100
AcDbCircle
 10
55.3281984558
 20
96.0876143949
 30
0.0
 40
7.755437114602628
100
AcDbArc
 50
247.380135052
 51
292.619864948
  0
ARC
  5
286
330
1F
100
AcDbEntity
  8
0
  6
HIDDEN
 62
     7
370
    18
100
AcDbCircle
 10
49.3624775984
 20
81.7698843372
 30
0.0
 40
7.755437114602654
100
AcDbArc
 50
67.380135052
 51
112.619864948
  0
ARC
  5
287
330
1F
100
AcDbEntity
  8
0
  6
HIDDEN
 62
     7
370
    18
100
AcDbCircle
 10
235.2493188477
 20
146.3531711288
 30
0.0
 40
9.689863351579692
100
AcDbArc
 50
157.380135052
 51
202.619864948
  0
ARC
  5
288
330
1F
100
AcDbEntity
  8
0
  6
HIDDEN
 62
     7
370
    18
100
AcDbCircle
 10
217.3603403525
 20
138.8994300891
 30
0.0
 40
9.689863351579682
100
AcDbArc
 50
337.380135052
 51
22.619864948
  0
ARC
  5
289
330
1F
100
AcDbEntity
  8
0
  6
HIDDEN
 62
     7
370
    18
100
AcDbCircle
 10
240.2903560086
 20
147.2036032791
 30
0.0
 40
11.9009869425206
100
AcDbArc
 50
157.380135052
 51
202.619864948
  0
ARC
  5
28A
330
1F
100
AcDbEntity
  8
0
  6
HIDDEN
 62
     7
370
    18
100
AcDbCircle
 10
218.3193031916
 20
138.0489979387
 30
0.0
 40
11.90098694252061
100
AcDbArc
 50
337.380135052
 51
22.619864948
  0
LINE
  5
28B
330
1F
100
AcDbEntity
  8
0
  6
CENTERX2
 62
     7
370
    18
100
AcDbLine
 10
52.7360660299
 20
32.4792846179
 30
0.0
 11
52.7360660299
 21
52.3152410126
 31
0.0
  0
LINE
  5
28C
330
1F
100
AcDbEntity
  8
0
  6
CENTERX2
 62
     7
370
    18
100
AcDbLine
 10
52.7360660299
 20
55.315239704
 30
0.0
 11
52.7360660299
 21
86.0820894011
 31
0.0
  0
LINE
  5
28D
330
1F
100
AcDbEntity
  8
0
  6
CENTERX2
 62
     7
370
    18
100
AcDbLine
 10
52.7360660299
 20
88.7781946292
 30
0.0
 11
52.7360660299
 21
132.6262994769
 31
0.0
  0
LINE
  5
28E
330
1F
100
AcDbEntity
  8
0
  6
CENTERX2
 62
     7
370
    18
100
AcDbLine
 10
62.7360564931
 20
142.626301116
 30
0.0
 11
145.5956024393
 21
142.626301116
 31
0.0
  0
LINE
  5
28F
330
1F
100
AcDbEntity
  8
0
  6
CENTERX2
 62
     7
370
    18
100
AcDbLine
 10
148.5956033205
 20
142.626301116
 30
0.0
 11
226.3048273956
 21
142.626301116
 31
0.0
  0
LINE
  5
290
330
1F
100
AcDbEntity
  8
0
  6
CENTERX2
 62
     7
370
    18
100
AcDbLine
 10
229.3048251352
 20
142.626301116
 30
0.0
 11
266.4951432428
 21
142.626301116
 31
0.0
  0
ARC
  5
291
330
1F
100
AcDbEntity
  8
0
  6
CENTERX2
 62
     7
370
    18
100
AcDbCircle
 10
62.7360456572
 20
132.6263214886
 30
0.0
 40
9.999979627390308
100
AcDbArc
 50
90.0000645377
 51
180.0001261183
  0
ENDSEC
  0
SECTION
  2
OBJECTS
  0
DICTIONARY
  5
C
330
0
100
AcDbDictionary
281
     1
  3
ACAD_GROUP
350
D
  3
ACAD_LAYOUT
350
1A
  3
ACAD_MLINESTYLE
350
17
  3
ACAD_PLOTSETTINGS
350
19
  3
ACAD_PLOTSTYLENAME
350
E
  3
ACAD_SCALELIST
350
47
  3
DWGPROPS
350
292
  0
DICTIONARY
  5
D
102
{ACAD_REACTORS
330
C
102
}
330
C
100
AcDbDictionary
281
     1
  0
DICTIONARY
  5
1A
102
{ACAD_REACTORS
330
C
102
}
330
C
100
AcDbDictionary
281
     1
  3
Layout1
350
1E
  3
Layout2
350
26
  3
Model
350
22
  0
DICTIONARY
  5
17
102
{ACAD_REACTORS
330
C
102
}
330
C
100
AcDbDictionary
281
     1
  3
Standard
350
18
  0
DICTIONARY
  5
19
102
{ACAD_REACTORS
330
C
102
}
330
C
100
AcDbDictionary
281
     1
  0
ACDBDICTIONARYWDFLT
  5
E
102
{ACAD_REACTORS
330
C
102
}
330
C
100
AcDbDictionary
281
     1
  3
Normal
350
F
100
AcDbDictionaryWithDefault
340
F
  0
DICTIONARY
  5
47
102
{ACAD_REACTORS
330
C
102
}
330
C
100
AcDbDictionary
281
     1
  3
A0
350
48
  3
A1
350
49
  3
A2
350
4A
  3
A3
350
4B
  3
A4
350
4C
  3
A5
350
4D
  3
A6
350
4E
  3
A7
350
4F
  3
A8
350
50
  3
A9
350
51
  3
B0
350
52
  3
B1
350
53
  3
B2
350
54
  3
B3
350
55
  3
B4
350
56
  3
B5
350
57
  3
B6
350
58
  3
B7
350
59
  3
B8
350
5A
  3
B9
350
5B
  3
C0
350
5C
  3
C1
350
5D
  3
C2
350
5E
  3
C3
350
5F
  3
C4
350
60
  3
C5
350
61
  3
C6
350
62
  3
C7
350
63
  3
C8
350
64
  3
C9
350
65
  3
D0
350
66
  3
D1
350
67
  3
D2
350
68
  0
XRECORD
  5
292
102
{ACAD_REACTORS
330
C
102
}
330
C
100
AcDbXrecord
280
     1
  1
DWGPROPS COOKIE
  2

  3

  4

  6

  7

  8
p870382
  9

300
=
301
=
302
=
303
=
304
=
305
=
306
=
307
=
308
=
309
=
 40
0.0
 41
2460340.301276875
 42
2460340.301280498
  1

 90
        0
  0
LAYOUT
  5
1E
102
{ACAD_REACTORS
330
1A
102
}
330
1A
100
AcDbPlotSettings
  1

  2
none_device
  4

  6

 40
0.0
 41
0.0
 42
0.0
 43
0.0
 44
0.0
 45
0.0
 46
0.0
 47
0.0
 48
0.0
 49
0.0
140
0.0
141
0.0
142
1.0
143
1.0
 70
   688
 72
     1
 73
     0
 74
     5
  7

 75
    16
147
1.0
148
0.0
149
0.0
100
AcDbLayout
  1
Layout1
 70
     1
 71
     1
 10
0.0
 20
0.0
 11
420.0
 21
297.0
 12
0.0
 22
0.0
 32
0.0
 14
1.0000000000E+20
 24
1.0000000000E+20
 34
1.0000000000E+20
 15
-1.0000000000E+20
 25
-1.0000000000E+20
 35
-1.0000000000E+20
146
0.0
 13
0.0
 23
0.0
 33
0.0
 16
1.0
 26
0.0
 36
0.0
 17
0.0
 27
1.0
 37
0.0
 76
     0
330
1B
  0
LAYOUT
  5
26
102
{ACAD_REACTORS
330
1A
102
}
330
1A
100
AcDbPlotSettings
  1

  2
none_device
  4

  6

 40
0.0
 41
0.0
 42
0.0
 43
0.0
 44
0.0
 45
0.0
 46
0.0
 47
0.0
 48
0.0
 49
0.0
140
0.0
141
0.0
142
1.0
143
1.0
 70
   688
 72
     1
 73
     0
 74
     5
  7

 75
    16
147
1.0
148
0.0
149
0.0
100
AcDbLayout
  1
Layout2
 70
     1
 71
     2
 10
0.0
 20
0.0
 11
0.0
 21
0.0
 12
0.0
 22
0.0
 32
0.0
 14
0.0
 24
0.0
 34
0.0
 15
0.0
 25
0.0
 35
0.0
146
0.0
 13
0.0
 23
0.0
 33
0.0
 16
1.0
 26
0.0
 36
0.0
 17
0.0
 27
1.0
 37
0.0
 76
     0
330
23
  0
LAYOUT
  5
22
102
{ACAD_REACTORS
330
1A
102
}
330
1A
100
AcDbPlotSettings
  1

  2
none_device
  4
Letter_(8.50_x_11.00_Inches)
  6

 40
6.35
 41
6.35
 42
6.35000508
 43
6.35000508
 44
215.9
 45
279.4
 46
0.0
 47
0.0
 48
0.0
 49
0.0
140
0.0
141
0.0
142
1.0
143
1.0
 70
  1712
 72
     1
 73
     0
 74
     0
  7

 75
     0
147
1.0
148
0.0
149
0.0
100
AcDbLayout
  1
Model
 70
     1
 71
     0
 10
0.0
 20
0.0
 11
297.0
 21
210.0
 12
0.0
 22
0.0
 32
0.0
 14
0.0
 24
0.0
 34
0.0
 15
297.0
 25
210.0
 35
0.0
146
0.0
 13
0.0
 23
0.0
 33
0.0
 16
1.0
 26
0.0
 36
0.0
 17
0.0
 27
1.0
 37
0.0
 76
     0
330
1F
331
29
  0
MLINESTYLE
  5
18
102
{ACAD_REACTORS
330
17
102
}
330
17
100
AcDbMlineStyle
  2
Standard
 70
     0
  3

 62
   256
 51
90.0
 52
90.0
 71
     2
 49
0.5
 62
   256
  6
BYLAYER
 49
-0.5
 62
   256
  6
BYLAYER
  0
ACDBPLACEHOLDER
  5
F
102
{ACAD_REACTORS
330
E
102
}
330
E
  0
SCALE
  5
48
102
{ACAD_REACTORS
330
47
102
}
330
47
100
AcDbScale
 70
     0
300
1:1
140
1.0
141
1.0
290
     1
  0
SCALE
  5
49
102
{ACAD_REACTORS
330
47
102
}
330
47
100
AcDbScale
 70
     0
300
1:2
140
1.0
141
2.0
290
     0
  0
SCALE
  5
4A
102
{ACAD_REACTORS
330
47
102
}
330
47
100
AcDbScale
 70
     0
300
1:4
140
1.0
141
4.0
290
     0
  0
SCALE
  5
4B
102
{ACAD_REACTORS
330
47
102
}
330
47
100
AcDbScale
 70
     0
300
1:5
140
1.0
141
5.0
290
     0
  0
SCALE
  5
4C
102
{ACAD_REACTORS
330
47
102
}
330
47
100
AcDbScale
 70
     0
300
1:8
140
1.0
141
8.0
290
     0
  0
SCALE
  5
4D
102
{ACAD_REACTORS
330
47
102
}
330
47
100
AcDbScale
 70
     0
300
1:10
140
1.0
141
10.0
290
     0
  0
SCALE
  5
4E
102
{ACAD_REACTORS
330
47
102
}
330
47
100
AcDbScale
 70
     0
300
1:16
140
1.0
141
16.0
290
     0
  0
SCALE
  5
4F
102
{ACAD_REACTORS
330
47
102
}
330
47
100
AcDbScale
 70
     0
300
1:20
140
1.0
141
20.0
290
     0
  0
SCALE
  5
50
102
{ACAD_REACTORS
330
47
102
}
330
47
100
AcDbScale
 70
     0
300
1:30
140
1.0
141
30.0
290
     0
  0
SCALE
  5
51
102
{ACAD_REACTORS
330
47
102
}
330
47
100
AcDbScale
 70
     0
300
1:40
140
1.0
141
40.0
290
     0
  0
SCALE
  5
52
102
{ACAD_REACTORS
330
47
102
}
330
47
100
AcDbScale
 70
     0
300
1:50
140
1.0
141
50.0
290
     0
  0
SCALE
  5
53
102
{ACAD_REACTORS
330
47
102
}
330
47
100
AcDbScale
 70
     0
300
1:100
140
1.0
141
100.0
290
     0
  0
SCALE
  5
54
102
{ACAD_REACTORS
330
47
102
}
330
47
100
AcDbScale
 70
     0
300
2:1
140
2.0
141
1.0
290
     0
  0
SCALE
  5
55
102
{ACAD_REACTORS
330
47
102
}
330
47
100
AcDbScale
 70
     0
300
4:1
140
4.0
141
1.0
290
     0
  0
SCALE
  5
56
102
{ACAD_REACTORS
330
47
102
}
330
47
100
AcDbScale
 70
     0
300
8:1
140
8.0
141
1.0
290
     0
  0
SCALE
  5
57
102
{ACAD_REACTORS
330
47
102
}
330
47
100
AcDbScale
 70
     0
300
10:1
140
10.0
141
1.0
290
     0
  0
SCALE
  5
58
102
{ACAD_REACTORS
330
47
102
}
330
47
100
AcDbScale
 70
     0
300
100:1
140
100.0
141
1.0
290
     0
  0
SCALE
  5
59
102
{ACAD_REACTORS
330
47
102
}
330
47
100
AcDbScale
 70
     0
300
1/128" = 1'-0"
140
0.0078125
141
12.0
290
     0
  0
SCALE
  5
5A
102
{ACAD_REACTORS
330
47
102
}
330
47
100
AcDbScale
 70
     0
300
1/64" = 1'-0"
140
0.015625
141
12.0
290
     0
  0
SCALE
  5
5B
102
{ACAD_REACTORS
330
47
102
}
330
47
100
AcDbScale
 70
     0
300
1/32" = 1'-0"
140
0.03125
141
12.0
290
     0
  0
SCALE
  5
5C
102
{ACAD_REACTORS
330
47
102
}
330
47
100
AcDbScale
 70
     0
300
1/16" = 1'-0"
140
0.0625
141
12.0
290
     0
  0
SCALE
  5
5D
102
{ACAD_REACTORS
330
47
102
}
330
47
100
AcDbScale
 70
     0
300
3/32" = 1'-0"
140
0.09375
141
12.0
290
     0
  0
SCALE
  5
5E
102
{ACAD_REACTORS
330
47
102
}
330
47
100
AcDbScale
 70
     0
300
1/8" = 1'-0"
140
0.125
141
12.0
290
     0
  0
SCALE
  5
5F
102
{ACAD_REACTORS
330
47
102
}
330
47
100
AcDbScale
 70
     0
300
3/16" = 1'-0"
140
0.1875
141
12.0
290
     0
  0
SCALE
  5
60
102
{ACAD_REACTORS
330
47
102
}
330
47
100
AcDbScale
 70
     0
300
1/4" = 1'-0"
140
0.25
141
12.0
290
     0
  0
SCALE
  5
61
102
{ACAD_REACTORS
330
47
102
}
330
47
100
AcDbScale
 70
     0
300
3/8" = 1'-0"
140
0.375
141
12.0
290
     0
  0
SCALE
  5
62
102
{ACAD_REACTORS
330
47
102
}
330
47
100
AcDbScale
 70
     0
300
1/2" = 1'-0"
140
0.5
141
12.0
290
     0
  0
SCALE
  5
63
102
{ACAD_REACTORS
330
47
102
}
330
47
100
AcDbScale
 70
     0
300
3/4" = 1'-0"
140
0.75
141
12.0
290
     0
  0
SCALE
  5
64
102
{ACAD_REACTORS
330
47
102
}
330
47
100
AcDbScale
 70
     0
300
1" = 1'-0"
140
1.0
141
12.0
290
     0
  0
SCALE
  5
65
102
{ACAD_REACTORS
330
47
102
}
330
47
100
AcDbScale
 70
     0
300
1-1/2" = 1'-0"
140
1.5
141
12.0
290
     0
  0
SCALE
  5
66
102
{ACAD_REACTORS
330
47
102
}
330
47
100
AcDbScale
 70
     0
300
3" = 1'-0"
140
3.0
141
12.0
290
     0
  0
SCALE
  5
67
102
{ACAD_REACTORS
330
47
102
}
330
47
100
AcDbScale
 70
     0
300
6" = 1'-0"
140
6.0
141
12.0
290
     0
  0
SCALE
  5
68
102
{ACAD_REACTORS
330
47
102
}
330
47
100
AcDbScale
 70
     0
300
1'-0" = 1'-0"
140
12.0
141
12.0
290
     0
  0
ENDSEC
  0
EOF
